osu file format v14

[General]
AudioFilename: audio.mp3
AudioLeadIn: 0
PreviewTime: 60784
Countdown: 0
SampleSet: Soft
StackLeniency: 0.5
Mode: 0
LetterboxInBreaks: 0
WidescreenStoryboard: 1

[Editor]
DistanceSpacing: 1.3
BeatDivisor: 4
GridSize: 8
TimelineZoom: 1.7

[Metadata]
Title:Butterfly Core (TV Size)
TitleUnicode:Butterfly Core (TV Size)
Artist:VALSHE
ArtistUnicode:VALSHE
Creator:Smoke
Version:Insane
Source:名探偵コナン
Tags:op opening 37 japanese anime case closed rock jrock j-rock detective mystery Shinichi Kudo 工藤新一 Conan Edogawa 江戸川 コナン Kogoro Mouri 毛利 小五郎 Yusaku Kudo 工藤 優作 Yukiko Kudo 工藤 有希子 Eri Kisaki 妃 英理 Heiji Hattori 服部 平次 Kaitou Kid 怪盗キッド Shuichi Akai 赤井 秀一 Sharon Vineyard シャロン・ヴィンヤード Vermouth ベルモット Ai Haibara 灰原 哀 Shiho Miyano 宮野 志保
BeatmapID:2252197
BeatmapSetID:1076376

[Difficulty]
HPDrainRate:5.8
CircleSize:4
OverallDifficulty:7.8
ApproachRate:8.8
SliderMultiplier:1.6
SliderTickRate:1

[Events]
//Background and Video events
0,0,"detective conan wallpaper blacksuits.jpg",0,0
Video,-600,"vid.mp4"
//Break Periods
//Storyboard Layer 0 (Background)
//Storyboard Layer 1 (Fail)
//Storyboard Layer 2 (Pass)
//Storyboard Layer 3 (Foreground)
//Storyboard Layer 4 (Overlay)
//Storyboard Sound Samples

[TimingPoints]
521,350.877192982456,4,2,1,50,1,0
521,-125,4,2,1,50,0,0
12450,-111.111111111111,4,2,1,65,0,0
13152,-142.857142857143,4,2,1,70,0,0
13503,-76.9230769230769,4,2,1,70,0,0
13854,-100,4,2,1,70,0,0
15082,-125,4,2,1,70,0,0
15433,-83.3333333333333,4,2,1,70,0,0
15959,-142.857142857143,4,2,1,70,0,0
16310,-76.9230769230769,4,2,1,70,0,0
16661,-100,4,2,1,70,0,0
18415,-83.3333333333333,4,2,1,70,0,0
18766,-142.857142857143,4,2,1,70,0,0
19117,-76.9230769230769,4,2,1,70,0,0
19468,-100,4,2,1,70,0,0
20696,-125,4,2,1,70,0,0
21047,-83.3333333333333,4,2,1,70,0,0
21573,-142.857142857143,4,2,1,70,0,0
21924,-76.9230769230769,4,2,1,70,0,0
22275,-100,4,2,1,70,0,0
24029,-83.3333333333333,4,2,1,70,0,0
24380,-111.111111111111,4,2,1,60,0,0
25608,-99.9999999999999,4,2,1,65,0,0
26661,-83.3333333333333,4,2,1,65,0,0
27187,-125,4,2,1,55,0,0
36836,-111.111111111111,4,2,1,60,0,0
38240,-99.9999999999999,4,2,1,65,0,0
49643,-125,4,2,1,65,0,0
58064,-90.9090909090909,4,2,1,65,0,0
59292,-86.9565217391304,4,2,1,65,0,0
60784,-86.9565217391304,4,2,1,5,0,0
60871,-80,4,2,1,80,0,1
84731,-86.9565217391304,4,2,1,65,0,0
86135,-142.857142857143,4,2,1,70,0,0
86485,-76.9230769230769,4,2,1,70,0,0
86836,-100,4,2,1,70,0,0
88064,-125,4,2,1,70,0,0
88416,-83.3333333333333,4,2,1,70,0,0
88942,-142.857142857143,4,2,1,70,0,0
89292,-76.9230769230769,4,2,1,70,0,0
89643,-100,4,2,1,70,0,0
91398,-83.3333333333333,4,2,1,70,0,0
91749,-142.857142857143,4,2,1,70,0,0
92099,-76.9230769230769,4,2,1,70,0,0
92450,-100,4,2,1,70,0,0
93678,-125,4,2,1,70,0,0
94030,-83.3333333333333,4,2,1,70,0,0
94556,-142.857142857143,4,2,1,70,0,0
94906,-76.9230769230769,4,2,1,70,0,0
95257,-100,4,2,1,70,0,0
96119,350.877192982456,4,2,1,50,1,0
96119,-100,4,2,1,70,0,0
96996,-83.3333333333333,4,2,1,70,0,0
97349,350.877192982456,4,2,1,50,1,0
97349,-142.857142857143,4,2,1,70,0,0
97699,-76.9230769230769,4,2,1,70,0,0
98050,-100,4,2,1,70,0,0
99278,-125,4,2,1,70,0,0
99629,-100,4,2,1,70,0,0
100156,-142.857142857143,4,2,1,70,0,0
100506,-76.9230769230769,4,2,1,70,0,0
100857,-100,4,2,1,70,0,0
102085,-83.3333333333333,4,2,1,70,0,0
102436,-100,4,2,1,70,0,0
102963,-142.857142857143,4,2,1,70,0,0
103313,-76.9230769230769,4,2,1,70,0,0
103664,-100,4,2,1,70,0,0
104892,-125,4,2,1,70,0,0
105243,-100,4,2,1,70,0,0
105770,-142.857142857143,4,2,1,70,0,0
106120,-76.9230769230769,4,2,1,70,0,0
106471,-100,4,2,1,70,0,0
107699,-83.3333333333333,4,2,1,70,0,0
108050,-100,4,2,1,70,0,0

[Colours]
Combo1 : 202,162,100
Combo2 : 162,162,162
Combo3 : 115,115,115
Combo4 : 225,201,104

[HitObjects]
78,134,521,6,0,L|167:145,1,64,2|2,0:0|0:0,0:0:0:0:
132,239,871,2,0,L|61:231,1,64,2|2,0:0|0:0,0:0:0:0:
154,342,1222,2,0,L|15:327,2,128,2|2|2,0:0|0:0|0:0,0:0:0:0:
262,361,2099,1,2,0:0:0:0:
262,361,2275,2,0,L|342:348,1,64,2|0,0:0|0:0,0:0:0:0:
342,250,2626,2,0,L|194:272,1,128,2|0,0:0|0:0,0:0:0:0:
350,167,3152,6,0,P|415:207|419:276,1,128,2|0,0:0|0:0,0:0:0:0:
337,312,3678,2,0,P|335:277|351:231,1,64,2|2,0:0|0:0,0:0:0:0:
439,190,4029,2,0,P|441:155|425:109,1,64,2|2,0:0|0:0,0:0:0:0:
364,36,4380,1,2,0:0:0:0:
364,36,4556,2,0,L|281:45,1,64,2|0,0:0|0:0,0:0:0:0:
215,99,4906,1,2,0:0:0:0:
215,99,5082,1,2,0:0:0:0:
118,64,5257,2,0,L|36:74,1,64,2|0,0:0|0:0,0:0:0:0:
7,190,5608,1,2,0:0:0:0:
97,249,5784,1,2,0:0:0:0:
199,207,5959,38,0,P|146:199|95:255,1,128,2|2,0:0|0:0,0:0:0:0:
155,341,6485,1,2,0:0:0:0:
155,341,6661,2,0,P|183:328|227:315,1,64,2|0,0:0|0:0,0:0:0:0:
378,355,7012,1,2,0:0:0:0:
481,310,7187,1,2,0:0:0:0:
378,355,7363,2,0,P|372:317|358:272,1,64,2|0,0:0|0:0,0:0:0:0:
448,170,7713,2,0,P|438:204|432:234,1,64,2|0,0:0|0:0,0:0:0:0:
316,114,8064,2,0,P|350:106|397:127,1,64,2|0,0:0|0:0,0:0:0:0:
250,214,8415,1,2,0:0:0:0:
250,214,8591,1,2,0:0:0:0:
187,117,8766,1,2,0:0:0:0:
79,134,8942,6,0,P|36:310|188:272,1,384,2|0,0:0|0:0,0:0:0:0:
105,238,10170,1,0,3:2:0:0:
105,238,10257,1,0,3:2:0:0:
105,238,10345,1,8,3:2:0:0:
512,145,12450,37,0,3:2:0:0:
455,287,12626,1,8,3:2:0:0:
331,191,12801,1,8,3:2:0:0:
300,170,12888,1,8,3:2:0:0:
265,164,12976,1,8,3:2:0:0:
230,173,13064,1,8,3:2:0:0:
201,195,13152,38,0,L|216:264,1,55.9999982910157,12|0,3:2|0:0,0:0:0:0:
157,6,13503,38,0,L|180:111,1,103.999995239258,10|0,3:2|0:0,0:0:0:0:
103,209,13854,1,2,3:2:0:0:
103,209,14029,2,0,P|67:191|15:190,1,80,2|8,3:2|3:2,0:0:0:0:
136,360,14380,2,0,P|144:316|158:272,1,80,2|0,3:2|0:0,0:0:0:0:
9,110,14731,2,0,P|20:148|27:187,1,80,2|8,3:2|3:2,0:0:0:0:
154,282,15082,2,0,B|199:271|199:271|231:285|231:285|282:274,1,128,2|0,3:2|3:2,0:0:0:0:
191,362,15608,1,10,3:2:0:0:
241,196,15784,1,8,3:2:0:0:
241,196,15871,1,8,3:2:0:0:
241,196,15959,6,0,L|310:181,1,55.9999982910157,0|0,3:2|0:0,0:0:0:0:
51,239,16310,38,0,L|156:216,1,103.999995239258,10|0,3:2|0:0,0:0:0:0:
170,76,16661,1,2,3:2:0:0:
170,76,16836,2,0,P|213:95|255:99,1,80,2|8,3:2|3:2,0:0:0:0:
385,0,17187,2,0,P|347:28|330:75,1,80,2|0,3:2|0:0,0:0:0:0:
449,168,17538,2,0,P|487:140|504:93,1,80,2|8,3:2|3:2,0:0:0:0:
341,177,17889,1,2,3:2:0:0:
341,177,17977,1,0,3:2:0:0:
341,177,18064,1,8,3:2:0:0:
419,271,18240,1,0,3:2:0:0:
316,384,18415,2,0,P|265:370|198:359,1,95.9999970703126,10|0,3:2|3:2,0:0:0:0:
74,298,18766,6,0,L|59:367,1,55.9999982910157,0|0,3:2|0:0,0:0:0:0:
117,112,19117,38,0,L|94:217,1,103.999995239258,10|0,3:2|0:0,0:0:0:0:
0,23,19468,1,2,3:2:0:0:
0,23,19643,2,0,P|40:42|90:29,1,80,2|8,3:2|3:2,0:0:0:0:
245,0,19994,2,0,P|231:41|224:80,1,80,2|0,3:2|0:0,0:0:0:0:
376,184,20345,2,0,P|368:144|355:107,1,80,2|8,3:2|3:2,0:0:0:0:
175,244,20696,2,0,B|220:233|220:233|252:247|252:247|303:236,1,128,2|0,3:2|3:2,0:0:0:0:
156,155,21222,1,10,3:2:0:0:
200,338,21398,1,8,3:2:0:0:
200,338,21485,1,8,3:2:0:0:
200,338,21573,6,0,L|131:323,1,55.9999982910157,0|0,3:2|0:0,0:0:0:0:
386,381,21924,38,0,L|281:358,1,103.999995239258,10|0,3:2|0:0,0:0:0:0:
461,243,22275,1,2,3:2:0:0:
461,243,22450,2,0,B|438:282|438:282|443:333,1,80,2|8,3:2|3:2,0:0:0:0:
316,156,22801,2,0,P|363:180|404:177,1,80,2|0,3:2|0:0,0:0:0:0:
503,68,23152,2,0,P|483:103|468:152,1,80,2|8,3:2|3:2,0:0:0:0:
308,34,23503,1,2,3:2:0:0:
308,34,23591,1,0,3:2:0:0:
308,34,23678,2,0,P|281:44|250:47,1,40,8|8,3:2|3:2,0:0:0:0:
184,91,23854,2,0,P|157:81|126:78,1,40,8|8,3:2|3:2,0:0:0:0:
35,12,24029,2,0,P|62:60|48:116,1,95.9999970703126,10|8,3:2|3:2,0:0:0:0:
6,226,24380,21,0,3:2:0:0:
95,199,24556,1,0,0:0:0:0:
164,261,24731,2,0,L|148:347,1,71.9999978027344,0|0,3:2|0:0,0:0:0:0:
250,226,25082,1,0,3:2:0:0:
250,226,25257,1,0,3:2:0:0:
340,285,25433,1,0,3:2:0:0:
475,211,25608,6,0,L|445:48,1,160,4|0,3:2|3:2,0:0:0:0:
439,13,26047,1,0,3:2:0:0:
439,13,26135,1,8,3:2:0:0:
286,119,26310,2,0,L|203:107,1,80,2|0,3:2|0:0,0:0:0:0:
319,225,26661,6,0,B|284:205|284:205|237:199|237:199|231:203|231:203|234:194|234:194|228:197|228:197|181:190|181:190|135:199,1,191.999994140625,2|0,3:2|0:0,0:0:0:0:
56,236,27187,22,0,P|56:205|38:167,1,64,0|0,3:2|0:0,0:0:0:0:
3,87,27538,1,2,3:2:0:0:
3,87,27713,1,2,0:0:0:0:
84,36,27889,2,0,P|116:47|154:55,1,64,2|2,3:2|0:0,0:0:0:0:
231,96,28240,2,0,P|263:85|301:77,1,64,2|0,3:2|0:0,0:0:0:0:
477,109,28591,1,2,3:2:0:0:
477,109,28766,1,2,0:0:0:0:
378,61,28942,1,2,3:2:0:0:
492,117,29117,2,0,P|474:152|462:190,1,64,2|0,0:0|3:2,0:0:0:0:
379,265,29468,2,0,P|439:262|490:309,1,128,2|0,0:0|3:2,0:0:0:0:
476,354,29906,1,0,3:2:0:0:
476,354,29994,6,0,P|440:348|411:348,1,64,0|0,3:2|0:0,0:0:0:0:
313,376,30345,1,2,3:2:0:0:
224,325,30520,1,2,0:0:0:0:
127,361,30696,1,2,3:2:0:0:
127,361,30871,1,2,0:0:0:0:
36,311,31047,1,2,3:2:0:0:
57,211,31222,2,0,L|72:144,1,64,2|0,0:0|3:2,0:0:0:0:
94,48,31573,1,2,0:0:0:0:
177,107,31749,1,2,3:2:0:0:
274,75,31924,2,0,L|288:-1,1,64,2|0,0:0|3:2,0:0:0:0:
412,136,32275,1,2,0:0:0:0:
412,136,32363,1,0,3:2:0:0:
412,136,32450,2,0,L|348:145,1,64,0|0,3:2|3:2,0:0:0:0:
460,277,32801,38,0,P|466:245|476:215,1,64,0|0,3:2|0:0,0:0:0:0:
339,320,33152,1,2,3:2:0:0:
252,265,33328,1,2,0:0:0:0:
156,302,33503,1,2,3:2:0:0:
72,243,33678,1,2,0:0:0:0:
154,315,33854,2,0,L|145:385,1,64,2|2,3:2|0:0,0:0:0:0:
174,200,34205,1,2,3:2:0:0:
174,200,34380,2,0,L|187:117,1,64,2|2,0:0|3:2,0:0:0:0:
31,149,34731,2,0,P|60:166|107:166,1,64,2|0,0:0|3:2,0:0:0:0:
186,48,35082,2,0,P|154:52|127:68,1,64,2|0,0:0|3:2,0:0:0:0:
274,181,35433,1,0,3:2:0:0:
274,181,35520,1,0,3:2:0:0:
274,181,35608,6,0,L|352:167,1,64,0|0,3:2|0:0,0:0:0:0:
123,209,35959,2,0,L|199:195,1,64,2|2,3:2|0:0,0:0:0:0:
326,273,36310,1,2,3:2:0:0:
423,208,36485,1,2,0:0:0:0:
313,284,36661,1,10,3:2:0:0:
495,364,36836,6,0,P|504:319|516:280,1,71.9999978027344,2|0,3:2|0:0,0:0:0:0:
406,137,37187,2,0,P|415:171|422:207,1,71.9999978027344,2|0,3:2|0:0,0:0:0:0:
480,77,37538,2,0,P|420:40|351:55,1,143.999995605469,2|2,3:2|3:2,0:0:0:0:
321,87,37977,1,0,3:2:0:0:
321,87,38064,1,0,3:2:0:0:
173,22,38240,6,0,P|198:94|218:180,1,160,6|0,3:2|3:2,0:0:0:0:
119,259,38766,1,10,3:2:0:0:
119,259,38942,1,2,0:0:0:0:
3,203,39117,1,2,3:2:0:0:
3,203,39293,1,2,3:2:0:0:
119,259,39468,1,10,3:2:0:0:
217,175,39643,1,2,0:0:0:0:
335,225,39819,2,0,L|422:206,1,80,2|2,3:2|3:2,0:0:0:0:
490,113,40170,1,10,3:2:0:0:
490,113,40345,2,0,P|443:178|479:269,1,160,2|2,3:2|3:2,0:0:0:0:
392,350,40871,1,8,3:2:0:0:
283,297,41047,1,2,0:0:0:0:
267,301,41135,1,2,0:0:0:0:
251,305,41223,38,0,L|159:323,1,80,0|0,3:2|0:0,0:0:0:0:
86,237,41573,1,10,3:2:0:0:
86,237,41749,1,2,0:0:0:0:
114,120,41924,1,2,3:2:0:0:
114,120,42099,1,2,3:2:0:0:
30,32,42275,1,10,3:2:0:0:
114,120,42450,1,2,0:0:0:0:
230,87,42626,2,0,L|320:104,1,80,2|2,3:2|3:2,0:0:0:0:
209,0,42977,1,10,3:2:0:0:
209,0,43152,2,0,L|373:31,1,160,2|2,3:2|3:2,0:0:0:0:
484,53,43678,1,8,3:2:0:0:
409,147,43854,1,2,0:0:0:0:
413,163,43942,1,2,0:0:0:0:
417,179,44030,6,0,L|435:271,1,80,4|0,3:2|0:0,0:0:0:0:
342,336,44380,1,10,3:2:0:0:
242,268,44556,1,2,0:0:0:0:
131,313,44731,1,2,3:2:0:0:
242,268,44906,1,2,3:2:0:0:
257,148,45082,2,0,L|269:63,1,80,10|0,3:2|0:0,0:0:0:0:
148,195,45433,1,2,3:2:0:0:
148,195,45608,1,2,3:2:0:0:
12,83,45784,1,10,3:2:0:0:
12,83,45959,2,0,L|34:252,1,160,2|2,3:2|3:2,0:0:0:0:
50,368,46485,1,8,3:2:0:0:
183,313,46661,1,2,0:0:0:0:
199,317,46749,1,2,0:0:0:0:
215,321,46837,38,0,L|307:339,1,80,4|0,3:2|3:2,0:0:0:0:
465,199,47187,1,10,3:2:0:0:
465,199,47363,1,2,3:2:0:0:
326,246,47538,1,10,3:2:0:0:
210,106,47713,1,2,3:2:0:0:
210,106,47801,1,0,3:2:0:0:
210,106,47889,1,10,3:2:0:0:
326,246,48064,6,0,P|345:165|372:83,1,160,6|10,3:2|3:2,0:0:0:0:
385,55,48503,1,8,3:2:0:0:
385,55,48591,1,8,3:2:0:0:
310,127,48766,1,10,3:2:0:0:
189,121,48942,1,8,3:2:0:0:
91,15,49117,37,10,3:0:0:0:
89,39,49292,1,10,3:0:0:0:
87,63,49468,1,10,3:0:0:0:
15,152,49643,22,0,L|35:229,1,64,4|0,3:2|3:2,0:0:0:0:
168,251,49994,2,0,P|140:237|91:236,1,64,2|0,0:0|3:2,0:0:0:0:
157,384,50345,2,0,L|179:242,1,128,10|2,3:2|3:2,0:0:0:0:
265,206,50871,2,0,P|299:220|336:230,1,64,2|0,3:2|0:0,0:0:0:0:
402,160,51222,1,10,3:2:0:0:
402,160,51398,2,0,P|397:123|387:86,1,64,2|2,3:2|3:2,0:0:0:0:
502,144,51749,1,8,3:2:0:0:
505,42,51924,1,0,3:2:0:0:
505,42,52099,2,0,P|472:39|426:19,1,64,2|8,0:0|3:2,0:0:0:0:
401,11,52363,1,8,3:2:0:0:
401,11,52450,6,0,L|313:22,1,64,4|0,3:2|3:2,0:0:0:0:
239,79,52801,1,2,0:0:0:0:
239,79,52977,2,0,L|159:68,1,64,0|8,3:2|3:2,0:0:0:0:
61,54,53328,2,0,P|76:88|82:124,1,64,2|0,0:0|3:2,0:0:0:0:
42,222,53678,2,0,P|68:207|115:214,1,64,2|0,3:2|0:0,0:0:0:0:
204,175,54029,1,10,3:2:0:0:
204,175,54205,2,0,P|188:215|180:258,1,64,2|0,3:2|3:2,0:0:0:0:
297,215,54556,1,8,3:2:0:0:
243,49,54731,1,0,3:2:0:0:
379,142,54906,1,10,3:2:0:0:
408,157,54993,1,8,3:2:0:0:
439,159,55081,1,8,3:2:0:0:
469,147,55169,1,8,3:2:0:0:
491,125,55257,6,0,L|484:51,1,64,6|0,3:2|0:0,0:0:0:0:
294,133,55608,1,10,3:2:0:0:
359,235,55784,1,2,0:0:0:0:
359,235,55871,1,0,3:2:0:0:
359,235,55959,1,2,3:2:0:0:
308,346,56135,1,0,3:2:0:0:
187,358,56310,2,0,L|108:342,1,64,8|2,3:2|0:0,0:0:0:0:
26,272,56661,6,0,P|38:308|46:350,1,64,2|0,3:2|3:2,0:0:0:0:
158,213,57012,1,10,3:2:0:0:
158,213,57187,2,0,P|122:225|85:215,1,64,2|0,0:0|3:2,0:0:0:0:
66,192,57450,1,0,3:0:0:0:
66,192,57538,1,0,3:2:0:0:
209,70,57713,2,0,P|199:102|192:138,1,64,14|0,3:2|3:2,0:0:0:0:
231,167,57977,1,0,3:2:0:0:
231,167,58064,38,0,L|335:152,1,88.000002685547,14|0,3:2|3:2,0:0:0:0:
478,133,58415,1,2,3:2:0:0:
334,11,58591,2,0,P|374:52|388:97,1,88.000002685547,10|0,3:2|3:2,0:0:0:0:
405,206,58942,1,2,3:2:0:0:
327,321,59117,1,8,3:2:0:0:
160,286,59292,6,0,B|97:297|97:297|61:341|61:341|-7:357,1,184.000003509522,6|2,3:2|3:2,0:0:0:0:
0,146,59819,1,2,3:2:0:0:
223,225,59994,1,2,3:2:0:0:
160,286,60345,5,0,3:2:0:0:
160,286,60433,1,0,3:2:0:0:
160,286,60520,2,0,L|181:141,1,138.000002632141,12|0,3:2|0:0,0:0:0:0:
189,101,60871,21,2,3:2:0:0:
296,180,61047,1,2,0:0:0:0:
442,79,61222,1,10,3:2:0:0:
309,173,61398,1,2,0:0:0:0:
479,293,61573,2,0,P|438:267|380:271,1,100,2|0,3:2|3:2,0:0:0:0:
247,347,61924,1,10,3:2:0:0:
160,270,62099,1,2,0:0:0:0:
0,340,62275,1,2,3:2:0:0:
89,226,62450,1,2,3:2:0:0:
10,99,62626,2,0,P|58:118|106:113,1,100,10|0,3:2|0:0,0:0:0:0:
227,14,62977,2,0,B|203:59|203:59|215:108,1,100,2|0,3:2|3:2,0:0:0:0:
400,203,63328,1,10,3:2:0:0:
316,76,63503,6,0,L|279:290,1,200,6|0,0:0|0:0,0:0:0:0:
450,364,64029,1,10,0:0:0:0:
502,260,64205,1,2,0:0:0:0:
434,122,64380,1,2,3:2:0:0:
494,19,64556,1,2,3:2:0:0:
427,135,64731,1,10,3:2:0:0:
280,66,64906,38,0,P|231:56|170:89,1,100,6|0,3:2|0:0,0:0:0:0:
48,213,65257,1,2,3:2:0:0:
129,287,65433,1,10,3:2:0:0:
229,243,65608,2,0,L|242:127,1,100,2|8,3:2|3:0,0:0:0:0:
149,14,65959,2,0,P|139:40|134:67,1,50,10|8,3:2|3:2,0:0:0:0:
47,85,66135,2,0,P|60:108|78:130,1,50,10|8,3:2|3:2,0:0:0:0:
48,213,66310,1,10,3:2:0:0:
48,213,66398,1,8,3:2:0:0:
48,213,66485,6,0,P|67:267|78:314,1,100,0|2,3:2|0:0,0:0:0:0:
221,207,66836,1,10,3:2:0:0:
221,207,67012,2,0,P|182:181|129:193,1,100,2|0,0:0|3:2,0:0:0:0:
266,294,67363,1,2,3:2:0:0:
396,226,67538,1,10,3:2:0:0:
474,278,67713,2,0,L|465:383,1,100,2|0,0:0|3:2,0:0:0:0:
335,158,68064,2,0,P|382:134|444:152,1,100,2|8,3:2|3:2,0:0:0:0:
266,294,68415,2,0,P|215:281|138:270,1,100,2|0,0:0|3:2,0:0:0:0:
13,148,68766,1,2,3:2:0:0:
97,94,68942,1,10,3:2:0:0:
207,139,69117,1,2,0:0:0:0:
332,76,69292,38,0,P|316:128|304:180,1,100,6|0,3:2|0:0,0:0:0:0:
504,42,69643,1,10,3:2:0:0:
504,42,69819,2,0,P|456:34|404:69,1,100,2|0,0:0|3:2,0:0:0:0:
169,15,70170,2,0,P|217:7|269:42,1,100,2|8,3:2|3:2,0:0:0:0:
107,236,70520,6,0,P|128:294|139:350,1,100,6|0,3:2|0:0,0:0:0:0:
334,384,70871,1,2,3:2:0:0:
261,184,71047,2,0,P|240:242|229:298,1,100,10|8,3:2|3:2,0:0:0:0:
251,325,71310,1,8,3:2:0:0:
251,325,71398,2,0,L|307:311,1,50,0|0,3:2|3:0,0:0:0:0:
412,341,71573,2,0,P|405:318|398:285,1,50,10|8,3:2|3:2,0:0:0:0:
350,210,71749,2,0,P|357:187|364:154,1,50,10|8,3:2|3:2,0:0:0:0:
421,66,71924,2,0,P|414:43|407:10,1,50,10|8,3:2|3:2,0:0:0:0:
292,99,72099,37,2,3:2:0:0:
461,185,72275,1,2,0:0:0:0:
281,91,72450,1,10,3:2:0:0:
157,156,72626,1,2,0:0:0:0:
1,97,72801,2,0,P|8:50|22:-4,1,100,2|0,3:2|3:2,0:0:0:0:
173,156,73152,1,10,3:2:0:0:
99,276,73328,1,2,0:0:0:0:
309,371,73503,1,2,3:2:0:0:
213,271,73678,1,2,3:2:0:0:
381,192,73854,2,0,P|355:244|337:301,1,100,10|0,3:2|0:0,0:0:0:0:
173,156,74205,2,0,P|223:122|279:124,1,100,2|0,3:2|3:2,0:0:0:0:
472,180,74556,1,10,3:2:0:0:
329,0,74731,6,0,P|360:99|383:202,1,200,6|2,0:0|0:0,0:0:0:0:
508,37,75257,1,10,0:0:0:0:
388,111,75433,1,2,0:0:0:0:
195,27,75608,1,2,3:2:0:0:
254,120,75784,1,2,3:2:0:0:
195,240,75959,1,10,3:2:0:0:
311,381,76135,38,0,P|362:361|430:346,1,100,6|0,3:2|0:0,0:0:0:0:
199,252,76485,1,2,3:2:0:0:
98,298,76661,1,10,3:2:0:0:
16,224,76836,2,0,L|27:119,1,100,2|8,3:2|3:0,0:0:0:0:
207,81,77187,1,10,3:2:0:0:
207,81,77275,1,8,3:2:0:0:
207,81,77363,2,0,L|148:94,1,50,10|8,3:2|3:2,0:0:0:0:
18,34,77538,2,0,L|66:44,1,50,10|8,3:2|3:2,0:0:0:0:
202,168,77713,6,0,L|317:142,1,100,0|2,3:2|0:0,0:0:0:0:
474,114,78064,1,10,3:2:0:0:
409,54,78240,2,0,P|385:105|400:164,1,100,2|0,0:0|3:2,0:0:0:0:
506,255,78591,1,2,3:2:0:0:
409,226,78766,1,10,3:2:0:0:
328,286,78942,2,0,L|348:391,1,100,2|0,0:0|3:2,0:0:0:0:
196,304,79292,2,0,L|214:205,1,100,2|8,3:2|3:2,0:0:0:0:
63,285,79643,2,0,L|81:383,1,100,2|0,0:0|3:2,0:0:0:0:
196,304,79994,1,2,3:2:0:0:
175,185,80170,1,10,3:2:0:0:
154,66,80345,1,2,0:0:0:0:
294,164,80520,37,2,3:2:0:0:
56,206,80696,1,0,3:2:0:0:
154,66,80871,5,10,3:2:0:0:
175,185,81046,1,0,3:2:0:0:
35,86,81222,37,0,3:2:0:0:
273,44,81398,1,0,3:2:0:0:
175,185,81573,2,0,L|194:292,1,100,10|0,3:2|3:2,0:0:0:0:
326,224,81924,5,2,3:2:0:0:
326,224,82012,1,0,3:2:0:0:
326,224,82099,2,0,P|292:217|257:220,1,50,0|0,3:2|3:2,0:0:0:0:
398,306,82275,1,10,3:2:0:0:
406,156,82450,1,2,3:2:0:0:
406,156,82538,1,0,3:2:0:0:
406,156,82625,2,0,P|380:133|348:118,1,50,0|0,3:2|3:2,0:0:0:0:
412,312,82801,1,10,3:2:0:0:
512,130,82977,1,0,3:2:0:0:
512,130,83065,1,0,3:2:0:0:
512,130,83152,2,0,P|500:97|480:69,1,50,10|0,3:2|0:0,0:0:0:0:
386,27,83328,38,0,P|336:41|271:49,1,100,4|2,3:2|0:0,0:0:0:0:
145,10,83678,5,10,3:2:0:0:
194,102,83854,1,8,3:2:0:0:
128,244,84029,37,8,3:2:0:0:
188,351,84205,1,8,3:2:0:0:
0,317,84380,5,8,3:2:0:0:
86,170,84556,1,8,3:2:0:0:
0,2,84731,37,12,3:2:0:0:
321,273,85784,21,10,3:2:0:0:
321,273,85871,1,8,3:2:0:0:
321,273,85959,2,0,L|391:263,1,46.0000008773804,10|8,3:2|3:2,0:0:0:0:
488,251,86135,38,0,L|482:311,1,55.9999982910157,12|0,3:2|0:0,0:0:0:0:
506,57,86485,38,0,L|494:177,1,103.999995239258,10|0,3:2|0:0,0:0:0:0:
302,193,86836,1,2,3:2:0:0:
423,60,87012,2,0,L|414:149,1,80,2|8,3:2|3:2,0:0:0:0:
235,129,87363,2,0,P|272:104|313:100,1,80,2|0,3:2|0:0,0:0:0:0:
434,289,87713,2,0,P|397:264|356:260,1,80,2|8,3:2|3:2,0:0:0:0:
200,359,88064,2,0,B|211:314|211:314|197:282|197:282|208:231,1,128,2|0,3:2|3:2,0:0:0:0:
299,362,88591,1,10,3:2:0:0:
112,324,88766,1,8,3:2:0:0:
112,324,88854,1,8,3:2:0:0:
112,324,88942,6,0,L|118:384,1,55.9999982910157,0|0,3:2|0:0,0:0:0:0:
94,130,89292,38,0,L|106:250,1,103.999995239258,10|0,3:2|0:0,0:0:0:0:
252,109,89643,1,2,3:2:0:0:
252,109,89819,2,0,P|211:111|170:92,1,80,2|8,3:2|3:2,0:0:0:0:
354,0,90170,2,0,P|340:38|330:92,1,80,2|0,3:2|0:0,0:0:0:0:
71,0,90520,2,0,P|84:37|93:76,1,80,2|8,3:2|3:2,0:0:0:0:
232,21,90871,1,2,3:2:0:0:
232,21,90959,1,0,3:2:0:0:
232,21,91047,1,8,3:2:0:0:
173,125,91222,1,0,3:2:0:0:
240,252,91398,2,0,P|295:236|342:227,1,95.9999970703126,10|0,3:2|3:2,0:0:0:0:
457,156,91749,6,0,L|517:162,1,55.9999982910157,0|0,3:2|0:0,0:0:0:0:
263,138,92099,38,0,L|383:150,1,103.999995239258,10|0,3:2|0:0,0:0:0:0:
478,21,92450,1,2,3:2:0:0:
478,21,92626,2,0,P|438:42|415:82,1,80,2|8,3:2|3:2,0:0:0:0:
267,234,92977,2,0,P|221:215|173:204,1,80,2|0,3:2|0:0,0:0:0:0:
437,316,93328,2,0,P|473:300|512:290,1,80,2|8,3:2|3:2,0:0:0:0:
258,378,93678,2,0,B|213:367|213:367|181:381|181:381|130:370,1,128,2|0,3:2|3:2,0:0:0:0:
272,277,94205,1,10,3:2:0:0:
78,295,94380,1,8,3:2:0:0:
78,295,94468,1,8,3:2:0:0:
78,295,94556,6,0,L|18:301,1,55.9999982910157,0|0,3:2|0:0,0:0:0:0:
272,277,94906,38,0,L|152:289,1,103.999995239258,10|0,3:2|0:0,0:0:0:0:
112,135,95257,1,2,3:2:0:0:
112,135,95433,2,0,L|119:219,1,80,2|8,3:2|3:2,0:0:0:0:
253,91,95784,2,0,P|210:75|160:88,1,80,2|0,3:2|0:0,0:0:0:0:
290,179,96119,5,2,3:2:0:0:
427,112,96294,1,8,3:2:0:0:
512,171,96469,1,2,3:2:0:0:
512,171,96556,1,0,3:2:0:0:
512,171,96644,2,0,L|489:272,1,80,8|10,3:2|3:2,0:0:0:0:
455,278,96908,37,8,3:2:0:0:
455,278,96996,2,0,P|431:275|391:260,1,47.9999985351563,10|0,3:2|0:0,0:0:0:0:
327,319,97171,2,0,P|317:296|310:254,1,47.9999985351563,10|8,3:2|3:2,0:0:0:0:
210,238,97349,6,0,L|204:298,1,55.9999982910157,4|0,3:2|3:2,0:0:0:0:
228,44,97699,38,0,L|216:164,1,103.999995239258,10|0,3:2|0:0,0:0:0:0:
43,248,98050,1,2,3:2:0:0:
43,248,98226,2,0,B|86:243|86:243|126:263,1,80,2|8,3:2|3:2,0:0:0:0:
286,384,98577,2,0,P|296:345|315:310,1,80,2|0,3:2|3:2,0:0:0:0:
180,164,98927,2,0,P|198:199|209:237,1,80,2|8,3:2|3:2,0:0:0:0:
414,187,99278,2,0,B|369:176|369:176|337:190|337:190|286:179,1,128,2|0,3:2|3:2,0:0:0:0:
484,123,99805,1,10,3:2:0:0:
484,123,99892,1,8,3:2:0:0:
484,123,99980,1,8,3:2:0:0:
378,268,100156,6,0,L|384:328,1,55.9999982910157,0|0,3:2|0:0,0:0:0:0:
360,74,100506,38,0,L|372:194,1,103.999995239258,10|0,3:2|0:0,0:0:0:0:
502,15,100857,1,2,3:2:0:0:
502,15,101033,2,0,B|467:30|467:30|424:18,1,80,2|8,3:2|3:2,0:0:0:0:
242,0,101384,2,0,P|262:38|277:94,1,80,2|0,3:2|3:2,0:0:0:0:
139,248,101734,2,0,P|151:210|170:174,1,80,2|8,3:2|3:2,0:0:0:0:
51,1,102085,2,0,P|60:58|180:69,1,191.999994140625,2|0,3:2|0:0,0:0:0:0:
280,0,102612,1,10,3:2:0:0:
261,23,102699,1,8,3:2:0:0:
254,52,102787,1,8,3:2:0:0:
259,82,102875,1,8,3:2:0:0:
275,106,102963,6,0,L|215:100,1,55.9999982910157,0|0,3:2|0:0,0:0:0:0:
469,124,103313,38,0,L|349:112,1,103.999995239258,10|0,3:2|0:0,0:0:0:0:
228,266,103664,1,2,3:2:0:0:
228,266,103840,2,0,B|248:232|248:232|241:186,1,80,2|8,3:2|3:2,0:0:0:0:
399,333,104191,2,0,P|356:315|315:309,1,80,2|0,3:2|3:2,0:0:0:0:
141,384,104541,2,0,P|184:366|225:360,1,80,2|8,3:2|3:2,0:0:0:0:
62,192,104892,2,0,B|51:237|51:237|65:269|65:269|54:320,1,128,2|8,3:2|3:0,0:0:0:0:
228,266,105419,1,10,3:2:0:0:
220,236,105506,1,8,3:2:0:0:
213,207,105594,1,8,3:2:0:0:
206,178,105682,1,8,3:2:0:0:
199,149,105770,6,0,L|259:143,1,55.9999982910157,0|0,3:2|0:0,0:0:0:0:
5,167,106120,38,0,L|125:155,1,103.999995239258,10|0,3:2|0:0,0:0:0:0:
179,6,106471,1,2,3:2:0:0:
179,6,106647,2,0,P|154:43|151:94,1,80,2|8,3:2|3:2,0:0:0:0:
285,228,106998,1,2,3:2:0:0:
500,106,107173,5,8,3:2:0:0:
397,59,107349,1,2,3:2:0:0:
300,114,107524,1,8,3:0:0:0:
467,282,107699,1,10,3:2:0:0:
473,251,107786,1,8,3:2:0:0:
482,209,107874,1,8,3:2:0:0:
490,161,107962,1,8,3:2:0:0:
500,106,108049,1,8,3:0:0:0:
377,232,108226,37,10,3:2:0:0:
174,87,108401,1,10,3:2:0:0:
