osu file format v14

[General]
AudioFilename: audio.mp3
AudioLeadIn: 0
PreviewTime: 60784
Countdown: 0
SampleSet: Soft
StackLeniency: 0.6
Mode: 0
LetterboxInBreaks: 0
WidescreenStoryboard: 1

[Editor]
DistanceSpacing: 1.9
BeatDivisor: 4
GridSize: 8
TimelineZoom: 1.7

[Metadata]
Title:Butterfly Core (TV Size)
TitleUnicode:Butterfly Core (TV Size)
Artist:VALSHE
ArtistUnicode:VALSHE
Creator:Smoke
Version:Hard
Source:名探偵コナン
Tags:op opening 37 japanese anime case closed rock jrock j-rock detective mystery Shinichi Kudo 工藤新一 Conan Edogawa 江戸川 コナン Kogoro Mouri 毛利 小五郎 Yusaku Kudo 工藤 優作 Yukiko Kudo 工藤 有希子 Eri Kisaki 妃 英理 Heiji Hattori 服部 平次 Kaitou Kid 怪盗キッド Shuichi Akai 赤井 秀一 Sharon Vineyard シャロン・ヴィンヤード Vermouth ベルモット Ai Haibara 灰原 哀 Shiho Miyano 宮野 志保
BeatmapID:2252196
BeatmapSetID:1076376

[Difficulty]
HPDrainRate:5
CircleSize:3.8
OverallDifficulty:6.5
ApproachRate:7.7
SliderMultiplier:1.3
SliderTickRate:1

[Events]
//Background and Video events
0,0,"detective conan wallpaper blacksuits.jpg",0,0
Video,-600,"vid.mp4"
//Break Periods
//Storyboard Layer 0 (Background)
//Storyboard Layer 1 (Fail)
//Storyboard Layer 2 (Pass)
//Storyboard Layer 3 (Foreground)
//Storyboard Layer 4 (Overlay)
//Storyboard Sound Samples

[TimingPoints]
521,350.877192982456,4,2,1,50,1,0
521,-111.111111111111,4,2,1,50,0,0
12450,-99.9999999999999,4,2,1,65,0,0
13152,-111.111111111111,4,2,1,70,0,0
13503,-90.9090909090909,4,2,1,70,0,0
13854,-100,4,2,1,70,0,0
15082,-111.111111111111,4,2,1,70,0,0
15433,-100,4,2,1,70,0,0
15959,-111.111111111111,4,2,1,70,0,0
16310,-90.9090909090909,4,2,1,70,0,0
16661,-100,4,2,1,70,0,0
18415,-95.2380952380952,4,2,1,70,0,0
18766,-111.111111111111,4,2,1,70,0,0
19117,-90.9090909090909,4,2,1,70,0,0
19468,-100,4,2,1,70,0,0
20696,-111.111111111111,4,2,1,70,0,0
21047,-100,4,2,1,70,0,0
21573,-111.111111111111,4,2,1,70,0,0
21924,-90.9090909090909,4,2,1,70,0,0
22275,-100,4,2,1,70,0,0
24029,-95.2380952380952,4,2,1,70,0,0
24380,-111.111111111111,4,2,1,60,0,0
25608,-99.9999999999999,4,2,1,65,0,0
26661,-95.2380952380952,4,2,1,65,0,0
27187,-111.111111111111,4,2,1,55,0,0
36836,-111.111111111111,4,2,1,60,0,0
38240,-99.9999999999999,4,2,1,65,0,0
49643,-111.111111111111,4,2,1,65,0,0
58064,-90.9090909090909,4,2,1,65,0,0
59292,-86.9565217391304,4,2,1,65,0,0
60784,-86.9565217391304,4,2,1,5,0,0
60871,-83.3333333333333,4,2,1,80,0,1
84731,-86.9565217391304,4,2,1,65,0,0
86135,-111.111111111111,4,2,1,70,0,0
86485,-90.9090909090909,4,2,1,70,0,0
86836,-100,4,2,1,70,0,0
88064,-111.111111111111,4,2,1,70,0,0
88416,-100,4,2,1,70,0,0
88942,-111.111111111111,4,2,1,70,0,0
89292,-90.9090909090909,4,2,1,70,0,0
89643,-100,4,2,1,70,0,0
91398,-100,4,2,1,70,0,0
91749,-111.111111111111,4,2,1,70,0,0
92099,-90.9090909090909,4,2,1,70,0,0
92450,-100,4,2,1,70,0,0
93678,-111.111111111111,4,2,1,70,0,0
94030,-100,4,2,1,70,0,0
94556,-111.111111111111,4,2,1,70,0,0
94906,-90.9090909090909,4,2,1,70,0,0
95257,-100,4,2,1,70,0,0
96119,350.877192982456,4,2,1,50,1,0
96119,-100,4,2,1,70,0,0
96996,-95.2380952380952,4,2,1,70,0,0
97349,350.877192982456,4,2,1,50,1,0
97349,-111.111111111111,4,2,1,70,0,0
97699,-90.9090909090909,4,2,1,70,0,0
98050,-100,4,2,1,70,0,0
99278,-111.111111111111,4,2,1,70,0,0
99629,-100,4,2,1,70,0,0
100156,-111.111111111111,4,2,1,70,0,0
100506,-90.9090909090909,4,2,1,70,0,0
100857,-100,4,2,1,70,0,0
102085,-95.2380952380952,4,2,1,70,0,0
102436,-100,4,2,1,70,0,0
102963,-111.111111111111,4,2,1,70,0,0
103313,-90.9090909090909,4,2,1,70,0,0
103664,-100,4,2,1,70,0,0
104892,-111.111111111111,4,2,1,70,0,0
105243,-100,4,2,1,70,0,0
105770,-111.111111111111,4,2,1,70,0,0
106120,-90.9090909090909,4,2,1,70,0,0
106471,-100,4,2,1,70,0,0
107699,-95.2380952380952,4,2,1,70,0,0
108050,-100,4,2,1,70,0,0

[Colours]
Combo1 : 202,162,100
Combo2 : 162,162,162
Combo3 : 115,115,115
Combo4 : 225,201,104

[HitObjects]
37,248,521,6,0,P|70:257|112:257,1,58.4999982147217,2|2,0:0|0:0,0:0:0:0:
137,334,871,2,0,P|161:309|182:273,1,58.4999982147217,2|2,0:0|0:0,0:0:0:0:
262,287,1222,2,0,P|253:253|232:217,1,58.4999982147217,2|0,0:0|0:0,0:0:0:0:
296,163,1573,2,0,P|329:171|370:171,1,58.4999982147217,2|0,0:0|0:0,0:0:0:0:
430,132,1924,1,2,0:0:0:0:
430,132,2099,1,2,0:0:0:0:
491,194,2275,2,0,L|479:264,1,58.4999982147217,2|0,0:0|0:0,0:0:0:0:
410,304,2626,2,0,P|355:288|288:274,1,116.999996429443,2|0,0:0|0:0,0:0:0:0:
231,200,3152,6,0,P|245:140|215:81,1,116.999996429443,2|0,0:0|0:0,0:0:0:0:
149,44,3678,2,0,L|83:56,1,58.4999982147217,2|2,0:0|0:0,0:0:0:0:
33,121,4029,2,0,P|46:150|56:185,1,58.4999982147217,2|2,0:0|0:0,0:0:0:0:
119,234,4380,1,2,0:0:0:0:
119,234,4556,2,0,P|106:263|96:298,1,58.4999982147217,2|0,0:0|0:0,0:0:0:0:
153,355,4906,1,2,0:0:0:0:
234,322,5082,1,2,0:0:0:0:
234,322,5257,2,0,L|304:335,1,58.4999982147217,2|0,0:0|0:0,0:0:0:0:
377,350,5608,1,2,0:0:0:0:
452,304,5784,1,2,0:0:0:0:
447,216,5959,38,0,L|436:94,1,116.999996429443,2|2,0:0|0:0,0:0:0:0:
358,46,6485,1,2,0:0:0:0:
358,46,6661,2,0,P|324:54|289:57,1,58.4999982147217,2|0,0:0|0:0,0:0:0:0:
220,105,7012,1,2,0:0:0:0:
139,57,7187,1,2,0:0:0:0:
76,126,7363,2,0,L|85:206,1,58.4999982147217,2|0,0:0|0:0,0:0:0:0:
146,260,7713,2,0,L|137:340,1,58.4999982147217,2|0,0:0|0:0,0:0:0:0:
0,292,8064,2,0,P|28:282|77:287,1,58.4999982147217,2|0,0:0|0:0,0:0:0:0:
180,360,8415,1,2,0:0:0:0:
180,360,8591,1,2,0:0:0:0:
146,260,8766,1,2,0:0:0:0:
210,176,8942,6,0,P|374:221|283:321,1,350.99998928833,2|0,0:0|0:0,0:0:0:0:
291,235,10170,1,0,3:2:0:0:
291,235,10257,1,0,3:2:0:0:
291,235,10345,1,8,3:2:0:0:
494,12,12450,38,0,L|505:100,1,65,0|8,3:2|3:2,0:0:0:0:
436,157,12801,1,8,3:2:0:0:
420,154,12889,1,8,3:2:0:0:
404,151,12977,2,0,L|349:161,1,32.5,8|8,3:2|3:2,0:0:0:0:
330,170,13152,38,0,L|251:158,1,58.4999982147217,12|0,3:2|0:0,0:0:0:0:
184,98,13503,2,0,L|90:108,1,71.5000021820069,10|0,3:2|0:0,0:0:0:0:
17,83,13854,1,2,3:2:0:0:
17,83,14029,2,0,L|27:159,1,65,2|8,3:2|3:2,0:0:0:0:
100,210,14380,2,0,P|81:244|72:278,1,65,2|0,3:2|0:0,0:0:0:0:
138,341,14731,2,0,P|176:340|210:331,1,65,2|8,3:2|3:2,0:0:0:0:
283,276,15082,2,0,P|338:306|403:292,1,116.999996429443,2|0,3:2|3:2,0:0:0:0:
459,230,15608,1,10,3:2:0:0:
397,153,15784,1,8,3:2:0:0:
394,137,15872,1,8,3:2:0:0:
391,121,15960,38,0,L|401:47,1,58.4999982147217,0|0,3:2|0:0,0:0:0:0:
312,0,16310,2,0,L|212:12,1,71.5000021820069,10|0,3:2|0:0,0:0:0:0:
165,71,16661,1,2,3:2:0:0:
165,71,16836,2,0,B|183:99|183:99|176:132,1,65,2|8,3:2|3:2,0:0:0:0:
95,185,17187,2,0,P|62:176|19:169,1,65,2|0,3:2|0:0,0:0:0:0:
86,279,17538,2,0,P|118:270|162:263,1,65,2|8,3:2|3:2,0:0:0:0:
242,294,17889,1,2,3:2:0:0:
258,297,17977,1,0,3:2:0:0:
274,300,18065,2,0,L|350:290,1,65,8|0,3:2|3:2,0:0:0:0:
438,313,18415,2,0,P|427:280|430:234,1,68.2499979171754,10|0,3:2|3:2,0:0:0:0:
455,153,18766,6,0,L|377:160,1,58.4999982147217,0|0,3:2|0:0,0:0:0:0:
310,93,19117,2,0,L|321:22,1,71.5000021820069,10|0,3:2|0:0,0:0:0:0:
222,45,19468,1,2,3:2:0:0:
222,45,19643,2,0,P|185:33|142:30,1,65,2|8,3:2|3:2,0:0:0:0:
79,85,19994,2,0,P|94:116|107:161,1,65,2|0,3:2|0:0,0:0:0:0:
163,222,20345,2,0,P|147:253|135:298,1,65,2|8,3:2|3:2,0:0:0:0:
64,351,20696,2,0,P|113:325|178:342,1,116.999996429443,2|0,3:2|3:2,0:0:0:0:
258,381,21222,1,10,3:2:0:0:
344,334,21398,1,8,3:2:0:0:
360,331,21486,1,8,3:2:0:0:
376,328,21574,38,0,L|448:338,1,58.4999982147217,0|0,3:2|0:0,0:0:0:0:
493,231,21924,2,0,P|461:241|417:244,1,71.5000021820069,10|0,3:2|0:0,0:0:0:0:
343,167,22275,1,2,3:2:0:0:
343,167,22450,2,0,B|348:201|348:201|331:239,1,65,2|8,3:2|3:2,0:0:0:0:
238,264,22801,2,0,P|207:252|156:239,1,65,2|0,3:2|0:0,0:0:0:0:
113,160,23152,2,0,P|144:148|195:135,1,65,2|8,3:2|3:2,0:0:0:0:
266,89,23503,1,2,3:2:0:0:
269,73,23591,1,0,3:2:0:0:
272,57,23679,2,0,L|261:-17,1,65,8|8,3:2|3:2,0:0:0:0:
367,75,24029,2,0,P|407:63|443:58,1,68.2499979171754,10|8,3:2|3:2,0:0:0:0:
500,124,24380,22,0,P|488:154|481:187,1,58.4999982147217,0|0,3:2|0:0,0:0:0:0:
403,231,24731,2,0,P|415:261|422:294,1,58.4999982147217,0|0,3:2|0:0,0:0:0:0:
362,359,25082,1,0,3:2:0:0:
362,359,25257,1,0,3:2:0:0:
284,305,25433,1,0,3:2:0:0:
186,339,25608,6,0,L|53:320,1,130,4|0,3:2|3:2,0:0:0:0:
28,280,26047,1,0,3:2:0:0:
21,268,26135,1,8,3:2:0:0:
107,224,26310,2,0,L|185:235,1,65,2|0,3:2|0:0,0:0:0:0:
245,161,26661,6,0,B|231:112|231:112|243:86|243:86|228:24,1,136.499995834351,2|0,3:2|0:0,0:0:0:0:
137,15,27187,22,0,L|67:28,1,58.4999982147217,0|0,3:2|0:0,0:0:0:0:
29,105,27538,2,0,P|48:134|61:169,1,58.4999982147217,2|2,3:2|0:0,0:0:0:0:
112,231,27889,2,0,P|93:260|80:295,1,58.4999982147217,2|2,3:2|0:0,0:0:0:0:
142,355,28240,2,0,P|176:356|213:350,1,58.4999982147217,2|0,3:2|0:0,0:0:0:0:
271,292,28591,1,2,3:2:0:0:
271,292,28766,1,2,0:0:0:0:
229,207,28942,1,2,3:2:0:0:
276,126,29117,2,0,L|338:135,1,58.4999982147217,2|0,0:0|3:2,0:0:0:0:
419,94,29468,2,0,P|377:128|387:205,1,116.999996429443,2|0,0:0|3:2,0:0:0:0:
404,224,29906,1,0,3:2:0:0:
412,235,29994,6,0,L|485:225,1,58.4999982147217,0|0,3:2|0:0,0:0:0:0:
504,314,30345,2,0,L|440:323,1,58.4999982147217,2|2,3:2|0:0,0:0:0:0:
364,367,30696,2,0,L|300:358,1,58.4999982147217,2|2,3:2|0:0,0:0:0:0:
223,297,31047,1,2,3:2:0:0:
223,297,31222,2,0,P|190:304|151:330,1,58.4999982147217,2|0,0:0|3:2,0:0:0:0:
94,374,31573,1,2,0:0:0:0:
11,328,31749,1,2,3:2:0:0:
25,235,31924,2,0,L|38:161,1,58.4999982147217,2|0,0:0|3:2,0:0:0:0:
50,84,32275,2,0,L|21:77,2,29.2499991073609,2|0|0,0:0|3:2|3:2,0:0:0:0:
121,23,32626,1,0,3:2:0:0:
203,66,32801,38,0,P|236:57|265:55,1,58.4999982147217,0|0,3:2|0:0,0:0:0:0:
351,32,33152,2,0,P|340:65|331:111,1,58.4999982147217,2|2,3:2|0:0,0:0:0:0:
291,171,33503,2,0,P|302:204|311:250,1,58.4999982147217,2|2,3:2|0:0,0:0:0:0:
246,298,33854,2,0,P|211:291|167:275,1,58.4999982147217,2|2,3:2|0:0,0:0:0:0:
129,211,34205,1,2,3:2:0:0:
129,211,34380,1,2,0:0:0:0:
199,149,34556,1,2,3:2:0:0:
291,171,34731,2,0,L|373:152,1,58.4999982147217,2|0,0:0|3:2,0:0:0:0:
430,202,35082,2,0,L|446:76,1,116.999996429443,2|0,0:0|3:2,0:0:0:0:
422,44,35520,1,0,3:2:0:0:
410,34,35608,6,0,L|344:43,1,58.4999982147217,0|0,3:2|0:0,0:0:0:0:
253,29,35959,2,0,L|269:107,1,58.4999982147217,2|2,3:2|0:0,0:0:0:0:
286,183,36310,1,2,3:2:0:0:
286,183,36485,1,2,0:0:0:0:
209,256,36661,1,10,3:2:0:0:
107,227,36836,6,0,L|36:237,1,58.4999982147217,2|0,3:2|0:0,0:0:0:0:
40,340,37187,2,0,L|97:331,1,58.4999982147217,2|0,3:2|0:0,0:0:0:0:
209,256,37538,2,0,P|184:299|211:362,1,116.999996429443,2|2,3:2|3:2,0:0:0:0:
253,366,37977,1,0,3:2:0:0:
267,362,38064,1,0,3:2:0:0:
365,327,38240,6,0,B|418:332|418:332|447:355|447:355|496:360,1,130,6|0,3:2|3:2,0:0:0:0:
510,250,38766,2,0,L|438:245,1,65,10|2,3:2|0:0,0:0:0:0:
360,184,39117,2,0,B|333:200|333:200|296:194,1,65,2|2,3:2|3:2,0:0:0:0:
235,112,39468,2,0,B|229:78|229:78|245:51,1,65,10|2,3:2|0:0,0:0:0:0:
151,6,39819,1,2,3:2:0:0:
151,6,39994,1,2,3:2:0:0:
63,63,40170,1,10,3:2:0:0:
80,165,40345,2,0,L|99:297,1,130,2|2,3:2|3:2,0:0:0:0:
192,338,40871,1,8,3:2:0:0:
269,268,41047,1,2,0:0:0:0:
266,251,41135,1,2,0:0:0:0:
264,235,41222,38,0,L|197:226,1,65,0|0,3:2|0:0,0:0:0:0:
150,135,41573,2,0,P|165:108|176:73,1,65,10|2,3:2|0:0,0:0:0:0:
268,27,41924,2,0,P|295:52|330:64,1,65,2|2,3:2|3:2,0:0:0:0:
419,27,42275,2,0,L|400:98,1,65,10|2,3:2|0:0,0:0:0:0:
465,172,42626,2,0,L|504:167,2,32.5,2|2|2,3:2|0:0|3:2,0:0:0:0:
380,233,42977,1,10,3:2:0:0:
280,202,43152,2,0,L|136:218,1,130,2|2,3:2|3:2,0:0:0:0:
47,228,43678,1,8,3:2:0:0:
109,309,43854,1,2,0:0:0:0:
127,307,43942,1,2,0:0:0:0:
143,305,44030,6,0,L|218:297,1,65,4|0,3:2|0:0,0:0:0:0:
297,246,44380,1,10,3:2:0:0:
297,246,44556,1,2,0:0:0:0:
397,273,44731,1,2,3:2:0:0:
397,273,44907,1,2,3:2:0:0:
477,207,45082,2,0,L|466:142,1,65,10|0,3:2|0:0,0:0:0:0:
391,70,45433,2,0,P|359:67|328:58,1,65,2|2,3:2|3:2,0:0:0:0:
223,20,45784,1,10,3:2:0:0:
223,20,45959,2,0,P|245:81|205:135,1,130,2|2,3:2|3:2,0:0:0:0:
109,90,46485,1,8,3:2:0:0:
19,155,46661,1,2,0:0:0:0:
21,172,46749,1,2,0:0:0:0:
22,188,46837,38,0,L|30:262,1,65,4|0,3:2|3:2,0:0:0:0:
129,206,47187,2,0,P|164:212|197:227,1,65,10|2,3:2|3:2,0:0:0:0:
281,171,47538,2,0,P|293:204|296:240,1,65,10|2,3:2|3:2,0:0:0:0:
383,290,47889,1,10,3:2:0:0:
472,237,48064,2,0,L|483:97,1,130,6|10,3:2|3:2,0:0:0:0:
468,59,48503,1,8,3:2:0:0:
462,44,48591,2,0,B|430:57|430:57|388:50,1,65,8|10,3:2|3:2,0:0:0:0:
303,37,48942,1,8,3:2:0:0:
243,113,49117,5,10,3:0:0:0:
243,113,49292,1,10,3:0:0:0:
243,113,49468,1,10,3:0:0:0:
274,200,49643,6,0,L|262:273,1,58.4999982147217,4|0,3:2|3:2,0:0:0:0:
276,350,49994,2,0,P|251:339|206:342,1,58.4999982147217,2|0,0:0|3:2,0:0:0:0:
129,363,50345,2,0,L|149:235,1,116.999996429443,10|2,3:2|3:2,0:0:0:0:
74,188,50871,2,0,L|9:199,2,58.4999982147217,2|0|10,3:2|0:0|3:2,0:0:0:0:
139,120,51398,2,0,P|123:94|119:57,1,58.4999982147217,2|2,3:2|3:2,0:0:0:0:
189,5,51749,2,0,L|259:16,1,58.4999982147217,8|0,3:2|3:2,0:0:0:0:
324,66,52099,2,0,L|396:57,1,58.4999982147217,2|8,0:0|3:2,0:0:0:0:
425,78,52363,1,8,3:2:0:0:
434,88,52450,6,0,P|415:135|401:202,1,116.999996429443,4|2,3:2|0:0,0:0:0:0:
416,292,52977,2,0,P|391:282|349:286,1,58.4999982147217,0|8,3:2|3:2,0:0:0:0:
272,316,53328,2,0,P|247:326|205:322,1,58.4999982147217,2|0,0:0|3:2,0:0:0:0:
163,248,53678,2,0,P|175:215|179:184,1,58.4999982147217,2|0,3:2|0:0,0:0:0:0:
233,115,54029,1,10,3:2:0:0:
233,115,54205,2,0,P|221:82|217:51,1,58.4999982147217,2|0,3:2|3:2,0:0:0:0:
128,28,54556,2,0,L|61:44,1,58.4999982147217,8|0,3:2|3:2,0:0:0:0:
15,116,54906,2,0,L|25:158,3,29.2499991073609,10|8|8|8,3:2|3:2|3:2|3:2,0:0:0:0:
56,179,55257,6,0,L|116:164,1,58.4999982147217,6|0,3:2|0:0,0:0:0:0:
204,204,55608,1,10,3:2:0:0:
204,204,55784,2,0,P|207:238|236:268,2,58.4999982147217,2|2|0,0:0|3:2|3:2,0:0:0:0:
251,109,56310,1,8,3:2:0:0:
359,129,56485,1,2,0:0:0:0:
359,129,56661,2,0,L|432:137,1,58.4999982147217,2|0,3:2|3:2,0:0:0:0:
493,216,57012,1,10,3:2:0:0:
403,281,57187,2,0,L|334:271,1,58.4999982147217,2|0,0:0|3:2,0:0:0:0:
252,257,57538,1,0,3:2:0:0:
191,335,57713,2,0,P|163:325|115:316,1,58.4999982147217,14|0,3:2|3:2,0:0:0:0:
100,307,57976,1,0,3:2:0:0:
87,301,58064,6,0,B|96:268|96:268|80:232,1,71.5000021820069,14|0,3:2|3:2,0:0:0:0:
36,135,58415,1,2,3:2:0:0:
116,63,58591,2,0,L|201:77,1,71.5000021820069,10|0,3:2|3:2,0:0:0:0:
283,120,58942,2,0,L|297:35,1,71.5000021820069,2|8,3:2|3:2,0:0:0:0:
412,29,59292,38,0,L|387:183,1,149.500002851486,6|2,3:2|3:2,0:0:0:0:
370,303,59819,1,2,3:2:0:0:
370,303,59994,1,2,3:2:0:0:
508,268,60345,21,0,3:2:0:0:
510,281,60433,1,0,3:2:0:0:
512,293,60520,1,12,3:2:0:0:
331,377,60871,22,0,P|294:366|251:359,1,77.999997619629,2|2,3:2|0:0,0:0:0:0:
163,286,61222,2,0,B|180:326|180:326|172:363,1,77.999997619629,10|2,3:2|0:0,0:0:0:0:
71,292,61573,2,0,P|78:244|106:213,1,77.999997619629,2|0,3:2|3:2,0:0:0:0:
202,199,61924,2,0,P|241:214|277:218,1,77.999997619629,10|2,3:2|0:0,0:0:0:0:
363,151,62275,1,2,3:2:0:0:
363,151,62450,1,2,3:2:0:0:
470,171,62626,2,0,B|452:136|452:136|460:91,1,77.999997619629,10|0,3:2|0:0,0:0:0:0:
371,32,62977,2,0,P|314:47|209:61,1,155.999995239258,2|10,3:2|3:2,0:0:0:0:
114,24,63503,1,2,0:0:0:0:
36,100,63678,6,0,B|52:165|52:165|37:201|37:201|54:261,1,155.999995239258,4|10,3:2|0:0,0:0:0:0:
82,354,64205,1,2,0:0:0:0:
175,298,64380,2,0,L|187:215,1,77.999997619629,2|2,3:2|3:2,0:0:0:0:
200,112,64731,1,10,3:2:0:0:
296,162,64906,2,0,P|368:146|450:135,1,155.999995239258,6|2,3:2|3:2,0:0:0:0:
508,227,65433,1,10,3:2:0:0:
426,298,65608,2,0,P|390:290|344:284,1,77.999997619629,2|8,3:2|3:0,0:0:0:0:
253,338,65959,2,0,L|262:378,2,38.9999988098145,10|8|10,3:2|3:2|3:2,0:0:0:0:
176,259,66310,1,10,3:2:0:0:
160,260,66398,1,8,3:2:0:0:
144,261,66485,38,0,L|48:267,1,77.999997619629,0|2,3:2|0:0,0:0:0:0:
8,181,66836,1,10,3:2:0:0:
8,181,67012,2,0,B|24:147|24:147|12:100,1,77.999997619629,2|0,0:0|3:2,0:0:0:0:
75,26,67363,1,2,3:2:0:0:
75,26,67538,1,10,3:2:0:0:
172,52,67713,2,0,L|249:38,1,77.999997619629,2|0,0:0|3:2,0:0:0:0:
347,13,68064,2,0,P|331:57|321:96,1,77.999997619629,2|8,3:2|3:2,0:0:0:0:
249,157,68415,2,0,P|265:201|275:240,1,77.999997619629,2|0,0:0|3:2,0:0:0:0:
342,305,68766,1,2,3:2:0:0:
428,251,68942,1,10,3:2:0:0:
428,251,69117,1,2,0:0:0:0:
504,339,69292,6,0,B|447:349|447:349|402:334|402:334|337:347,1,155.999995239258,6|10,3:2|3:2,0:0:0:0:
246,376,69819,2,0,P|245:331|220:285,1,77.999997619629,2|0,0:0|3:2,0:0:0:0:
227,202,70170,2,0,P|192:223|141:226,1,77.999997619629,2|8,3:2|3:2,0:0:0:0:
59,279,70520,2,0,P|70:202|79:113,1,155.999995239258,6|2,3:2|3:2,0:0:0:0:
7,29,71047,2,0,B|49:44|49:44|94:36,1,77.999997619629,10|8,3:2|3:2,0:0:0:0:
131,27,71310,1,8,3:2:0:0:
146,23,71398,1,0,3:2:0:0:
244,70,71573,1,10,3:2:0:0:
332,5,71749,2,0,L|382:-2,3,38.9999988098145,10|8|10|8,3:2|3:2|3:2|3:2,0:0:0:0:
415,29,72099,38,0,L|397:125,1,77.999997619629,2|2,3:2|0:0,0:0:0:0:
340,197,72450,2,0,B|382:191|382:191|428:219,1,77.999997619629,10|2,3:2|0:0,0:0:0:0:
460,308,72801,2,0,P|426:299|376:295,1,77.999997619629,2|0,3:2|3:2,0:0:0:0:
285,344,73152,1,10,3:2:0:0:
192,285,73328,1,2,0:0:0:0:
89,322,73503,1,2,3:2:0:0:
89,322,73678,1,2,3:2:0:0:
2,254,73854,2,0,L|16:174,1,77.999997619629,10|0,3:2|0:0,0:0:0:0:
114,130,74205,2,0,P|170:161|258:127,1,155.999995239258,2|10,3:2|3:2,0:0:0:0:
231,25,74731,1,2,0:0:0:0:
345,2,74906,6,0,P|330:41|318:91,1,77.999997619629,4|2,3:2|0:0,0:0:0:0:
395,156,75257,2,0,B|433:139|433:139|472:149,1,77.999997619629,10|2,0:0|0:0,0:0:0:0:
504,251,75608,1,2,3:2:0:0:
504,251,75784,1,2,3:2:0:0:
407,302,75959,1,10,3:2:0:0:
302,270,76135,2,0,B|243:276|243:276|210:304|210:304|144:310,1,155.999995239258,6|2,3:2|3:2,0:0:0:0:
95,218,76661,1,10,3:2:0:0:
129,114,76836,2,0,L|118:7,1,77.999997619629,2|8,3:2|3:0,0:0:0:0:
234,67,77188,1,10,3:2:0:0:
248,71,77276,1,8,3:2:0:0:
262,76,77363,2,0,L|322:68,3,38.9999988098145,10|8|10|8,3:2|3:2|3:2|3:2,0:0:0:0:
343,97,77713,38,0,P|331:138|322:179,1,77.999997619629,0|2,3:2|0:0,0:0:0:0:
391,247,78064,1,10,3:2:0:0:
391,247,78240,2,0,P|426:229|471:231,1,77.999997619629,2|0,0:0|3:2,0:0:0:0:
507,321,78591,1,2,3:2:0:0:
507,321,78766,1,10,3:2:0:0:
412,359,78942,2,0,L|332:345,1,77.999997619629,2|0,0:0|3:2,0:0:0:0:
260,277,79292,2,0,L|180:291,1,77.999997619629,2|8,3:2|3:2,0:0:0:0:
113,216,79643,2,0,L|127:136,1,77.999997619629,2|0,0:0|3:2,0:0:0:0:
143,38,79994,1,2,3:2:0:0:
46,68,80170,1,10,3:2:0:0:
46,68,80345,1,2,0:0:0:0:
27,175,80520,6,0,L|14:257,1,77.999997619629,2|0,3:2|3:2,0:0:0:0:
67,347,80871,1,10,3:2:0:0:
153,279,81047,1,0,3:2:0:0:
252,323,81222,38,0,L|334:306,1,77.999997619629,0|0,3:2|3:2,0:0:0:0:
435,284,81573,1,10,3:2:0:0:
364,200,81749,1,0,3:2:0:0:
388,93,81924,6,0,L|403:14,1,77.999997619629,2|0,3:2|3:2,0:0:0:0:
294,1,82275,1,10,3:2:0:0:
217,79,82450,2,0,L|231:149,3,38.9999988098145,2|0|0|0,3:2|3:2|3:2|3:2,0:0:0:0:
192,161,82801,38,0,B|156:147|156:147|117:154,1,77.999997619629,10|0,3:2|3:2,0:0:0:0:
67,166,83064,1,0,3:2:0:0:
51,169,83152,1,10,3:2:0:0:
109,261,83328,2,0,L|90:357,1,77.999997619629,4|2,3:2|0:0,0:0:0:0:
179,375,83678,6,0,L|195:283,1,77.999997619629,10|8,3:2|3:2,0:0:0:0:
279,246,84029,2,0,L|207:186,1,77.999997619629,8|8,3:2|3:2,0:0:0:0:
215,86,84380,2,0,L|127:118,1,77.999997619629,8|8,3:2|3:2,0:0:0:0:
38,156,84731,37,12,3:2:0:0:
303,343,85784,21,10,3:2:0:0:
319,340,85871,1,8,3:2:0:0:
335,337,85959,2,0,L|393:349,1,37.3750007128716,10|8,3:2|3:2,0:0:0:0:
414,352,86135,22,0,L|405:284,1,58.4999982147217,12|0,3:2|0:0,0:0:0:0:
424,188,86485,2,0,L|336:200,1,71.5000021820069,10|0,3:2|0:0,0:0:0:0:
286,126,86836,1,2,3:2:0:0:
286,126,87012,2,0,P|296:89|301:45,1,65,2|8,3:2|3:2,0:0:0:0:
220,5,87363,2,0,P|187:15|150:21,1,65,2|0,3:2|0:0,0:0:0:0:
110,105,87713,2,0,P|84:81|61:52,1,65,2|8,3:2|3:2,0:0:0:0:
27,158,88064,2,0,P|79:140|140:168,1,116.999996429443,2|0,3:2|3:2,0:0:0:0:
196,239,88591,1,10,3:2:0:0:
109,283,88766,1,8,3:2:0:0:
93,286,88854,1,8,3:2:0:0:
77,289,88942,6,0,L|3:279,1,58.4999982147217,0|0,3:2|0:0,0:0:0:0:
80,377,89292,2,0,P|117:369|166:365,1,71.5000021820069,10|0,3:2|0:0,0:0:0:0:
216,293,89643,1,2,3:2:0:0:
216,293,89819,2,0,P|247:310|297:311,1,65,2|8,3:2|3:2,0:0:0:0:
346,246,90170,2,0,L|337:171,1,65,2|0,3:2|0:0,0:0:0:0:
289,97,90520,2,0,L|298:22,1,65,2|8,3:2|3:2,0:0:0:0:
389,62,90871,1,2,3:2:0:0:
405,65,90959,1,0,3:2:0:0:
421,68,91047,2,0,L|497:57,1,65,8|0,3:2|3:2,0:0:0:0:
507,153,91398,2,0,P|492:183|478:232,1,65,10|0,3:2|3:2,0:0:0:0:
490,310,91749,38,0,L|420:295,1,58.4999982147217,0|0,3:2|0:0,0:0:0:0:
336,251,92099,2,0,P|345:292|348:333,1,71.5000021820069,10|0,3:2|0:0,0:0:0:0:
255,370,92450,1,2,3:2:0:0:
255,370,92626,2,0,B|228:353|228:353|195:359,1,65,2|8,3:2|3:2,0:0:0:0:
101,312,92977,2,0,P|68:316|23:317,1,65,2|0,3:2|0:0,0:0:0:0:
10,216,93328,2,0,P|43:220|88:221,1,65,2|8,3:2|3:2,0:0:0:0:
139,153,93678,2,0,P|118:98|152:38,1,116.999996429443,2|0,3:2|3:2,0:0:0:0:
239,11,94205,1,10,3:2:0:0:
322,72,94380,1,8,3:2:0:0:
325,88,94468,1,8,3:2:0:0:
328,104,94556,6,0,L|317:177,1,58.4999982147217,0|0,3:2|0:0,0:0:0:0:
330,267,94906,2,0,B|300:249|300:249|261:252,1,71.5000021820069,10|0,3:2|0:0,0:0:0:0:
177,311,95257,1,2,3:2:0:0:
177,311,95433,2,0,L|190:378,1,65,2|8,3:2|3:2,0:0:0:0:
288,343,95784,2,0,P|321:353|367:347,1,65,2|0,3:2|0:0,0:0:0:0:
424,268,96119,38,0,P|422:235|432:204,1,65,2|8,3:2|3:2,0:0:0:0:
480,105,96469,2,0,L|513:112,2,32.5,2|0|8,3:2|3:2|3:2,0:0:0:0:
402,25,96820,2,0,L|369:32,2,32.5,10|8|10,3:2|3:2|3:2,0:0:0:0:
344,125,97171,1,10,3:2:0:0:
328,128,97259,1,8,3:2:0:0:
312,131,97349,6,0,L|239:120,1,58.4999982147217,4|0,3:2|3:2,0:0:0:0:
154,84,97699,2,0,P|170:121|160:160,1,71.5000021820069,10|0,3:2|0:0,0:0:0:0:
79,197,98050,1,2,3:2:0:0:
79,197,98226,2,0,P|44:189|7:186,1,65,2|8,3:2|3:2,0:0:0:0:
62,292,98577,2,0,L|144:280,1,65,2|0,3:2|3:2,0:0:0:0:
213,326,98927,2,0,L|295:314,1,65,2|8,3:2|3:2,0:0:0:0:
358,258,99278,2,0,P|318:298|334:361,1,116.999996429443,2|0,3:2|3:2,0:0:0:0:
447,321,99805,1,10,3:2:0:0:
450,305,99893,1,8,3:2:0:0:
452,289,99980,1,8,3:2:0:0:
432,185,100156,38,0,L|440:113,1,58.4999982147217,0|0,3:2|0:0,0:0:0:0:
333,147,100506,2,0,L|254:134,1,71.5000021820069,10|0,3:2|0:0,0:0:0:0:
190,69,100857,1,2,3:2:0:0:
190,69,101033,2,0,P|196:34|211:-3,1,65,2|8,3:2|3:2,0:0:0:0:
94,60,101384,2,0,L|111:134,1,65,2|0,3:2|3:2,0:0:0:0:
157,207,101734,2,0,L|140:281,1,65,2|8,3:2|3:2,0:0:0:0:
200,355,102085,2,0,P|170:317|73:329,1,136.499995834351,2|0,3:2|0:0,0:0:0:0:
2,367,102612,1,10,3:2:0:0:
2,351,102700,1,8,3:2:0:0:
2,335,102788,2,0,L|11:276,1,32.5,8|8,3:2|3:2,0:0:0:0:
11,259,102963,6,0,P|34:241|63:226,1,58.4999982147217,0|0,3:2|0:0,0:0:0:0:
54,120,103313,2,0,P|89:133|140:144,1,71.5000021820069,10|0,3:2|0:0,0:0:0:0:
211,101,103664,1,2,3:2:0:0:
211,101,103840,2,0,P|246:92|290:91,1,65,2|8,3:2|3:2,0:0:0:0:
349,152,104191,2,0,L|329:222,1,65,2|0,3:2|3:2,0:0:0:0:
253,272,104541,2,0,L|273:342,1,65,2|8,3:2|3:2,0:0:0:0:
362,380,104892,2,0,P|415:380|456:331,1,116.999996429443,2|8,3:2|3:0,0:0:0:0:
473,237,105419,1,10,3:2:0:0:
473,221,105507,1,8,3:2:0:0:
473,205,105595,2,0,L|464:146,1,32.5,8|8,3:2|3:2,0:0:0:0:
483,125,105770,38,0,L|496:61,1,58.4999982147217,0|0,3:2|0:0,0:0:0:0:
401,14,106120,2,0,B|369:29|369:29|329:24,1,71.5000021820069,10|0,3:2|0:0,0:0:0:0:
229,12,106471,1,2,3:2:0:0:
229,12,106647,2,0,P|242:48|247:96,1,65,2|8,3:2|3:2,0:0:0:0:
172,148,106998,2,0,P|142:140|107:136,1,65,2|8,3:2|3:2,0:0:0:0:
159,241,107349,2,0,P|189:233|224:229,1,65,2|8,3:2|3:0,0:0:0:0:
323,269,107699,1,10,3:2:0:0:
325,285,107787,1,8,3:2:0:0:
326,302,107875,2,0,L|329:346,2,34.1249989585877,8|8|8,3:2|3:2|3:0,0:0:0:0:
402,210,108226,5,10,3:2:0:0:
478,311,108401,1,10,3:2:0:0:
