osu file format v14

[General]
AudioFilename: audio.mp3
AudioLeadIn: 0
PreviewTime: 67394
Countdown: 0
SampleSet: Soft
StackLeniency: 0.7
Mode: 3
LetterboxInBreaks: 0
SpecialStyle: 0
WidescreenStoryboard: 0

[Editor]
DistanceSpacing: 1
BeatDivisor: 16
GridSize: 4
TimelineZoom: 3.399999

[Metadata]
Title:HEAVENLY SMILE
TitleUnicode:HEAVENLY SMILE
Artist:VALLEYSTONE feat. Shizaki Yuki
ArtistUnicode:VALLEYSTONE feat. 紫崎 雪
Creator:Fresh Chicken
Version:MAXIMUM
Source:SOUND VOLTEX IV HEAVENLY HAVEN
Tags:R_e_m_u_r_i_n_g leqek SDVX4 opening theme KONAMI BEMANI Rasis Grace
BeatmapID:1168656
BeatmapSetID:551771

[Difficulty]
HPDrainRate:9
CircleSize:4
OverallDifficulty:8
ApproachRate:5
SliderMultiplier:1.4
SliderTickRate:1

[Events]
//Background and Video events
0,0,"34.png",0,0
//Break Periods
//Storyboard Layer 0 (Background)
//Storyboard Layer 1 (Fail)
//Storyboard Layer 2 (Pass)
//Storyboard Layer 3 (Foreground)
//Storyboard Sound Samples
Sample,54524,0,"bass.wav",50
Sample,60230,0,"Scrash.wav",50
Sample,60556,0,"hihat.wav",50
Sample,60882,0,"hihat.wav",50
Sample,61616,0,"drum.wav",50
Sample,68219,0,"hihat.wav",50
Sample,78654,0,"hihat.wav",50
Sample,78654,0,"drum.wav",50
Sample,81915,0,"hihat.wav",50
Sample,98382,0,"drum.wav",50
Sample,99524,0,"drum.wav",50
Sample,103274,0,"crash.wav",50
Sample,106616,0,"drum.wav",50
Sample,109795,0,"bass.wav",50
Sample,115176,0,"bass.wav",50
Sample,117621,0,"drum.wav",50
Sample,117703,0,"drum.wav",50

[TimingPoints]
5611,326.086956521739,4,2,0,40,1,0
13437,-58.8235294117647,4,2,0,40,0,0
13477,-100,4,2,0,40,0,0
13926,-58.8235294117647,4,2,0,40,0,0
13966,-100,4,2,0,40,0,0
14252,-58.8235294117647,4,2,0,40,0,0
14292,-100,4,2,0,40,0,0
25828,-66.6666666666667,4,2,0,40,0,0
25991,-200,4,2,0,40,0,0
26154,-66.6666666666667,4,2,0,40,0,0
26317,-200,4,2,0,40,0,0
26480,-100,4,2,0,40,0,0
31371,-20,4,2,0,40,0,0
31392,-125,4,2,0,40,0,0
31697,-100,4,2,0,40,0,0
41806,-20,4,2,0,40,0,0
41827,-125,4,2,0,40,0,0
42132,-100,4,2,0,40,0,0
46697,-74.0740740740741,4,2,0,40,0,0
46779,-153.846153846154,4,2,0,40,0,0
46860,-74.0740740740741,4,2,0,40,0,0
46942,-153.846153846154,4,2,0,40,0,0
47024,-83.3333333333333,4,2,0,40,0,0
47105,-125,4,2,0,40,0,0
47187,-83.3333333333333,4,2,0,40,0,0
47268,-125,4,2,0,40,0,0
47350,-100,4,2,0,40,0,0
61697,-50,4,2,0,40,0,0
61738,-100,4,2,0,40,0,0
62187,-50,4,2,0,40,0,0
62228,-100,4,2,0,40,0,0
66752,-52.6315789473684,4,2,0,40,0,0
66915,-1000,4,2,0,40,0,0
67078,-52.6315789473684,4,2,0,40,0,0
67159,-1000,4,2,0,40,0,0
67241,-10,4,2,0,40,0,0
67322,-1000,4,2,0,40,0,0
67893,-100,4,2,0,40,0,0
68219,-100,4,2,0,40,0,1
78002,-100,4,2,0,40,0,0
78654,-100,4,2,0,40,0,1
86480,-58.8235294117647,4,2,0,40,0,0
86520,-100,4,2,0,40,0,0
86969,-58.8235294117647,4,2,0,40,0,0
87009,-100,4,2,0,40,0,0
87295,-58.8235294117647,4,2,0,40,0,0
87335,-100,4,2,0,40,0,0
119741,-52.6315789473684,4,2,0,40,0,0
119904,-1000,4,2,0,40,0,0

[HitObjects]
192,192,4958,5,0,0:0:0:0:
448,192,5284,1,0,0:0:0:0:
448,192,5611,1,0,0:0:0:70:bass.wav
320,192,5611,1,0,0:0:0:50:crash.wav
64,192,5611,128,0,5937:0:0:0:0:
192,192,5611,128,0,6263:0:0:0:0:
320,192,5937,128,0,6263:0:0:0:0:
448,192,6263,128,0,6915:0:0:0:0:
64,192,6589,128,0,6752:0:0:0:0:
192,192,6752,128,0,6915:0:0:0:0:
320,192,6915,128,0,7404:0:0:0:0:
192,192,7241,128,0,7404:0:0:0:0:
64,192,7404,128,0,7730:0:0:0:0:
448,192,8056,1,0,0:0:0:0:
320,192,8219,128,0,8545:0:0:0:0:
64,192,8545,128,0,8871:0:0:0:0:
448,192,8871,1,0,0:0:0:0:
320,192,9034,1,0,0:0:0:0:
192,192,9197,1,0,0:0:0:0:
64,192,9360,128,0,10502:0:0:0:0:
320,192,9524,1,0,0:0:0:0:
448,192,9687,1,0,0:0:0:0:
320,192,9768,1,0,0:0:0:0:
192,192,9850,1,0,0:0:0:0:
448,192,10013,1,0,0:0:0:0:
320,192,10176,1,0,0:0:0:0:
448,192,10257,1,0,0:0:0:0:
320,192,10339,1,0,0:0:0:0:
448,192,10502,1,0,0:0:0:0:
320,192,10583,1,0,0:0:0:0:
192,192,10665,1,0,0:0:0:0:
64,192,10746,1,0,0:0:0:0:
320,192,10828,1,0,0:0:0:50:crash.wav
448,192,10828,1,0,0:0:0:50:bass.wav
192,192,10828,1,0,0:0:0:0:
448,192,10991,1,0,0:0:0:0:
448,192,11154,1,0,0:0:0:0:
64,192,11154,1,0,0:0:0:0:
448,192,11317,1,0,0:0:0:0:
192,192,11317,1,0,0:0:0:0:
448,192,11480,1,0,0:0:0:0:
64,192,11480,1,0,0:0:0:0:
448,192,11643,1,0,0:0:0:0:
448,192,11806,1,0,0:0:0:0:
64,192,11806,1,0,0:0:0:0:
448,192,11969,1,0,0:0:0:0:
192,192,11969,1,0,0:0:0:0:
64,192,12132,1,0,0:0:0:0:
64,192,12295,1,0,0:0:0:0:
448,192,12295,1,0,0:0:0:0:
64,192,12458,1,0,0:0:0:0:
192,192,12458,1,0,0:0:0:0:
64,192,12621,1,0,0:0:0:0:
448,192,12621,1,0,0:0:0:0:
320,192,12703,1,0,0:0:0:0:
192,192,12703,1,0,0:0:0:0:
64,192,12784,1,0,0:0:0:0:
448,192,12784,1,0,0:0:0:0:
64,192,12947,1,0,0:0:0:0:
320,192,12947,1,0,0:0:0:0:
320,192,13110,1,0,0:0:0:0:
64,192,13110,1,0,0:0:0:0:
192,192,13274,1,0,0:0:0:0:
448,192,13274,1,0,0:0:0:0:
64,192,13437,1,0,0:0:0:50:Scrash.wav
448,192,13437,1,0,0:0:0:0:
192,192,13437,1,0,0:0:0:0:
192,192,13763,1,0,0:0:0:0:
320,192,13926,1,0,0:0:0:50:Scrash.wav
448,192,13926,1,0,0:0:0:0:
64,192,13926,1,0,0:0:0:0:
192,192,14089,1,0,0:0:0:0:
320,192,14252,1,0,0:0:0:50:Scrash.wav
448,192,14252,1,0,0:0:0:0:
64,192,14252,1,0,0:0:0:0:
192,192,14578,1,0,0:0:0:0:
320,192,14741,128,0,15067:0:0:0:0:
192,192,15067,128,0,15393:0:0:0:0:
448,192,15393,1,0,0:0:0:0:
320,192,15393,1,0,0:0:0:0:
64,192,15556,1,0,0:0:0:0:
192,192,15556,1,0,0:0:0:0:
64,192,15719,1,0,0:0:0:0:
320,192,15719,128,0,16045:0:0:0:0:
448,192,16045,1,0,0:0:0:50:crash.wav
192,192,16045,1,0,0:0:0:0:
64,192,16045,1,0,0:0:0:0:
448,192,16208,1,0,0:0:0:0:
320,192,16371,1,0,0:0:0:50:hihat.wav
192,192,16371,1,0,0:0:0:0:
64,192,16371,1,0,0:0:0:0:
448,192,16534,1,0,0:0:0:0:
320,192,16697,1,0,0:0:0:0:
64,192,16697,1,0,0:0:0:0:
320,192,16860,1,0,0:0:0:0:
448,192,17024,1,0,0:0:0:50:hihat.wav
192,192,17024,1,0,0:0:0:0:
64,192,17024,1,0,0:0:0:0:
320,192,17187,1,0,0:0:0:0:
448,192,17350,1,0,0:0:0:0:
64,192,17350,1,0,0:0:0:0:
448,192,17513,1,0,0:0:0:0:
320,192,17676,1,0,0:0:0:50:hihat.wav
192,192,17676,1,0,0:0:0:0:
64,192,17676,1,0,0:0:0:0:
448,192,17839,1,0,0:0:0:0:
320,192,18002,1,0,0:0:0:0:
64,192,18002,1,0,0:0:0:0:
320,192,18165,1,0,0:0:0:0:
448,192,18328,1,0,0:0:0:50:hihat.wav
192,192,18328,1,0,0:0:0:0:
64,192,18328,1,0,0:0:0:0:
320,192,18491,1,0,0:0:0:0:
64,192,18654,1,0,0:0:0:0:
448,192,18654,1,0,0:0:0:0:
64,192,18817,1,0,0:0:0:0:
448,192,18980,1,0,0:0:0:50:hihat.wav
320,192,18980,1,0,0:0:0:0:
192,192,18980,1,0,0:0:0:0:
64,192,19143,1,0,0:0:0:0:
448,192,19306,1,0,0:0:0:0:
192,192,19306,1,0,0:0:0:0:
192,192,19469,1,0,0:0:0:0:
64,192,19632,1,0,0:0:0:50:hihat.wav
320,192,19632,1,0,0:0:0:0:
448,192,19632,1,0,0:0:0:0:
192,192,19795,1,0,0:0:0:0:
64,192,19958,1,0,0:0:0:0:
448,192,19958,1,0,0:0:0:0:
64,192,20121,1,0,0:0:0:0:
192,192,20284,1,0,0:0:0:50:hihat.wav
448,192,20284,1,0,0:0:0:0:
320,192,20284,1,0,0:0:0:0:
192,192,20447,1,0,0:0:0:0:
64,192,20610,1,0,0:0:0:50:hihat.wav
448,192,20610,1,0,0:0:0:0:
320,192,20610,1,0,0:0:0:0:
320,192,20774,1,0,0:0:0:0:
64,192,20937,1,0,0:0:0:50:hihat.wav
448,192,20937,1,0,0:0:0:0:
192,192,20937,1,0,0:0:0:0:
64,192,21100,1,0,0:0:0:0:
448,192,21263,1,0,0:0:0:0:
320,192,21263,1,0,0:0:0:0:
448,192,21426,1,0,0:0:0:0:
320,192,21589,1,0,0:0:0:50:hihat.wav
192,192,21589,1,0,0:0:0:0:
64,192,21589,1,0,0:0:0:0:
448,192,21752,1,0,0:0:0:0:
320,192,21915,1,0,0:0:0:0:
64,192,21915,1,0,0:0:0:0:
320,192,22078,1,0,0:0:0:0:
64,192,22241,1,0,0:0:0:50:hihat.wav
192,192,22241,1,0,0:0:0:0:
448,192,22241,1,0,0:0:0:0:
320,192,22404,1,0,0:0:0:0:
64,192,22567,1,0,0:0:0:0:
448,192,22567,1,0,0:0:0:0:
448,192,22730,1,0,0:0:0:0:
192,192,22893,1,0,0:0:0:50:hihat.wav
64,192,22893,1,0,0:0:0:0:
320,192,22893,1,0,0:0:0:0:
448,192,23056,1,0,0:0:0:0:
64,192,23219,1,0,0:0:0:0:
320,192,23219,1,0,0:0:0:0:
320,192,23382,1,0,0:0:0:0:
192,192,23545,1,0,0:0:0:50:hihat.wav
64,192,23545,1,0,0:0:0:0:
448,192,23545,1,0,0:0:0:0:
320,192,23708,1,0,0:0:0:0:
448,192,23871,1,0,0:0:0:50:crash.wav
320,192,23871,1,0,0:0:0:50:bass.wav
64,192,23871,1,0,0:0:0:0:
320,192,24197,1,0,0:0:0:35:drum.wav
448,192,24197,1,0,0:0:0:50:hihat.wav
64,192,24197,1,0,0:0:0:0:
192,192,24279,1,0,0:0:0:35:drum.wav
448,192,24360,1,0,0:0:0:35:drum.wav
64,192,24442,1,0,0:0:0:35:drum.wav
192,192,24524,1,0,0:0:0:35:drum.wav
320,192,24524,1,0,0:0:0:0:
448,192,24524,1,0,0:0:0:0:
64,192,24605,1,0,0:0:0:35:drum.wav
192,192,24687,1,0,0:0:0:35:drum.wav
448,192,24768,1,0,0:0:0:35:drum.wav
320,192,24850,1,0,0:0:0:35:drum.wav
192,192,24850,1,0,0:0:0:50:hihat.wav
64,192,24850,1,0,0:0:0:0:
448,192,24931,1,0,0:0:0:35:drum.wav
64,192,25013,1,0,0:0:0:35:drum.wav
192,192,25094,1,0,0:0:0:35:drum.wav
320,192,25176,1,0,0:0:0:35:drum.wav
448,192,25176,1,0,0:0:0:0:
64,192,25257,1,0,0:0:0:35:drum.wav
192,192,25257,1,0,0:0:0:0:
320,192,25339,1,0,0:0:0:35:drum.wav
448,192,25339,1,0,0:0:0:0:
192,192,25420,1,0,0:0:0:35:drum.wav
64,192,25420,1,0,0:0:0:0:
320,192,25502,1,0,0:0:0:35:drum.wav
448,192,25502,1,0,0:0:0:50:hihat.wav
192,192,25583,1,0,0:0:0:35:drum.wav
64,192,25583,1,0,0:0:0:0:
320,192,25665,1,0,0:0:0:35:drum.wav
448,192,25665,1,0,0:0:0:0:
192,192,25746,1,0,0:0:0:35:drum.wav
64,192,25746,1,0,0:0:0:0:
320,192,25828,1,0,0:0:0:35:drum.wav
448,192,25828,1,0,0:0:0:0:
448,192,26154,1,0,0:0:0:0:
320,192,26154,1,0,0:0:0:0:
192,192,26154,1,0,0:0:0:0:
64,192,26154,1,0,0:0:0:0:
192,192,26480,1,0,0:0:0:50:bass.wav
64,192,26480,1,0,0:0:0:50:Scrash.wav
320,192,26480,1,0,0:0:0:0:
64,192,26643,1,0,0:0:0:50:bass.wav
64,192,26806,1,0,0:0:0:50:bass.wav
448,192,26806,1,0,0:0:0:0:
64,192,26969,1,0,0:0:0:50:bass.wav
320,192,26969,1,0,0:0:0:0:
64,192,27132,1,0,0:0:0:50:bass.wav
448,192,27132,1,0,0:0:0:0:
64,192,27295,1,0,0:0:0:50:bass.wav
448,192,27295,1,0,0:0:0:0:
64,192,27458,1,0,0:0:0:50:bass.wav
320,192,27458,1,0,0:0:0:0:
64,192,27621,1,0,0:0:0:50:bass.wav
448,192,27621,1,0,0:0:0:0:
448,192,27784,1,0,0:0:0:50:bass.wav
64,192,27784,1,0,0:0:0:0:
320,192,27784,128,0,28110:0:0:0:50:Scrash.wav
448,192,28110,1,0,0:0:0:50:bass.wav
192,192,28110,1,0,0:0:0:0:
448,192,28274,1,0,0:0:0:50:bass.wav
64,192,28274,1,0,0:0:0:0:
448,192,28437,1,0,0:0:0:50:bass.wav
448,192,28600,1,0,0:0:0:50:bass.wav
192,192,28763,1,0,0:0:0:50:bass.wav
64,192,28763,1,0,0:0:0:50:drum.wav
448,192,28763,1,0,0:0:0:0:
448,192,28926,1,0,0:0:0:50:bass.wav
320,192,28926,1,0,0:0:0:50:drum.wav
64,192,29089,1,0,0:0:0:50:Scrash.wav
192,192,29089,1,0,0:0:0:50:bass.wav
64,192,29252,1,0,0:0:0:50:bass.wav
64,192,29415,1,0,0:0:0:50:bass.wav
448,192,29415,1,0,0:0:0:0:
64,192,29578,1,0,0:0:0:50:bass.wav
64,192,29741,1,0,0:0:0:50:bass.wav
320,192,29741,1,0,0:0:0:0:
64,192,29904,1,0,0:0:0:50:bass.wav
64,192,30067,1,0,0:0:0:50:bass.wav
320,192,30067,1,0,0:0:0:0:
64,192,30230,1,0,0:0:0:50:bass.wav
320,192,30393,1,0,0:0:0:50:bass.wav
448,192,30393,1,0,0:0:0:50:Scrash.wav
192,192,30393,1,0,0:0:0:0:
448,192,30556,1,0,0:0:0:50:bass.wav
64,192,30556,1,0,0:0:0:0:
320,192,30719,1,0,0:0:0:50:bass.wav
192,192,30719,1,0,0:0:0:0:
192,192,30882,1,0,0:0:0:50:bass.wav
320,192,30882,1,0,0:0:0:0:
448,192,31045,1,0,0:0:0:50:bass.wav
64,192,31045,1,0,0:0:0:0:
64,192,31208,1,0,0:0:0:50:bass.wav
448,192,31208,1,0,0:0:0:0:
192,192,31371,1,0,0:0:0:50:bass.wav
64,192,31371,1,0,0:0:0:50:drum.wav
448,192,31371,1,0,0:0:0:0:
192,192,31697,1,0,0:0:0:50:bass.wav
64,192,31697,1,0,0:0:0:50:crash.wav
448,192,31697,1,0,0:0:0:0:
320,192,31779,1,0,0:0:0:0:
192,192,31860,1,0,0:0:0:0:
448,192,31942,1,0,0:0:0:0:
320,192,32024,1,0,0:0:0:50:drum.wav
192,192,32024,1,0,0:0:0:0:
64,192,32024,1,0,0:0:0:0:
448,192,32105,1,0,0:0:0:0:
64,192,32187,1,0,0:0:0:0:
192,192,32268,1,0,0:0:0:0:
320,192,32350,1,0,0:0:0:50:bass.wav
448,192,32350,1,0,0:0:0:0:
64,192,32431,1,0,0:0:0:0:
448,192,32513,1,0,0:0:0:50:bass.wav
320,192,32594,1,0,0:0:0:0:
448,192,32676,1,0,0:0:0:50:drum.wav
192,192,32676,1,0,0:0:0:0:
64,192,32676,1,0,0:0:0:0:
320,192,32757,1,0,0:0:0:0:
64,192,32839,1,0,0:0:0:0:
192,192,32920,1,0,0:0:0:0:
320,192,33002,1,0,0:0:0:50:bass.wav
64,192,33002,1,0,0:0:0:0:
448,192,33083,1,0,0:0:0:0:
192,192,33165,1,0,0:0:0:0:
64,192,33246,1,0,0:0:0:0:
320,192,33328,1,0,0:0:0:50:drum.wav
448,192,33328,1,0,0:0:0:0:
192,192,33328,1,0,0:0:0:0:
64,192,33409,1,0,0:0:0:0:
448,192,33491,1,0,0:0:0:0:
192,192,33572,1,0,0:0:0:0:
320,192,33654,1,0,0:0:0:50:bass.wav
64,192,33654,1,0,0:0:0:0:
448,192,33735,1,0,0:0:0:0:
192,192,33817,1,0,0:0:0:50:bass.wav
320,192,33899,1,0,0:0:0:0:
192,192,33980,1,0,0:0:0:50:drum.wav
64,192,33980,1,0,0:0:0:0:
448,192,33980,1,0,0:0:0:0:
320,192,34062,1,0,0:0:0:0:
192,192,34143,1,0,0:0:0:0:
64,192,34225,1,0,0:0:0:0:
320,192,34306,1,0,0:0:0:50:bass.wav
448,192,34306,1,0,0:0:0:0:
192,192,34388,1,0,0:0:0:0:
320,192,34469,1,0,0:0:0:0:
64,192,34551,1,0,0:0:0:0:
192,192,34632,1,0,0:0:0:50:drum.wav
320,192,34632,1,0,0:0:0:0:
448,192,34632,1,0,0:0:0:0:
64,192,34714,1,0,0:0:0:0:
448,192,34795,1,0,0:0:0:0:
320,192,34877,1,0,0:0:0:0:
192,192,34958,1,0,0:0:0:50:bass.wav
64,192,34958,1,0,0:0:0:0:
448,192,35040,1,0,0:0:0:0:
320,192,35121,1,0,0:0:0:50:bass.wav
64,192,35203,1,0,0:0:0:0:
192,192,35284,1,0,0:0:0:50:drum.wav
320,192,35284,1,0,0:0:0:0:
448,192,35284,1,0,0:0:0:0:
64,192,35366,1,0,0:0:0:0:
192,192,35447,1,0,0:0:0:0:
320,192,35529,1,0,0:0:0:0:
448,192,35610,1,0,0:0:0:50:bass.wav
64,192,35610,1,0,0:0:0:0:
192,192,35692,1,0,0:0:0:0:
320,192,35774,1,0,0:0:0:0:
448,192,35855,1,0,0:0:0:0:
192,192,35937,1,0,0:0:0:50:drum.wav
320,192,35937,1,0,0:0:0:0:
64,192,35937,1,0,0:0:0:0:
448,192,36018,1,0,0:0:0:0:
64,192,36100,1,0,0:0:0:0:
192,192,36181,1,0,0:0:0:0:
320,192,36263,1,0,0:0:0:50:bass.wav
448,192,36263,1,0,0:0:0:0:
64,192,36344,1,0,0:0:0:0:
192,192,36426,1,0,0:0:0:50:drum.wav
320,192,36426,1,0,0:0:0:50:bass.wav
448,192,36426,1,0,0:0:0:0:
64,192,36507,1,0,0:0:0:0:
192,192,36589,1,0,0:0:0:50:drum.wav
320,192,36589,1,0,0:0:0:50:bass.wav
448,192,36589,1,0,0:0:0:0:
64,192,36670,1,0,0:0:0:0:
192,192,36752,1,0,0:0:0:50:drum.wav
320,192,36752,1,0,0:0:0:50:bass.wav
448,192,36752,1,0,0:0:0:0:
64,192,36833,1,0,0:0:0:0:
192,192,36915,1,0,0:0:0:50:bass.wav
320,192,36915,1,0,0:0:0:50:crash.wav
448,192,36915,1,0,0:0:0:0:
320,192,37078,1,0,0:0:0:50:bass.wav
320,192,37241,1,0,0:0:0:50:bass.wav
64,192,37241,1,0,0:0:0:0:
320,192,37404,1,0,0:0:0:50:bass.wav
320,192,37567,1,0,0:0:0:50:bass.wav
64,192,37567,1,0,0:0:0:0:
320,192,37730,1,0,0:0:0:50:bass.wav
192,192,37730,1,0,0:0:0:0:
320,192,37893,1,0,0:0:0:50:bass.wav
64,192,37893,1,0,0:0:0:0:
320,192,38056,1,0,0:0:0:50:bass.wav
64,192,38056,1,0,0:0:0:0:
192,192,38219,1,0,0:0:0:50:Scrash.wav
448,192,38219,1,0,0:0:0:50:bass.wav
64,192,38219,1,0,0:0:0:0:
192,192,38545,1,0,0:0:0:50:bass.wav
448,192,38545,1,0,0:0:0:0:
192,192,38708,1,0,0:0:0:50:bass.wav
320,192,38708,1,0,0:0:0:0:
192,192,38871,1,0,0:0:0:50:bass.wav
448,192,38871,1,0,0:0:0:0:
192,192,39034,1,0,0:0:0:50:bass.wav
448,192,39034,1,0,0:0:0:0:
192,192,39197,1,0,0:0:0:50:bass.wav
64,192,39197,1,0,0:0:0:50:drum.wav
320,192,39197,1,0,0:0:0:0:
192,192,39360,1,0,0:0:0:50:bass.wav
320,192,39360,1,0,0:0:0:50:drum.wav
64,192,39360,1,0,0:0:0:0:
64,192,39524,1,0,0:0:0:50:bass.wav
448,192,39524,1,0,0:0:0:50:Scrash.wav
320,192,39524,1,0,0:0:0:0:
448,192,39687,1,0,0:0:0:50:bass.wav
448,192,39850,1,0,0:0:0:50:bass.wav
192,192,39850,1,0,0:0:0:0:
448,192,40013,1,0,0:0:0:50:bass.wav
448,192,40176,1,0,0:0:0:50:bass.wav
64,192,40176,1,0,0:0:0:0:
448,192,40339,1,0,0:0:0:50:bass.wav
448,192,40502,1,0,0:0:0:50:bass.wav
192,192,40502,1,0,0:0:0:0:
448,192,40665,1,0,0:0:0:50:bass.wav
64,192,40828,1,0,0:0:0:50:bass.wav
320,192,40828,1,0,0:0:0:50:Scrash.wav
192,192,40828,1,0,0:0:0:0:
64,192,40991,1,0,0:0:0:50:bass.wav
448,192,40991,1,0,0:0:0:0:
64,192,41154,1,0,0:0:0:50:bass.wav
64,192,41317,1,0,0:0:0:50:bass.wav
320,192,41317,1,0,0:0:0:0:
192,192,41480,1,0,0:0:0:50:bass.wav
448,192,41480,1,0,0:0:0:0:
320,192,41643,1,0,0:0:0:50:bass.wav
192,192,41643,1,0,0:0:0:0:
320,192,41806,1,0,0:0:0:50:drum.wav
448,192,41806,1,0,0:0:0:50:bass.wav
64,192,41806,1,0,0:0:0:0:
320,192,42132,1,0,0:0:0:50:bass.wav
64,192,42132,1,0,0:0:0:50:crash.wav
448,192,42132,1,0,0:0:0:0:
192,192,42214,1,0,0:0:0:0:
448,192,42295,1,0,0:0:0:0:
64,192,42377,1,0,0:0:0:0:
320,192,42458,1,0,0:0:0:50:drum.wav
448,192,42458,1,0,0:0:0:0:
192,192,42458,1,0,0:0:0:0:
64,192,42540,1,0,0:0:0:0:
448,192,42621,1,0,0:0:0:0:
320,192,42703,1,0,0:0:0:0:
64,192,42784,1,0,0:0:0:50:bass.wav
192,192,42784,1,0,0:0:0:0:
448,192,42866,1,0,0:0:0:0:
64,192,42947,1,0,0:0:0:50:bass.wav
192,192,43029,1,0,0:0:0:0:
448,192,43110,1,0,0:0:0:50:drum.wav
64,192,43110,1,0,0:0:0:0:
320,192,43110,1,0,0:0:0:0:
192,192,43192,1,0,0:0:0:0:
448,192,43274,1,0,0:0:0:0:
320,192,43355,1,0,0:0:0:0:
192,192,43437,1,0,0:0:0:50:bass.wav
448,192,43437,1,0,0:0:0:0:
64,192,43518,1,0,0:0:0:0:
320,192,43600,1,0,0:0:0:0:
448,192,43681,1,0,0:0:0:0:
192,192,43763,1,0,0:0:0:50:drum.wav
64,192,43763,1,0,0:0:0:0:
320,192,43763,1,0,0:0:0:0:
448,192,43844,1,0,0:0:0:0:
64,192,43926,1,0,0:0:0:0:
320,192,44007,1,0,0:0:0:0:
192,192,44089,1,0,0:0:0:50:bass.wav
448,192,44089,1,0,0:0:0:0:
64,192,44170,1,0,0:0:0:0:
320,192,44252,1,0,0:0:0:50:bass.wav
192,192,44333,1,0,0:0:0:0:
448,192,44415,1,0,0:0:0:50:drum.wav
320,192,44415,1,0,0:0:0:0:
64,192,44415,1,0,0:0:0:0:
192,192,44496,1,0,0:0:0:0:
320,192,44578,1,0,0:0:0:0:
448,192,44659,1,0,0:0:0:0:
64,192,44741,1,0,0:0:0:50:crash.wav
192,192,44741,1,0,0:0:0:50:bass.wav
320,192,44741,1,0,0:0:0:0:
448,192,44822,1,0,0:0:0:0:
192,192,44904,1,0,0:0:0:50:bass.wav
320,192,44985,1,0,0:0:0:0:
192,192,45067,1,0,0:0:0:50:drum.wav
448,192,45067,1,0,0:0:0:0:
64,192,45067,1,0,0:0:0:0:
320,192,45149,1,0,0:0:0:0:
64,192,45230,1,0,0:0:0:0:
192,192,45312,1,0,0:0:0:0:
448,192,45393,1,0,0:0:0:50:bass.wav
320,192,45393,1,0,0:0:0:50:Scrash.wav
64,192,45393,1,0,0:0:0:0:
192,192,45475,1,0,0:0:0:0:
320,192,45556,1,0,0:0:0:50:bass.wav
448,192,45638,1,0,0:0:0:0:
320,192,45719,1,0,0:0:0:50:drum.wav
64,192,45719,1,0,0:0:0:0:
192,192,45719,1,0,0:0:0:0:
448,192,45801,1,0,0:0:0:0:
320,192,45882,1,0,0:0:0:50:bass.wav
192,192,45882,1,0,0:0:0:50:crash.wav
64,192,45882,1,0,0:0:0:0:
448,192,45964,1,0,0:0:0:0:
64,192,46045,1,0,0:0:0:0:
192,192,46127,1,0,0:0:0:0:
320,192,46208,1,0,0:0:0:50:bass.wav
448,192,46208,1,0,0:0:0:0:
192,192,46290,1,0,0:0:0:0:
64,192,46371,1,0,0:0:0:50:drum.wav
448,192,46371,1,0,0:0:0:0:
320,192,46371,1,0,0:0:0:0:
192,192,46453,1,0,0:0:0:0:
448,192,46534,1,0,0:0:0:0:
320,192,46616,1,0,0:0:0:0:
192,192,46697,1,0,0:0:0:50:drum.wav
64,192,46697,1,0,0:0:0:0:
448,192,46697,1,0,0:0:0:0:
448,192,46860,1,0,0:0:0:50:drum.wav
192,192,46860,1,0,0:0:0:0:
64,192,46860,1,0,0:0:0:0:
320,192,47024,1,0,0:0:0:50:drum.wav
64,192,47024,1,0,0:0:0:0:
320,192,47187,1,0,0:0:0:50:drum.wav
64,192,47187,1,0,0:0:0:0:
192,192,47350,1,0,0:0:0:50:crash.wav
320,192,47350,1,0,0:0:0:50:bass.wav
448,192,47350,1,0,0:0:0:50:hihat.wav
64,192,47431,1,0,0:0:0:0:
192,192,47513,1,0,0:0:0:0:
320,192,47594,1,0,0:0:0:0:
448,192,47676,1,0,0:0:0:50:drum.wav
64,192,47676,1,0,0:0:0:50:hihat.wav
192,192,47676,1,0,0:0:0:0:
320,192,47757,1,0,0:0:0:0:
192,192,47839,1,0,0:0:0:0:
320,192,48002,1,0,0:0:0:50:hihat.wav
192,192,48165,1,0,0:0:0:50:bass.wav
448,192,48246,1,0,0:0:0:0:
320,192,48328,1,0,0:0:0:50:hihat.wav
192,192,48409,1,0,0:0:0:0:
448,192,48491,1,0,0:0:0:50:drum.wav
320,192,48491,1,0,0:0:0:0:
64,192,48491,1,0,0:0:0:0:
192,192,48572,1,0,0:0:0:0:
320,192,48654,1,0,0:0:0:50:hihat.wav
192,192,48817,1,0,0:0:0:50:bass.wav
448,192,48980,1,0,0:0:0:50:drum.wav
320,192,48980,1,0,0:0:0:50:hihat.wav
64,192,48980,1,0,0:0:0:0:
192,192,49062,1,0,0:0:0:0:
320,192,49143,1,0,0:0:0:50:bass.wav
448,192,49225,1,0,0:0:0:0:
64,192,49306,1,0,0:0:0:50:hihat.wav
320,192,49388,1,0,0:0:0:0:
192,192,49469,1,0,0:0:0:50:bass.wav
320,192,49551,1,0,0:0:0:0:
448,192,49632,1,0,0:0:0:50:drum.wav
192,192,49632,1,0,0:0:0:50:hihat.wav
64,192,49632,1,0,0:0:0:0:
320,192,49795,1,0,0:0:0:50:hihat.wav
192,192,49877,1,0,0:0:0:50:hihat.wav
448,192,49958,1,0,0:0:0:50:hihat.wav
64,192,49958,1,0,0:0:0:50:bass.wav
320,192,50040,1,0,0:0:0:0:
192,192,50121,1,0,0:0:0:50:bass.wav
320,192,50284,1,0,0:0:0:50:drum.wav
64,192,50284,1,0,0:0:0:50:hihat.wav
448,192,50284,1,0,0:0:0:0:
192,192,50366,1,0,0:0:0:0:
64,192,50447,1,0,0:0:0:0:
448,192,50610,1,0,0:0:0:50:hihat.wav
64,192,50774,1,0,0:0:0:50:bass.wav
192,192,50855,1,0,0:0:0:0:
320,192,50937,1,0,0:0:0:50:hihat.wav
64,192,51100,1,0,0:0:0:50:drum.wav
192,192,51100,1,0,0:0:0:0:
448,192,51100,1,0,0:0:0:0:
320,192,51181,1,0,0:0:0:0:
192,192,51263,1,0,0:0:0:50:hihat.wav
320,192,51426,1,0,0:0:0:50:bass.wav
192,192,51507,1,0,0:0:0:0:
320,192,51589,1,0,0:0:0:50:drum.wav
448,192,51589,1,0,0:0:0:50:hihat.wav
64,192,51589,1,0,0:0:0:0:
448,192,51752,1,0,0:0:0:0:
320,192,51833,1,0,0:0:0:0:
192,192,51915,1,0,0:0:0:50:hihat.wav
448,192,51996,1,0,0:0:0:0:
64,192,52078,1,0,0:0:0:50:bass.wav
320,192,52159,1,0,0:0:0:0:
64,192,52241,1,0,0:0:0:50:drum.wav
448,192,52241,1,0,0:0:0:50:hihat.wav
192,192,52241,1,0,0:0:0:0:
320,192,52322,1,0,0:0:0:0:
192,192,52404,1,0,0:0:0:50:hihat.wav
64,192,52485,1,0,0:0:0:50:hihat.wav
320,192,52567,1,0,0:0:0:50:hihat.wav
448,192,52567,1,0,0:0:0:50:bass.wav
192,192,52730,1,0,0:0:0:50:bass.wav
448,192,52893,1,0,0:0:0:50:drum.wav
64,192,52893,1,0,0:0:0:50:hihat.wav
320,192,52893,1,0,0:0:0:0:
192,192,52975,1,0,0:0:0:0:
320,192,53056,1,0,0:0:0:0:
448,192,53219,1,0,0:0:0:50:hihat.wav
320,192,53382,1,0,0:0:0:50:bass.wav
192,192,53464,1,0,0:0:0:0:
448,192,53545,1,0,0:0:0:50:hihat.wav
320,192,53627,1,0,0:0:0:0:
448,192,53708,1,0,0:0:0:50:drum.wav
192,192,53708,1,0,0:0:0:0:
64,192,53708,1,0,0:0:0:0:
320,192,53790,1,0,0:0:0:0:
64,192,53871,1,0,0:0:0:50:hihat.wav
192,192,54034,1,0,0:0:0:50:bass.wav
320,192,54116,1,0,0:0:0:0:
64,192,54197,1,0,0:0:0:50:drum.wav
448,192,54197,1,0,0:0:0:50:hihat.wav
192,192,54197,1,0,0:0:0:0:
320,192,54279,1,0,0:0:0:0:
192,192,54360,1,0,0:0:0:50:bass.wav
64,192,54442,1,0,0:0:0:0:
320,192,54524,1,0,0:0:0:50:hihat.wav
448,192,54687,1,0,0:0:0:50:bass.wav
192,192,54768,1,0,0:0:0:0:
64,192,54850,1,0,0:0:0:50:drum.wav
448,192,54850,1,0,0:0:0:50:hihat.wav
320,192,54850,1,0,0:0:0:0:
320,192,55013,1,0,0:0:0:50:hihat.wav
64,192,55094,1,0,0:0:0:50:hihat.wav
448,192,55176,1,0,0:0:0:50:hihat.wav
192,192,55176,1,0,0:0:0:50:bass.wav
64,192,55339,1,0,0:0:0:50:bass.wav
448,192,55502,1,0,0:0:0:50:drum.wav
320,192,55502,1,0,0:0:0:50:hihat.wav
64,192,55502,1,0,0:0:0:0:
192,192,55583,1,0,0:0:0:0:
448,192,55665,1,0,0:0:0:0:
64,192,55828,1,0,0:0:0:50:hihat.wav
448,192,55991,1,0,0:0:0:50:bass.wav
448,192,56154,1,0,0:0:0:50:hihat.wav
320,192,56154,1,0,0:0:0:0:
192,192,56235,1,0,0:0:0:0:
448,192,56317,1,0,0:0:0:50:crash.wav
320,192,56317,1,0,0:0:0:0:
64,192,56317,128,0,57132:0:0:0:50:drum.wav
320,192,56480,1,0,0:0:0:50:hihat.wav
448,192,56643,1,0,0:0:0:50:bass.wav
320,192,56806,1,0,0:0:0:50:drum.wav
192,192,56806,1,0,0:0:0:50:hihat.wav
448,192,56969,1,0,0:0:0:50:bass.wav
448,192,57132,1,0,0:0:0:50:bass.wav
320,192,57132,1,0,0:0:0:50:hihat.wav
192,192,57214,1,0,0:0:0:0:
320,192,57295,1,0,0:0:0:50:bass.wav
448,192,57295,1,0,0:0:0:0:
192,192,57377,1,0,0:0:0:0:
64,192,57458,1,0,0:0:0:50:bass.wav
448,192,57458,1,0,0:0:0:50:hihat.wav
320,192,57540,1,0,0:0:0:0:
64,192,57621,1,0,0:0:0:50:bass.wav
192,192,57621,1,0,0:0:0:0:
320,192,57703,1,0,0:0:0:0:
448,192,57784,1,0,0:0:0:50:bass.wav
192,192,57784,1,0,0:0:0:50:crash.wav
64,192,57784,128,0,58110:0:0:0:0:
448,192,57947,1,0,0:0:0:50:hihat.wav
448,192,58110,1,0,0:0:0:50:bass.wav
320,192,58110,1,0,0:0:0:0:
448,192,58274,1,0,0:0:0:50:hihat.wav
192,192,58274,128,0,58437:0:0:0:0:
448,192,58437,1,0,0:0:0:50:bass.wav
64,192,58437,128,0,58763:0:0:0:0:
320,192,58437,1,0,0:0:0:0:
448,192,58600,1,0,0:0:0:50:hihat.wav
448,192,58763,1,0,0:0:0:50:bass.wav
320,192,58763,1,0,0:0:0:0:
64,192,58926,1,0,0:0:0:50:hihat.wav
448,192,58926,1,0,0:0:0:50:drum.wav
320,192,59007,1,0,0:0:0:50:drum.wav
192,192,59007,1,0,0:0:0:0:
64,192,59089,1,0,0:0:0:50:bass.wav
448,192,59089,128,0,59252:0:0:0:0:
64,192,59252,1,0,0:0:0:50:hihat.wav
64,192,59415,1,0,0:0:0:50:bass.wav
192,192,59415,1,0,0:0:0:0:
64,192,59578,1,0,0:0:0:50:hihat.wav
320,192,59578,1,0,0:0:0:50:Scrash.wav
448,192,59578,128,0,59741:0:0:0:0:
64,192,59741,1,0,0:0:0:50:bass.wav
192,192,59741,1,0,0:0:0:0:
320,192,59904,1,0,0:0:0:50:hihat.wav
64,192,59904,1,0,0:0:0:50:Scrash.wav
448,192,59904,128,0,60230:0:0:0:0:
64,192,60067,1,0,0:0:0:50:bass.wav
192,192,60067,1,0,0:0:0:0:
320,192,60230,128,0,60393:0:0:0:50:hihat.wav
192,192,60393,1,0,0:0:0:50:bass.wav
64,192,60393,1,0,0:0:0:50:crash.wav
448,192,60393,1,0,0:0:0:0:
192,192,60556,1,0,0:0:0:50:bass.wav
192,192,60719,1,0,0:0:0:50:bass.wav
64,192,60719,1,0,0:0:0:0:
448,192,60719,1,0,0:0:0:0:
192,192,60882,1,0,0:0:0:50:bass.wav
192,192,61045,1,0,0:0:0:50:bass.wav
64,192,61045,1,0,0:0:0:0:
448,192,61208,1,0,0:0:0:50:bass.wav
320,192,61208,1,0,0:0:0:50:hihat.wav
64,192,61208,1,0,0:0:0:50:drum.wav
192,192,61371,1,0,0:0:0:50:bass.wav
64,192,61371,1,0,0:0:0:50:drum.wav
448,192,61371,1,0,0:0:0:0:
320,192,61534,1,0,0:0:0:50:bass.wav
448,192,61534,1,0,0:0:0:50:drum.wav
192,192,61616,1,0,0:0:0:0:
64,192,61697,1,0,0:0:0:50:bass.wav
448,192,61697,128,0,62024:0:0:0:0:
320,192,61697,128,0,62024:0:0:0:50:crash.wav
192,192,62024,1,0,0:0:0:50:bass.wav
64,192,62024,1,0,0:0:0:0:
192,192,62187,128,0,62513:0:0:0:50:crash.wav
64,192,62187,128,0,62513:0:0:0:50:bass.wav
320,192,62187,1,0,0:0:0:0:
448,192,62187,1,0,0:0:0:0:
320,192,62513,1,0,0:0:0:0:
448,192,62513,1,0,0:0:0:0:
192,192,62676,1,0,0:0:0:50:bass.wav
64,192,62676,1,0,0:0:0:0:
448,192,62757,1,0,0:0:0:0:
320,192,62839,1,0,0:0:0:50:bass.wav
192,192,62839,1,0,0:0:0:0:
64,192,62920,1,0,0:0:0:0:
448,192,63002,128,0,63328:0:0:0:50:crash.wav
320,192,63002,1,0,0:0:0:50:bass.wav
192,192,63083,1,0,0:0:0:0:
64,192,63165,1,0,0:0:0:0:
320,192,63246,1,0,0:0:0:0:
192,192,63328,1,0,0:0:0:50:bass.wav
64,192,63328,1,0,0:0:0:0:
320,192,63409,1,0,0:0:0:0:
448,192,63491,128,0,64143:0:0:0:0:
64,192,63572,1,0,0:0:0:0:
192,192,63654,1,0,0:0:0:50:drum.wav
64,192,63735,1,0,0:0:0:0:
320,192,63817,1,0,0:0:0:0:
192,192,63899,1,0,0:0:0:0:
64,192,63980,1,0,0:0:0:50:bass.wav
320,192,64062,1,0,0:0:0:0:
192,192,64143,1,0,0:0:0:50:bass.wav
64,192,64143,1,0,0:0:0:0:
320,192,64225,1,0,0:0:0:0:
64,192,64306,1,0,0:0:0:0:
448,192,64306,1,0,0:0:0:0:
192,192,64388,1,0,0:0:0:0:
320,192,64469,1,0,0:0:0:50:drum.wav
448,192,64469,1,0,0:0:0:0:
64,192,64551,1,0,0:0:0:0:
192,192,64632,1,0,0:0:0:50:bass.wav
320,192,64632,1,0,0:0:0:0:
448,192,64714,1,0,0:0:0:0:
192,192,64795,1,0,0:0:0:0:
64,192,64795,1,0,0:0:0:0:
320,192,64877,1,0,0:0:0:0:
448,192,64958,1,0,0:0:0:50:drum.wav
192,192,64958,1,0,0:0:0:0:
64,192,65040,1,0,0:0:0:0:
320,192,65121,1,0,0:0:0:0:
448,192,65121,1,0,0:0:0:0:
192,192,65203,1,0,0:0:0:0:
448,192,65284,1,0,0:0:0:50:drum.wav
64,192,65284,1,0,0:0:0:0:
320,192,65366,1,0,0:0:0:50:drum.wav
192,192,65366,1,0,0:0:0:0:
64,192,65447,1,0,0:0:0:50:drum.wav
448,192,65447,1,0,0:0:0:0:
320,192,65529,1,0,0:0:0:0:
192,192,65610,1,0,0:0:0:50:crash.wav
64,192,65610,128,0,66589:0:0:0:50:bass.wav
320,192,65774,1,0,0:0:0:0:
192,192,65937,1,0,0:0:0:0:
320,192,66100,1,0,0:0:0:0:
448,192,66263,1,0,0:0:0:0:
320,192,66426,1,0,0:0:0:0:
192,192,66589,1,0,0:0:0:0:
448,192,66752,1,0,0:0:0:50:Scrash.wav
320,192,66752,1,0,0:0:0:50:bass.wav
192,192,66752,1,0,0:0:0:0:
64,192,66752,1,0,0:0:0:0:
448,192,67078,5,0,0:0:0:50:Scrash.wav
320,192,67078,1,0,0:0:0:50:bass.wav
192,192,67078,1,0,0:0:0:0:
64,192,67078,1,0,0:0:0:0:
64,192,67241,1,0,0:0:0:50:Scrash.wav
192,192,67241,1,0,0:0:0:50:bass.wav
320,192,67241,1,0,0:0:0:0:
448,192,67241,1,0,0:0:0:0:
320,192,68219,5,0,0:0:0:50:crash.wav
64,192,68219,1,0,0:0:0:50:drum.wav
448,192,68219,1,0,0:0:0:50:bass.wav
192,192,68301,1,0,0:0:0:0:
320,192,68382,1,0,0:0:0:0:
448,192,68382,1,0,0:0:0:0:
64,192,68464,1,0,0:0:0:0:
192,192,68545,1,0,0:0:0:50:drum.wav
320,192,68545,1,0,0:0:0:0:
448,192,68627,1,0,0:0:0:0:
64,192,68708,1,0,0:0:0:0:
192,192,68708,1,0,0:0:0:0:
320,192,68790,1,0,0:0:0:0:
448,192,68871,1,0,0:0:0:50:hihat.wav
64,192,68871,1,0,0:0:0:50:bass.wav
192,192,68953,1,0,0:0:0:0:
320,192,69034,1,0,0:0:0:50:bass.wav
448,192,69034,1,0,0:0:0:0:
64,192,69116,1,0,0:0:0:0:
448,192,69197,1,0,0:0:0:50:drum.wav
192,192,69197,1,0,0:0:0:0:
320,192,69279,1,0,0:0:0:0:
64,192,69360,1,0,0:0:0:50:bass.wav
192,192,69360,1,0,0:0:0:0:
448,192,69442,1,0,0:0:0:0:
192,192,69524,1,0,0:0:0:50:hihat.wav
320,192,69524,1,0,0:0:0:0:
64,192,69605,1,0,0:0:0:0:
320,192,69687,1,0,0:0:0:50:bass.wav
448,192,69687,1,0,0:0:0:0:
192,192,69768,1,0,0:0:0:0:
448,192,69850,1,0,0:0:0:50:drum.wav
64,192,69850,1,0,0:0:0:0:
320,192,69931,1,0,0:0:0:0:
64,192,70013,1,0,0:0:0:0:
192,192,70013,1,0,0:0:0:0:
448,192,70094,1,0,0:0:0:0:
64,192,70176,1,0,0:0:0:50:bass.wav
320,192,70176,1,0,0:0:0:50:hihat.wav
192,192,70257,1,0,0:0:0:0:
320,192,70339,1,0,0:0:0:50:bass.wav
448,192,70339,1,0,0:0:0:0:
192,192,70420,1,0,0:0:0:0:
448,192,70502,1,0,0:0:0:50:drum.wav
64,192,70502,1,0,0:0:0:0:
320,192,70583,1,0,0:0:0:0:
64,192,70665,1,0,0:0:0:0:
192,192,70665,1,0,0:0:0:0:
448,192,70746,1,0,0:0:0:0:
192,192,70828,1,0,0:0:0:50:bass.wav
64,192,70828,1,0,0:0:0:50:hihat.wav
320,192,70909,1,0,0:0:0:0:
192,192,70991,1,0,0:0:0:0:
64,192,70991,1,0,0:0:0:0:
448,192,71072,1,0,0:0:0:0:
320,192,71154,1,0,0:0:0:50:drum.wav
64,192,71154,1,0,0:0:0:0:
192,192,71235,1,0,0:0:0:0:
320,192,71317,1,0,0:0:0:0:
448,192,71317,1,0,0:0:0:0:
64,192,71399,1,0,0:0:0:0:
192,192,71480,1,0,0:0:0:50:bass.wav
448,192,71480,1,0,0:0:0:50:hihat.wav
320,192,71562,1,0,0:0:0:0:
192,192,71643,1,0,0:0:0:50:bass.wav
64,192,71643,1,0,0:0:0:0:
320,192,71725,1,0,0:0:0:0:
448,192,71806,1,0,0:0:0:50:drum.wav
64,192,71806,1,0,0:0:0:0:
192,192,71888,1,0,0:0:0:0:
448,192,71969,1,0,0:0:0:50:bass.wav
320,192,71969,1,0,0:0:0:0:
192,192,72051,1,0,0:0:0:0:
448,192,72132,1,0,0:0:0:50:hihat.wav
64,192,72132,1,0,0:0:0:0:
320,192,72214,1,0,0:0:0:0:
192,192,72295,1,0,0:0:0:50:bass.wav
64,192,72295,1,0,0:0:0:0:
448,192,72377,1,0,0:0:0:0:
320,192,72458,1,0,0:0:0:50:drum.wav
192,192,72458,1,0,0:0:0:0:
448,192,72540,1,0,0:0:0:0:
320,192,72621,1,0,0:0:0:0:
64,192,72621,1,0,0:0:0:0:
192,192,72703,1,0,0:0:0:0:
448,192,72784,1,0,0:0:0:50:bass.wav
320,192,72784,1,0,0:0:0:50:hihat.wav
192,192,72866,1,0,0:0:0:0:
448,192,72947,1,0,0:0:0:50:bass.wav
64,192,72947,1,0,0:0:0:0:
320,192,73029,1,0,0:0:0:0:
192,192,73110,1,0,0:0:0:50:drum.wav
448,192,73110,1,0,0:0:0:0:
320,192,73192,1,0,0:0:0:0:
64,192,73274,1,0,0:0:0:0:
192,192,73274,1,0,0:0:0:0:
320,192,73355,1,0,0:0:0:0:
192,192,73437,1,0,0:0:0:50:bass.wav
64,192,73437,1,0,0:0:0:50:hihat.wav
448,192,73437,1,0,0:0:0:50:crash.wav
320,192,73518,1,0,0:0:0:0:
64,192,73600,1,0,0:0:0:0:
448,192,73600,1,0,0:0:0:0:
192,192,73681,1,0,0:0:0:0:
448,192,73763,1,0,0:0:0:50:drum.wav
64,192,73763,1,0,0:0:0:0:
320,192,73844,1,0,0:0:0:0:
64,192,73926,1,0,0:0:0:0:
192,192,73926,1,0,0:0:0:0:
320,192,74007,1,0,0:0:0:0:
448,192,74089,1,0,0:0:0:50:bass.wav
64,192,74089,1,0,0:0:0:50:hihat.wav
192,192,74170,1,0,0:0:0:0:
448,192,74252,1,0,0:0:0:50:bass.wav
64,192,74252,1,0,0:0:0:0:
320,192,74333,1,0,0:0:0:0:
192,192,74415,1,0,0:0:0:50:drum.wav
64,192,74415,1,0,0:0:0:0:
320,192,74496,1,0,0:0:0:0:
448,192,74578,1,0,0:0:0:50:bass.wav
64,192,74578,1,0,0:0:0:50:crash.wav
192,192,74578,1,0,0:0:0:0:
320,192,74659,1,0,0:0:0:0:
192,192,74741,1,0,0:0:0:0:
448,192,74741,1,0,0:0:0:0:
64,192,74822,1,0,0:0:0:0:
448,192,74904,1,0,0:0:0:50:bass.wav
192,192,74904,1,0,0:0:0:0:
320,192,74985,1,0,0:0:0:0:
64,192,75067,1,0,0:0:0:50:drum.wav
448,192,75067,1,0,0:0:0:0:
320,192,75149,1,0,0:0:0:0:
192,192,75230,1,0,0:0:0:0:
64,192,75230,1,0,0:0:0:0:
448,192,75312,1,0,0:0:0:0:
320,192,75393,1,0,0:0:0:50:bass.wav
64,192,75393,1,0,0:0:0:50:hihat.wav
192,192,75475,1,0,0:0:0:0:
320,192,75556,1,0,0:0:0:50:bass.wav
448,192,75556,1,0,0:0:0:0:
64,192,75638,1,0,0:0:0:0:
448,192,75719,1,0,0:0:0:50:drum.wav
320,192,75719,1,0,0:0:0:0:
192,192,75801,1,0,0:0:0:0:
320,192,75882,1,0,0:0:0:50:drum.wav
448,192,75882,1,0,0:0:0:0:
64,192,75964,1,0,0:0:0:0:
448,192,76045,1,0,0:0:0:50:bass.wav
320,192,76045,1,0,0:0:0:50:hihat.wav
192,192,76045,1,0,0:0:0:50:crash.wav
64,192,76127,1,0,0:0:0:0:
192,192,76208,1,0,0:0:0:0:
448,192,76208,1,0,0:0:0:0:
320,192,76290,1,0,0:0:0:0:
192,192,76371,1,0,0:0:0:50:drum.wav
64,192,76371,1,0,0:0:0:0:
320,192,76453,1,0,0:0:0:0:
448,192,76534,1,0,0:0:0:0:
64,192,76534,1,0,0:0:0:0:
192,192,76616,1,0,0:0:0:0:
320,192,76697,1,0,0:0:0:50:bass.wav
448,192,76697,1,0,0:0:0:50:hihat.wav
64,192,76779,1,0,0:0:0:0:
320,192,76860,1,0,0:0:0:50:bass.wav
192,192,76860,1,0,0:0:0:0:
448,192,76942,1,0,0:0:0:0:
64,192,77024,1,0,0:0:0:50:drum.wav
192,192,77024,1,0,0:0:0:0:
448,192,77105,1,0,0:0:0:0:
64,192,77187,1,0,0:0:0:50:bass.wav
320,192,77187,1,0,0:0:0:50:crash.wav
192,192,77187,1,0,0:0:0:0:
448,192,77268,1,0,0:0:0:0:
64,192,77350,1,0,0:0:0:0:
320,192,77350,1,0,0:0:0:0:
192,192,77431,1,0,0:0:0:0:
320,192,77513,1,0,0:0:0:50:drum.wav
448,192,77513,1,0,0:0:0:0:
192,192,77594,1,0,0:0:0:0:
448,192,77676,1,0,0:0:0:50:bass.wav
64,192,77676,1,0,0:0:0:0:
320,192,77757,1,0,0:0:0:0:
192,192,77839,1,0,0:0:0:50:drum.wav
64,192,77839,1,0,0:0:0:0:
320,192,77920,1,0,0:0:0:0:
448,192,78002,1,0,0:0:0:50:bass.wav
64,192,78002,1,0,0:0:0:50:hihat.wav
192,192,78083,1,0,0:0:0:0:
320,192,78165,1,0,0:0:0:50:drum.wav
448,192,78165,1,0,0:0:0:0:
192,192,78246,1,0,0:0:0:0:
320,192,78328,1,0,0:0:0:50:drum.wav
448,192,78328,1,0,0:0:0:0:
192,192,78409,1,0,0:0:0:50:drum.wav
64,192,78409,1,0,0:0:0:0:
320,192,78491,1,0,0:0:0:50:bass.wav
448,192,78491,1,0,0:0:0:0:
192,192,78572,1,0,0:0:0:50:bass.wav
64,192,78572,1,0,0:0:0:0:
320,192,78654,1,0,0:0:0:50:crash.wav
448,192,78654,128,0,78980:0:0:0:50:bass.wav
64,192,78735,1,0,0:0:0:0:
192,192,78817,1,0,0:0:0:0:
320,192,78899,1,0,0:0:0:0:
192,192,78980,1,0,0:0:0:50:drum.wav
64,192,78980,128,0,79306:0:0:0:0:
320,192,79062,1,0,0:0:0:0:
448,192,79143,1,0,0:0:0:0:
320,192,79225,1,0,0:0:0:0:
448,192,79306,1,0,0:0:0:50:hihat.wav
192,192,79306,128,0,79632:0:0:0:50:bass.wav
320,192,79388,1,0,0:0:0:0:
64,192,79469,1,0,0:0:0:50:bass.wav
448,192,79551,1,0,0:0:0:0:
320,192,79632,128,0,79795:0:0:0:50:drum.wav
64,192,79632,1,0,0:0:0:0:
192,192,79714,1,0,0:0:0:0:
448,192,79795,128,0,79958:0:0:0:50:bass.wav
64,192,79877,1,0,0:0:0:0:
192,192,79958,1,0,0:0:0:50:hihat.wav
320,192,79958,128,0,80284:0:0:0:0:
64,192,80040,1,0,0:0:0:0:
448,192,80121,1,0,0:0:0:50:bass.wav
192,192,80203,1,0,0:0:0:0:
64,192,80284,1,0,0:0:0:50:drum.wav
448,192,80284,128,0,80447:0:0:0:0:
320,192,80366,1,0,0:0:0:0:
192,192,80447,128,0,80774:0:0:0:0:
64,192,80529,1,0,0:0:0:0:
320,192,80610,1,0,0:0:0:50:bass.wav
448,192,80610,1,0,0:0:0:50:hihat.wav
64,192,80692,1,0,0:0:0:0:
448,192,80774,1,0,0:0:0:50:bass.wav
320,192,80855,1,0,0:0:0:0:
448,192,80937,1,0,0:0:0:50:drum.wav
192,192,80937,1,0,0:0:0:0:
64,192,80937,1,0,0:0:0:0:
320,192,81018,1,0,0:0:0:0:
64,192,81100,1,0,0:0:0:0:
192,192,81181,1,0,0:0:0:0:
64,192,81263,128,0,81589:0:0:0:50:bass.wav
448,192,81263,1,0,0:0:0:50:hihat.wav
320,192,81263,1,0,0:0:0:50:crash.wav
192,192,81344,1,0,0:0:0:0:
320,192,81426,1,0,0:0:0:0:
448,192,81507,1,0,0:0:0:0:
192,192,81589,1,0,0:0:0:50:drum.wav
320,192,81589,128,0,81915:0:0:0:0:
64,192,81670,1,0,0:0:0:0:
448,192,81752,1,0,0:0:0:0:
64,192,81833,1,0,0:0:0:0:
192,192,81915,128,0,82078:0:0:0:50:bass.wav
64,192,81996,1,0,0:0:0:0:
320,192,82078,128,0,82241:0:0:0:50:bass.wav
448,192,82159,1,0,0:0:0:0:
64,192,82241,1,0,0:0:0:50:drum.wav
192,192,82241,128,0,82404:0:0:0:0:
448,192,82322,1,0,0:0:0:0:
64,192,82404,128,0,83382:0:0:0:50:bass.wav
320,192,82404,1,0,0:0:0:50:crash.wav
448,192,82485,1,0,0:0:0:0:
192,192,82567,1,0,0:0:0:50:hihat.wav
320,192,82567,1,0,0:0:0:0:
448,192,82649,1,0,0:0:0:0:
192,192,82730,1,0,0:0:0:50:bass.wav
448,192,82812,1,0,0:0:0:0:
320,192,82893,1,0,0:0:0:50:drum.wav
192,192,82893,1,0,0:0:0:0:
448,192,82975,1,0,0:0:0:0:
320,192,83056,1,0,0:0:0:0:
192,192,83138,1,0,0:0:0:0:
448,192,83219,1,0,0:0:0:50:bass.wav
320,192,83219,1,0,0:0:0:50:hihat.wav
192,192,83301,1,0,0:0:0:0:
448,192,83382,1,0,0:0:0:50:bass.wav
192,192,83464,1,0,0:0:0:0:
320,192,83545,1,0,0:0:0:50:drum.wav
448,192,83545,1,0,0:0:0:0:
64,192,83545,1,0,0:0:0:0:
192,192,83627,1,0,0:0:0:0:
320,192,83708,1,0,0:0:0:0:
64,192,83790,1,0,0:0:0:0:
192,192,83871,1,0,0:0:0:50:bass.wav
320,192,83871,1,0,0:0:0:50:hihat.wav
448,192,83871,128,0,84197:0:0:0:50:crash.wav
64,192,83953,1,0,0:0:0:0:
192,192,84034,1,0,0:0:0:0:
320,192,84116,1,0,0:0:0:0:
64,192,84197,128,0,84360:0:0:0:50:drum.wav
192,192,84197,1,0,0:0:0:0:
320,192,84279,1,0,0:0:0:0:
192,192,84360,128,0,84524:0:0:0:0:
448,192,84442,1,0,0:0:0:0:
320,192,84524,128,0,84850:0:0:0:50:bass.wav
64,192,84524,1,0,0:0:0:50:hihat.wav
192,192,84605,1,0,0:0:0:0:
448,192,84687,1,0,0:0:0:50:bass.wav
64,192,84768,1,0,0:0:0:0:
192,192,84850,1,0,0:0:0:50:drum.wav
448,192,84850,128,0,85013:0:0:0:0:
64,192,84931,1,0,0:0:0:0:
192,192,85013,128,0,85339:0:0:0:50:bass.wav
320,192,85013,1,0,0:0:0:50:crash.wav
448,192,85094,1,0,0:0:0:0:
320,192,85176,1,0,0:0:0:0:
64,192,85176,1,0,0:0:0:0:
448,192,85257,1,0,0:0:0:0:
64,192,85339,128,0,85502:0:0:0:50:bass.wav
448,192,85420,1,0,0:0:0:0:
320,192,85502,1,0,0:0:0:50:drum.wav
192,192,85502,1,0,0:0:0:0:
64,192,85665,128,0,85991:0:0:0:0:
320,192,85665,1,0,0:0:0:0:
448,192,85665,1,0,0:0:0:0:
192,192,85746,1,0,0:0:0:0:
448,192,85828,1,0,0:0:0:50:bass.wav
320,192,85828,1,0,0:0:0:50:hihat.wav
192,192,85909,1,0,0:0:0:0:
320,192,85991,1,0,0:0:0:50:bass.wav
448,192,85991,1,0,0:0:0:0:
192,192,86072,1,0,0:0:0:0:
64,192,86154,1,0,0:0:0:50:drum.wav
448,192,86154,1,0,0:0:0:0:
320,192,86235,1,0,0:0:0:0:
192,192,86317,1,0,0:0:0:50:drum.wav
64,192,86317,1,0,0:0:0:0:
448,192,86399,1,0,0:0:0:0:
320,192,86480,1,0,0:0:0:50:bass.wav
192,192,86480,1,0,0:0:0:50:hihat.wav
64,192,86480,1,0,0:0:0:50:crash.wav
320,192,86806,1,0,0:0:0:0:
448,192,86969,1,0,0:0:0:50:drum.wav
192,192,86969,1,0,0:0:0:50:bass.wav
64,192,86969,1,0,0:0:0:50:Scrash.wav
320,192,87132,1,0,0:0:0:0:
448,192,87295,1,0,0:0:0:50:Scrash.wav
192,192,87295,1,0,0:0:0:50:drum.wav
64,192,87295,1,0,0:0:0:50:bass.wav
192,192,87621,1,0,0:0:0:0:
64,192,87784,1,0,0:0:0:0:
448,192,87784,1,0,0:0:0:0:
192,192,87866,1,0,0:0:0:0:
320,192,87927,1,0,0:0:0:0:
448,192,87988,1,0,0:0:0:0:
64,192,88110,1,0,0:0:0:50:Scrash.wav
320,192,88110,1,0,0:0:0:0:
192,192,88192,1,0,0:0:0:0:
448,192,88274,1,0,0:0:0:0:
320,192,88328,1,0,0:0:0:0:
192,192,88382,1,0,0:0:0:0:
64,192,88437,1,0,0:0:0:0:
448,192,88437,1,0,0:0:0:0:
320,192,88518,1,0,0:0:0:0:
192,192,88600,1,0,0:0:0:0:
64,192,88600,1,0,0:0:0:0:
448,192,88681,1,0,0:0:0:0:
320,192,88763,1,0,0:0:0:0:
64,192,88763,1,0,0:0:0:0:
192,192,89089,1,0,0:0:0:50:bass.wav
64,192,89089,1,0,0:0:0:50:drum.wav
448,192,89089,128,0,89415:0:0:0:50:crash.wav
64,192,89252,128,0,89415:0:0:0:0:
192,192,89415,1,0,0:0:0:50:drum.wav
320,192,89415,128,0,89741:0:0:0:0:
64,192,89578,128,0,89741:0:0:0:0:
192,192,89741,128,0,90067:0:0:0:50:bass.wav
448,192,89741,1,0,0:0:0:0:
448,192,89904,128,0,90067:0:0:0:50:bass.wav
64,192,90067,128,0,90556:0:0:0:50:drum.wav
320,192,90067,1,0,0:0:0:0:
192,192,90230,128,0,90556:0:0:0:50:bass.wav
448,192,90393,1,0,0:0:0:0:
320,192,90556,128,0,90882:0:0:0:50:bass.wav
64,192,90719,128,0,90882:0:0:0:50:drum.wav
448,192,90719,1,0,0:0:0:0:
192,192,90882,128,0,91208:0:0:0:0:
448,192,91045,128,0,91208:0:0:0:50:bass.wav
320,192,91045,1,0,0:0:0:0:
64,192,91208,128,0,91534:0:0:0:50:bass.wav
320,192,91371,128,0,91534:0:0:0:50:drum.wav
192,192,91371,1,0,0:0:0:0:
448,192,91534,1,0,0:0:0:0:
320,192,91616,1,0,0:0:0:0:
64,192,91697,1,0,0:0:0:50:bass.wav
192,192,91697,128,0,92024:0:0:0:0:
448,192,91860,128,0,92024:0:0:0:0:
64,192,92024,1,0,0:0:0:50:drum.wav
320,192,92024,128,0,92350:0:0:0:0:
192,192,92187,128,0,92350:0:0:0:0:
64,192,92350,128,0,92676:0:0:0:50:bass.wav
448,192,92350,1,0,0:0:0:0:
320,192,92513,128,0,92676:0:0:0:50:bass.wav
192,192,92676,1,0,0:0:0:50:drum.wav
448,192,92676,128,0,93165:0:0:0:0:
64,192,92839,128,0,93165:0:0:0:50:bass.wav
320,192,93002,1,0,0:0:0:0:
192,192,93165,128,0,93491:0:0:0:50:bass.wav
320,192,93328,1,0,0:0:0:50:drum.wav
448,192,93328,1,0,0:0:0:0:
448,192,93491,1,0,0:0:0:0:
320,192,93572,1,0,0:0:0:0:
64,192,93654,128,0,93980:0:0:0:50:bass.wav
192,192,93654,1,0,0:0:0:0:
448,192,93817,128,0,93980:0:0:0:50:bass.wav
320,192,93980,128,0,94306:0:0:0:50:drum.wav
192,192,93980,1,0,0:0:0:0:
64,192,94143,128,0,94306:0:0:0:0:
448,192,94306,1,0,0:0:0:50:crash.wav
192,192,94306,1,0,0:0:0:50:bass.wav
320,192,94469,1,0,0:0:0:0:
64,192,94469,1,0,0:0:0:0:
192,192,94632,1,0,0:0:0:50:drum.wav
320,192,94632,1,0,0:0:0:0:
448,192,94632,1,0,0:0:0:0:
448,192,94795,1,0,0:0:0:0:
64,192,94795,1,0,0:0:0:0:
64,192,94958,1,0,0:0:0:50:bass.wav
192,192,94958,1,0,0:0:0:0:
320,192,95040,1,0,0:0:0:0:
448,192,95121,1,0,0:0:0:50:bass.wav
192,192,95284,1,0,0:0:0:50:drum.wav
448,192,95284,1,0,0:0:0:0:
64,192,95284,1,0,0:0:0:0:
320,192,95366,1,0,0:0:0:0:
192,192,95447,1,0,0:0:0:50:bass.wav
64,192,95447,1,0,0:0:0:50:crash.wav
448,192,95447,1,0,0:0:0:0:
320,192,95610,1,0,0:0:0:0:
64,192,95610,1,0,0:0:0:0:
192,192,95774,1,0,0:0:0:50:bass.wav
448,192,95774,1,0,0:0:0:0:
320,192,95937,1,0,0:0:0:50:drum.wav
192,192,95937,1,0,0:0:0:0:
64,192,95937,1,0,0:0:0:0:
448,192,96100,128,0,96752:0:0:0:0:
64,192,96100,1,0,0:0:0:0:
192,192,96263,1,0,0:0:0:50:bass.wav
192,192,96426,1,0,0:0:0:50:bass.wav
320,192,96589,1,0,0:0:0:50:drum.wav
64,192,96589,1,0,0:0:0:0:
192,192,96752,1,0,0:0:0:50:drum.wav
64,192,96752,1,0,0:0:0:0:
320,192,96915,1,0,0:0:0:50:bass.wav
448,192,96915,128,0,97078:0:0:0:50:crash.wav
64,192,97078,128,0,97200:0:0:0:0:
320,192,97200,1,0,0:0:0:0:
448,192,97241,1,0,0:0:0:50:drum.wav
192,192,97241,1,0,0:0:0:0:
64,192,97241,1,0,0:0:0:0:
320,192,97295,1,0,0:0:0:0:
192,192,97384,1,0,0:0:0:0:
320,192,97458,128,0,97567:0:0:0:0:
64,192,97567,1,0,0:0:0:50:bass.wav
448,192,97567,128,0,97649:0:0:0:0:
320,192,97649,128,0,97730:0:0:0:0:
192,192,97730,128,0,97812:0:0:0:50:bass.wav
320,192,97812,128,0,97893:0:0:0:0:
64,192,97893,1,0,0:0:0:0:
448,192,97893,128,0,97975:0:0:0:0:
192,192,97893,1,0,0:0:0:50:drum.wav
320,192,97975,128,0,98029:0:0:0:0:
192,192,98029,128,0,98138:0:0:0:50:bass.wav
320,192,98138,1,0,0:0:0:0:
448,192,98138,1,0,0:0:0:0:
64,192,98219,128,0,98341:0:0:0:0:
192,192,98341,128,0,98423:0:0:0:0:
448,192,98382,1,0,0:0:0:0:
320,192,98423,1,0,0:0:0:0:
64,192,98518,1,0,0:0:0:0:
192,192,98545,128,0,98654:0:0:0:50:bass.wav
320,192,98654,128,0,98708:0:0:0:0:
64,192,98708,1,0,0:0:0:50:drum.wav
448,192,98708,128,0,98817:0:0:0:0:
320,192,98817,128,0,98899:0:0:0:0:
192,192,98899,128,0,98980:0:0:0:50:bass.wav
64,192,98980,128,0,99116:0:0:0:0:
320,192,99034,1,0,0:0:0:50:drum.wav
448,192,99116,1,0,0:0:0:0:
192,192,99197,1,0,0:0:0:50:drum.wav
64,192,99197,1,0,0:0:0:0:
448,192,99279,1,0,0:0:0:50:drum.wav
320,192,99279,1,0,0:0:0:0:
64,192,99360,1,0,0:0:0:50:bass.wav
192,192,99360,1,0,0:0:0:0:
320,192,99442,5,0,0:0:0:50:bass.wav
448,192,99442,1,0,0:0:0:0:
64,192,99524,1,0,0:0:0:50:crash.wav
192,192,99524,1,0,0:0:0:50:bass.wav
448,192,99605,1,0,0:0:0:0:
320,192,99687,1,0,0:0:0:0:
64,192,99687,1,0,0:0:0:0:
448,192,99768,1,0,0:0:0:0:
192,192,99850,1,0,0:0:0:50:drum.wav
64,192,99850,1,0,0:0:0:0:
448,192,99931,1,0,0:0:0:0:
320,192,99931,1,0,0:0:0:0:
64,192,100013,1,0,0:0:0:0:
192,192,100094,1,0,0:0:0:0:
320,192,100176,1,0,0:0:0:50:bass.wav
448,192,100176,1,0,0:0:0:0:
64,192,100257,1,0,0:0:0:0:
192,192,100339,1,0,0:0:0:50:bass.wav
448,192,100420,1,0,0:0:0:0:
320,192,100420,1,0,0:0:0:0:
64,192,100502,1,0,0:0:0:50:drum.wav
192,192,100502,1,0,0:0:0:0:
320,192,100583,1,0,0:0:0:0:
64,192,100665,1,0,0:0:0:50:bass.wav
448,192,100665,1,0,0:0:0:0:
320,192,100746,1,0,0:0:0:0:
448,192,100828,1,0,0:0:0:0:
192,192,100828,1,0,0:0:0:0:
64,192,100909,1,0,0:0:0:0:
320,192,100991,1,0,0:0:0:50:bass.wav
192,192,100991,1,0,0:0:0:0:
448,192,101072,1,0,0:0:0:0:
192,192,101154,1,0,0:0:0:50:drum.wav
320,192,101154,1,0,0:0:0:0:
64,192,101235,1,0,0:0:0:0:
448,192,101235,1,0,0:0:0:0:
192,192,101317,1,0,0:0:0:0:
320,192,101399,1,0,0:0:0:0:
64,192,101480,1,0,0:0:0:50:bass.wav
192,192,101480,1,0,0:0:0:0:
448,192,101562,1,0,0:0:0:0:
320,192,101643,1,0,0:0:0:50:bass.wav
64,192,101725,1,0,0:0:0:0:
448,192,101725,1,0,0:0:0:0:
320,192,101806,1,0,0:0:0:50:drum.wav
192,192,101806,1,0,0:0:0:0:
64,192,101888,1,0,0:0:0:0:
320,192,101969,1,0,0:0:0:0:
448,192,101969,1,0,0:0:0:0:
192,192,102051,1,0,0:0:0:0:
64,192,102132,1,0,0:0:0:50:bass.wav
320,192,102132,1,0,0:0:0:50:crash.wav
448,192,102132,1,0,0:0:0:0:
192,192,102214,1,0,0:0:0:0:
320,192,102295,1,0,0:0:0:0:
448,192,102295,1,0,0:0:0:0:
192,192,102377,1,0,0:0:0:0:
64,192,102458,1,0,0:0:0:50:drum.wav
320,192,102458,1,0,0:0:0:0:
192,192,102540,1,0,0:0:0:0:
448,192,102540,1,0,0:0:0:0:
64,192,102621,1,0,0:0:0:0:
320,192,102703,1,0,0:0:0:0:
192,192,102784,1,0,0:0:0:50:bass.wav
448,192,102784,1,0,0:0:0:0:
320,192,102866,1,0,0:0:0:0:
64,192,102866,1,0,0:0:0:0:
192,192,102947,1,0,0:0:0:50:bass.wav
448,192,102947,1,0,0:0:0:0:
64,192,103029,1,0,0:0:0:0:
320,192,103110,1,0,0:0:0:50:drum.wav
448,192,103110,1,0,0:0:0:0:
192,192,103192,1,0,0:0:0:0:
64,192,103192,1,0,0:0:0:0:
448,192,103274,1,0,0:0:0:50:bass.wav
320,192,103274,1,0,0:0:0:0:
192,192,103355,1,0,0:0:0:0:
448,192,103437,1,0,0:0:0:0:
64,192,103437,1,0,0:0:0:0:
192,192,103518,1,0,0:0:0:0:
320,192,103600,1,0,0:0:0:50:bass.wav
448,192,103600,1,0,0:0:0:0:
192,192,103681,1,0,0:0:0:0:
64,192,103681,1,0,0:0:0:0:
320,192,103763,1,0,0:0:0:50:drum.wav
448,192,103763,1,0,0:0:0:0:
64,192,103844,1,0,0:0:0:0:
192,192,103844,1,0,0:0:0:0:
320,192,103926,1,0,0:0:0:0:
448,192,103926,1,0,0:0:0:0:
64,192,104007,1,0,0:0:0:0:
320,192,104089,1,0,0:0:0:50:bass.wav
448,192,104089,1,0,0:0:0:0:
192,192,104170,1,0,0:0:0:0:
64,192,104170,1,0,0:0:0:0:
448,192,104252,1,0,0:0:0:50:bass.wav
192,192,104333,1,0,0:0:0:0:
320,192,104333,1,0,0:0:0:0:
448,192,104415,1,0,0:0:0:50:drum.wav
64,192,104415,128,0,104741:0:0:0:0:
320,192,104578,1,0,0:0:0:0:
448,192,104741,1,0,0:0:0:50:bass.wav
320,192,104741,1,0,0:0:0:50:crash.wav
192,192,104741,1,0,0:0:0:0:
192,192,104904,1,0,0:0:0:0:
64,192,104904,1,0,0:0:0:0:
192,192,105067,1,0,0:0:0:50:drum.wav
64,192,105067,1,0,0:0:0:0:
448,192,105067,128,0,105393:0:0:0:0:
320,192,105230,1,0,0:0:0:0:
64,192,105393,128,0,105556:0:0:0:50:bass.wav
192,192,105393,1,0,0:0:0:0:
320,192,105556,128,0,105719:0:0:0:50:bass.wav
64,192,105719,1,0,0:0:0:50:drum.wav
448,192,105719,128,0,105882:0:0:0:0:
192,192,105719,1,0,0:0:0:0:
320,192,105882,1,0,0:0:0:50:bass.wav
64,192,105882,1,0,0:0:0:50:crash.wav
192,192,105882,1,0,0:0:0:0:
192,192,106045,1,0,0:0:0:0:
448,192,106208,128,0,106371:0:0:0:50:bass.wav
320,192,106371,128,0,106534:0:0:0:50:drum.wav
64,192,106371,1,0,0:0:0:0:
192,192,106371,1,0,0:0:0:0:
448,192,106534,1,0,0:0:0:0:
192,192,106534,1,0,0:0:0:50:drum.wav
64,192,106616,1,0,0:0:0:0:
320,192,106616,1,0,0:0:0:0:
192,192,106697,1,0,0:0:0:50:bass.wav
448,192,106697,128,0,106860:0:0:0:0:
64,192,106860,1,0,0:0:0:50:bass.wav
192,192,106860,128,0,107350:0:0:0:0:
320,192,107024,1,0,0:0:0:50:drum.wav
448,192,107024,1,0,0:0:0:0:
320,192,107187,1,0,0:0:0:50:drum.wav
448,192,107187,1,0,0:0:0:0:
320,192,107350,1,0,0:0:0:50:bass.wav
448,192,107350,1,0,0:0:0:50:crash.wav
64,192,107350,1,0,0:0:0:0:
192,192,107458,1,0,0:0:0:0:
320,192,107567,1,0,0:0:0:0:
192,192,107676,1,0,0:0:0:0:
64,192,107784,1,0,0:0:0:0:
320,192,107839,1,0,0:0:0:50:crash.wav
448,192,107839,1,0,0:0:0:0:
192,192,107893,1,0,0:0:0:0:
64,192,108002,1,0,0:0:0:0:
192,192,108110,1,0,0:0:0:0:
320,192,108165,1,0,0:0:0:50:crash.wav
448,192,108165,1,0,0:0:0:0:
64,192,108219,1,0,0:0:0:0:
192,192,108328,1,0,0:0:0:0:
320,192,108437,1,0,0:0:0:0:
448,192,108545,1,0,0:0:0:0:
64,192,108654,128,0,108871:0:0:0:0:
192,192,108763,128,0,108980:0:0:0:0:
320,192,108871,128,0,109089:0:0:0:0:
64,192,108980,128,0,109197:0:0:0:50:Scrash.wav
448,192,108980,1,0,0:0:0:0:
192,192,109089,128,0,109306:0:0:0:0:
320,192,109197,128,0,109306:0:0:0:0:
448,192,109306,1,0,0:0:0:50:drum.wav
64,192,109306,1,0,0:0:0:0:
192,192,109469,1,0,0:0:0:50:drum.wav
320,192,109469,1,0,0:0:0:0:
320,192,109632,128,0,109958:0:0:0:50:bass.wav
448,192,109632,128,0,109958:0:0:0:0:
192,192,109958,1,0,0:0:0:50:bass.wav
64,192,109958,1,0,0:0:0:50:crash.wav
448,192,110121,1,0,0:0:0:0:
64,192,110284,1,0,0:0:0:50:hihat.wav
320,192,110284,1,0,0:0:0:50:drum.wav
192,192,110284,1,0,0:0:0:0:
448,192,110447,1,0,0:0:0:0:
64,192,110610,1,0,0:0:0:50:bass.wav
320,192,110610,1,0,0:0:0:0:
320,192,110774,1,0,0:0:0:50:bass.wav
192,192,110937,1,0,0:0:0:50:hihat.wav
64,192,110937,1,0,0:0:0:50:drum.wav
448,192,110937,1,0,0:0:0:0:
320,192,111100,1,0,0:0:0:50:bass.wav
448,192,111263,1,0,0:0:0:0:
64,192,111263,1,0,0:0:0:0:
448,192,111426,1,0,0:0:0:50:bass.wav
320,192,111589,1,0,0:0:0:50:hihat.wav
192,192,111589,1,0,0:0:0:50:drum.wav
64,192,111589,1,0,0:0:0:0:
448,192,111752,1,0,0:0:0:0:
320,192,111915,1,0,0:0:0:50:bass.wav
64,192,111915,1,0,0:0:0:0:
320,192,112078,1,0,0:0:0:50:bass.wav
448,192,112241,1,0,0:0:0:50:hihat.wav
64,192,112241,1,0,0:0:0:50:drum.wav
192,192,112241,1,0,0:0:0:0:
320,192,112404,1,0,0:0:0:0:
64,192,112567,1,0,0:0:0:50:bass.wav
448,192,112567,1,0,0:0:0:0:
64,192,112730,1,0,0:0:0:0:
192,192,112893,1,0,0:0:0:50:hihat.wav
448,192,112893,1,0,0:0:0:50:drum.wav
320,192,112893,1,0,0:0:0:0:
64,192,113056,1,0,0:0:0:0:
448,192,113219,1,0,0:0:0:50:bass.wav
192,192,113219,1,0,0:0:0:0:
192,192,113382,1,0,0:0:0:50:bass.wav
64,192,113545,1,0,0:0:0:50:hihat.wav
320,192,113545,1,0,0:0:0:50:drum.wav
448,192,113545,1,0,0:0:0:0:
192,192,113708,1,0,0:0:0:50:bass.wav
448,192,113871,1,0,0:0:0:0:
64,192,113871,1,0,0:0:0:0:
64,192,114034,1,0,0:0:0:50:bass.wav
448,192,114197,1,0,0:0:0:50:hihat.wav
320,192,114197,1,0,0:0:0:50:drum.wav
192,192,114197,1,0,0:0:0:0:
192,192,114360,1,0,0:0:0:0:
448,192,114524,1,0,0:0:0:50:hihat.wav
320,192,114524,1,0,0:0:0:50:bass.wav
64,192,114524,1,0,0:0:0:0:
320,192,114687,1,0,0:0:0:50:bass.wav
448,192,114850,1,0,0:0:0:50:hihat.wav
64,192,114850,1,0,0:0:0:50:drum.wav
192,192,114850,1,0,0:0:0:0:
64,192,115013,1,0,0:0:0:0:
448,192,115176,1,0,0:0:0:50:Scrash.wav
192,192,115176,1,0,0:0:0:0:
320,192,115176,1,0,0:0:0:0:
448,192,115339,1,0,0:0:0:0:
64,192,115502,1,0,0:0:0:50:hihat.wav
192,192,115502,1,0,0:0:0:50:drum.wav
320,192,115502,1,0,0:0:0:0:
448,192,115665,1,0,0:0:0:0:
320,192,115828,1,0,0:0:0:50:bass.wav
64,192,115828,1,0,0:0:0:0:
320,192,115991,1,0,0:0:0:50:bass.wav
448,192,116154,1,0,0:0:0:50:hihat.wav
192,192,116154,1,0,0:0:0:50:drum.wav
64,192,116154,1,0,0:0:0:0:
320,192,116317,1,0,0:0:0:50:bass.wav
192,192,116317,1,0,0:0:0:50:Scrash.wav
448,192,116480,1,0,0:0:0:0:
64,192,116480,1,0,0:0:0:0:
448,192,116643,1,0,0:0:0:50:bass.wav
192,192,116806,1,0,0:0:0:50:hihat.wav
64,192,116806,1,0,0:0:0:50:drum.wav
320,192,116806,1,0,0:0:0:0:
448,192,116969,1,0,0:0:0:0:
320,192,117132,1,0,0:0:0:50:bass.wav
64,192,117132,1,0,0:0:0:0:
320,192,117295,1,0,0:0:0:50:bass.wav
192,192,117458,1,0,0:0:0:50:drum.wav
64,192,117458,1,0,0:0:0:0:
448,192,117458,1,0,0:0:0:0:
320,192,117540,1,0,0:0:0:50:drum.wav
192,192,117621,1,0,0:0:0:0:
64,192,117703,1,0,0:0:0:0:
448,192,117784,1,0,0:0:0:50:Scrash.wav
192,192,117784,1,0,0:0:0:50:bass.wav
320,192,117784,1,0,0:0:0:0:
64,192,118110,1,0,0:0:0:50:drum.wav
448,192,118110,1,0,0:0:0:0:
320,192,118110,1,0,0:0:0:0:
192,192,118192,1,0,0:0:0:50:drum.wav
448,192,118274,1,0,0:0:0:50:drum.wav
64,192,118355,1,0,0:0:0:50:drum.wav
192,192,118437,1,0,0:0:0:50:drum.wav
448,192,118437,1,0,0:0:0:0:
320,192,118437,1,0,0:0:0:0:
64,192,118518,1,0,0:0:0:50:drum.wav
192,192,118600,1,0,0:0:0:50:drum.wav
448,192,118681,1,0,0:0:0:50:drum.wav
192,192,118763,1,0,0:0:0:50:drum.wav
64,192,118763,1,0,0:0:0:0:
320,192,118763,1,0,0:0:0:0:
448,192,118844,1,0,0:0:0:50:drum.wav
64,192,118926,1,0,0:0:0:50:drum.wav
192,192,119007,1,0,0:0:0:50:drum.wav
448,192,119089,1,0,0:0:0:50:drum.wav
320,192,119089,1,0,0:0:0:0:
64,192,119170,1,0,0:0:0:50:drum.wav
192,192,119170,1,0,0:0:0:0:
448,192,119252,1,0,0:0:0:50:drum.wav
320,192,119252,1,0,0:0:0:0:
64,192,119333,1,0,0:0:0:50:drum.wav
192,192,119333,1,0,0:0:0:0:
448,192,119415,1,0,0:0:0:50:drum.wav
320,192,119415,1,0,0:0:0:0:
192,192,119496,1,0,0:0:0:50:drum.wav
64,192,119496,1,0,0:0:0:0:
320,192,119578,1,0,0:0:0:50:drum.wav
448,192,119578,1,0,0:0:0:0:
64,192,119659,1,0,0:0:0:50:drum.wav
192,192,119659,1,0,0:0:0:0:
320,192,119741,1,0,0:0:0:50:drum.wav
448,192,119741,1,0,0:0:0:50:crash.wav
448,192,120067,1,0,0:0:0:50:bass.wav
320,192,120067,1,0,0:0:0:0:
192,192,120067,1,0,0:0:0:0:
64,192,120067,1,0,0:0:0:0:
