osu file format v14

[General]
AudioFilename: audio.mp3
AudioLeadIn: 0
PreviewTime: 13956
Countdown: 0
SampleSet: Soft
StackLeniency: 0.2
Mode: 0
LetterboxInBreaks: 0
WidescreenStoryboard: 1

[Editor]
Bookmarks: 29439,41838,63504,75902,103762,106859,128536,140923,168794,181181,192020,230730
DistanceSpacing: 0.8
BeatDivisor: 4
GridSize: 8
TimelineZoom: 2.699999

[Metadata]
Title:Natsuirozaka
TitleUnicode:懐色坂
Artist:VALLEYSTONE feat. Kanata.N
ArtistUnicode:VALLEYSTONE feat. かなたん
Creator:kwk
Version:moph's Extreme
Source:
Tags:moph 404 AimNotFound Luscent Saturnalize -akito pop'n music うさぎと猫と少年の夢 kanatan
BeatmapID:2011390
BeatmapSetID:950550

[Difficulty]
HPDrainRate:5
CircleSize:3.5
OverallDifficulty:9
ApproachRate:9.7
SliderMultiplier:2.8
SliderTickRate:1

[Events]
//Background and Video events
0,0,"bg.jpg",0,0
//Break Periods
2,181381,186880
//Storyboard Layer 0 (Background)
//Storyboard Layer 1 (Fail)
//Storyboard Layer 2 (Pass)
//Storyboard Layer 3 (Foreground)
//Storyboard Layer 4 (Overlay)
//Storyboard Sound Samples

[TimingPoints]
1569,387.096774193548,4,2,69,50,1,0
13956,389.61038961039,4,2,69,60,1,0
13956,-333.333333333333,4,2,69,60,0,0
14294,-333.333333333333,4,2,69,5,0,0
14391,-333.333333333333,4,2,69,60,0,0
14735,405.405405405405,4,2,69,60,1,0
14735,-333.333333333333,4,2,69,60,0,0
14875,-333.333333333333,4,2,69,5,0,0
14972,-333.333333333333,4,2,69,60,0,0
15545,382.165605095541,4,2,69,60,1,0
15545,-500,4,2,69,60,0,0
16230,-500,4,2,69,5,0,0
16327,-500,4,2,69,60,0,0
17073,394.736842105263,4,2,69,60,1,0
17073,-333.333333333333,4,2,69,60,0,0
17391,-333.333333333333,4,2,69,5,0,0
17488,-333.333333333333,4,2,69,60,0,0
17862,379.746835443038,4,2,69,60,1,0
17862,-333.333333333333,4,2,69,60,0,0
17972,-333.333333333333,4,2,69,5,0,0
18068,-333.333333333333,4,2,69,60,0,0
18621,387.096774193548,4,2,69,60,1,0
18621,-500,4,2,69,60,0,0
19133,-500,4,2,69,50,0,0
19230,-500,4,2,69,60,0,0
20169,387.722132471729,4,2,69,60,1,0
20169,-333.333333333333,4,2,69,60,0,0
20488,-333.333333333333,4,2,69,5,0,0
20585,-333.333333333333,4,2,69,60,0,0
20944,404.040404040404,4,2,69,60,1,0
20944,-333.333333333333,4,2,69,60,0,0
21068,-333.333333333333,4,2,69,5,0,0
21165,-333.333333333333,4,2,69,60,0,0
21752,370.37037037037,4,2,69,50,1,0
21752,-500,4,2,69,60,0,0
22307,-500,4,2,69,75,0,0
22859,387.096774193548,4,2,69,50,1,0
22859,-500,4,2,69,50,0,0
23246,387.096774193548,4,2,69,75,1,0
23246,-1000,4,2,69,75,0,0
24407,-333.333333333333,4,2,69,75,0,0
25762,-100,4,2,53,75,0,0
25956,-200,4,2,53,75,0,0
28278,-66.6666666666667,4,2,53,75,0,1
29052,-66.6666666666667,4,2,53,75,0,0
29439,-66.6666666666667,4,2,53,75,0,0
39665,-66.6666666666667,4,2,69,75,0,0
40278,-333.333333333333,4,2,53,75,0,0
41827,-80,4,2,53,75,0,0
42214,-100,4,2,53,65,0,0
52472,-66.6666666666667,4,2,53,65,0,0
52665,-80,4,2,53,65,0,0
52956,-100,4,2,53,65,0,0
54214,-80,4,2,53,65,0,0
54601,-100,4,2,53,65,0,0
58278,-66.6666666666667,4,2,53,65,0,0
58472,-100,4,2,53,65,0,0
61762,-66.6666666666667,4,2,53,65,0,0
63504,-83.3333333333333,4,2,53,75,0,0
63601,-83.3333333333333,4,2,42,75,0,0
69698,-200,4,2,53,75,0,0
70859,-333.333333333333,4,2,53,75,0,0
71246,-133.333333333333,4,2,53,75,0,0
75891,-66.6666666666667,4,2,53,85,0,1
87504,-200,4,2,53,85,0,1
87698,-66.6666666666667,4,2,53,85,0,1
97568,-133.333333333333,4,2,53,65,0,0
102600,-66.6666666666667,4,1,53,75,0,1
103375,-100,4,1,53,75,0,0
103568,-100,4,2,53,75,0,0
105310,-66.6666666666667,4,2,53,75,0,0
106472,-100,4,2,53,75,0,0
106859,-80,4,2,53,65,0,0
107246,-100,4,2,53,65,0,0
109956,-133.333333333333,4,2,53,65,0,0
111310,-100,4,2,53,65,0,0
117504,-66.6666666666667,4,2,53,65,0,0
117698,-80,4,2,53,65,0,0
118085,-100,4,2,53,65,0,0
119246,-66.6666666666667,4,2,53,65,0,0
119633,-80,4,2,53,65,0,0
128536,-83.3333333333333,4,2,53,75,0,0
128633,-83.3333333333333,4,2,42,75,0,0
134730,-200,4,2,53,75,0,0
135891,-333.333333333333,4,2,53,75,0,0
136278,-133.333333333333,4,2,53,75,0,0
140923,-66.6666666666667,4,2,53,85,0,1
152536,-200,4,2,53,85,0,1
152730,-66.6666666666667,4,2,53,85,0,1
162600,-133.333333333333,4,2,53,65,0,0
167633,-66.6666666666667,4,2,53,65,0,1
168359,-66.6666666666667,4,2,53,75,0,1
168407,-100,4,2,53,75,0,0
168456,-133.333333333333,4,2,53,75,0,0
175133,-133.333333333333,4,2,42,75,0,0
179633,-200,4,2,53,75,0,0
180504,-200,4,2,42,75,0,0
180698,-200,4,2,53,75,0,0
181375,-133.333333333333,4,2,69,80,0,0
187278,-500,4,2,53,75,0,0
188923,-166.666666666667,4,2,53,75,0,0
189117,-142.857142857143,4,2,53,75,0,0
189310,-125,4,2,53,75,0,0
189504,-111.111111111111,4,2,53,75,0,0
189698,-100,4,2,53,75,0,0
190085,-83.3333333333333,4,2,53,75,0,0
191633,-133.333333333333,4,2,53,75,0,0
192020,-500,4,2,53,75,0,0
193955,-66.6666666666667,4,2,53,85,0,1
205181,-200,4,2,53,85,0,1
205375,-66.6666666666667,4,2,53,85,0,1
215245,-133.333333333333,4,2,53,65,0,0
220278,-66.6666666666667,4,1,53,75,0,1
221052,-100,4,1,53,75,0,0
221246,-100,4,2,53,75,0,0
224052,-100,4,2,69,75,0,0
224149,-66.6666666666667,4,2,69,75,0,0
224246,-66.6666666666667,4,2,53,75,0,0
224536,-83.3333333333333,4,2,53,85,0,0
229375,-166.666666666667,4,2,53,85,0,0
230343,-500,4,2,53,85,0,0
230730,-66.6666666666667,4,2,53,95,0,0
237891,-57.1428571428571,4,2,53,95,0,0
238278,-50,4,2,53,95,0,0
238665,-44.4444444444445,4,2,53,95,0,0
239439,-66.6666666666667,4,2,53,95,0,0
240891,-133.333333333333,4,2,53,85,0,0
240988,-100,4,2,69,100,0,0
241278,-100,4,2,53,100,0,0
241568,-333.333333333333,4,2,53,100,0,0
243116,-66.6666666666667,4,2,53,100,0,1
246116,-100,4,2,53,5,0,0

[Colours]
Combo1 : 255,255,166
Combo2 : 255,128,128
Combo3 : 0,255,255
Combo4 : 0,255,128

[HitObjects]
78,261,13956,6,0,P|113:282|155:282,1,83.9999974365235,12|0,0:3|0:0,0:0:0:0:
212,223,14540,1,0,0:0:0:0:
175,359,14735,6,0,P|211:338|232:303,1,83.9999974365235,2|0,0:2|0:0,0:0:0:0:
212,223,15343,1,0,0:0:0:0:
309,323,15545,6,0,P|309:281|289:245,2,84,4|0|0,0:3|0:0|0:0,0:0:0:0:
309,323,16882,1,0,0:0:0:0:
309,323,17073,6,0,P|288:286|290:245,1,83.9999974365235,2|0,0:2|0:0,0:0:0:0:
347,188,17665,1,0,0:0:0:0:
211,222,17862,6,0,P|232:186|268:166,1,83.9999974365235
347,188,18431,1,0,0:0:0:0:
249,88,18621,6,0,P|290:88|325:110,1,84,4|4,0:3|0:3,0:0:0:0:
325,110,19588,5,2,0:1:0:0:
321,101,19685,1,2,0:1:0:0:
318,93,19782,1,2,0:1:0:0:
349,190,19975,1,2,0:1:0:0:
268,165,20169,6,0,P|231:185|210:221,1,83.9999974365235,4|0,0:3|0:0,0:0:0:0:
231,296,20750,1,0,0:0:0:0:
135,196,20944,6,0,P|134:238|154:274,1,83.9999974365235,2|0,0:2|0:0,0:0:0:0:
231,296,21550,1,0,0:0:0:0:
95,327,21752,6,0,P|128:350|174:348,1,84,4|4,0:3|0:3,0:0:0:0:
170,350,22859,6,0,L|193:343,1,14
257,296,23052,2,0,L|280:303,1,14
328,358,23246,6,0,L|415:350,1,84,8|0,0:3|0:0,0:0:0:0:
442,280,24504,2,0,L|467:291,2,20.9999993591309,2|2|2,0:0|0:0|0:0,0:0:0:0:
392,217,24794,6,0,P|387:177|479:34,1,209.999993591309,4|2,0:3|0:3,0:0:0:0:
470,38,25956,6,0,P|414:63|365:66,1,105,0|0,1:0|0:0,0:0:0:0:
355,64,26342,5,8,0:2:0:0:
276,19,26439,1,8,0:2:0:0:
283,108,26633,5,8,0:2:0:0:
194,125,26729,1,8,0:2:0:0:
253,189,26923,5,8,0:2:0:0:
193,256,27020,1,8,0:2:0:0:
279,276,27213,5,8,0:2:0:0:
268,365,27310,1,8,0:2:0:0:
353,336,27504,5,8,0:2:0:0:
279,276,27601,1,0,0:0:0:0:
185,261,27698,1,0,0:0:0:0:
95,290,27794,1,0,0:0:0:0:
53,375,27891,1,8,0:2:0:0:
65,376,27956,1,8,0:3:0:0:
76,378,28020,1,8,0:3:0:0:
86,380,28085,1,4,0:3:0:0:
86,380,28278,6,2,B|139:368|200:254|263:104|62:10|-79:71|-212:297|-54:518|419:454|15:173|152:117|294:241|336:284|304:354|241:404|180:362,1,840.000032043458,12|0,0:0|0:0,0:1:0:0:
203,372,29246,5,2,0:2:0:0:
266,316,29343,1,2,0:2:0:0:
349,311,29439,2,0,P|402:328|434:399,1,105.000004005432,4|0,3:1|0:0,0:0:0:0:
512,281,29633,2,0,P|459:264|426:192,1,105.000004005432,10|0,0:2|0:0,0:0:0:0:
278,42,29827,1,2,3:2:0:0:
342,94,29923,2,0,P|353:148|308:211,1,105.000004005432,2|8,1:2|0:2,0:0:0:0:
166,253,30117,5,2,0:2:0:0:
111,188,30214,1,0,3:2:0:0:
149,114,30310,2,0,L|266:135,1,105.000004005432,2|8,0:2|0:2,0:0:0:0:
439,87,30504,1,0,0:0:0:0:
439,87,30601,1,2,3:2:0:0:
477,161,30698,1,2,1:2:0:0:
422,226,30794,1,10,0:2:0:0:
422,226,30988,6,0,P|422:286|449:334,1,105.000004005432,2|0,3:2|0:0,0:0:0:0:
287,262,31181,2,0,P|257:305|250:356,1,105.000004005432,10|0,0:2|0:0,0:0:0:0:
293,132,31375,1,2,3:2:0:0:
209,145,31472,2,0,L|86:162,1,105.000004005432,2|8,1:2|0:2,0:0:0:0:
6,325,31665,5,2,0:2:0:0:
6,325,31762,1,0,3:2:0:0:
79,365,31859,1,2,0:2:0:0:
154,327,31956,2,0,P|174:290|159:226,1,105.000004005432,8|0,0:2|0:0,0:0:0:0:
0,137,32149,1,2,3:2:0:0:
73,97,32246,1,2,1:2:0:0:
148,135,32343,1,10,0:2:0:0:
148,135,32536,6,0,L|251:119,1,105.000004005432,2|0,3:2|0:0,0:0:0:0:
277,34,32730,5,10,0:2:0:0:
282,40,32827,1,2,0:2:0:0:
363,24,32923,5,2,3:2:0:0:
335,104,33020,1,2,1:2:0:0:
308,184,33117,1,10,0:2:0:0:
391,168,33214,5,0,0:0:0:0:
396,175,33311,1,2,3:2:0:0:
263,23,33504,5,10,0:2:0:0:
268,30,33601,1,2,0:2:0:0:
367,10,33698,5,2,3:2:0:0:
335,104,33795,1,2,1:2:0:0:
303,197,33892,1,10,0:2:0:0:
402,182,33988,5,0,0:2:0:0:
408,191,34085,2,0,L|518:218,1,105.000004005432,2|0,3:2|0:0,0:0:0:0:
458,360,34278,1,10,0:2:0:0:
458,360,34343,1,2,0:2:0:0:
458,360,34407,1,2,0:2:0:0:
458,360,34472,2,0,L|348:333,1,105.000004005432,2|0,3:2|1:2,0:0:0:0:
221,252,34665,2,0,P|233:292|197:354,1,105.000004005432,10|0,0:2|0:0,0:0:0:0:
54,373,34859,2,0,P|13:341|3:290,1,105.000004005432,6|0,3:2|0:0,0:0:0:0:
15,72,35052,5,10,0:2:0:0:
86,27,35149,1,8,0:2:0:0:
165,56,35246,1,10,0:2:0:0:
184,137,35343,1,8,0:2:0:0:
263,166,35439,1,10,0:2:0:0:
334,121,35536,1,8,0:2:0:0:
323,37,35633,6,0,P|363:8|435:10,1,105.000004005432,6|0,3:2|0:0,0:0:0:0:
431,143,35827,2,0,P|379:145|333:120,1,105.000004005432,10|0,0:2|0:0,0:0:0:0:
86,27,36020,1,2,3:2:0:0:
165,56,36117,2,0,P|185:103|169:172,1,105.000004005432,2|8,1:2|0:2,0:0:0:0:
15,320,36310,5,2,0:2:0:0:
83,271,36407,1,0,3:2:0:0:
166,281,36504,2,0,P|209:309|223:378,1,105.000004005432,2|8,0:2|0:2,0:0:0:0:
478,315,36698,1,0,0:0:0:0:
478,315,36794,1,2,3:2:0:0:
410,266,36891,1,2,1:2:0:0:
327,276,36987,1,10,0:2:0:0:
327,276,37181,6,0,P|284:248|270:179,1,105.000004005432,2|0,3:2|0:0,0:0:0:0:
424,106,37375,2,0,P|380:77|329:82,1,105.000004005432,10|0,0:2|0:0,0:0:0:0:
186,161,37568,1,2,3:2:0:0:
242,98,37665,2,0,P|239:46|206:-2,1,105.000004005432,2|8,1:2|0:2,0:0:0:0:
90,5,37859,1,2,0:2:0:0:
34,68,37956,2,0,P|37:120|70:168,1,105.000004005432,0|2,3:2|0:2,0:0:0:0:
45,324,38149,5,8,0:2:0:0:
104,263,38246,1,8,0:2:0:0:
187,249,38343,1,10,0:2:0:0:
258,292,38439,1,8,0:3:0:0:
302,363,38536,2,0,P|353:377|407:346,1,105.000004005432,10|4,0:2|0:3,0:0:0:0:
487,191,38730,5,8,0:2:0:0:
382,171,38827,1,8,0:2:0:0:
475,188,38923,5,8,0:2:0:0:
393,174,39020,1,8,0:2:0:0:
446,276,39310,5,8,0:2:0:0:
385,265,39407,1,8,0:2:0:0:
431,273,39504,5,8,0:2:0:0:
400,268,39601,1,8,0:2:0:0:
398,355,39698,5,2,0:1:0:0:
397,364,39794,1,2,0:1:0:0:
396,374,39891,1,4,0:1:0:0:
441,93,40278,5,8,0:2:0:0:
234,37,40375,1,8,0:2:0:0:
240,49,40665,6,0,L|233:124,1,62.9999980773926,0|0,1:0|0:0,0:0:0:0:
234,132,41052,5,8,0:2:0:0:
393,179,41149,1,8,0:2:0:0:
382,186,41439,6,0,L|375:261,1,62.9999980773926,4|0,0:3|0:0,0:0:0:0:
375,265,41827,6,0,B|204:257|310:358|111:353,1,262.5,4|0,1:2|0:0,0:0:0:0:
34,211,42214,2,0,P|71:212|110:235,1,70,8|0,0:2|0:0,0:0:0:0:
48,344,42407,1,0,1:2:0:0:
48,298,42504,1,8,0:1:0:0:
21,334,42601,1,0,0:0:0:0:
64,321,42698,1,8,0:1:0:0:
21,306,42794,1,0,1:0:0:0:
86,140,42988,1,0,0:0:0:0:
193,381,43181,6,0,P|163:260|216:175,1,210,8|0,0:2|0:0,0:0:0:0:
18,196,43568,2,0,P|44:217|77:227,1,70,0|0,1:0|0:0,0:0:0:0:
262,27,43762,1,8,0:2:0:0:
186,63,43859,2,0,P|176:158|211:197,1,140,0|0,1:0|1:0,0:0:0:0:
341,190,44149,6,0,P|318:169|272:164,1,70,0|0,1:0|1:0,0:0:0:0:
419,216,44343,2,0,P|425:185|407:143,1,70,0|0,0:0|1:0,0:0:0:0:
351,274,44536,1,8,0:2:0:0:
436,298,44633,2,0,P|465:288|493:251,1,70,0|0,0:0|0:0,0:0:0:0:
270,314,44827,5,0,0:0:0:0:
343,363,44923,2,0,P|429:314|418:215,1,210,4|0,1:2|0:0,0:0:0:0:
486,72,45310,2,0,P|464:112|417:129,1,70,8|0,0:2|0:0,0:0:0:0:
281,120,45504,1,0,1:2:0:0:
235,125,45601,1,8,0:1:0:0:
274,148,45698,1,0,0:0:0:0:
256,106,45795,1,8,0:0:0:0:
245,151,45891,1,0,1:0:0:0:
418,215,46085,2,0,P|436:244|438:279,1,70,0|0,0:0|0:0,0:0:0:0:
203,344,46278,6,0,P|248:265|371:287,1,210,8|0,0:2|0:0,0:0:0:0:
450,376,46665,2,0,P|413:370|385:323,1,70,0|0,1:0|0:0,0:0:0:0:
371,145,46859,1,8,0:2:0:0:
445,105,46956,2,0,P|459:70|453:13,1,70,0|0,1:0|0:0,0:0:0:0:
273,7,47149,1,0,1:0:0:0:
260,88,47246,2,0,P|303:141|374:143,1,140,0|0,1:0|0:0,0:0:0:0:
512,295,47536,1,0,3:0:0:0:
432,267,47633,2,0,P|423:223|444:184,1,70,8|0,0:2|0:0,0:0:0:0:
322,348,47827,2,0,P|294:327|281:294,1,70,0|0,3:0|0:0,0:0:0:0:
132,287,48020,6,0,P|249:287|310:209,1,210,4|0,1:2|0:0,0:0:0:0:
213,96,48407,2,0,P|223:133|253:156,1,70,8|0,0:2|0:0,0:0:0:0:
232,0,48601,1,0,1:2:0:0:
150,21,48698,2,0,P|127:51|118:81,2,70,8|0|8,0:1|0:0|0:1,0:0:0:0:
123,190,48988,5,0,1:0:0:0:
110,196,49085,1,0,0:0:0:0:
97,202,49181,1,0,0:0:0:0:
84,208,49278,1,0,0:0:0:0:
13,247,49375,5,8,0:2:0:0:
0,242,49472,1,0,0:0:0:0:
65,338,49568,5,0,0:0:0:0:
78,343,49665,1,0,0:0:0:0:
126,277,49762,1,0,1:0:0:0:
135,288,49859,1,0,0:0:0:0:
210,255,49956,1,8,0:2:0:0:
212,269,50053,1,0,1:0:0:0:
294,279,50149,1,0,0:0:0:0:
289,292,50246,1,0,1:0:0:0:
354,340,50343,5,0,1:0:0:0:
343,349,50440,1,0,1:0:0:0:
426,285,50536,5,0,1:2:0:0:
437,276,50633,1,0,0:0:0:0:
294,279,50730,5,8,0:2:0:0:
289,292,50827,1,0,0:0:0:0:
486,346,50923,5,0,0:0:0:0:
491,333,51020,1,0,0:0:0:0:
437,276,51117,6,0,P|419:128|447:61,1,210,4|0,1:2|0:0,0:0:0:0:
300,18,51504,2,0,P|324:46|336:86,1,70,8|0,0:2|0:0,0:0:0:0:
318,256,51698,1,0,1:2:0:0:
288,291,51795,1,8,0:1:0:0:
333,281,51892,1,0,0:0:0:0:
292,264,51987,1,8,0:1:0:0:
315,303,52084,1,0,1:0:0:0:
248,89,52278,1,0,0:0:0:0:
248,89,52472,6,0,P|204:122|143:111,1,105.000004005432,8|0,0:2|0:0,0:0:0:0:
42,76,52665,2,0,P|134:92|153:203,1,175,0|0,0:0|1:0,0:0:0:0:
84,189,52956,1,0,0:0:0:0:
36,257,53052,6,0,P|41:281|62:310,1,46.6666666666667,8|0,0:2|0:0,0:0:0:0:
64,314,53181,2,0,P|84:327|119:333,1,46.6666666666667,0|0,0:0|0:0,0:0:0:0:
123,334,53310,2,0,P|146:328|176:307,1,46.6666666666667,0|0,0:0|0:0,0:0:0:0:
193,237,53439,5,0,1:0:0:0:
267,198,53536,1,8,0:2:0:0:
344,229,53633,1,0,0:0:0:0:
370,308,53730,1,0,1:2:0:0:
320,380,53827,5,8,0:2:0:0:
292,284,53923,1,0,0:0:0:0:
374,229,54020,1,8,0:2:0:0:
451,290,54117,1,8,0:2:0:0:
417,382,54214,6,0,B|414:258|414:258|406:252|406:252|401:99,1,262.5,4|0,3:2|0:0,0:0:0:0:
286,10,54601,2,0,P|305:38|309:97,1,70,8|0,0:2|0:0,0:0:0:0:
264,230,54794,1,0,1:2:0:0:
243,270,54891,1,8,0:0:0:0:
283,251,54988,1,0,0:0:0:0:
239,243,55085,1,8,0:0:0:0:
273,276,55181,1,0,1:0:0:0:
143,179,55375,1,0,0:0:0:0:
312,72,55568,6,0,P|214:34|112:77,1,210,8|0,0:2|0:0,0:0:0:0:
37,59,55956,1,0,1:0:0:0:
72,134,56052,1,0,0:0:0:0:
44,213,56149,2,0,P|32:237|-5:270,1,70,8|0,0:2|0:0,0:0:0:0:
89,373,56343,1,0,0:0:0:0:
117,294,56440,2,0,P|129:270|166:237,1,70,0|0,1:0|1:0,0:0:0:0:
297,267,56633,5,0,0:0:0:0:
355,327,56730,2,0,L|420:337,2,46.6666666666667,0|0|0,1:2|0:0|0:0,0:0:0:0:
339,338,56923,1,8,0:2:0:0:
190,363,57020,2,0,P|157:327|174:220,1,140,0|0,0:0|0:0,0:0:0:0:
0,123,57310,6,0,P|50:176|122:163,1,140,4|0,1:2|0:0,0:0:0:0:
177,115,57601,1,0,0:0:0:0:
159,240,57698,2,0,L|123:15,1,210,8|8,0:2|0:1,0:0:0:0:
274,155,58085,2,0,L|297:68,1,70,0|8,0:0|0:1,0:0:0:0:
125,32,58278,2,0,L|147:165,1,105.000004005432,0|0,1:0|0:0,0:0:0:0:
134,351,58472,5,0,0:0:0:0:
90,279,58568,1,0,0:0:0:0:
11,309,58665,2,0,B|116:286|86:382|215:351,1,210,8|0,0:2|0:0,0:0:0:0:
268,291,59052,1,0,1:0:0:0:
268,291,59117,1,0,0:0:0:0:
268,291,59181,1,0,0:0:0:0:
268,291,59246,2,0,P|299:298|323:292,2,46.6666666666667,8|0|0,0:2|0:0|0:0,0:0:0:0:
397,199,59439,2,0,P|375:222|368:246,2,46.6666666666667,0|0|0,0:0|0:0|0:0,0:0:0:0:
407,359,59633,2,0,P|397:328|380:310,2,46.6666666666667,0|0|0,1:0|0:0|0:0,0:0:0:0:
268,291,59827,1,0,1:2:0:0:
268,291,59892,1,0,0:0:0:0:
268,291,59956,1,0,0:0:0:0:
268,291,60020,1,8,0:2:0:0:
206,352,60117,2,0,P|139:354|97:287,1,140,0|0,0:0|0:0,0:0:0:0:
4,129,60407,6,0,P|57:193|186:180,1,210,4|0,1:2|0:0,0:0:0:0:
303,263,60794,2,0,P|266:236|253:191,1,70,8|0,0:2|0:0,0:0:0:0:
253,76,60988,1,0,1:2:0:0:
281,40,61085,1,8,0:0:0:0:
238,51,61182,1,0,0:0:0:0:
280,68,61279,1,8,0:0:0:0:
252,29,61375,1,0,1:0:0:0:
199,268,61568,1,0,0:0:0:0:
144,169,61762,6,0,B|181:131|230:141|260:184|260:184|254:197|254:197|264:194|264:194|252:234|294:293|362:282|392:247,1,315.000012016297,8|0,0:2|0:0,0:0:0:0:
409,113,62149,2,0,P|364:129|366:195,1,105.000004005432,0|0,1:0|0:0,0:0:0:0:
469,292,62343,2,0,P|477:245|419:213,1,105.000004005432,8|0,0:2|1:0,0:0:0:0:
199,268,62536,5,0,0:0:0:0:
199,268,62633,1,0,1:0:0:0:
235,344,62730,1,8,0:2:0:0:
157,378,62827,2,0,B|260:365|260:365|268:372|268:372|372:360,1,210.000008010865,8|8,0:2|0:2,0:0:0:0:
101,281,63117,2,0,B|63:317|63:317|79:384,1,105.000004005432,8|0,0:2|0:0,0:0:0:0:
345,217,63310,6,0,P|332:194|311:178,1,52.5000020027161,8|0,0:2|0:0,0:0:0:0:
299,166,63407,2,0,P|272:165|248:175,1,52.5000020027161,8|0,0:2|0:0,0:0:0:0:
236,186,63504,2,0,L|53:165,1,167.999994873047,4|4,3:2|0:2,0:0:0:0:
23,96,63794,1,8,0:1:0:0:
61,20,63891,2,0,P|99:21|141:58,1,83.9999974365235,0|0,3:2|0:0,0:0:0:0:
205,93,64085,2,0,P|243:92|285:55,1,83.9999974365235,12|0,0:2|0:0,0:0:0:0:
276,56,64278,2,0,P|243:81|201:83,1,83.9999974365235,0|0,3:2|0:0,0:0:0:0:
140,39,64472,2,0,P|107:13|65:11,1,83.9999974365235,4|8,0:2|0:1,0:0:0:0:
0,221,64665,6,0,P|58:260|172:172,1,167.999994873047,4|12,3:2|0:2,0:0:0:0:
217,186,64956,1,0,0:0:0:0:
298,203,65052,2,0,P|336:244|342:289,1,83.9999974365235,0|0,3:2|0:0,0:0:0:0:
189,339,65246,2,0,P|240:361|285:352,1,83.9999974365235,4|8,0:2|0:1,0:0:0:0:
336,218,65439,2,0,P|353:255|351:297,1,83.9999974365235,0|0,3:2|0:0,0:0:0:0:
215,370,65633,2,0,P|256:374|294:358,1,83.9999974365235,12|0,0:2|0:0,0:0:0:0:
494,244,65827,6,0,P|395:249|342:344,1,167.999994873047,0|4,3:2|0:2,0:0:0:0:
295,359,66117,1,8,0:1:0:0:
215,370,66214,2,0,P|178:355|155:313,1,83.9999974365235,4|0,3:2|0:0,0:0:0:0:
142,147,66407,1,12,0:2:0:0:
197,83,66504,1,0,0:0:0:0:
262,136,66601,6,0,L|65:69,1,167.999994873047,0|4,3:2|0:2,0:0:0:0:
22,106,66891,1,8,0:1:0:0:
4,188,66988,2,0,P|17:224|78:258,1,83.9999974365235,0|0,3:2|0:0,0:0:0:0:
121,299,67181,2,0,P|107:335|46:369,1,83.9999974365235,12|0,0:2|0:0,0:0:0:0:
80,370,67375,2,0,P|112:344|127:305,1,83.9999974365235,0|0,3:2|0:0,0:0:0:0:
58,247,67568,2,0,P|25:221|10:182,1,83.9999974365235,4|8,0:2|0:1,0:0:0:0:
178,0,67762,6,0,L|162:175,1,167.999994873047,4|12,3:2|0:2,0:0:0:0:
214,234,68053,1,0,0:0:0:0:
296,224,68149,2,0,P|334:182|340:137,1,83.9999974365235,0|0,3:2|0:0,0:0:0:0:
187,88,68343,2,0,P|238:65|283:74,1,83.9999974365235,4|8,0:2|0:1,0:0:0:0:
334,209,68536,2,0,P|351:171|349:129,1,83.9999974365235,0|0,3:2|0:0,0:0:0:0:
213,57,68730,2,0,P|254:52|292:68,1,83.9999974365235,12|0,0:2|0:0,0:0:0:0:
488,80,68923,6,0,P|403:73|342:148,1,167.999994873047,0|4,3:2|0:2,0:0:0:0:
334,209,69214,1,8,0:1:0:0:
410,243,69311,2,0,P|450:270|458:311,1,83.9999974365235,4|0,3:2|0:0,0:0:0:0:
357,372,69504,2,0,P|317:345|308:303,1,83.9999974365235,12|0,0:2|0:0,0:0:0:0:
152,225,69698,6,0,P|201:178|218:350,1,385,4|0,3:2|0:0,0:0:0:0:
167,382,70859,2,0,P|160:349|174:310,1,62.9999980773926,0|0,0:0|0:0,0:0:0:0:
174,307,71246,6,0,L|91:328,1,52.5000020027161,0|0,1:0|0:0,0:0:0:0:
49,361,71439,2,0,L|28:278,1,52.5000020027161,0|0,1:0|0:0,0:0:0:0:
1,232,71633,2,0,L|84:211,1,52.5000020027161,0|0,1:0|0:0,0:0:0:0:
126,178,71826,2,0,L|147:261,1,52.5000020027161,0|0,1:0|0:0,0:0:0:0:
301,377,72020,6,0,L|322:294,1,52.5000020027161,8|0,0:2|0:0,0:0:0:0:
406,241,72214,1,8,0:2:0:0:
409,231,72310,1,8,0:2:0:0:
412,221,72407,1,8,0:2:0:0:
415,211,72503,1,8,0:2:0:0:
419,201,72601,1,8,0:2:0:0:
422,191,72698,1,8,0:2:0:0:
425,181,72794,5,8,0:2:0:0:
340,181,72891,1,8,0:2:0:0:
285,245,72988,1,8,0:2:0:0:
286,329,73085,1,8,0:2:0:0:
275,337,73375,5,8,0:2:0:0:
273,243,73472,1,8,0:2:0:0:
334,172,73569,1,8,0:2:0:0:
427,172,73666,1,8,0:2:0:0:
430,161,73956,6,0,L|402:140,1,26.2500010013581,8|0,0:2|0:0,0:0:0:0:
330,163,74052,2,0,L|295:158,1,26.2500010013581,0|0,0:0|0:0,0:0:0:0:
263,240,74149,2,0,L|230:253,1,26.2500010013581,0|0,1:0|0:0,0:0:0:0:
264,343,74246,2,0,L|243:371,1,26.2500010013581,0|0,0:0|0:0,0:0:0:0:
139,349,74343,5,4,1:2:0:0:
119,343,74439,1,8,0:1:0:0:
99,328,74536,1,8,0:1:0:0:
80,300,74633,1,8,0:1:0:0:
76,260,74730,1,8,0:1:0:0:
102,223,74827,1,8,0:1:0:0:
151,201,74923,1,8,0:1:0:0:
190,152,75020,1,8,0:2:0:0:
185,79,75117,1,8,0:2:0:0:
126,26,75214,1,8,0:2:0:0:
38,40,75310,1,8,0:2:0:0:
0,132,75407,1,8,0:2:0:0:
0,132,75891,6,0,B|135:169|43:223|211:258,1,210.000008010865,4|8,3:1|0:2,0:0:0:0:
82,363,76181,1,0,0:0:0:0:
19,306,76278,2,0,P|35:243|76:219,1,105.000004005432,0|0,3:2|1:2,0:0:0:0:
215,331,76472,2,0,P|175:297|168:246,1,105.000004005432,8|0,0:2|0:0,0:0:0:0:
26,102,76665,1,0,3:2:0:0:
82,40,76762,1,0,0:0:0:0:
166,41,76859,2,0,P|205:74|212:125,1,105.000004005432,8|0,0:2|0:0,0:0:0:0:
454,219,77052,1,0,3:2:0:0:
398,157,77149,1,0,1:2:0:0:
314,158,77246,2,0,P|274:191|267:242,1,105.000004005432,8|0,0:2|0:0,0:0:0:0:
325,306,77439,5,0,3:2:0:0:
330,316,77536,1,0,0:0:0:0:
267,362,77633,1,8,0:2:0:0:
266,373,77730,1,0,0:0:0:0:
188,376,77827,1,0,3:2:0:0:
181,384,77924,1,0,1:2:0:0:
116,341,78020,1,8,0:2:0:0:
105,344,78117,1,0,0:0:0:0:
1,230,78214,5,0,3:2:0:0:
0,241,78311,1,0,0:0:0:0:
77,254,78408,1,8,0:2:0:0:
83,264,78505,1,0,0:0:0:0:
154,232,78600,1,0,3:2:0:0:
164,236,78697,1,0,1:0:0:0:
204,169,78794,1,8,0:2:0:0:
215,167,78891,1,0,0:0:0:0:
130,76,78987,6,0,P|201:140|318:89,1,210.000008010865,0|8,3:2|0:2,0:0:0:0:
501,42,79278,1,0,0:0:0:0:
421,12,79375,2,0,P|390:57|393:110,1,105.000004005432,0|0,3:2|1:2,0:0:0:0:
500,251,79568,2,0,P|500:199|470:157,1,105.000004005432,8|0,0:2|0:0,0:0:0:0:
302,110,79762,2,0,L|518:144,1,210.000008010865,0|8,3:2|0:2,0:0:0:0:
459,326,80052,1,0,0:0:0:0:
459,326,80149,1,0,3:2:0:0:
386,369,80246,1,0,1:2:0:0:
314,323,80343,2,0,P|261:319|216:342,1,105.000004005432,8|0,0:2|0:0,0:0:0:0:
137,368,80536,5,0,3:2:0:0:
141,378,80633,1,0,0:0:0:0:
66,334,80730,1,8,0:2:0:0:
63,345,80827,1,0,0:0:0:0:
35,264,80923,1,0,3:2:0:0:
26,270,81020,1,0,1:2:0:0:
55,190,81117,1,8,0:2:0:0:
44,189,81214,1,0,0:0:0:0:
118,147,81310,1,4,3:2:0:0:
111,139,81407,1,0,0:0:0:0:
29,99,81504,5,8,0:2:0:0:
106,130,81601,1,8,0:2:0:0:
186,103,81698,1,8,0:2:0:0:
224,29,81794,1,8,0:2:0:0:
304,2,81891,1,8,0:2:0:0:
381,33,81988,1,8,0:2:0:0:
265,208,82085,6,0,L|303:1,1,210.000008010865,4|8,3:2|0:2,0:0:0:0:
434,182,82375,1,0,0:0:0:0:
479,111,82472,2,0,P|484:59|461:13,1,105.000004005432,0|0,3:2|1:2,0:0:0:0:
197,135,82665,2,0,P|220:181|264:207,1,105.000004005432,8|0,0:2|0:0,0:0:0:0:
430,352,82859,1,0,3:2:0:0:
376,287,82956,1,0,0:0:0:0:
292,290,83052,2,0,P|247:316|224:362,1,105.000004005432,8|0,0:2|0:0,0:0:0:0:
59,197,83246,1,0,3:2:0:0:
113,132,83343,1,0,1:2:0:0:
197,135,83439,2,0,P|241:161|264:207,1,105.000004005432,8|0,0:2|0:0,0:0:0:0:
292,290,83633,5,0,3:2:0:0:
282,294,83730,1,0,0:0:0:0:
234,365,83827,1,8,0:2:0:0:
224,362,83924,1,0,0:0:0:0:
141,373,84020,1,0,3:2:0:0:
136,363,84117,1,0,1:2:0:0:
63,320,84214,1,8,0:2:0:0:
66,309,84310,1,0,0:0:0:0:
166,265,84408,5,0,3:2:0:0:
163,276,84504,1,0,0:0:0:0:
63,320,84601,1,8,0:2:0:0:
66,309,84697,1,0,0:0:0:0:
87,211,84794,5,0,3:2:0:0:
93,222,84891,1,0,1:2:0:0:
141,373,84988,1,8,0:2:0:0:
136,363,85085,1,0,0:0:0:0:
0,201,85181,6,0,L|219:163,1,210.000008010865,0|8,3:2|0:2,0:0:0:0:
117,2,85472,1,0,0:0:0:0:
53,56,85568,2,0,P|50:113|83:144,1,105.000004005432,0|0,3:2|1:2,0:0:0:0:
278,11,85762,2,0,P|231:31|216:80,1,105.000004005432,8|0,0:2|0:0,0:0:0:0:
349,210,85956,6,0,P|374:202|400:175,1,52.5000020027161,0|0,3:2|0:0,0:0:0:0:
391,203,86052,2,0,P|409:183|418:147,1,52.5000020027161,0|0,0:0|0:0,0:0:0:0:
424,176,86149,2,0,P|430:149|420:114,1,52.5000020027161,8|0,0:2|0:0,0:0:0:0:
440,136,86246,2,0,P|432:110|405:84,1,52.5000020027161,0|0,0:0|0:0,0:0:0:0:
404,77,86343,2,0,P|454:108|509:108,1,105.000004005432,0|0,3:2|0:0,0:0:0:0:
438,303,86536,2,0,P|471:254|522:233,1,105.000004005432,8|0,0:2|0:0,0:0:0:0:
283,376,86730,6,0,P|214:218|168:211,1,210.000008010865,0|8,3:2|0:2,0:0:0:0:
146,146,87020,1,0,0:0:0:0:
146,146,87117,1,0,3:2:0:0:
64,165,87214,1,0,1:2:0:0:
9,102,87310,2,0,P|11:36|41:0,1,105.000004005432,8|0,0:2|0:0,0:0:0:0:
157,297,87504,6,0,L|145:341,1,35,0|0,3:2|0:0,0:0:0:0:
71,368,87698,1,8,0:2:0:0:
16,304,87794,1,8,0:2:0:0:
46,225,87891,1,8,0:2:0:0:
129,211,87988,1,8,0:2:0:0:
159,132,88085,1,8,0:2:0:0:
104,68,88181,1,8,0:2:0:0:
24,95,88278,6,0,B|126:91|126:91|133:101|133:101|243:97,1,210.000008010865,4|8,3:1|0:2,0:0:0:0:
452,96,88568,1,0,0:0:0:0:
392,36,88665,2,0,P|339:41|300:84,1,105.000004005432,0|0,3:2|1:2,0:0:0:0:
159,132,88859,2,0,P|210:137|247:173,1,105.000004005432,8|0,0:2|0:0,0:0:0:0:
463,244,89052,1,0,3:2:0:0:
383,217,89149,1,0,0:0:0:0:
319,272,89246,2,0,P|307:327|335:373,1,105.000004005432,8|0,0:2|0:0,0:0:0:0:
44,340,89439,1,0,3:2:0:0:
124,367,89536,1,0,1:2:0:0:
188,312,89633,2,0,P|200:257|172:211,1,105.000004005432,8|0,0:2|0:0,0:0:0:0:
104,174,89827,5,0,3:2:0:0:
92,172,89923,1,0,0:0:0:0:
169,127,90020,1,8,0:2:0:0:
161,120,90116,1,0,0:0:0:0:
250,119,90214,1,0,3:2:0:0:
246,108,90310,1,0,1:2:0:0:
324,153,90407,1,8,0:2:0:0:
325,141,90503,1,0,0:0:0:0:
460,191,90601,5,0,3:2:0:0:
472,193,90697,1,0,0:0:0:0:
395,238,90794,1,8,0:2:0:0:
403,245,90890,1,0,0:0:0:0:
314,246,90988,1,0,3:2:0:0:
318,257,91084,1,0,1:2:0:0:
240,212,91181,1,8,0:2:0:0:
239,224,91277,1,0,0:0:0:0:
361,360,91375,6,0,L|349:132,1,210.000008010865,0|8,3:2|0:2,0:0:0:0:
158,42,91665,1,0,0:0:0:0:
232,1,91762,2,0,P|273:41|270:96,1,105.000004005432,0|0,3:2|1:2,0:0:0:0:
116,150,91956,2,0,P|74:109|77:54,1,105.000004005432,8|0,0:2|0:0,0:0:0:0:
288,0,92149,2,0,L|256:240,1,210.000008010865,0|8,3:2|0:2,0:0:0:0:
131,239,92439,1,0,0:0:0:0:
131,239,92536,1,0,3:2:0:0:
64,290,92633,1,0,1:2:0:0:
106,362,92730,2,0,L|218:355,1,105.000004005432,8|0,0:2|0:0,0:0:0:0:
287,364,92923,5,0,3:2:0:0:
297,368,93020,1,0,0:0:0:0:
341,304,93117,1,8,0:2:0:0:
351,300,93214,1,0,0:0:0:0:
342,223,93310,1,0,3:2:0:0:
347,214,93407,1,0,1:2:0:0:
289,163,93504,1,8,0:2:0:0:
286,152,93601,1,0,0:0:0:0:
209,153,93698,1,4,3:2:0:0:
200,147,93795,1,0,0:0:0:0:
162,61,93891,5,8,0:2:0:0:
193,139,93988,1,8,0:2:0:0:
145,208,94085,1,8,0:2:0:0:
61,205,94181,1,8,0:2:0:0:
13,274,94278,1,8,0:2:0:0:
44,352,94375,1,8,0:2:0:0:
128,353,94472,5,4,3:2:0:0:
134,360,94568,1,0,0:0:0:0:
192,299,94665,1,8,0:2:0:0:
193,308,94761,1,0,0:0:0:0:
278,308,94859,1,0,3:2:0:0:
274,316,94955,1,0,1:2:0:0:
338,369,95052,1,8,0:2:0:0:
331,374,95148,1,0,0:0:0:0:
295,224,95246,5,0,3:2:0:0:
302,219,95342,1,0,0:0:0:0:
441,294,95439,1,8,0:2:0:0:
440,285,95535,1,0,0:0:0:0:
359,277,95633,5,0,3:2:0:0:
355,285,95729,1,0,1:2:0:0:
505,240,95826,1,8,0:2:0:0:
499,233,95922,1,0,0:0:0:0:
421,91,96020,6,0,P|395:134|409:201,1,105.000004005432,0|0,3:2|0:0,0:0:0:0:
243,213,96214,2,0,P|269:170|255:103,1,105.000004005432,8|0,0:2|0:0,0:0:0:0:
74,36,96407,2,0,P|52:60|44:87,1,52.5000020027161,0|0,3:2|0:0,0:0:0:0:
44,99,96504,2,0,P|49:131|66:153,1,52.5000020027161,0|0,1:0|0:0,0:0:0:0:
76,164,96601,2,0,L|180:148,1,105.000004005432,8|0,0:2|0:0,0:0:0:0:
280,316,96794,2,0,L|176:300,1,105.000004005432,0|0,3:2|0:0,0:0:0:0:
76,365,96988,5,8,0:2:0:0:
8,315,97085,1,8,0:2:0:0:
10,230,97181,1,8,0:2:0:0:
76,178,97278,1,8,0:3:0:0:
161,196,97375,1,8,0:3:0:0:
191,273,97471,1,0,1:0:0:0:
162,353,97568,6,0,L|345:330,1,157.500006008148,4|0,3:2|1:0,0:0:0:0:
359,264,97956,2,0,P|388:268|412:280,1,52.5000020027161
506,336,98149,2,0,P|482:346|456:349,1,52.5000020027161,0|0,1:0|0:0,0:0:0:0:
318,333,98343,2,0,L|203:349,1,105.000004005432,8|0,0:2|0:0,0:0:0:0:
152,298,98633,1,0,0:0:0:0:
195,232,98730,2,0,L|248:241,1,52.5000020027161,0|0,0:0|0:0,0:0:0:0:
467,174,98923,1,8,0:0:0:0:
391,195,99020,1,8,0:0:0:0:
335,138,99117,6,0,P|334:49|405:-9,2,157.500006008148,4|0|0,3:2|1:0|1:0,0:0:0:0:
239,167,99891,2,0,P|287:226|281:303,1,157.500006008148,8|0,0:2|1:0,0:0:0:0:
277,383,100278,1,8,0:2:0:0:
209,342,100375,1,0,0:0:0:0:
130,334,100472,2,0,P|93:337|57:352,1,52.5000020027161,0|0,0:0|0:0,0:0:0:0:
60,346,100665,5,8,0:2:0:0:
91,263,100761,1,8,0:2:0:0:
4,280,100955,5,8,0:2:0:0:
79,233,101051,1,8,0:2:0:0:
0,194,101245,5,8,0:2:0:0:
90,196,101343,1,8,0:2:0:0:
52,120,101536,5,8,0:2:0:0:
124,170,101632,1,8,0:2:0:0:
141,86,101827,5,8,0:2:0:0:
225,100,101923,1,0,0:0:0:0:
284,164,102020,1,0,0:0:0:0:
292,253,102117,1,0,0:0:0:0:
248,331,102214,1,8,0:3:0:0:
257,334,102278,1,8,0:3:0:0:
266,337,102343,1,8,0:3:0:0:
275,340,102407,1,8,0:3:0:0:
275,340,102600,6,2,B|247:376|138:383|112:274|153:212|224:193|277:231|277:231|292:247|313:305|419:218|402:101|287:114|272:122|272:122|269:201|170:219|126:139|160:88|198:76,1,840.000032043458,4|0,0:2|0:0,0:1:0:0:
197,76,103762,6,0,L|48:84,1,140,4|0,1:2|0:0,0:0:0:0:
57,83,104149,1,0,0:0:0:0:
90,163,104246,2,0,P|97:215|29:286,1,140
160,379,104536,2,0,P|157:344|172:313,1,70,8|0,0:0|0:0,0:0:0:0:
269,364,104730,1,0,1:0:0:0:
288,368,104827,1,0,1:0:0:0:
370,336,104923,1,0,1:2:0:0:
389,340,105020,2,0,L|437:347,2,35,8|0|0,0:2|0:0|1:2,0:0:0:0:
303,279,105214,5,8,0:2:0:0:
357,218,105310,2,0,P|352:164|315:127,2,105.000004005432,4|8|8,1:2|0:0|0:0,0:0:0:0:
149,8,105601,1,0,1:0:0:0:
95,69,105698,2,0,P|100:123|137:160,1,105.000004005432,0|0,1:0|0:0,0:0:0:0:
266,212,105891,5,8,0:2:0:0:
184,232,105988,1,8,0:2:0:0:
126,293,106085,1,8,0:2:0:0:
110,374,106181,1,0,1:0:0:0:
46,271,106278,5,0,1:0:0:0:
40,262,106375,1,0,0:0:0:0:
34,252,106472,2,0,B|137:233|93:337|225:316,1,210,4|0,1:3|0:0,0:0:0:0:
440,303,106859,6,0,B|450:240|427:180|285:151|256:282|304:331|330:339|330:339|321:322|318:307|320:269,1,350,4|0,1:2|0:0,0:0:0:0:
319,313,108214,6,0,P|344:238|264:145,1,210,8|0,0:2|0:0,0:0:0:0:
386,46,108601,2,0,P|347:72|283:62,1,70,0|0,1:2|0:0,0:0:0:0:
242,57,108794,1,8,0:2:0:0:
313,176,108891,2,0,P|255:143|150:205,1,140,8|0,0:2|1:2,0:0:0:0:
32,126,109181,1,0,1:0:0:0:
86,62,109278,2,0,L|67:211,1,140,0|0,1:0|0:0,0:0:0:0:
173,285,109568,2,0,L|182:354,1,70,8|0,0:2|0:0,0:0:0:0:
54,353,109762,1,8,0:2:0:0:
24,274,109859,1,8,0:2:0:0:
75,214,109956,6,0,L|103:-6,1,210.000008010865,0|0,1:2|0:0,0:0:0:0:
102,5,110536,1,0,0:0:0:0:
111,11,110633,1,0,0:0:0:0:
173,68,110730,2,0,L|236:57,1,52.5000020027161,0|0,0:0|0:0,0:0:0:0:
167,151,110923,2,0,L|218:160,1,52.5000020027161,0|0,1:0|0:0,0:0:0:0:
296,117,111117,1,0,0:0:0:0:
305,118,111214,1,0,0:0:0:0:
393,34,111310,6,0,P|337:90|400:207,1,210,8|0,0:2|0:0,0:0:0:0:
445,345,111698,2,0,P|453:285|423:248,1,70,0|0,1:2|0:0,0:0:0:0:
267,212,111891,1,8,0:2:0:0:
242,292,111988,1,8,0:2:0:0:
317,336,112085,2,0,P|356:325|377:295,1,70,0|0,0:0|1:2,0:0:0:0:
155,315,112278,5,0,1:0:0:0:
106,383,112375,2,0,P|28:343|22:280,1,140,0|0,0:0|0:0,0:0:0:0:
1,177,112665,2,0,P|33:190|54:242,1,70,8|0,0:2|0:0,0:0:0:0:
152,139,112859,2,0,P|156:173|122:217,1,70,8|0,0:2|0:0,0:0:0:0:
63,30,113052,6,0,P|129:107|233:89,1,210,4|0,1:2|0:0,0:0:0:0:
357,48,113439,2,0,P|318:34|272:50,1,70,8|0,0:2|0:0,0:0:0:0:
276,190,113633,1,0,1:2:0:0:
360,187,113730,2,0,P|391:160|400:112,2,70,8|0|8,0:1|0:0|0:1,0:0:0:0:
323,261,114020,5,0,1:0:0:0:
318,274,114117,1,0,0:0:0:0:
314,288,114213,1,0,0:0:0:0:
310,302,114310,1,0,0:0:0:0:
238,360,114407,5,8,0:2:0:0:
244,369,114504,1,0,0:0:0:0:
124,221,114600,5,0,0:0:0:0:
115,212,114698,1,0,0:0:0:0:
48,352,114794,1,0,1:0:0:0:
36,356,114891,1,0,0:0:0:0:
201,206,114988,5,8,0:2:0:0:
199,194,115085,1,0,1:0:0:0:
66,275,115181,1,0,0:0:0:0:
54,272,115278,1,0,1:0:0:0:
274,237,115375,5,0,1:0:0:0:
279,225,115472,1,0,1:0:0:0:
124,221,115568,1,0,1:2:0:0:
115,212,115665,1,0,0:0:0:0:
329,296,115762,5,8,0:2:0:0:
339,288,115859,1,0,0:0:0:0:
201,206,115956,5,0,1:0:0:0:
199,194,116053,1,0,0:0:0:0:
286,363,116149,6,0,L|312:140,1,210,4|0,1:2|0:0,0:0:0:0:
473,274,116536,2,0,L|460:188,1,70,8|0,0:2|0:0,0:0:0:0:
435,62,116730,1,0,1:2:0:0:
437,15,116827,1,8,0:1:0:0:
408,50,116924,1,0,0:0:0:0:
450,39,117021,1,8,0:1:0:0:
409,22,117117,1,0,1:0:0:0:
462,204,117310,1,0,0:0:0:0:
283,115,117504,6,0,P|345:104|378:132,1,105.000004005432,8|0,0:2|0:0,0:0:0:0:
508,274,117698,2,0,P|463:203|366:236,1,175,0|0,0:0|1:0,0:0:0:0:
328,284,117988,1,0,0:0:0:0:
321,364,118085,2,0,P|296:378|268:383,1,46.6666666666667,8|0,0:2|0:0,0:0:0:0:
258,384,118214,2,0,P|231:373|209:355,1,46.6666666666667,0|0,0:0|0:0,0:0:0:0:
205,349,118343,2,0,P|195:321|195:293,1,46.6666666666667,0|0,0:0|0:0,0:0:0:0:
244,238,118472,5,0,1:0:0:0:
239,154,118569,1,8,0:2:0:0:
172,103,118666,1,0,0:0:0:0:
91,122,118763,1,0,1:0:0:0:
55,202,118858,5,8,0:2:0:0:
149,181,118955,1,0,0:0:0:0:
166,84,119053,1,8,0:2:0:0:
104,19,119149,1,8,0:2:0:0:
9,40,119246,6,0,B|109:34|109:34|117:44|117:44|241:35,1,210.000008010865,4|8,1:2|0:2,0:0:0:0:
330,147,119536,1,0,0:0:0:0:
267,209,119633,2,0,P|217:203|191:167,1,87.5,0|0,1:0|0:0,0:0:0:0:
104,19,119827,1,8,0:2:0:0:
166,84,119923,2,0,L|131:270,1,175,0|0,1:0|1:0,0:0:0:0:
0,333,120214,2,0,P|5:276|34:249,1,87.5,8|0,0:2|0:0,0:0:0:0:
136,376,120407,2,0,P|89:343|80:304,1,87.5,0|0,1:0|0:0,0:0:0:0:
6,164,120601,6,0,B|118:170|61:228|169:229,1,175,8|0,0:2|1:0,0:0:0:0:
358,217,120891,1,0,0:0:0:0:
358,217,120988,1,8,0:2:0:0:
286,267,121085,1,0,0:0:0:0:
320,346,121181,2,0,P|360:354|414:333,1,87.5,0|0,1:0|0:0,0:0:0:0:
489,172,121375,5,8,0:2:0:0:
484,175,121439,1,0,0:0:0:0:
478,177,121504,1,0,0:0:0:0:
472,179,121568,2,0,P|445:209|436:266,1,87.5,0|0,0:0|1:0,0:0:0:0:
338,63,121762,1,8,0:2:0:0:
343,66,121826,1,0,0:0:0:0:
349,68,121891,1,0,0:0:0:0:
355,70,121955,2,0,P|381:100|390:157,1,87.5,0|0,1:0|0:0,0:0:0:0:
210,193,122149,2,0,P|183:162|174:105,1,87.5,8|0,0:2|0:0,0:0:0:0:
50,16,122343,6,0,L|240:37,1,175,4|8,1:2|0:2,0:0:0:0:
423,10,122633,1,0,0:0:0:0:
355,70,122730,2,0,P|339:110|349:152,1,87.5,0|0,1:0|0:0,0:0:0:0:
508,248,122923,1,8,0:0:0:0:
421,210,123020,2,0,L|402:387,1,175,0|0,1:1|1:1,0:0:0:0:
234,304,123310,2,0,P|227:264|251:215,1,87.5,8|0,0:2|0:0,0:0:0:0:
144,375,123504,2,0,P|105:361|75:315,1,87.5,0|0,1:0|0:0,0:0:0:0:
84,63,123698,6,0,P|142:119|125:216,1,175,8|0,0:2|1:0,0:0:0:0:
53,246,123988,1,0,0:0:0:0:
86,338,124085,1,8,0:2:0:0:
86,338,124150,1,0,0:0:0:0:
86,338,124214,1,0,0:0:0:0:
86,338,124279,2,0,P|115:325|145:325,2,58.3333333333333,0|0|0,1:0|0:0|0:0,0:0:0:0:
269,373,124472,2,0,P|243:354|228:328,2,58.3333333333333,8|0|0,0:2|0:0|0:0,0:0:0:0:
208,197,124665,2,0,P|204:228|189:254,2,58.3333333333333,0|0|0,0:0|0:0|0:0,0:0:0:0:
86,338,124859,1,8,0:2:0:0:
86,338,124924,1,0,0:0:0:0:
86,338,124988,1,0,0:0:0:0:
86,338,125052,2,0,P|45:352|-10:339,1,87.5,0|0,1:0|0:0,0:0:0:0:
192,251,125246,2,0,P|234:244|275:258,1,87.5,8|0,0:2|0:0,0:0:0:0:
392,369,125439,6,0,P|369:277|447:217,1,175,4|8,1:2|0:2,0:0:0:0:
508,95,125730,1,0,0:0:0:0:
431,137,125827,2,0,P|393:123|359:75,1,87.5,0|0,1:0|0:0,0:0:0:0:
127,94,126020,1,8,0:2:0:0:
204,52,126117,2,0,P|242:66|276:114,1,87.5,0|0,1:0|0:0,0:0:0:0:
258,272,126310,1,0,1:2:0:0:
183,226,126407,2,0,P|176:186|200:132,1,87.5,8|0,0:2|0:0,0:0:0:0:
343,158,126601,2,0,P|311:183|253:189,1,87.5,0|0,1:0|0:0,0:0:0:0:
26,217,126794,6,0,P|149:199|194:242,1,175,8|0,0:2|1:0,0:0:0:0:
258,272,127085,1,0,0:0:0:0:
297,349,127181,2,0,P|348:347|388:312,1,87.5,8|0,0:2|0:0,0:0:0:0:
462,109,127375,1,0,1:2:0:0:
507,185,127472,1,0,0:0:0:0:
468,262,127568,2,0,P|417:260|377:225,1,87.5,8|0,0:2|0:0,0:0:0:0:
356,8,127762,5,8,0:2:0:0:
204,47,127859,2,0,P|250:59|295:57,1,87.5,8|0,0:2|0:0,0:0:0:0:
310,148,128052,1,8,0:2:0:0:
462,109,128149,2,0,P|415:96|371:99,1,87.5,8|0,0:2|0:0,0:0:0:0:
200,203,128343,6,0,P|177:202|149:188,1,43.75,8|0,0:2|0:0,0:0:0:0:
139,182,128439,2,0,P|124:163|117:133,1,43.75,8|0,0:2|0:0,0:0:0:0:
116,123,128536,2,0,L|71:298,1,167.999994873047,4|4,1:2|0:2,0:0:0:0:
122,354,128826,1,8,0:1:0:0:
205,366,128923,2,0,P|243:336|248:289,1,83.9999974365235,0|0,1:0|0:0,0:0:0:0:
314,246,129117,2,0,P|353:257|377:291,1,83.9999974365235,12|0,0:2|0:0,0:0:0:0:
382,286,129310,2,0,P|358:252|318:240,1,83.9999974365235,0|0,1:2|0:0,0:0:0:0:
256,308,129504,2,0,P|244:347|210:371,1,83.9999974365235,4|8,0:2|0:1,0:0:0:0:
0,192,129698,6,0,B|89:196|53:246|147:263,1,167.999994873047,4|12,1:2|0:2,0:0:0:0:
214,213,129988,1,0,0:0:0:0:
219,129,130084,2,0,P|254:85|297:73,1,83.9999974365235,0|0,1:2|0:0,0:0:0:0:
370,218,130278,2,0,P|384:163|369:120,1,83.9999974365235,4|8,0:2|0:1,0:0:0:0:
229,88,130471,2,0,P|262:65|304:61,1,83.9999974365235,0|0,1:0|0:0,0:0:0:0:
398,187,130665,2,0,P|396:145|374:110,1,83.9999974365235,12|0,0:2|0:0,0:0:0:0:
165,1,130859,6,0,P|226:60|331:49,1,167.999994873047,0|4,1:2|0:2,0:0:0:0:
382,27,131149,1,8,0:1:0:0:
374,110,131246,2,0,P|396:145|398:187,1,83.9999974365235,4|0,1:2|0:0,0:0:0:0:
458,366,131439,1,12,0:2:0:0:
414,293,131536,1,0,0:0:0:0:
332,270,131633,6,0,P|243:266|172:323,1,167.999994873047,0|4,1:2|0:2,0:0:0:0:
114,361,131923,1,8,0:1:0:0:
36,328,132020,2,0,P|7:297|-1:257,1,83.9999974365235,0|0,1:0|0:0,0:0:0:0:
64,203,132214,2,0,P|92:172|101:132,1,83.9999974365235,12|0,0:2|0:0,0:0:0:0:
107,138,132407,2,0,P|98:178|69:208,1,83.9999974365235,0|0,1:2|0:0,0:0:0:0:
6,255,132601,2,0,P|14:295|43:325,1,83.9999974365235,4|8,0:2|0:1,0:0:0:0:
244,384,132794,6,0,L|228:193,1,167.999994873047,4|12,1:2|0:2,0:0:0:0:
194,139,133085,1,0,0:0:0:0:
262,91,133181,2,0,P|315:109|342:145,1,83.9999974365235,0|0,1:2|0:0,0:0:0:0:
234,262,133375,2,0,P|289:257|324:227,1,83.9999974365235,4|8,0:2|0:1,0:0:0:0:
304,85,133568,2,0,P|337:109|355:147,1,83.9999974365235,0|0,1:0|0:0,0:0:0:0:
273,276,133762,2,0,P|311:260|336:228,1,83.9999974365235,12|0,0:2|0:0,0:0:0:0:
384,5,133956,6,0,P|349:34|364:156,1,167.999994873047,0|4,1:2|0:2,0:0:0:0:
429,186,134246,1,8,0:0:0:0:
480,252,134343,2,0,P|482:293|453:347,1,83.9999974365235,4|0,1:2|0:0,0:0:0:0:
304,350,134536,2,0,P|279:317|273:275,1,83.9999974365235,12|0,0:2|0:0,0:0:0:0:
304,85,134730,6,0,P|302:243|186:141,1,385,4|0,1:2|0:0,0:0:0:0:
211,77,135891,2,0,P|180:72|147:83,1,62.9999980773926,0|0,0:0|0:0,0:0:0:0:
137,89,136278,6,0,L|64:109,1,52.5000020027161,0|0,1:0|0:0,0:0:0:0:
0,93,136472,2,0,L|20:166,1,52.5000020027161,0|0,1:0|0:0,0:0:0:0:
10,229,136665,2,0,L|83:209,1,52.5000020027161,0|0,1:0|0:0,0:0:0:0:
147,225,136859,2,0,L|127:152,1,52.5000020027161,0|0,1:0|0:0,0:0:0:0:
306,68,137052,6,0,L|292:118,1,52.5000020027161,8|0,0:2|0:0,0:0:0:0:
263,236,137246,1,8,0:2:0:0:
260,246,137342,1,8,0:2:0:0:
257,256,137439,1,8,0:2:0:0:
254,266,137535,1,8,0:0:0:0:
250,276,137633,1,8,0:2:0:0:
247,286,137730,1,8,0:2:0:0:
244,296,137826,5,8,0:2:0:0:
329,296,137923,1,8,0:2:0:0:
384,232,138020,1,8,0:2:0:0:
383,148,138117,1,8,0:2:0:0:
394,140,138407,5,8,0:2:0:0:
396,234,138504,1,8,0:2:0:0:
335,305,138601,1,8,0:2:0:0:
242,305,138698,1,8,0:2:0:0:
239,316,138988,6,0,L|267:337,1,26.2500010013581,8|0,0:2|0:0,0:0:0:0:
339,314,139084,2,0,L|374:319,1,26.2500010013581,0|0,0:0|0:0,0:0:0:0:
406,237,139181,2,0,L|439:224,1,26.2500010013581,0|0,1:0|0:0,0:0:0:0:
405,134,139278,2,0,L|426:106,1,26.2500010013581,0|0,0:0|0:0,0:0:0:0:
344,35,139375,5,4,1:2:0:0:
329,20,139471,1,8,0:1:0:0:
306,9,139568,1,8,0:1:0:0:
273,5,139665,1,8,0:1:0:0:
235,21,139762,1,8,0:1:0:0:
215,61,139859,1,8,0:1:0:0:
218,115,139955,1,8,0:1:0:0:
194,172,140052,1,8,0:2:0:0:
127,202,140149,1,8,0:2:0:0:
52,175,140246,1,8,0:2:0:0:
23,90,140342,1,8,0:2:0:0:
87,14,140439,1,8,0:2:0:0:
87,14,140923,6,0,B|78:144|152:82|149:209,1,210.000008010865,4|8,3:1|0:2,0:0:0:0:
152,364,141214,1,0,0:0:0:0:
93,304,141310,2,0,P|37:309|-9:366,1,105.000004005432,0|0,3:2|1:2,0:0:0:0:
232,336,141504,2,0,P|271:368|323:372,1,105.000004005432,8|0,0:2|0:0,0:0:0:0:
476,249,141698,1,0,3:2:0:0:
416,189,141795,1,0,0:0:0:0:
331,189,141892,2,0,P|300:236|322:310,1,105.000004005432,8|0,0:2|0:0,0:0:0:0:
39,131,142085,1,0,3:2:0:0:
99,71,142182,1,0,1:2:0:0:
184,71,142279,2,0,P|215:118|193:192,1,105.000004005432,8|0,0:2|0:0,0:0:0:0:
193,256,142471,5,0,3:2:0:0:
198,266,142568,1,0,0:0:0:0:
331,189,142665,1,8,0:2:0:0:
342,188,142762,1,0,0:0:0:0:
121,220,142859,5,0,3:2:0:0:
119,231,142956,1,0,1:2:0:0:
273,244,143052,1,8,0:2:0:0:
282,250,143149,1,0,0:0:0:0:
149,116,143246,5,0,3:2:0:0:
144,106,143343,1,0,0:0:0:0:
11,183,143440,1,8,0:2:0:0:
0,184,143537,1,0,0:0:0:0:
221,152,143634,5,0,3:2:0:0:
223,141,143729,1,0,1:2:0:0:
69,128,143826,1,8,0:2:0:0:
60,122,143923,1,0,0:0:0:0:
30,308,144020,6,0,P|120:261|218:321,1,210.000008010865,0|8,3:2|0:2,0:0:0:0:
395,361,144310,1,0,0:0:0:0:
430,284,144407,2,0,P|417:220|346:185,1,105.000004005432,0|0,3:2|1:2,0:0:0:0:
225,210,144601,2,0,P|200:255|208:306,1,105.000004005432,8|0,0:2|0:0,0:0:0:0:
497,291,144794,2,0,L|269:265,1,210.000008010865,0|8,3:2|0:2,0:0:0:0:
220,114,145084,1,0,0:0:0:0:
220,114,145181,1,0,3:2:0:0:
291,70,145278,1,0,1:2:0:0:
358,120,145375,2,0,P|369:175|329:252,1,105.000004005432,8|0,0:2|0:0,0:0:0:0:
260,260,145568,5,0,3:2:0:0:
268,253,145665,1,0,0:0:0:0:
134,329,145763,1,8,0:2:0:0:
127,322,145859,1,0,0:0:0:0:
325,300,145955,5,0,3:2:0:0:
337,299,146052,1,0,1:2:0:0:
184,272,146149,1,8,0:2:0:0:
185,261,146246,1,0,0:0:0:0:
351,375,146342,5,4,3:2:0:0:
361,380,146438,1,0,0:0:0:0:
421,321,146536,5,8,0:2:0:0:
486,268,146633,1,8,0:2:0:0:
476,185,146730,1,8,0:2:0:0:
397,155,146826,1,8,0:2:0:0:
321,195,146923,1,8,0:2:0:0:
242,167,147020,1,8,0:2:0:0:
107,120,147117,6,0,L|320:108,1,210.000008010865,4|8,3:2|0:2,0:0:0:0:
476,185,147407,1,0,0:0:0:0:
430,106,147504,2,0,P|446:56|486:23,1,105.000004005432,0|0,3:2|1:2,0:0:0:0:
248,36,147698,2,0,P|292:61|316:107,1,105.000004005432,8|0,0:2|0:0,0:0:0:0:
417,352,147891,1,0,3:2:0:0:
453,276,147988,1,0,0:0:0:0:
391,218,148085,2,0,P|330:217|277:256,1,105.000004005432,8|0,0:2|0:0,0:0:0:0:
53,231,148278,1,0,3:2:0:0:
17,307,148375,1,0,1:2:0:0:
79,365,148472,2,0,P|140:366|193:327,1,105.000004005432,8|0,0:2|0:0,0:0:0:0:
208,269,148665,5,0,3:2:0:0:
218,266,148762,1,0,0:0:0:0:
205,100,148859,1,8,0:2:0:0:
208,110,148956,1,0,0:0:0:0:
293,302,149052,5,0,3:2:0:0:
298,293,149149,1,0,1:2:0:0:
171,185,149246,1,8,0:2:0:0:
180,190,149343,1,0,0:0:0:0:
384,265,149439,5,0,3:2:0:0:
387,275,149536,1,0,0:0:0:0:
340,91,149633,5,8,0:2:0:0:
337,81,149730,1,0,0:0:0:0:
401,269,149827,5,0,3:2:0:0:
405,279,149924,1,0,1:2:0:0:
354,80,150020,5,8,0:2:0:0:
350,70,150116,1,0,0:0:0:0:
191,207,150213,6,0,B|317:177|317:177|324:185|324:185|413:163,1,210.000008010865,0|8,3:2|0:2,0:0:0:0:
393,377,150504,1,0,0:0:0:0:
311,361,150601,2,0,P|287:297|302:246,1,105.000004005432,0|0,3:2|1:2,0:0:0:0:
472,206,150794,2,0,P|477:154|454:107,1,105.000004005432,8|0,0:2|0:0,0:0:0:0:
218,16,150988,6,0,P|202:37|197:74,1,52.5000020027161,0|0,3:2|0:0,0:0:0:0:
186,52,151084,2,0,P|183:78|197:113,1,52.5000020027161,0|0,0:0|0:0,0:0:0:0:
176,97,151181,2,0,P|187:122|215:144,1,52.5000020027161,8|0,0:2|0:0,0:0:0:0:
186,141,151278,2,0,P|207:157|244:162,1,52.5000020027161,0|0,0:0|0:0,0:0:0:0:
250,165,151375,2,0,L|109:193,1,105.000004005432,0|0,3:2|0:0,0:0:0:0:
0,34,151568,2,0,L|102:56,1,105.000004005432,8|0,0:2|0:0,0:0:0:0:
48,350,151762,6,0,B|50:249|50:249|57:246|57:246|58:119,1,210.000008010865,0|8,3:2|0:2,0:0:0:0:
218,16,152052,1,0,0:0:0:0:
218,16,152149,1,0,3:2:0:0:
268,83,152246,1,0,1:2:0:0:
250,165,152342,2,0,L|142:193,1,105.000004005432,8|0,0:2|0:0,0:0:0:0:
15,246,152536,6,0,L|59:260,1,35,0|0,3:2|0:0,0:0:0:0:
137,337,152730,1,8,0:2:0:0:
213,369,152826,1,8,0:2:0:0:
279,317,152923,1,8,0:2:0:0:
269,233,153020,1,8,0:2:0:0:
335,181,153117,1,8,0:2:0:0:
411,213,153213,1,8,0:2:0:0:
473,379,153310,6,0,B|345:379|408:312|264:317,1,210.000008010865,4|8,3:1|0:2,0:0:0:0:
111,178,153600,1,0,0:0:0:0:
164,243,153697,2,0,P|166:296|129:340,1,105.000004005432,0|0,3:2|1:2,0:0:0:0:
30,142,153891,2,0,P|0:100|2:48,1,105.000004005432,8|0,0:2|0:0,0:0:0:0:
309,6,154084,1,0,3:2:0:0:
384,43,154181,1,0,0:0:0:0:
360,123,154278,2,0,P|308:141|236:117,1,105.000004005432,8|0,0:2|0:0,0:0:0:0:
391,354,154472,1,0,3:2:0:0:
466,317,154569,1,0,1:2:0:0:
442,237,154666,2,0,P|390:219|318:243,1,105.000004005432,8|0,0:2|0:0,0:0:0:0:
274,266,154859,5,0,3:2:0:0:
261,263,154955,1,0,0:0:0:0:
129,359,155052,1,8,0:2:0:0:
129,347,155148,1,0,0:0:0:0:
277,176,155246,5,0,3:2:0:0:
264,180,155342,1,0,1:2:0:0:
217,337,155439,1,8,0:2:0:0:
209,327,155535,1,0,0:0:0:0:
0,247,155633,5,0,3:2:0:0:
12,246,155729,1,0,0:0:0:0:
129,359,155826,1,8,0:2:0:0:
131,346,155922,1,0,0:0:0:0:
9,157,156020,5,0,3:2:0:0:
21,162,156116,1,0,1:2:0:0:
46,325,156213,1,8,0:2:0:0:
55,316,156309,1,0,0:0:0:0:
220,219,156407,6,0,L|-14:249,1,210.000008010865,0|8,3:2|0:2,0:0:0:0:
76,42,156697,1,0,0:0:0:0:
159,50,156794,2,0,P|200:90|197:145,1,105.000004005432,0|0,3:2|0:2,0:0:0:0:
356,159,156988,2,0,P|315:199|318:254,1,105.000004005432,8|0,0:2|0:0,0:0:0:0:
207,372,157181,2,0,P|206:293|335:253,1,210.000008010865,0|8,3:2|0:2,0:0:0:0:
491,363,157471,1,0,0:0:0:0:
491,363,157568,1,0,3:2:0:0:
424,311,157665,1,0,1:2:0:0:
483,251,157762,2,0,P|479:199|440:165,1,105.000004005432,8|0,0:2|0:0,0:0:0:0:
356,159,157956,5,0,3:2:0:0:
347,155,158052,1,0,0:0:0:0:
200,120,158149,1,8,0:2:0:0:
203,112,158246,1,0,0:0:0:0:
413,94,158342,5,0,3:2:0:0:
403,98,158439,1,0,1:2:0:0:
267,160,158536,1,8,0:2:0:0:
272,169,158633,1,0,0:0:0:0:
412,7,158730,5,4,3:2:0:0:
408,18,158827,1,0,0:0:0:0:
403,98,158923,5,8,0:2:0:0:
347,155,159020,1,8,0:2:0:0:
386,229,159117,1,8,0:2:0:0:
470,223,159214,1,8,0:2:0:0:
509,297,159311,1,8,0:2:0:0:
453,354,159408,1,8,0:2:0:0:
375,314,159504,5,4,3:2:0:0:
367,310,159600,1,0,0:0:0:0:
229,369,159697,1,8,0:2:0:0:
229,359,159793,1,0,0:0:0:0:
386,229,159891,5,0,3:2:0:0:
377,230,159987,1,0,1:2:0:0:
312,373,160084,1,8,0:2:0:0:
307,365,160180,1,0,0:0:0:0:
157,323,160278,5,0,3:2:0:0:
164,316,160374,1,0,0:0:0:0:
336,159,160472,5,8,0:2:0:0:
329,166,160568,1,0,0:0:0:0:
148,314,160665,5,0,3:2:0:0:
154,306,160761,1,0,1:2:0:0:
327,150,160859,5,8,0:2:0:0:
320,156,160955,1,0,0:0:0:0:
98,241,161052,6,0,P|41:237|-5:187,1,105.000004005432,0|0,3:2|0:0,0:0:0:0:
103,0,161246,2,0,P|160:4|206:54,1,105.000004005432,8|0,0:2|0:0,0:0:0:0:
236,224,161439,6,0,P|227:192|232:164,1,52.5000020027161,0|0,3:2|0:0,0:0:0:0:
237,153,161536,2,0,P|255:126|281:114,1,52.5000020027161,0|0,0:0|0:0,0:0:0:0:
295,110,161633,2,0,L|155:128,1,105.000004005432,8|0,0:2|0:0,0:0:0:0:
0,128,161827,2,0,L|140:110,1,105.000004005432,0|0,3:2|0:0,0:0:0:0:
304,25,162020,5,8,0:2:0:0:
295,110,162117,1,8,0:2:0:0:
373,138,162213,1,8,0:2:0:0:
364,223,162310,1,8,0:3:0:0:
442,251,162406,1,8,0:3:0:0:
433,336,162504,1,4,0:3:0:0:
355,351,162600,6,0,L|192:365,1,157.500006008148,4|0,3:2|1:0,0:0:0:0:
222,226,162988,2,0,P|200:238|184:261,1,52.5000020027161,0|0,0:0|0:0,0:0:0:0:
62,276,163181,2,0,P|84:288|100:311,1,52.5000020027161,0|0,1:0|0:0,0:0:0:0:
198,364,163375,2,0,L|181:239,1,105.000004005432,8|0,0:2|0:0,0:0:0:0:
119,206,163665,1,0,0:0:0:0:
147,126,163762,2,0,L|140:60,1,52.5000020027161,0|0,0:0|0:0,0:0:0:0:
371,264,163955,1,8,0:0:0:0:
436,210,164052,1,8,0:0:0:0:
376,153,164149,6,0,L|388:-5,2,157.500006008148,4|0|0,1:2|1:0|1:0,0:0:0:0:
175,68,164923,2,0,L|188:226,1,157.500006008148,8|0,0:2|1:0,0:0:0:0:
129,364,165310,1,8,0:2:0:0:
196,311,165407,1,0,0:0:0:0:
261,366,165504,2,0,P|298:363|334:348,1,52.5000020027161,0|0,0:0|0:0,0:0:0:0:
333,355,165697,5,8,0:2:0:0:
333,266,165793,1,8,0:2:0:0:
407,311,165987,5,8,0:2:0:0:
355,239,166083,1,8,0:2:0:0:
440,232,166277,5,8,0:2:0:0:
354,208,166375,1,8,0:2:0:0:
416,144,166568,5,8,0:2:0:0:
331,169,166664,1,8,0:2:0:0:
345,81,166857,5,8,0:2:0:0:
291,154,166954,1,0,0:0:0:0:
206,182,167051,1,0,0:0:0:0:
125,141,167148,1,0,0:0:0:0:
100,55,167244,1,8,0:3:0:0:
111,53,167310,1,8,0:3:0:0:
120,50,167375,1,8,0:3:0:0:
130,49,167438,1,8,0:3:0:0:
130,49,167633,6,2,B|150:10|198:9|234:41|239:88|210:115|191:124|191:124|176:128|154:117|84:118|32:211|108:310|183:317|250:255|249:215|246:197|246:197|242:146|314:85|392:150|402:216|334:291|275:256|260:222,1,840.000032043458,4|0,1:2|0:0,0:1:0:0:
268,235,168793,6,0,P|341:225|395:152,1,157.500006008148,4|0,1:2|1:0,0:0:0:0:
484,181,169181,2,0,P|465:209|461:245,1,52.5000020027161,2|0,0:0|0:0,0:0:0:0:
389,378,169374,2,0,P|386:351|375:328,1,52.5000020027161,0|0,1:2|0:0,0:0:0:0:
212,297,169568,2,0,P|172:329|164:380,1,105.000004005432,10|0,0:2|0:0,0:0:0:0:
1,212,169956,2,0,P|36:187|45:118,1,105.000004005432,2|8,0:0|0:0,0:0:0:0:
17,50,170246,1,8,0:0:0:0:
92,12,170343,6,0,P|154:21|205:164,1,210.000008010865,6|0,1:2|1:0,0:0:0:0:
129,378,170923,2,0,P|117:351|120:308,1,52.5000020027161,0|0,1:0|0:0,0:0:0:0:
264,204,171117,2,0,P|219:242|205:354,1,157.500006008148,10|0,0:0|0:0,0:0:0:0:
291,366,171504,1,10,0:2:0:0:
374,353,171601,1,8,0:2:0:0:
289,352,171698,2,0,P|284:324|296:278,1,52.5000020027161,0|0,1:0|0:0,0:0:0:0:
442,266,171891,6,0,P|449:217|424:142,1,105.000004005432,6|0,1:2|0:0,0:0:0:0:
369,112,172181,1,0,1:0:0:0:
381,28,172278,2,0,P|409:23|439:29,1,52.5000020027161,2|0,0:0|0:0,0:0:0:0:
304,57,172472,2,0,P|278:61|252:58,1,52.5000020027161,0|0,1:0|0:0,0:0:0:0:
143,119,172665,2,0,P|68:102|21:23,1,157.500006008148,10|0,0:2|0:0,0:0:0:0:
0,151,173052,2,0,P|16:133|60:124,1,52.5000020027161,2|0,0:0|0:0,0:0:0:0:
172,209,173246,5,8,0:0:0:0:
248,245,173343,1,8,0:0:0:0:
167,223,173439,2,0,P|154:292|185:382,1,157.500006008148,6|0,1:2|1:0,0:0:0:0:
80,374,173827,2,0,P|53:382|18:384,1,52.5000020027161,0|0,0:0|0:0,0:0:0:0:
40,296,174020,2,0,P|16:280|-7:254,1,52.5000020027161,0|0,1:0|0:0,0:0:0:0:
5,170,174214,5,8,0:0:0:0:
290,123,174407,1,0,1:0:0:0:
7,155,174601,5,8,0:0:0:0:
169,182,174794,1,0,1:0:0:0:
10,140,174988,6,0,L|24:77,1,52.5000020027161,4|0,1:2|0:0,0:0:0:0:
154,200,175181,2,0,L|135:28,1,157.500006008148,4|0,0:2|0:0,0:0:0:0:
282,112,175568,2,0,L|248:44,1,52.5000020027161,4|0,1:2|0:0,0:0:0:0:
249,49,175762,1,8,0:2:0:0:
249,49,175956,6,0,L|317:57,1,52.5000020027161,4|0,0:2|0:0,0:0:0:0:
446,141,176149,2,0,L|378:149,1,52.5000020027161,4|0,1:2|0:0,0:0:0:0:
285,227,176343,5,12,0:2:0:0:
201,233,176439,1,8,0:2:0:0:
284,245,176536,2,0,L|450:260,2,157.500006008148,4|0|0,1:3|1:0|1:0,0:0:0:0:
248,346,177310,2,0,L|186:340,1,52.5000020027161,8|0,0:2|0:0,0:0:0:0:
31,313,177504,2,0,L|93:319,1,52.5000020027161,4|0,1:2|0:0,0:0:0:0:
251,326,177698,2,0,L|189:320,1,52.5000020027161,12|0,0:2|0:0,0:0:0:0:
16,312,177891,1,0,1:0:0:0:
25,156,178085,5,4,1:3:0:0:
74,139,178181,1,0,0:0:0:0:
126,143,178278,1,4,0:2:0:0:
167,175,178375,1,0,0:0:0:0:
204,98,178472,5,0,0:0:0:0:
234,123,178568,1,0,0:0:0:0:
251,162,178665,1,4,0:2:0:0:
248,201,178762,1,0,0:0:0:0:
329,213,178859,5,0,0:0:0:0:
321,241,178955,1,0,0:0:0:0:
303,267,179052,1,4,0:2:0:0:
276,280,179149,1,0,0:0:0:0:
289,360,179246,5,4,0:2:0:0:
269,363,179342,1,0,0:0:0:0:
248,362,179439,1,4,0:2:0:0:
231,352,179536,1,0,0:0:0:0:
192,278,179633,6,0,P|136:280|87:331,2,105,0|2|2,0:0|0:3|0:0,0:0:0:0:
209,199,180407,2,2,P|239:212|268:262,1,70,2|4,0:1|0:2,0:1:0:0:
338,222,180794,6,0,P|340:247|336:276,1,35,12|0,0:2|0:0,0:0:0:0:
339,256,181181,5,4,0:2:0:0:
68,253,187375,6,0,B|208:267|82:280|224:289,1,154,4|0,1:2|0:0,0:0:0:0:
214,289,188536,2,0,P|194:299|179:317,1,42
301,347,188923,6,0,P|319:336|333:321,1,41.9999987182618,0|0,1:0|0:0,0:0:0:0:
452,362,189117,6,0,P|446:337|435:316,1,48.9999985046387,0|0,1:0|0:0,0:0:0:0:
512,225,189310,6,0,P|493:221|454:226,1,56,0|0,1:0|0:0,0:0:0:0:
390,103,189504,6,0,P|382:118|381:167,1,62.9999980773926,0|0,1:0|0:0,0:0:0:0:
250,199,189698,6,0,P|262:211|315:229,1,70,8|0,0:2|0:0,0:0:0:0:
458,46,189891,2,0,P|445:33|393:16,1,70,8|8,0:2|0:2,0:0:0:0:
247,95,190084,5,8,0:2:0:0:
238,89,190180,1,8,0:0:0:0:
231,83,190278,1,8,0:2:0:0:
222,77,190375,1,8,0:2:0:0:
213,69,190471,5,8,0:2:0:0:
130,91,190568,1,8,0:2:0:0:
94,167,190665,1,8,0:2:0:0:
117,249,190762,1,8,0:2:0:0:
109,258,191052,5,8,0:2:0:0:
82,169,191149,1,8,0:2:0:0:
122,85,191246,1,8,0:2:0:0:
213,59,191343,1,8,0:2:0:0:
213,48,191633,6,0,L|180:34,1,26.2500010013581,8|0,0:2|0:0,0:0:0:0:
117,76,191729,2,0,L|81:80,1,26.2500010013581,0|0,0:0|0:0,0:0:0:0:
72,169,191826,2,0,L|43:190,1,26.2500010013581,8|0,0:3|0:0,0:0:0:0:
100,267,191923,2,0,L|86:299,1,26.2500010013581,0|0,0:0|0:0,0:0:0:0:
193,319,192020,6,0,P|247:334|330:307,1,140,4|0,1:2|0:0,0:0:0:0:
330,298,193085,1,8,0:1:0:0:
342,285,193181,1,8,0:2:0:0:
364,274,193278,1,8,0:2:0:0:
393,270,193375,1,8,0:2:0:0:
438,278,193472,1,8,0:2:0:0:
478,309,193568,2,0,P|487:326|492:353,1,42,2|0,0:0|0:0,0:0:0:0:
429,183,193955,6,0,P|432:110|479:66,1,105.000004005432,4|0,3:1|1:2,0:0:0:0:
297,107,194149,2,0,P|263:42|281:-19,1,105.000004005432,8|0,0:2|0:0,0:0:0:0:
18,109,194343,1,0,3:2:0:0:
99,93,194439,1,0,0:0:0:0:
154,156,194536,2,0,P|152:207|122:250,1,105.000004005432,8|0,0:2|0:0,0:0:0:0:
372,41,194730,1,0,3:2:0:0:
291,25,194826,1,0,1:2:0:0:
236,88,194923,2,0,P|237:139|267:182,1,105.000004005432,8|0,0:2|0:0,0:0:0:0:
337,223,195117,5,0,3:2:0:0:
345,231,195214,1,0,0:0:0:0:
448,354,195310,5,8,0:2:0:0:
440,346,195407,1,0,0:0:0:0:
309,241,195504,5,0,3:2:0:0:
319,246,195601,1,0,1:2:0:0:
477,337,195697,5,8,0:2:0:0:
467,332,195794,1,0,0:0:0:0:
288,272,195891,5,0,3:2:0:0:
299,273,195988,1,0,0:0:0:0:
498,306,196084,5,8,0:2:0:0:
487,305,196181,1,0,0:0:0:0:
281,312,196278,5,0,3:2:0:0:
290,309,196375,1,0,1:2:0:0:
505,266,196471,5,8,0:2:0:0:
496,269,196568,1,0,0:0:0:0:
306,344,196665,6,0,B|206:341|206:341|199:332|199:332|97:328,1,210.000008010865,0|8,3:2|0:2,0:0:0:0:
21,188,196956,1,0,0:0:0:0:
94,227,197052,2,0,P|128:228|178:180,1,105.000004005432,0|0,3:2|1:2,0:0:0:0:
12,56,197246,2,0,P|44:95|95:100,1,105.000004005432,8|0,0:2|0:0,0:0:0:0:
348,12,197439,2,0,P|248:45|321:171,1,210.000008010865,0|8,3:2|0:2,0:0:0:0:
472,187,197730,1,0,0:0:0:0:
472,187,197827,1,0,3:2:0:0:
434,112,197923,1,0,1:2:0:0:
352,134,198020,2,0,P|322:179|328:239,1,105.000004005432,8|0,0:2|0:0,0:0:0:0:
408,272,198214,5,0,3:2:0:0:
420,265,198310,1,0,0:0:0:0:
262,319,198407,5,8,0:2:0:0:
249,327,198503,1,0,0:0:0:0:
421,311,198601,5,0,3:2:0:0:
433,304,198697,1,0,1:2:0:0:
275,358,198794,5,8,0:2:0:0:
262,366,198890,1,0,0:0:0:0:
433,342,198988,5,4,3:2:0:0:
445,335,199084,1,0,0:0:0:0:
509,281,199181,5,8,0:2:0:0:
420,265,199278,1,8,0:2:0:0:
369,332,199375,1,8,0:2:0:0:
288,315,199472,1,8,0:2:0:0:
237,382,199569,1,8,0:2:0:0:
148,366,199666,1,8,0:2:0:0:
235,176,199762,6,0,B|232:278|232:278|239:282|239:282|236:422,1,210.000008010865,4|8,3:2|0:2,0:0:0:0:
55,279,200052,1,0,0:0:0:0:
118,222,200149,2,0,P|165:232|204:280,1,105.000004005432,0|0,3:2|1:2,0:0:0:0:
318,124,200343,2,0,P|271:134|232:182,1,105.000004005432,8|0,0:2|0:0,0:0:0:0:
0,18,200536,5,0,3:2:0:0:
35,95,200633,1,0,0:0:0:0:
116,115,200730,2,0,P|163:105|202:57,1,105.000004005432,8|0,0:2|0:0,0:0:0:0:
434,220,200923,1,0,3:2:0:0:
399,144,201020,1,0,1:2:0:0:
318,124,201117,2,0,P|271:134|232:182,1,105.000004005432,8|0,0:2|0:0,0:0:0:0:
257,252,201310,5,0,3:2:0:0:
269,253,201407,1,0,0:0:0:0:
418,351,201504,5,8,0:2:0:0:
406,350,201601,1,0,0:0:0:0:
247,283,201697,5,0,3:2:0:0:
257,281,201794,1,0,1:2:0:0:
428,320,201891,5,8,0:2:0:0:
418,322,201988,1,0,0:0:0:0:
215,316,202084,5,0,3:2:0:0:
224,310,202181,1,0,0:0:0:0:
460,287,202278,5,8,0:2:0:0:
451,293,202375,1,0,0:0:0:0:
234,352,202471,5,0,3:2:0:0:
239,344,202568,1,0,1:2:0:0:
441,251,202665,5,8,0:2:0:0:
436,259,202762,1,0,0:0:0:0:
321,120,202859,6,0,B|275:249|370:198|326:343,1,210.000008010865,0|8,3:2|0:2,0:0:0:0:
115,324,203149,1,0,0:0:0:0:
150,247,203246,2,0,P|215:244|254:278,1,105.000004005432,0|0,3:2|1:2,0:0:0:0:
125,124,203439,2,0,P|80:150|29:142,1,105.000004005432,8|0,0:2|0:0,0:0:0:0:
245,1,203633,6,0,P|261:22|266:59,1,52.5000020027161,0|0,3:2|0:0,0:0:0:0:
277,37,203729,2,0,P|280:63|266:98,1,52.5000020027161,0|0,0:0|0:0,0:0:0:0:
287,82,203826,2,0,P|276:107|248:129,1,52.5000020027161,8|0,0:2|0:0,0:0:0:0:
277,126,203923,2,0,P|256:142|219:147,1,52.5000020027161,0|0,0:0|0:0,0:0:0:0:
213,158,204020,6,0,P|276:139|405:230,1,210.000008010865,0|8,3:2|0:2,0:0:0:0:
419,74,204310,1,0,0:0:0:0:
507,85,204407,2,0,P|524:146|502:196,1,105.000004005432,0|0,3:2|0:0,0:0:0:0:
292,140,204601,2,0,P|302:89|340:53,1,105.000004005432,8|0,0:2|0:0,0:0:0:0:
449,273,204794,1,0,3:2:0:0:
394,206,204891,1,0,1:2:0:0:
319,245,204988,2,0,P|293:284|293:350,1,105.000004005432,8|0,0:2|0:0,0:0:0:0:
36,249,205181,6,0,L|76:252,1,35,0|0,3:2|0:0,0:0:0:0:
141,305,205375,1,8,0:2:0:0:
202,247,205472,1,8,0:2:0:0:
174,168,205568,1,8,0:2:0:0:
89,169,205665,1,8,0:2:0:0:
62,90,205761,1,8,0:2:0:0:
123,32,205858,1,8,0:2:0:0:
264,176,205956,6,0,P|386:167|469:48,1,210.000008010865,4|8,3:1|0:0,0:0:0:0:
486,257,206246,1,0,0:0:0:0:
429,319,206343,2,0,P|382:316|334:265,1,105.000004005432,0|0,3:2|1:2,0:0:0:0:
230,373,206536,2,0,P|205:327|212:276,1,105.000004005432,8|0,0:2|0:0,0:0:0:0:
19,144,206730,5,0,3:2:0:0:
78,203,206827,1,0,0:0:0:0:
160,189,206923,2,0,P|184:143|177:92,1,105.000004005432,8|0,0:2|0:0,0:0:0:0:
436,72,207117,1,0,3:2:0:0:
377,13,207214,1,0,1:2:0:0:
295,27,207310,2,0,P|270:72|277:123,1,105.000004005432,8|0,0:2|0:0,0:0:0:0:
322,197,207504,5,0,3:2:0:0:
314,205,207601,1,0,0:0:0:0:
216,326,207697,5,8,0:2:0:0:
224,318,207794,1,0,0:0:0:0:
350,215,207891,5,0,3:2:0:0:
340,220,207988,1,0,1:2:0:0:
187,309,208084,5,8,0:2:0:0:
197,304,208181,1,0,0:0:0:0:
371,246,208278,5,0,3:2:0:0:
360,247,208375,1,0,0:0:0:0:
166,278,208471,5,8,0:2:0:0:
177,277,208568,1,0,0:0:0:0:
378,286,208665,5,0,3:2:0:0:
369,283,208762,1,0,1:2:0:0:
159,238,208858,5,8,0:2:0:0:
168,241,208955,1,0,0:0:0:0:
303,366,209052,6,0,B|311:278|311:278|318:277|318:277|331:141,1,210.000008010865,0|8,3:2|0:2,0:0:0:0:
512,251,209343,1,0,0:0:0:0:
459,318,209439,2,0,P|389:307|363:263,1,105.000004005432,0|0,3:2|1:2,0:0:0:0:
239,197,209633,2,0,P|309:186|335:142,1,105.000004005432,8|0,0:2|0:0,0:0:0:0:
496,133,209827,2,0,B|388:141|442:56|311:58,1,210.000008010865,0|8,3:2|0:2,0:0:0:0:
164,234,210117,1,0,0:0:0:0:
239,197,210214,2,0,P|234:134|200:95,1,105.000004005432,0|0,3:2|1:2,0:0:0:0:
30,112,210407,2,0,P|8:159|15:210,1,105.000004005432,8|0,0:2|0:0,0:0:0:0:
82,261,210601,5,0,3:2:0:0:
94,268,210697,1,0,0:0:0:0:
251,330,210794,5,8,0:2:0:0:
238,322,210890,1,0,0:0:0:0:
69,300,210988,5,0,3:2:0:0:
81,307,211084,1,0,1:2:0:0:
238,369,211181,5,8,0:2:0:0:
225,361,211277,1,0,0:0:0:0:
57,331,211375,5,4,3:2:0:0:
69,338,211471,1,0,0:0:0:0:
160,309,211568,5,8,0:2:0:0:
225,361,211665,1,8,0:2:0:0:
303,330,211762,1,8,0:2:0:0:
307,245,211859,5,8,0:2:0:0:
385,214,211956,1,8,0:2:0:0:
450,266,212053,1,8,0:2:0:0:
418,359,212149,5,4,3:2:0:0:
412,345,212246,1,0,0:0:0:0:
334,125,212343,5,8,0:2:0:0:
340,139,212440,1,0,0:0:0:0:
376,372,212536,5,0,3:2:0:0:
377,355,212633,1,0,1:2:0:0:
376,112,212730,5,8,0:2:0:0:
375,129,212827,1,0,0:0:0:0:
333,368,212923,5,0,3:2:0:0:
338,351,213020,1,0,0:0:0:0:
419,116,213117,5,8,0:2:0:0:
414,133,213214,1,0,0:0:0:0:
295,346,213310,5,0,3:2:0:0:
303,330,213407,1,0,1:2:0:0:
457,138,213504,5,8,0:2:0:0:
449,154,213601,1,0,0:0:0:0:
200,264,213698,6,0,P|154:262|100:230,1,105.000004005432,0|0,3:2|0:0,0:0:0:0:
310,125,213891,2,0,P|308:171|276:225,1,105.000004005432,8|0,0:2|0:0,0:0:0:0:
168,43,214085,1,0,3:2:0:0:
166,36,214149,1,0,0:0:0:0:
163,29,214214,1,0,0:0:0:0:
160,22,214278,2,0,P|206:24|260:56,1,105.000004005432,8|0,0:2|0:0,0:0:0:0:
50,161,214471,2,0,P|52:115|84:61,1,105.000004005432,0|0,3:2|0:0,0:0:0:0:
350,47,214665,5,8,0:2:0:0:
310,125,214762,1,8,0:2:0:0:
381,169,214859,1,8,0:2:0:0:
366,251,214956,1,8,0:3:0:0:
287,278,215053,1,8,0:3:0:0:
308,363,215150,1,0,1:0:0:0:
389,333,215245,6,0,L|193:323,1,157.500006008148,4|0,1:2|1:0,0:0:0:0:
157,364,215633,2,0,P|125:371|82:359,1,52.5000020027161,0|0,0:0|0:0,0:0:0:0:
0,288,215827,2,0,P|26:286|51:292,1,52.5000020027161,0|0,1:0|0:0,0:0:0:0:
209,232,216020,2,0,P|139:241|91:206,1,105.000004005432,8|0,0:2|0:0,0:0:0:0:
69,152,216310,1,0,0:0:0:0:
100,73,216407,2,0,P|124:56|148:50,1,52.5000020027161,0|0,0:0|0:0,0:0:0:0:
329,12,216600,5,8,0:0:0:0:
284,83,216697,1,8,0:0:0:0:
340,143,216794,2,0,P|419:146|497:89,2,157.500006008148,4|0|0,1:2|1:0|1:0,0:0:0:0:
507,291,217567,2,0,P|431:273|358:301,1,157.500006008148,8|0,0:2|1:0,0:0:0:0:
331,384,217955,1,8,0:2:0:0:
274,323,218051,1,0,0:0:0:0:
194,323,218148,2,0,P|159:336|143:353,1,52.5000020027161,0|0,0:0|0:0,0:0:0:0:
134,359,218341,5,8,0:2:0:0:
117,269,218439,1,8,0:2:0:0:
50,326,218633,5,8,0:2:0:0:
91,247,218729,1,8,0:2:0:0:
6,252,218923,5,8,0:2:0:0:
87,216,219019,1,8,0:2:0:0:
15,163,219212,5,8,0:2:0:0:
103,173,219310,1,8,0:2:0:0:
79,84,219504,5,8,0:2:0:0:
141,153,219600,1,0,0:0:0:0:
230,166,219697,1,0,0:0:0:0:
303,114,219794,1,0,0:0:0:0:
314,24,219890,1,8,0:3:0:0:
303,24,219954,1,8,0:3:0:0:
294,23,220019,1,8,0:3:0:0:
285,23,220084,1,8,0:3:0:0:
285,23,220278,6,0,B|265:-3|184:-16|148:93|217:127|267:122|267:122|191:146|184:177|201:209|141:246|141:246|41:292|-68:209|-29:15|153:10|223:176|26:188,1,840.000032043458,4|0,0:2|0:0,0:0:0:0:
97,169,221439,6,0,P|48:223|60:289,1,140,4|2,1:2|0:0,0:0:0:0:
57,284,221827,1,0,0:0:0:0:
117,342,221923,2,0,B|215:321|215:321|264:335,1,140,2|0,0:0|0:0,0:0:0:0:
456,358,222214,2,0,P|383:352|355:265,1,140,2|0,0:0|0:0,0:0:0:0:
408,198,222504,2,0,P|481:204|509:291,2,140,2|0|2,0:0|0:0|0:0,0:0:0:0:
328,220,222988,5,0,0:0:0:0:
282,152,223085,1,2,0:0:0:0:
269,163,223181,2,0,P|238:176|176:168,1,70,0|0,0:0|0:0,0:0:0:0:
171,35,223375,2,0,P|197:55|221:113,1,70,2|0,0:0|0:0,0:0:0:0:
32,187,223568,1,0,0:0:0:0:
19,170,223665,2,0,P|7:91|62:27,1,140,2|0,0:0|0:0,0:0:0:0:
225,4,223956,5,0,0:0:0:0:
223,24,224052,1,0,0:0:0:0:
221,44,224149,2,0,B|209:182|209:182|214:187|214:187|199:377,1,315.000012016297,8|0,0:3|0:0,0:0:0:0:
101,364,224536,5,4,1:2:0:0:
54,353,224633,1,0,0:2:0:0:
14,321,224730,1,0,0:2:0:0:
7,262,224827,1,8,0:3:0:0:
43,206,224923,1,0,0:2:0:0:
117,191,225020,1,0,0:2:0:0:
173,253,225117,1,8,0:2:0:0:
199,333,225214,1,8,0:2:0:0:
271,355,225311,1,8,0:2:0:0:
330,322,225407,1,8,0:3:0:0:
351,266,225504,1,8,0:3:0:0:
331,219,225601,1,4,0:3:0:0:
294,197,225698,5,4,1:2:0:0:
325,230,225794,1,0,0:2:0:0:
381,246,225891,1,0,0:2:0:0:
443,221,225988,1,0,1:2:0:0:
470,150,226085,1,0,0:2:0:0:
443,69,226181,1,0,0:2:0:0:
353,45,226278,1,0,1:2:0:0:
276,110,226375,1,0,0:2:0:0:
297,208,226472,1,0,0:2:0:0:
238,267,226568,1,0,1:2:0:0:
162,262,226665,1,0,0:2:0:0:
116,211,226762,1,0,0:2:0:0:
120,152,226859,1,8,0:2:0:0:
147,109,226956,1,8,0:2:0:0:
184,89,227052,1,8,0:2:0:0:
200,59,227149,1,8,0:3:0:0:
196,33,227246,1,8,0:3:0:0:
186,18,227343,1,0,0:3:0:0:
176,8,227439,6,0,L|235:28,2,55.9999982910157,4|0|0,1:2|0:0|0:0,0:0:0:0:
56,169,227633,5,0,1:0:0:0:
64,162,227698,1,0,0:0:0:0:
73,155,227762,1,0,0:0:0:0:
81,148,227827,2,0,L|131:107,2,55.9999982910157,8|0|0,0:2|0:0|0:0,0:0:0:0:
136,353,228020,5,8,0:0:0:0:
134,343,228085,1,0,0:0:0:0:
133,331,228149,1,0,0:0:0:0:
131,321,228214,2,0,L|120:257,2,55.9999982910157,8|0|0,0:2|0:0|0:0,0:0:0:0:
336,376,228407,5,8,0:0:0:0:
326,373,228472,1,0,0:0:0:0:
316,368,228536,1,0,0:0:0:0:
306,365,228601,2,0,L|244:342,2,55.9999982910157,4|0|0,1:2|0:0|0:0,0:0:0:0:
455,214,228794,5,0,0:0:0:0:
447,221,228859,1,0,0:0:0:0:
438,228,228923,1,4,1:2:0:0:
430,235,228988,2,0,L|380:276,2,55.9999982910157,0|0|0,0:2|0:0|0:0,0:0:0:0:
374,30,229181,6,0,L|385:94,2,55.9999982910157,4|0|0,1:2|0:0|0:0,0:0:0:0:
349,6,229375,5,8,0:2:0:0:
328,26,229472,1,12,0:3:0:0:
356,45,229569,1,8,0:3:0:0:
336,65,229666,1,4,0:3:0:0:
364,84,229763,1,4,0:3:0:0:
343,105,229859,1,4,0:3:0:0:
371,123,229956,5,8,0:2:0:0:
248,97,230052,1,8,0:2:0:0:
124,71,230149,1,8,0:2:0:0:
133,77,230343,6,0,L|131:123,1,42
91,187,230730,6,0,P|54:228|56:305,1,105.000004005432,4|0,3:1|0:0,0:0:0:0:
233,368,230923,2,0,P|270:327|268:250,1,105.000004005432,8|0,0:2|0:0,0:0:0:0:
91,187,231117,1,0,3:2:0:0:
154,242,231214,1,0,1:2:0:0:
226,201,231310,2,0,P|237:146|197:81,1,105.000004005432,8|0,0:2|0:0,0:0:0:0:
463,65,231504,5,0,3:2:0:0:
400,10,231601,1,0,0:0:0:0:
328,51,231697,2,0,P|316:105|356:170,1,105.000004005432,8|0,0:2|0:0,0:0:0:0:
473,270,231891,2,0,P|484:324|444:389,1,105.000004005432,0|0,3:2|1:2,0:0:0:0:
283,352,232085,2,0,P|271:323|269:301,1,52.5000020027161,8|0,0:2|0:0,0:0:0:0:
270,286,232181,2,0,P|284:258|300:242,1,52.5000020027161,0|0,0:0|0:0,0:0:0:0:
313,236,232278,6,0,P|237:258|187:244,1,105.000004005432,0|0,3:2|0:0,0:0:0:0:
34,132,232472,2,0,P|86:129|133:150,1,105.000004005432,8|0,0:2|0:0,0:0:0:0:
77,329,232665,1,0,3:2:0:0:
70,329,232730,1,0,0:0:0:0:
63,330,232794,1,0,0:0:0:0:
56,330,232859,2,0,L|80:201,1,105.000004005432,8|0,0:2|0:0,0:0:0:0:
226,47,233052,2,0,L|250:176,1,105.000004005432,0|0,3:2|0:0,0:0:0:0:
460,213,233246,1,8,0:2:0:0:
484,132,233343,1,0,0:0:0:0:
420,77,233439,2,0,P|370:84|322:132,1,105.000004005432,0|0,3:2|1:2,0:0:0:0:
404,305,233633,5,8,0:2:0:0:
400,316,233697,1,0,0:0:0:0:
397,326,233762,1,0,0:0:0:0:
395,336,233827,2,0,P|445:329|493:281,1,105.000004005432,0|0,3:2|0:0,0:0:0:0:
280,312,234020,5,8,0:2:0:0:
268,312,234084,1,0,0:0:0:0:
257,312,234149,1,0,0:0:0:0:
247,314,234214,2,0,P|270:358|332:387,1,105.000004005432,0|0,3:2|1:2,0:0:0:0:
231,197,234407,5,8,0:2:0:0:
227,186,234471,1,0,0:0:0:0:
222,177,234536,1,0,0:0:0:0:
218,168,234601,2,0,P|184:205|178:273,1,105.000004005432,0|0,3:2|0:0,0:0:0:0:
329,122,234794,5,8,0:2:0:0:
338,115,234858,1,0,0:0:0:0:
346,108,234923,1,0,0:0:0:0:
352,100,234988,2,0,P|305:81|239:98,1,105.000004005432,0|0,3:2|1:2,0:0:0:0:
28,134,235181,2,0,P|78:143|127:124,1,105.000004005432,8|0,0:2|0:0,0:0:0:0:
233,13,235375,5,0,1:0:0:0:
152,37,235472,1,0,0:0:0:0:
127,124,235568,1,8,0:2:0:0:
175,192,235665,1,0,0:0:0:0:
254,203,235762,5,0,3:2:0:0:
170,215,235859,1,0,1:2:0:0:
135,291,235956,1,8,0:2:0:0:
163,369,236052,1,0,0:0:0:0:
246,382,236149,5,4,3:2:0:0:
249,372,236246,1,0,0:0:0:0:
252,361,236343,5,8,0:2:0:0:
346,369,236439,1,8,0:2:0:0:
410,300,236536,1,8,0:2:0:0:
399,207,236633,1,8,0:2:0:0:
318,159,236730,1,8,0:2:0:0:
229,192,236827,1,8,0:2:0:0:
190,285,236923,6,0,P|142:304|88:291,1,105.000004005432,4|0,3:2|0:0,0:0:0:0:
173,110,237117,2,0,P|213:142|229:195,1,105.000004005432,8|0,0:2|0:0,0:0:0:0:
40,216,237310,2,0,P|47:164|85:124,1,105.000004005432,0|0,3:2|1:2,0:0:0:0:
320,60,237504,5,8,0:2:0:0:
379,137,237601,1,0,0:0:0:0:
424,52,237698,2,0,L|303:61,1,105.000004005432,0|0,3:2|0:0,0:0:0:0:
193,60,237891,5,8,0:2:0:0:
127,137,237988,1,0,0:0:0:0:
71,51,238085,2,0,L|193:60,1,122.500001168251,0|0,3:2|1:2,0:0:0:0:
320,324,238278,5,8,0:2:0:0:
397,245,238375,1,0,0:0:0:0:
459,335,238472,2,0,L|321:324,1,140,0|0,3:2|0:0,0:0:0:0:
193,324,238665,5,8,0:2:0:0:
105,233,238762,1,0,0:0:0:0:
36,336,238859,2,0,L|193:324,1,157.500006008148,0|0,3:2|1:2,0:0:0:0:
480,192,239052,2,0,L|320:192,1,157.500006008148,8|0,0:2|0:0,0:0:0:0:
36,48,239246,2,0,L|193:60,1,157.500006008148,0|0,3:2|0:0,0:0:0:0:
297,70,239439,5,8,0:2:0:0:
228,149,239536,1,8,0:2:0:0:
322,192,239633,1,8,0:2:0:0:
253,271,239730,1,8,0:3:0:0:
348,315,239827,2,0,B|469:323,1,105.000004005432,8|4,0:3|0:3,0:0:0:0:
480,159,240020,5,8,0:2:0:0:
398,92,240117,1,8,0:2:0:0:
471,152,240214,5,8,0:2:0:0:
406,98,240311,1,8,0:2:0:0:
32,159,240601,5,8,0:2:0:0:
114,92,240698,1,8,0:2:0:0:
40,152,240794,5,8,0:2:0:0:
105,98,240892,1,8,0:2:0:0:
123,184,240988,5,2,0:1:0:0:
389,184,241181,1,4,0:1:0:0:
389,184,241568,5,8,0:2:0:0:
123,184,241665,1,8,0:2:0:0:
125,196,241956,6,0,L|131:272,1,62.9999980773926,0|0,1:0|0:0,0:0:0:0:
132,275,242343,1,8,0:2:0:0:
380,275,242439,1,8,0:2:0:0:
379,288,242730,6,0,L|373:364,1,62.9999980773926,4|0,0:3|0:0,0:0:0:0:
373,368,243116,1,4,1:1:0:0:
256,192,243165,12,0,246020,0:0:0:0:
