osu file format v14

[General]
AudioFilename: audio.mp3
AudioLeadIn: 0
PreviewTime: 13956
Countdown: 0
SampleSet: Soft
StackLeniency: 0.6
Mode: 0
LetterboxInBreaks: 0
WidescreenStoryboard: 1

[Editor]
Bookmarks: 41838,63504,75902,88278,103762,106859,128536,140923,168794,181181,192020,230730
DistanceSpacing: 1
BeatDivisor: 4
GridSize: 4
TimelineZoom: 6.999995

[Metadata]
Title:Natsuirozaka
TitleUnicode:懐色坂
Artist:VALLEYSTONE feat. Kanata.N
ArtistUnicode:VALLEYSTONE feat. かなたん
Creator:kwk
Version:ailv's Hard
Source:
Tags:moph 404 AimNotFound Luscent Saturnalize -akito pop'n music うさぎと猫と少年の夢 kanatan
BeatmapID:2192382
BeatmapSetID:950550

[Difficulty]
HPDrainRate:3
CircleSize:4
OverallDifficulty:6
ApproachRate:7.5
SliderMultiplier:1.5
SliderTickRate:1

[Events]
//Background and Video events
0,0,"bg.jpg",0,0
//Break Periods
2,103962,106034
2,180994,186550
//Storyboard Layer 0 (Background)
//Storyboard Layer 1 (Fail)
//Storyboard Layer 2 (Pass)
//Storyboard Layer 3 (Foreground)
//Storyboard Layer 4 (Overlay)
//Storyboard Sound Samples

[TimingPoints]
1569,387.096774193548,4,2,69,50,1,0
13956,389.61038961039,4,2,69,60,1,0
14735,405.405405405405,4,2,69,60,1,0
15545,382.165605095541,4,2,69,60,1,0
17073,394.736842105263,4,2,69,60,1,0
17862,379.746835443038,4,2,69,60,1,0
18621,387.096774193548,4,2,69,60,1,0
20169,387.722132471729,4,2,69,60,1,0
20944,404.040404040404,4,2,69,60,1,0
21752,370.37037037037,4,2,69,50,1,0
22859,387.096774193548,4,2,69,50,1,0
23246,387.096774193548,4,2,69,75,1,0
75891,-90.9090909090909,4,2,53,85,0,1
97568,-90.9090909090909,4,2,53,65,0,1
102601,-90.9090909090909,4,1,53,75,0,1
103568,-90.9090909090909,4,2,53,75,0,1
103762,-90.9090909090909,4,2,53,75,0,0
106859,-100,4,2,53,65,0,0
128536,-100,4,2,42,75,0,0
134633,-100,4,2,53,75,0,0
140923,-90.9090909090909,4,2,53,85,0,1
162600,-90.9090909090909,4,2,53,65,0,1
168359,-90.9090909090909,4,2,53,75,0,1
168794,-125,4,2,53,75,0,0
181375,-125,4,2,69,80,0,0
187278,-125,4,2,53,75,0,0
193568,-90.9090909090909,4,2,53,75,0,1
193955,-90.9090909090909,4,2,53,85,0,1
215245,-90.9090909090909,4,2,53,65,0,1
220278,-90.9090909090909,4,1,53,75,0,1
221246,-90.9090909090909,4,2,53,75,0,1
221439,-111.111111111111,4,2,53,75,0,0
224052,-111.111111111111,4,2,69,75,0,0
224246,-111.111111111111,4,2,53,75,0,0
224536,-111.111111111111,4,2,53,85,0,0
230729,-90.9090909090909,4,2,53,85,0,1
230730,-90.9090909090909,4,2,53,95,0,1
240891,-90.9090909090909,4,2,53,85,0,1
240988,-90.9090909090909,4,2,69,100,0,1
241278,-90.9090909090909,4,2,53,100,0,1
243116,-90.9090909090909,4,2,53,100,0,0
246117,-90.9090909090909,4,2,53,5,0,0

[Colours]
Combo1 : 255,255,166
Combo2 : 255,128,128
Combo3 : 0,255,255
Combo4 : 0,255,128

[HitObjects]
113,308,26343,5,8,0:2:0:0:
113,308,26440,2,0,L|200:301,1,75,8|8,0:2|0:2,0:0:0:0:
187,301,26730,1,8,0:2:0:0:
231,206,26923,5,8,0:2:0:0:
231,206,27020,2,0,L|144:199,1,75,8|8,0:2|0:2,0:0:0:0:
156,199,27310,1,8,0:2:0:0:
100,106,27504,5,8,0:2:0:0:
100,106,27600,2,0,L|187:99,1,75,0|0,0:0|0:0,0:0:0:0:
175,99,27891,1,8,0:2:0:0:
175,99,27988,1,0,0:0:0:0:
175,99,28085,1,4,0:3:0:0:
291,60,28278,6,0,P|290:148|286:232,2,150,12|0|0,0:0|0:0|0:0,0:0:0:0:
386,33,29246,1,2,0:0:0:0:
386,33,29343,1,2,0:2:0:0:
386,33,29439,6,0,P|464:37|496:41,1,75,4|10,3:1|0:2,0:0:0:0:
499,125,29827,1,2,3:2:0:0:
499,125,29923,2,0,P|494:183|495:218,1,75,2|2,1:2|0:2,0:0:0:0:
432,269,30310,2,0,P|374:264|339:265,1,75,2|0,0:2|0:0,0:0:0:0:
328,275,30601,2,0,L|334:333,3,37.5,2|2|10|0,3:2|1:2|0:2|0:0,0:0:0:0:
326,347,30988,5,2,3:2:0:0:
224,306,31181,1,10,0:2:0:0:
130,363,31375,1,2,3:2:0:0:
130,363,31472,2,0,L|52:356,2,75,2|2|2,1:2|0:2|0:2,0:0:0:0:
172,210,32149,1,2,3:2:0:0:
172,210,32246,1,2,1:2:0:0:
172,210,32343,1,10,0:2:0:0:
113,120,32536,5,2,3:2:0:0:
170,32,32730,2,0,P|188:34|206:39,1,37.5,10|2,0:2|0:2,0:0:0:0:
284,74,32923,2,0,P|302:71|320:66,2,37.5,2|2|10,3:2|1:2|0:2,0:0:0:0:
479,170,33504,6,0,P|461:164|442:162,1,37.5,10|2,0:2|0:2,0:0:0:0:
364,202,33697,2,0,P|345:199|327:194,2,37.5,2|2|10,3:2|1:2|0:2,0:0:0:0:
439,304,34085,5,2,3:2:0:0:
330,339,34278,2,0,L|321:388,2,37.5,10|2|2,0:2|0:2|3:2,0:0:0:0:
228,283,34665,2,0,L|221:246,2,37.5,10|0|6,0:2|0:0|3:2,0:0:0:0:
115,364,35052,2,0,L|122:328,1,37.5,10|8,0:2|0:2,0:0:0:0:
55,243,35246,5,10,0:2:0:0:
51,224,35342,1,8,0:2:0:0:
47,206,35439,1,10,0:2:0:0:
43,187,35536,1,8,0:2:0:0:
40,169,35633,6,0,P|118:173|150:177,1,75,6|10,3:2|0:2,0:0:0:0:
220,112,36021,1,2,3:2:0:0:
220,112,36117,2,0,P|225:54|224:19,1,75,2|2,1:2|0:2,0:0:0:0:
327,75,36504,2,0,P|364:75|401:79,1,75,2|0,0:2|0:0,0:0:0:0:
428,77,36795,2,0,L|434:135,3,37.5,2|2|10|0,3:2|1:2|0:2|0:0,0:0:0:0:
462,138,37182,5,2,3:2:0:0:
503,246,37375,1,10,0:2:0:0:
441,342,37569,1,2,3:2:0:0:
441,342,37666,2,0,L|363:335,2,75,2|2|2,1:2|0:2|0:2,0:0:0:0:
463,358,38149,6,0,L|469:319,4,37.5,8|8|8|8|8,0:2|0:2|0:2|0:3|0:3,0:0:0:0:
376,240,38730,5,8,0:2:0:0:
376,240,38827,1,8,0:2:0:0:
376,240,38923,1,8,0:2:0:0:
376,240,39020,1,8,0:2:0:0:
276,299,39310,5,8,0:2:0:0:
276,299,39407,1,8,0:2:0:0:
276,299,39503,1,8,0:2:0:0:
276,299,39601,2,0,L|232:291,3,37.5,8|0|0|0,0:2|0:0|0:0|0:0,0:0:0:0:
88,366,40278,5,8,0:2:0:0:
88,366,40375,1,8,0:2:0:0:
37,169,40665,1,0,1:0:0:0:
153,252,41052,5,8,0:2:0:0:
153,252,41149,1,8,0:2:0:0:
186,71,41439,1,4,0:3:0:0:
372,181,41827,5,4,1:2:0:0:
429,348,42214,1,8,0:2:0:0:
429,348,42407,2,0,P|398:350|354:340,2,75,0|0|0,1:2|0:0|1:0,0:0:0:0:
496,296,42988,1,0,0:0:0:0:
476,210,43181,6,0,P|483:133|487:43,1,150,8|0,0:2|1:0,0:0:0:0:
402,31,43762,2,0,P|393:66|391:111,1,75,8|0,0:2|0:0,0:0:0:0:
390,104,44052,1,0,1:0:0:0:
390,104,44149,1,0,1:0:0:0:
340,258,44536,1,8,0:2:0:0:
208,154,44923,5,4,1:2:0:0:
82,282,45310,2,0,P|77:327|89:382,2,75,8|0|0,0:2|1:2|0:0,0:0:0:0:
28,201,45891,1,0,1:0:0:0:
94,135,46085,1,0,0:0:0:0:
94,135,46278,6,0,L|184:136,1,75,8|0,0:2|0:0,0:0:0:0:
246,83,46665,1,0,1:0:0:0:
324,147,46859,1,8,0:2:0:0:
324,147,46956,1,0,1:0:0:0:
324,147,47052,1,0,0:0:0:0:
417,102,47246,5,0,1:0:0:0:
499,284,47633,1,8,0:2:0:0:
313,366,48020,5,4,1:2:0:0:
133,313,48407,1,8,0:2:0:0:
133,313,48601,2,0,P|83:318|39:318,2,75,0|0|0,1:2|0:0|1:0,0:0:0:0:
195,245,49181,1,0,0:0:0:0:
136,172,49375,5,8,0:2:0:0:
252,27,49762,1,0,1:0:0:0:
320,75,49956,1,8,0:2:0:0:
387,27,50149,1,0,0:0:0:0:
475,78,50343,6,0,P|478:121|486:167,1,75,0|0,1:0|1:2,0:0:0:0:
435,223,50730,2,0,P|432:266|424:312,1,75,8|0,0:2|0:0,0:0:0:0:
372,366,51117,5,4,1:2:0:0:
241,292,51504,1,8,0:2:0:0:
241,292,51698,2,0,P|192:298|160:300,2,75,0|0|0,1:2|0:0|1:0,0:0:0:0:
286,222,52278,1,0,0:0:0:0:
328,141,52472,6,0,P|324:95|317:55,1,75,8|0,0:2|0:0,0:0:0:0:
247,14,52859,1,0,1:0:0:0:
189,89,53052,1,8,0:2:0:0:
103,61,53246,1,0,0:0:0:0:
103,61,53343,1,0,1:0:0:0:
103,61,53439,2,0,L|108:9,4,37.5,0|8|0|0|8,1:0|0:2|0:0|1:2|0:2,0:0:0:0:
37,140,54020,1,8,0:2:0:0:
37,140,54117,1,8,0:2:0:0:
37,140,54214,5,4,3:2:0:0:
83,339,54601,1,8,0:2:0:0:
83,339,54794,2,0,P|30:348|3:341,2,75,0|0|0,1:2|0:0|1:0,0:0:0:0:
165,309,55375,1,0,0:0:0:0:
255,360,55568,6,0,P|255:315|262:277,1,75,8|0,0:2|0:0,0:0:0:0:
306,203,55956,1,0,1:0:0:0:
306,203,56052,1,0,0:0:0:0:
306,203,56149,1,8,0:2:0:0:
239,132,56343,1,0,0:0:0:0:
282,47,56536,2,0,L|237:45,2,37.5,0|0|0,1:0|0:0|1:2,0:0:0:0:
360,90,56923,2,0,P|406:84|466:85,1,75,8|0,0:2|0:0,0:0:0:0:
512,123,57310,1,4,1:2:0:0:
496,291,57698,6,0,P|439:286|406:288,1,75,8|0,0:2|0:0,0:0:0:0:
336,241,58085,1,0,0:0:0:0:
336,241,58278,1,0,1:0:0:0:
325,353,58472,1,0,0:0:0:0:
325,353,58665,2,0,P|274:339|241:343,1,75,8|0,0:2|0:0,0:0:0:0:
167,363,59052,5,0,1:0:0:0:
167,363,59149,1,0,0:0:0:0:
167,363,59246,2,0,P|154:312|166:272,1,75,8|0,0:2|0:0,0:0:0:0:
215,198,59633,1,0,1:0:0:0:
215,198,59730,1,0,0:0:0:0:
215,198,59827,1,0,1:2:0:0:
155,113,60020,1,8,0:2:0:0:
295,14,60407,5,4,1:2:0:0:
443,112,60794,2,0,L|432:197,1,75,8|0,0:2|1:2,0:0:0:0:
511,273,61181,1,0,0:0:0:0:
511,273,61375,1,0,1:0:0:0:
437,355,61568,1,0,0:0:0:0:
437,355,61762,6,0,P|393:356|362:353,1,75,8|0,0:2|0:0,0:0:0:0:
267,337,62149,1,0,1:0:0:0:
172,358,62343,2,0,B|157:276,1,75,8|0,0:2|0:0,0:0:0:0:
196,197,62730,5,8,0:2:0:0:
196,197,62827,1,8,0:2:0:0:
161,110,63020,1,8,0:2:0:0:
161,110,63117,1,8,0:2:0:0:
182,18,63310,1,8,0:2:0:0:
182,18,63407,1,8,0:2:0:0:
182,18,63504,6,0,L|94:26,1,75,4|4,3:3|0:0,0:0:0:0:
31,86,63891,1,0,3:2:0:0:
31,86,64085,1,12,0:2:0:0:
61,171,64278,1,0,3:2:0:0:
16,260,64472,1,4,0:0:0:0:
72,339,64665,2,0,P|115:332|154:328,1,75,4|12,3:2|0:2,0:0:0:0:
253,330,65052,5,0,3:2:0:0:
253,330,65246,1,4,0:0:0:0:
356,359,65439,1,0,3:2:0:0:
434,283,65633,1,12,0:2:0:0:
329,246,65827,2,0,P|291:244|254:243,1,75,0|4,3:2|0:0,0:0:0:0:
200,163,66214,5,4,3:2:0:0:
200,163,66407,1,12,0:2:0:0:
200,163,66601,2,0,P|196:125|203:89,1,75,0|4,3:2|0:0,0:0:0:0:
88,88,66988,6,0,P|50:87|6:81,1,75,0|12,3:2|0:2,0:0:0:0:
101,176,67375,1,0,3:2:0:0:
44,243,67568,1,4,0:0:0:0:
112,307,67762,2,0,P|145:298|186:307,1,75,4|12,3:2|0:2,0:0:0:0:
278,369,68149,6,0,L|273:262,1,75,0|4,3:2|0:0,0:0:0:0:
372,326,68536,2,0,L|375:251,1,75,0|12,3:2|0:2,0:0:0:0:
473,300,68923,2,0,L|469:225,1,75,0|4,3:2|0:0,0:0:0:0:
500,134,69310,5,4,3:2:0:0:
500,134,69504,1,12,0:2:0:0:
500,134,69698,1,4,3:3:0:0:
385,286,71246,5,0,1:0:0:0:
385,286,71439,1,0,1:0:0:0:
278,327,71633,1,0,1:0:0:0:
278,327,71827,1,0,1:0:0:0:
185,239,72020,1,8,0:2:0:0:
294,199,72214,1,8,0:2:0:0:
251,103,72407,5,8,0:2:0:0:
251,103,72504,1,8,0:2:0:0:
251,103,72601,2,0,L|243:59,1,37.5,8|8,0:2|0:2,0:0:0:0:
296,9,72794,6,0,L|333:16,1,37.5,8|8,0:2|0:2,0:0:0:0:
407,33,72988,2,0,L|444:40,1,37.5,8|8,0:2|0:2,0:0:0:0:
347,113,73375,6,0,L|384:120,1,37.5,8|8,0:2|0:2,0:0:0:0:
458,137,73569,2,0,L|495:144,1,37.5,8|8,0:2|0:2,0:0:0:0:
365,210,73956,6,0,L|402:217,1,37.5,8|0,0:2|0:0,0:0:0:0:
476,234,74150,2,0,L|513:241,1,37.5,0|0,1:0|0:0,0:0:0:0:
500,322,74343,5,4,1:2:0:0:
385,351,74536,1,8,0:1:0:0:
385,351,74633,1,8,0:1:0:0:
385,351,74730,2,0,L|347:344,3,37.5,8|8|8|8,0:1|0:1|0:1|0:2,0:0:0:0:
269,353,75117,2,0,L|276:315,3,37.5,8|8|8|8,0:2|0:2|0:2|0:2,0:0:0:0:
114,130,75891,6,0,L|235:126,1,82.5000025177003,4|8,3:1|0:2,0:0:0:0:
305,180,76278,1,0,3:2:0:0:
326,58,76472,1,8,0:2:0:0:
305,180,76665,2,0,P|307:222|317:269,1,82.5000025177003,0|8,3:2|0:2,0:0:0:0:
386,361,77052,1,0,3:2:0:0:
386,361,77149,1,0,1:2:0:0:
386,361,77246,1,8,0:2:0:0:
467,283,77439,6,0,P|463:237|459:195,1,82.5000025177003,0|8,3:2|0:2,0:0:0:0:
405,119,77827,1,0,3:2:0:0:
405,119,78020,2,0,P|408:77|412:36,1,82.5000025177003,8|0,0:2|3:2,0:0:0:0:
302,18,78407,1,8,0:2:0:0:
232,102,78601,1,0,3:2:0:0:
232,102,78698,1,0,1:2:0:0:
232,102,78794,1,8,0:2:0:0:
223,211,78988,6,0,P|231:263|231:317,1,82.5000025177003,0|8,3:2|0:2,0:0:0:0:
147,366,79375,1,0,3:2:0:0:
39,338,79568,1,8,0:2:0:0:
16,238,79762,2,0,L|115:243,1,82.5000025177003,0|8,3:2|0:2,0:0:0:0:
233,220,80149,5,0,3:2:0:0:
233,220,80246,1,0,1:2:0:0:
233,220,80343,1,8,0:2:0:0:
310,125,80536,1,0,3:2:0:0:
239,15,80730,1,8,0:2:0:0:
160,111,80923,1,0,3:2:0:0:
160,111,81117,2,0,P|157:173|162:205,1,82.5000025177003,8|4,0:2|3:2,0:0:0:0:
123,332,81504,6,0,L|173:324,1,41.2500012588501,8|8,0:2|0:2,0:0:0:0:
231,368,81698,1,8,0:2:0:0:
250,361,81794,1,8,0:2:0:0:
270,357,81891,1,8,0:2:0:0:
291,356,81988,1,8,0:2:0:0:
313,359,82085,6,0,P|365:370|415:356,1,82.5000025177003,4|8,3:2|0:2,0:0:0:0:
486,293,82472,1,0,3:2:0:0:
376,236,82665,1,8,0:2:0:0:
486,293,82859,2,0,L|494:201,1,82.5000025177003,0|8,3:2|0:2,0:0:0:0:
441,107,83246,1,0,3:2:0:0:
441,107,83343,1,0,1:2:0:0:
441,107,83439,1,8,0:2:0:0:
512,12,83633,6,0,L|399:1,1,82.5000025177003,0|8,3:2|0:2,0:0:0:0:
328,65,84020,1,0,3:2:0:0:
328,65,84214,2,0,L|215:54,2,82.5000025177003,8|0|8,0:2|3:2|0:2,0:0:0:0:
352,171,84794,1,0,3:2:0:0:
297,260,84988,1,8,0:2:0:0:
328,364,85181,6,0,P|203:354|154:348,1,165.000005035401,0|0,3:2|3:2,0:0:0:0:
160,258,85762,1,8,0:2:0:0:
65,347,85956,2,0,P|54:240|50:186,1,123.75000377655,0|0,3:2|0:0,0:0:0:0:
78,208,86343,2,0,P|69:167|67:110,1,82.5000025177003,0|8,3:2|0:2,0:0:0:0:
143,23,86730,1,0,3:2:0:0:
258,69,86923,1,8,0:2:0:0:
143,23,87117,6,0,P|154:112|165:193,1,165.000005035401,0|0,3:2|3:2,0:0:0:0:
235,241,87698,2,0,L|292:231,1,41.2500012588501,8|8,0:2|0:2,0:0:0:0:
368,279,87891,1,8,0:2:0:0:
361,259,87987,1,8,0:2:0:0:
358,239,88084,1,8,0:2:0:0:
358,218,88181,1,8,0:2:0:0:
362,197,88278,6,0,L|455:191,1,82.5000025177003,4|8,3:1|0:2,0:0:0:0:
396,78,88665,1,0,3:2:0:0:
504,39,88859,1,8,0:2:0:0:
396,78,89052,2,0,P|351:75|307:70,1,82.5000025177003,0|8,3:2|0:2,0:0:0:0:
241,142,89439,1,0,3:2:0:0:
241,142,89536,1,0,1:2:0:0:
241,142,89633,1,8,0:2:0:0:
139,38,89826,6,0,P|143:84|147:126,1,82.5000025177003,0|8,3:2|0:2,0:0:0:0:
49,165,90214,1,0,3:2:0:0:
49,165,90407,2,0,P|45:206|41:247,1,82.5000025177003,8|0,0:2|3:2,0:0:0:0:
90,341,90794,1,8,0:2:0:0:
181,277,90988,1,0,3:2:0:0:
181,277,91085,1,0,1:2:0:0:
181,277,91181,1,8,0:2:0:0:
261,359,91375,6,0,P|313:351|367:351,1,82.5000025177003,0|8,3:2|0:2,0:0:0:0:
453,370,91762,1,0,3:2:0:0:
510,276,91955,1,8,0:2:0:0:
409,248,92149,2,0,L|414:149,1,82.5000025177003,0|8,3:2|0:2,0:0:0:0:
505,71,92536,5,0,3:2:0:0:
505,71,92633,1,0,1:2:0:0:
505,71,92730,1,8,0:2:0:0:
389,1,92923,1,0,3:2:0:0:
302,100,93117,1,8,0:2:0:0:
417,172,93310,1,0,3:2:0:0:
417,172,93504,2,0,P|479:175|511:170,1,82.5000025177003,8|4,0:2|3:2,0:0:0:0:
512,294,93891,6,0,L|462:302,1,41.2500012588501,8|8,0:2|0:2,0:0:0:0:
406,359,94085,1,8,0:2:0:0:
385,361,94181,1,8,0:2:0:0:
364,361,94278,1,8,0:2:0:0:
344,359,94375,1,8,0:2:0:0:
323,353,94472,6,0,L|327:258,1,82.5000025177003,4|8,3:2|0:2,0:0:0:0:
280,171,94859,1,0,3:2:0:0:
371,106,95052,1,8,0:2:0:0:
280,171,95246,2,0,L|188:163,1,82.5000025177003,0|8,3:2|0:2,0:0:0:0:
141,66,95633,1,0,3:2:0:0:
141,66,95730,1,0,1:2:0:0:
141,66,95826,1,8,0:2:0:0:
81,177,96020,5,0,3:2:0:0:
136,291,96214,1,8,0:2:0:0:
64,379,96407,1,0,3:2:0:0:
2,267,96601,1,8,0:2:0:0:
81,177,96794,2,0,L|162:187,1,82.5000025177003,0|8,3:2|0:2,0:0:0:0:
162,187,97085,1,8,0:2:0:0:
162,187,97181,1,8,0:2:0:0:
252,149,97375,2,0,L|310:156,1,41.2500012588501,8|0,0:3|1:0,0:0:0:0:
386,200,97568,6,0,P|340:249|386:327,1,165.000005035401,4|0,3:2|0:0,0:0:0:0:
494,361,98149,1,0,1:0:0:0:
494,361,98343,2,0,P|489:300|484:189,1,165.000005035401,8|0,0:2|0:0,0:0:0:0:
499,97,98923,1,8,0:0:0:0:
499,97,99020,1,8,0:0:0:0:
499,97,99117,1,4,3:2:0:0:
325,34,99504,6,0,L|243:45,2,82.5000025177003,0|0|8,0:0|1:0|0:2,0:0:0:0:
413,101,100085,1,0,0:0:0:0:
343,184,100278,2,0,L|298:165,2,41.2500012588501,8|0|0,0:2|0:0|0:0,0:0:0:0:
389,276,100665,5,8,0:2:0:0:
389,276,100762,2,0,L|394:362,1,82.5000025177003,8|8,0:2|0:2,0:0:0:0:
393,358,101052,1,8,0:2:0:0:
254,362,101246,5,8,0:2:0:0:
254,362,101343,2,0,L|249:276,1,82.5000025177003,8|8,0:2|0:2,0:0:0:0:
249,279,101633,1,8,0:2:0:0:
113,280,101827,5,8,0:2:0:0:
113,280,101924,2,0,L|118:363,1,82.5000025177003,0|0,0:0|0:0,0:0:0:0:
117,362,102214,1,8,0:3:0:0:
117,362,102310,1,0,0:0:0:0:
117,362,102407,1,4,0:3:0:0:
28,306,102601,6,0,P|33:212|40:135,2,165.000005035401,4|0|0,0:2|0:0|0:0,0:0:0:0:
28,306,103762,1,4,1:2:0:0:
283,148,106859,5,4,1:2:0:0:
357,282,107246,1,0,0:0:0:0:
357,282,107439,2,0,P|402:287|438:289,2,75,0|0|0,0:0|0:0|0:0,0:0:0:0:
277,325,108020,1,0,0:0:0:0:
199,253,108213,6,0,P|202:178|206:89,1,150,8|0,0:2|1:2,0:0:0:0:
134,24,108794,2,0,P|132:61|123:98,1,75,8|0,0:2|0:0,0:0:0:0:
123,99,109084,1,0,1:2:0:0:
123,99,109181,1,0,1:0:0:0:
72,167,109568,1,8,0:2:0:0:
223,290,109955,5,0,1:2:0:0:
365,162,110342,2,0,P|370:117|358:62,2,75,0|0|0,0:0|0:0|0:0,0:0:0:0:
324,233,110923,1,0,1:0:0:0:
358,309,111117,1,0,0:0:0:0:
358,309,111310,6,0,L|448:308,1,75,8|0,0:2|0:0,0:0:0:0:
481,239,111697,1,0,1:2:0:0:
446,155,111891,1,8,0:2:0:0:
446,155,111988,1,8,0:2:0:0:
446,155,112084,1,0,0:0:0:0:
476,65,112278,5,0,1:0:0:0:
308,190,112665,1,8,0:2:0:0:
199,18,113052,5,4,1:2:0:0:
379,71,113439,1,8,0:2:0:0:
379,71,113633,2,0,P|429:66|473:66,2,75,0|0|0,1:2|0:0|1:0,0:0:0:0:
317,139,114213,1,0,0:0:0:0:
376,212,114407,5,8,0:2:0:0:
260,357,114794,1,0,1:0:0:0:
192,309,114988,1,8,0:2:0:0:
213,231,115181,1,0,0:0:0:0:
223,146,115375,6,0,P|220:103|212:57,1,75,0|0,1:0|1:2,0:0:0:0:
140,18,115762,2,0,P|134:55|132:92,1,75,8|0,0:2|0:0,0:0:0:0:
94,178,116149,5,4,1:2:0:0:
271,92,116536,1,8,0:2:0:0:
271,92,116730,2,0,P|320:86|352:84,2,75,0|0|0,1:2|0:0|1:0,0:0:0:0:
226,162,117310,1,0,0:0:0:0:
184,243,117504,6,0,P|188:289|195:329,1,75,8|0,0:2|0:0,0:0:0:0:
265,370,117891,1,0,1:0:0:0:
323,295,118084,1,8,0:2:0:0:
409,323,118278,1,0,0:0:0:0:
409,323,118375,1,0,1:0:0:0:
409,323,118471,2,0,L|404:375,4,37.5,0|8|0|0|8,1:0|0:2|0:0|1:0|0:2,0:0:0:0:
475,244,119052,1,8,0:2:0:0:
475,244,119149,1,8,0:2:0:0:
475,244,119246,5,4,1:2:0:0:
429,45,119633,1,0,1:0:0:0:
429,45,119826,2,0,P|482:36|509:43,2,75,8|0|8,0:2|0:0|0:2,0:0:0:0:
347,75,120407,1,0,1:0:0:0:
257,24,120600,6,0,P|257:69|250:107,1,75,8|0,0:2|0:0,0:0:0:0:
206,181,120988,1,8,0:2:0:0:
206,181,121084,1,0,0:0:0:0:
206,181,121181,1,0,1:0:0:0:
273,252,121375,1,8,0:2:0:0:
230,337,121568,2,0,L|275:339,2,37.5,0|0|8,0:0|0:0|0:2,0:0:0:0:
152,294,121955,2,0,P|106:300|46:299,1,75,0|8,1:0|0:2,0:0:0:0:
0,261,122342,1,4,1:2:0:0:
16,93,122730,6,0,P|73:98|106:96,1,75,0|0,1:0|0:0,0:0:0:0:
176,143,123117,1,0,0:0:0:0:
176,143,123310,1,8,0:2:0:0:
187,31,123504,1,0,1:0:0:0:
187,31,123697,2,0,P|238:45|271:41,1,75,8|0,0:2|1:0,0:0:0:0:
345,21,124084,5,8,0:2:0:0:
345,21,124181,1,0,0:0:0:0:
345,21,124278,2,0,P|358:72|346:112,1,75,0|8,1:0|0:2,0:0:0:0:
297,186,124665,1,0,0:0:0:0:
297,186,124762,1,0,0:0:0:0:
297,186,124859,1,8,0:2:0:0:
357,271,125052,1,0,1:0:0:0:
217,370,125439,5,4,1:2:0:0:
324,360,125826,2,0,L|398:369,1,75,0|8,1:0|0:2,0:0:0:0:
491,325,126213,1,0,0:0:0:0:
491,325,126407,1,8,0:2:0:0:
459,220,126600,1,0,1:0:0:0:
459,220,126794,6,0,P|415:219|384:222,1,75,8|0,0:2|1:0,0:0:0:0:
333,148,127181,1,8,0:2:0:0:
389,74,127375,2,0,B|375:0,1,75,0|8,1:2|0:2,0:0:0:0:
293,28,127762,5,8,0:2:0:0:
293,28,127859,1,8,0:2:0:0:
209,88,128052,1,8,0:2:0:0:
209,88,128149,1,8,0:2:0:0:
172,187,128342,1,8,0:2:0:0:
172,187,128439,1,8,0:2:0:0:
172,187,128536,6,0,L|84:179,1,75,4|4,1:3|0:0,0:0:0:0:
213,276,128923,1,0,1:0:0:0:
213,276,129117,1,12,0:2:0:0:
153,353,129310,1,0,1:2:0:0:
60,337,129504,1,4,0:0:0:0:
10,267,129697,2,0,P|3:224|-1:185,1,75,4|12,1:2|0:2,0:0:0:0:
73,119,130084,5,0,1:2:0:0:
73,119,130278,1,4,0:2:0:0:
176,148,130471,1,0,1:0:0:0:
254,72,130665,1,12,0:2:0:0:
149,35,130859,2,0,P|111:33|74:32,1,75,0|4,1:2|0:2,0:0:0:0:
162,143,131246,5,4,1:2:0:0:
162,143,131439,1,12,0:2:0:0:
162,143,131633,2,0,P|166:181|159:217,1,75,0|4,1:2|0:2,0:0:0:0:
254,271,132020,6,0,P|292:272|336:278,1,75,0|12,1:0|0:2,0:0:0:0:
425,243,132407,1,0,1:2:0:0:
459,151,132600,1,4,0:2:0:0:
400,77,132794,2,0,P|367:86|326:77,1,75,4|12,1:2|0:2,0:0:0:0:
234,15,133181,6,0,L|239:122,1,75,0|4,1:2|0:2,0:0:0:0:
140,58,133568,2,0,L|137:133,1,75,0|12,1:0|0:2,0:0:0:0:
39,84,133955,2,0,L|43:159,1,75,0|4,1:2|0:2,0:0:0:0:
12,250,134342,5,4,1:2:0:0:
12,250,134536,1,12,0:2:0:0:
12,250,134730,1,4,1:2:0:0:
127,98,136278,5,0,1:0:0:0:
127,98,136471,1,0,1:0:0:0:
234,57,136665,1,0,1:0:0:0:
234,57,136859,1,0,1:0:0:0:
327,145,137052,1,8,0:2:0:0:
218,185,137246,1,8,0:2:0:0:
261,281,137439,5,8,0:2:0:0:
261,281,137536,1,8,0:2:0:0:
261,281,137633,2,0,L|269:325,1,37.5,8|8,0:2|0:2,0:0:0:0:
371,377,137826,6,0,L|334:370,1,37.5,8|8,0:2|0:2,0:0:0:0:
442,358,138020,2,0,L|405:351,1,37.5,8|8,0:2|0:2,0:0:0:0:
405,268,138407,6,0,L|368:261,1,37.5,8|8,0:2|0:2,0:0:0:0:
476,249,138601,2,0,L|439:242,1,37.5,8|8,0:2|0:2,0:0:0:0:
390,167,138988,6,0,L|353:160,1,37.5,8|0,0:2|0:0,0:0:0:0:
461,148,139182,2,0,L|424:141,1,37.5,0|0,1:0|0:0,0:0:0:0:
360,71,139375,5,4,1:2:0:0:
240,65,139568,1,8,0:1:0:0:
240,65,139665,1,8,0:1:0:0:
240,65,139762,2,0,L|202:72,3,37.5,8|8|8|8,0:1|0:1|0:1|0:2,0:0:0:0:
152,136,140149,2,0,L|145:174,3,37.5,8|8|8|8,0:2|0:2|0:2|0:2,0:0:0:0:
237,322,140923,6,0,P|232:264|227:212,1,82.5000025177003,4|8,3:1|0:2,0:0:0:0:
303,154,141310,1,0,3:2:0:0:
207,89,141504,1,8,0:2:0:0:
303,154,141697,2,0,P|345:156|392:166,1,82.5000025177003,0|8,3:2|0:2,0:0:0:0:
460,250,142084,1,0,3:2:0:0:
460,250,142181,1,0,1:2:0:0:
460,250,142278,1,8,0:2:0:0:
387,332,142471,6,0,P|341:336|299:340,1,82.5000025177003,0|8,3:2|0:2,0:0:0:0:
194,367,142859,1,0,3:2:0:0:
194,367,143052,2,0,P|191:325|187:284,1,82.5000025177003,8|0,0:2|3:2,0:0:0:0:
121,205,143439,1,8,0:2:0:0:
193,118,143633,1,0,3:2:0:0:
193,118,143730,1,0,1:2:0:0:
193,118,143826,1,8,0:2:0:0:
98,40,144020,6,0,P|46:48|-8:48,1,82.5000025177003,0|8,3:2|0:2,0:0:0:0:
30,160,144407,1,0,3:2:0:0:
121,210,144600,1,8,0:2:0:0:
81,313,144794,2,0,L|163:317,1,82.5000025177003,0|8,3:2|0:2,0:0:0:0:
298,275,145181,5,0,3:2:0:0:
298,275,145278,1,0,1:2:0:0:
298,275,145375,1,8,0:2:0:0:
393,352,145568,1,0,3:2:0:0:
503,281,145762,1,8,0:2:0:0:
407,202,145955,1,0,3:2:0:0:
407,202,146149,2,0,P|348:188|318:168,1,82.5000025177003,8|4,0:2|3:2,0:0:0:0:
340,86,146536,6,0,L|290:94,1,41.2500012588501,8|8,0:2|0:2,0:0:0:0:
265,23,146730,1,8,0:2:0:0:
246,30,146826,1,8,0:2:0:0:
226,34,146923,1,8,0:2:0:0:
205,35,147020,1,8,0:2:0:0:
183,32,147117,6,0,P|131:21|81:35,1,82.5000025177003,4|8,3:2|0:2,0:0:0:0:
7,126,147504,1,0,3:2:0:0:
137,162,147697,1,8,0:2:0:0:
7,126,147891,2,0,L|-1:218,1,82.5000025177003,0|8,3:2|0:2,0:0:0:0:
81,283,148278,1,0,3:2:0:0:
81,283,148375,1,0,1:2:0:0:
81,283,148471,1,8,0:2:0:0:
0,372,148665,6,0,L|113:383,1,82.5000025177003,0|8,3:2|0:2,0:0:0:0:
184,319,149052,1,0,3:2:0:0:
184,319,149246,2,0,L|297:330,2,82.5000025177003,8|0|8,0:2|3:2|0:2,0:0:0:0:
150,203,149826,1,0,3:2:0:0:
271,224,150020,1,8,0:2:0:0:
318,127,150213,6,0,P|243:89|151:70,1,165.000005035401,0|0,3:2|3:2,0:0:0:0:
75,20,150794,1,8,0:2:0:0:
9,106,150988,2,0,P|20:213|25:256,1,123.75000377655,0|0,3:2|0:0,0:0:0:0:
25,264,151375,2,0,P|66:261|106:252,1,82.5000025177003,0|8,3:2|0:2,0:0:0:0:
198,196,151762,1,0,3:2:0:0:
260,278,151955,1,8,0:2:0:0:
349,195,152149,6,0,P|338:106|327:25,1,165.000005035401,0|0,3:2|3:2,0:0:0:0:
413,36,152730,2,0,L|454:29,1,41.2500012588501,8|8,0:2|0:2,0:0:0:0:
502,99,152923,1,8,0:2:0:0:
509,119,153019,1,8,0:2:0:0:
512,139,153116,1,8,0:2:0:0:
512,160,153213,1,8,0:2:0:0:
508,181,153310,6,0,L|415:187,1,82.5000025177003,4|8,3:1|0:2,0:0:0:0:
323,280,153697,1,0,3:2:0:0:
269,176,153891,1,8,0:2:0:0:
323,280,154084,2,0,P|368:283|412:288,1,82.5000025177003,0|8,3:2|0:2,0:0:0:0:
512,380,154471,1,0,3:2:0:0:
512,380,154568,1,0,1:2:0:0:
512,380,154665,1,8,0:2:0:0:
512,244,154858,6,0,P|508:198|504:156,1,82.5000025177003,0|8,3:2|0:2,0:0:0:0:
401,86,155246,1,0,3:2:0:0:
401,86,155439,2,0,P|360:82|319:78,1,82.5000025177003,8|0,0:2|3:2,0:0:0:0:
230,8,155826,1,8,0:2:0:0:
160,89,156020,1,0,3:2:0:0:
160,89,156117,1,0,1:2:0:0:
160,89,156213,1,8,0:2:0:0:
237,184,156407,6,0,P|185:192|131:192,1,82.5000025177003,0|8,3:2|0:2,0:0:0:0:
106,279,156794,1,0,3:2:0:0:
183,365,156987,1,8,0:2:0:0:
297,333,157181,2,0,L|301:250,1,82.5000025177003,0|8,3:2|0:2,0:0:0:0:
390,174,157568,5,0,3:2:0:0:
390,174,157665,1,0,1:2:0:0:
390,174,157762,1,8,0:2:0:0:
484,98,157955,1,0,3:2:0:0:
392,5,158149,1,8,0:2:0:0:
296,77,158342,1,0,3:2:0:0:
296,77,158536,2,0,P|234:74|202:79,1,82.5000025177003,8|4,0:2|3:2,0:0:0:0:
166,155,158923,6,0,L|174:205,1,41.2500012588501,8|8,0:2|0:1,0:0:0:0:
108,264,159117,1,8,0:2:0:0:
124,276,159213,1,8,0:2:0:0:
143,284,159310,1,8,0:2:0:0:
163,287,159407,1,8,0:2:0:0:
183,286,159504,6,0,L|286:284,1,82.5000025177003,4|8,3:2|0:2,0:0:0:0:
357,357,159891,1,0,3:2:0:0:
452,294,160084,1,8,0:2:0:0:
357,357,160278,2,0,L|365:265,1,82.5000025177003,0|8,3:2|0:2,0:0:0:0:
284,186,160665,1,0,3:2:0:0:
284,186,160762,1,0,1:2:0:0:
284,186,160858,1,8,0:2:0:0:
392,137,161052,5,0,3:2:0:0:
508,86,161246,1,8,0:2:0:0:
402,0,161439,1,0,3:2:0:0:
281,51,161633,1,8,0:2:0:0:
392,137,161826,2,0,L|310:126,1,82.5000025177003,0|8,3:2|0:2,0:0:0:0:
310,126,162117,1,8,0:2:0:0:
310,126,162213,1,8,0:2:0:0:
340,224,162407,2,0,L|282:217,1,41.2500012588501,8|0,0:3|1:0,0:0:0:0:
298,311,162601,6,0,P|210:296|127:292,1,165.000005035401,4|0,3:2|0:0,0:0:0:0:
52,368,163181,1,0,1:0:0:0:
52,368,163375,2,0,P|47:307|42:196,1,165.000005035401,8|0,0:2|0:0,0:0:0:0:
19,120,163955,1,8,0:0:0:0:
19,120,164052,1,8,0:0:0:0:
19,120,164149,1,4,1:2:0:0:
212,24,164536,6,0,L|293:12,2,82.5000025177003,0|0|8,0:0|1:0|0:2,0:0:0:0:
160,120,165117,1,0,0:0:0:0:
253,179,165310,2,0,L|298:198,2,41.2500012588501,8|0|0,0:2|0:0|0:0,0:0:0:0:
205,269,165697,5,8,0:2:0:0:
205,269,165794,2,0,L|200:355,1,82.5000025177003,8|8,0:2|0:2,0:0:0:0:
201,351,166084,1,8,0:2:0:0:
340,355,166278,5,8,0:2:0:0:
340,355,166375,2,0,L|345:269,1,82.5000025177003,8|8,0:2|0:2,0:0:0:0:
345,272,166665,1,8,0:2:0:0:
481,273,166859,5,8,0:2:0:0:
481,273,166956,2,0,L|476:355,1,82.5000025177003,0|0,0:0|0:0,0:0:0:0:
475,355,167246,1,8,0:3:0:0:
475,355,167342,1,0,0:0:0:0:
475,355,167439,1,4,0:3:0:0:
420,217,167633,6,0,P|427:134|431:52,2,165.000005035401,4|0|0,0:2|0:0|0:0,0:0:0:0:
420,217,168794,5,4,1:2:0:0:
122,351,169568,2,0,P|114:278|114:212,1,120,0|0,0:0|0:0,0:0:0:0:
166,148,170149,1,0,0:0:0:0:
166,148,170246,1,0,0:0:0:0:
166,148,170343,2,0,L|61:127,2,90,0|0|0,0:0|0:0|0:0,0:0:0:0:
237,95,171117,2,0,P|241:42|243:22,2,60,0|0|0,0:0|0:0|0:0,0:0:0:0:
339,238,171891,6,0,B|323:271|323:271|323:296|336:356,1,120,0|0,0:0|0:0,0:0:0:0:
503,236,172665,2,0,B|519:203|519:203|519:178|506:118,1,120,0|0,0:0|0:0,0:0:0:0:
455,42,173246,1,0,0:0:0:0:
455,42,173343,1,0,0:0:0:0:
455,42,173439,2,0,L|355:31,2,90,0|0|0,0:0|0:0|0:0,0:0:0:0:
420,125,174214,2,0,L|414:191,2,60,0|0|0,0:0|0:0|0:0,0:0:0:0:
231,0,174988,6,0,B|211:14|199:72|199:72|228:122|228:122|239:172|209:233,1,240,0|0,0:0|0:0,0:0:0:0:
154,295,175956,1,0,0:0:0:0:
221,360,176149,2,0,L|300:353,1,60,0|0,0:0|0:0,0:0:0:0:
326,346,176439,1,0,0:0:0:0:
326,346,176536,2,0,P|350:276|353:235,2,90,0|0|0,0:0|0:0|0:0,0:0:0:0:
414,362,177310,2,0,L|488:356,2,60,0|0|0,0:0|0:0|0:0,0:0:0:0:
461,145,178085,6,0,L|499:153,3,30,0|0|0|0,0:0|0:0|0:0|0:0,0:0:0:0:
390,115,178472,2,0,L|352:123,3,30,0|0|0|0,0:0|0:0|0:0|0:0,0:0:0:0:
463,58,178859,2,0,L|501:66,3,30,0|0|0|0,0:0|0:0|0:0|0:0,0:0:0:0:
392,28,179246,2,0,L|354:36,3,30,0|0|0|0,0:0|0:0|0:0|0:0,0:0:0:0:
283,74,179633,6,0,L|187:68,2,90,0|0|0,0:0|0:0|0:0,0:0:0:0:
272,156,180407,2,0,P|258:206|255:278,1,120,0|0,0:0|0:0,0:0:0:0:
256,192,187375,5,4,1:2:0:0:
256,192,187472,12,4,192020,1:2:0:0:
124,208,193568,5,0,0:0:0:0:
124,208,193955,5,4,3:1:0:0:
207,295,194149,1,8,0:2:0:0:
303,230,194342,2,0,P|345:228|392:218,1,82.5000025177003,0|8,3:2|0:2,0:0:0:0:
445,121,194729,1,0,3:2:0:0:
445,121,194826,1,0,1:2:0:0:
445,121,194923,1,8,0:2:0:0:
348,35,195116,6,0,P|302:31|260:27,1,82.5000025177003,0|8,3:2|0:2,0:0:0:0:
169,89,195504,1,0,3:2:0:0:
169,89,195697,2,0,P|166:131|162:172,1,82.5000025177003,8|0,0:2|3:2,0:0:0:0:
231,267,196084,1,8,0:2:0:0:
161,359,196278,1,0,3:2:0:0:
161,359,196375,1,0,1:2:0:0:
161,359,196471,1,8,0:2:0:0:
81,262,196665,6,0,P|29:254|-25:254,1,82.5000025177003,0|8,3:2|0:2,0:0:0:0:
72,157,197052,1,0,3:2:0:0:
0,87,197245,1,8,0:2:0:0:
81,20,197439,2,0,L|163:16,1,82.5000025177003,0|8,3:2|0:2,0:0:0:0:
263,107,197826,5,0,3:2:0:0:
263,107,197923,1,0,1:2:0:0:
263,107,198020,1,8,0:2:0:0:
186,206,198213,1,0,3:2:0:0:
257,312,198407,1,8,0:2:0:0:
336,216,198600,1,0,3:2:0:0:
336,216,198794,2,0,P|332:166|336:119,1,82.5000025177003,8|4,0:2|3:2,0:0:0:0:
391,60,199181,6,0,L|431:66,1,41.2500012588501,8|8,0:2|0:2,0:0:0:0:
493,126,199375,1,8,0:2:0:0:
500,145,199471,1,8,0:2:0:0:
504,165,199568,1,8,0:2:0:0:
505,186,199665,1,8,0:2:0:0:
502,208,199762,6,0,P|491:260|505:310,1,82.5000025177003,4|8,3:2|0:2,0:0:0:0:
416,376,200149,1,0,3:2:0:0:
309,325,200342,1,8,0:2:0:0:
416,376,200536,2,0,L|395:283,1,82.5000025177003,0|8,3:2|0:2,0:0:0:0:
405,200,200923,1,0,3:2:0:0:
405,200,201020,1,0,1:2:0:0:
405,200,201116,1,8,0:2:0:0:
453,88,201310,6,0,L|370:95,1,82.5000025177003,0|8,3:2|0:2,0:0:0:0:
302,51,201697,1,0,3:2:0:0:
302,51,201891,2,0,L|189:40,2,82.5000025177003,8|0|8,0:2|3:2|0:2,0:0:0:0:
271,160,202471,1,0,3:2:0:0:
349,242,202665,1,8,0:2:0:0:
281,338,202858,6,0,P|207:358|117:331,1,165.000005035401,0|0,3:2|3:2,0:0:0:0:
80,239,203439,1,8,0:2:0:0:
47,137,203633,2,0,P|58:30|63:-13,1,123.75000377655,0|0,3:2|0:0,0:0:0:0:
90,19,204020,2,0,P|131:22|171:31,1,82.5000025177003,0|8,3:2|0:2,0:0:0:0:
285,14,204407,1,0,3:2:0:0:
358,87,204600,1,8,0:2:0:0:
489,31,204794,6,0,P|478:120|467:201,1,165.000005035401,0|0,3:2|3:2,0:0:0:0:
401,252,205375,2,0,L|360:245,1,41.2500012588501,8|8,0:2|0:2,0:0:0:0:
284,278,205568,1,8,0:2:0:0:
277,298,205664,1,8,0:2:0:0:
274,318,205761,1,8,0:2:0:0:
274,339,205858,1,8,0:2:0:0:
278,360,205955,6,0,L|371:366,1,82.5000025177003,4|8,3:1|0:0,0:0:0:0:
422,271,206342,1,0,3:2:0:0:
336,175,206536,1,8,0:2:0:0:
422,271,206729,2,0,P|467:268|511:263,1,82.5000025177003,0|8,3:2|0:2,0:0:0:0:
512,141,207116,1,0,3:2:0:0:
512,141,207213,1,0,1:2:0:0:
512,141,207310,1,8,0:2:0:0:
435,49,207504,6,0,P|389:45|347:41,1,82.5000025177003,0|8,3:2|0:2,0:0:0:0:
243,93,207891,1,0,3:2:0:0:
243,93,208084,2,0,P|202:97|161:101,1,82.5000025177003,8|0,0:2|3:2,0:0:0:0:
50,38,208471,1,8,0:2:0:0:
16,150,208665,1,0,3:2:0:0:
16,150,208762,1,0,1:2:0:0:
16,150,208858,1,8,0:2:0:0:
124,228,209052,6,0,P|116:280|116:334,1,82.5000025177003,0|8,3:2|0:2,0:0:0:0:
214,375,209439,1,0,3:2:0:0:
312,302,209632,1,8,0:2:0:0:
276,183,209826,2,0,L|272:100,1,82.5000025177003,0|8,3:2|0:2,0:0:0:0:
382,18,210213,5,0,3:2:0:0:
382,18,210310,1,0,1:2:0:0:
382,18,210407,1,8,0:2:0:0:
512,76,210600,1,0,3:2:0:0:
395,133,210794,1,8,0:2:0:0:
272,100,210987,1,0,3:2:0:0:
272,100,211181,2,0,P|210:103|178:98,1,82.5000025177003,8|4,0:2|3:2,0:0:0:0:
122,142,211568,6,0,L|115:182,1,41.2500012588501,8|8,0:2|0:2,0:0:0:0:
116,275,211762,1,8,0:2:0:0:
132,287,211858,1,8,0:2:0:0:
151,295,211955,1,8,0:2:0:0:
171,298,212052,1,8,0:2:0:0:
191,297,212149,6,0,L|294:295,1,82.5000025177003,4|8,3:2|0:2,0:0:0:0:
377,358,212536,1,0,3:2:0:0:
472,295,212729,1,8,0:2:0:0:
377,358,212923,2,0,L|385:266,1,82.5000025177003,0|8,3:2|0:2,0:0:0:0:
260,197,213310,1,0,3:2:0:0:
260,197,213407,1,0,1:2:0:0:
260,197,213503,1,8,0:2:0:0:
392,137,213697,5,0,3:2:0:0:
508,86,213891,1,8,0:2:0:0:
402,0,214084,1,0,3:2:0:0:
281,51,214278,1,8,0:2:0:0:
392,137,214471,2,0,L|310:126,1,82.5000025177003,0|8,3:2|0:2,0:0:0:0:
310,126,214762,1,8,0:2:0:0:
310,126,214858,1,8,0:2:0:0:
222,160,215052,2,0,L|164:153,1,41.2500012588501,8|0,0:3|1:0,0:0:0:0:
94,143,215246,6,0,P|48:196|75:314,1,165.000005035401,4|0,1:2|0:0,0:0:0:0:
117,350,215826,1,0,1:0:0:0:
117,350,216020,2,0,P|178:355|289:360,1,165.000005035401,8|0,0:2|0:0,0:0:0:0:
351,303,216600,1,8,0:0:0:0:
351,303,216697,1,8,0:0:0:0:
351,303,216794,1,4,1:2:0:0:
418,360,217181,6,0,L|499:372,2,82.5000025177003,0|0|8,0:0|1:0|0:2,0:0:0:0:
348,298,217762,1,0,0:0:0:0:
424,242,217955,2,0,L|469:223,2,41.2500012588501,8|0|0,0:2|0:0|0:0,0:0:0:0:
355,161,218342,5,8,0:2:0:0:
355,161,218439,2,0,L|350:75,1,82.5000025177003,8|8,0:2|0:2,0:0:0:0:
351,79,218729,1,8,0:2:0:0:
239,55,218923,5,8,0:2:0:0:
239,55,219020,2,0,L|244:141,1,82.5000025177003,8|8,0:2|0:2,0:0:0:0:
244,138,219310,1,8,0:2:0:0:
136,114,219504,5,8,0:2:0:0:
136,114,219601,2,0,L|131:32,1,82.5000025177003,0|0,0:0|0:0,0:0:0:0:
130,31,219891,1,8,0:3:0:0:
130,31,219987,1,0,0:0:0:0:
130,31,220084,1,4,0:3:0:0:
75,170,220278,6,0,P|82:253|86:335,2,165.000005035401,4|0|0,0:2|0:0|0:0,0:0:0:0:
75,170,221439,5,4,1:2:0:0:
433,222,224149,5,8,0:3:0:0:
351,337,224536,5,4,1:2:0:0:
351,337,224633,1,0,0:2:0:0:
297,244,224827,2,0,P|305:172|307:154,1,67.4999979400635,8|0,0:3|0:0,0:0:0:0:
313,146,225117,1,8,0:2:0:0:
324,123,225214,1,8,0:2:0:0:
341,104,225310,1,8,0:2:0:0:
364,88,225407,6,0,P|295:81|255:79,1,101.249996910095,8|4,0:3|1:2,0:0:0:0:
124,18,225891,1,0,0:2:0:0:
124,18,225988,2,0,P|115:95|112:114,1,67.4999979400635,0|0,1:2|0:2,0:0:0:0:
67,148,226278,2,0,P|71:181|74:215,1,67.4999979400635,0|0,1:2|0:2,0:0:0:0:
121,281,226568,2,0,P|116:314|113:348,1,67.4999979400635,0|0,1:2|0:2,0:0:0:0:
201,335,226859,6,0,L|270:322,2,44.999998626709,8|0|0,0:2|0:0|0:0,0:0:0:0:
316,360,227246,1,8,0:3:0:0:
369,288,227439,6,0,P|358:226|358:210,1,67.4999979400635,4|8,1:2|0:2,0:0:0:0:
357,221,227730,1,8,0:2:0:0:
391,138,227923,1,8,0:2:0:0:
391,138,228020,2,0,L|318:129,1,67.4999979400635,8|8,0:2|0:2,0:0:0:0:
265,83,228310,1,8,0:2:0:0:
265,83,228407,2,0,L|192:92,1,67.4999979400635,8|4,0:2|1:2,0:0:0:0:
80,19,228891,6,0,P|68:68|71:114,1,67.4999979400635,4|0,1:2|0:0,0:0:0:0:
73,166,229181,2,0,P|122:178|168:175,1,67.4999979400635,4|8,1:2|0:1,0:0:0:0:
219,162,229472,1,0,0:0:0:0:
219,162,229568,2,0,L|225:213,3,33.7499989700318,0|0|0|4,0:0|0:0|0:0|0:3,0:0:0:0:
238,280,229956,1,8,0:2:0:0:
238,280,230052,1,8,0:2:0:0:
238,280,230149,1,8,0:2:0:0:
500,218,230729,6,0,P|431:209|357:126,1,165.000005035401,4|0,3:1|3:2,0:0:0:0:
364,144,231214,1,0,1:2:0:0:
364,144,231310,1,8,0:2:0:0:
389,52,231504,2,0,L|449:41,2,41.2500012588501,0|0|8,3:2|0:0|0:2,0:0:0:0:
299,18,231891,1,0,3:2:0:0:
299,18,231988,1,0,1:2:0:0:
299,18,232085,6,0,P|230:28|212:29,1,82.5000025177003,8|0,0:2|3:2,0:0:0:0:
244,129,232472,1,8,0:2:0:0:
213,239,232665,1,0,3:2:0:0:
213,239,232762,1,0,1:2:0:0:
213,239,232859,1,8,0:2:0:0:
297,311,233052,6,0,P|359:307|435:311,1,123.75000377655,0|0,3:2|0:0,0:0:0:0:
421,310,233439,1,0,3:2:0:0:
490,233,233633,6,0,L|496:185,2,41.2500012588501,8|0|0,0:2|0:0|3:2,0:0:0:0:
400,160,234020,2,0,L|394:112,2,41.2500012588501,8|0|0,0:2|0:0|3:2,0:0:0:0:
288,202,234407,2,0,L|294:154,2,41.2500012588501,8|0|0,0:2|0:0|3:2,0:0:0:0:
187,154,234794,1,8,0:2:0:0:
187,154,234891,1,0,0:0:0:0:
187,154,234988,2,0,L|104:148,1,82.5000025177003,0|8,3:2|0:2,0:0:0:0:
18,217,235375,6,0,P|6:256|10:327,1,82.5000025177003,0|8,3:2|0:2,0:0:0:0:
14,332,235665,1,0,0:0:0:0:
45,361,235762,2,0,L|144:343,1,82.5000025177003,0|8,3:2|0:2,0:0:0:0:
156,352,236052,1,0,0:0:0:0:
197,360,236149,6,0,L|265:362,3,41.2500012588501,4|0|8|8,3:2|0:0|0:2|0:2,0:0:0:0:
216,282,236536,2,0,L|284:284,3,41.2500012588501,8|8|8|8,0:2|0:2|0:2|0:2,0:0:0:0:
315,218,236923,6,0,P|310:151|303:38,1,165.000005035401,4|0,3:2|3:2,0:0:0:0:
389,11,237504,1,8,0:2:0:0:
389,11,237601,1,0,0:0:0:0:
389,11,237698,2,0,P|445:13|476:15,1,82.5000025177003,0|8,3:2|0:2,0:0:0:0:
503,44,237988,1,0,0:0:0:0:
505,81,238085,2,0,P|499:123|495:179,1,82.5000025177003,0|8,3:2|0:2,0:0:0:0:
480,195,238375,1,0,0:0:0:0:
457,233,238472,6,0,P|391:234|359:208,1,82.5000025177003,0|8,3:2|0:2,0:0:0:0:
378,226,238762,1,0,0:0:0:0:
378,226,238859,1,0,3:2:0:0:
290,171,239052,1,8,0:2:0:0:
235,259,239246,2,0,P|239:311|245:368,1,82.5000025177003,0|8,3:2|0:2,0:0:0:0:
259,359,239536,1,8,0:2:0:0:
259,359,239633,2,0,L|312:363,3,41.2500012588501,8|8|8|4,0:2|0:3|0:3|0:3,0:0:0:0:
168,353,240020,6,0,L|127:343,1,41.2500012588501,8|8,0:2|0:2,0:0:0:0:
53,365,240214,2,0,L|11:355,1,41.2500012588501,8|8,0:2|0:2,0:0:0:0:
184,266,240601,6,0,L|140:254,1,41.2500012588501,8|8,0:2|0:2,0:0:0:0:
69,278,240795,2,0,L|29:270,1,41.2500012588501,8|8,0:2|0:2,0:0:0:0:
3,199,240988,1,2,0:1:0:0:
3,199,241085,1,2,0:1:0:0:
3,199,241181,1,4,0:1:0:0:
154,45,241568,5,8,0:2:0:0:
154,45,241665,2,0,P|227:42|304:38,1,123.75000377655,8|0,0:2|1:0,0:0:0:0:
344,193,242343,5,8,0:2:0:0:
344,193,242440,2,0,P|271:190|194:186,1,123.75000377655,8|4,0:2|0:3,0:0:0:0:
276,353,243116,5,4,1:1:0:0:
