osu file format v14

[General]
AudioFilename: audio.mp3
AudioLeadIn: 0
PreviewTime: 13956
Countdown: 0
SampleSet: Soft
StackLeniency: 0.2
Mode: 0
LetterboxInBreaks: 0
WidescreenStoryboard: 0

[Editor]
Bookmarks: 41838,63504,75902,88278,103762,106859,128536,140923,168794,181181,192020,230730
DistanceSpacing: 1.2
BeatDivisor: 4
GridSize: 16
TimelineZoom: 2

[Metadata]
Title:Natsuirozaka
TitleUnicode:懐色坂
Artist:VALLEYSTONE feat. Kanata.N
ArtistUnicode:VALLEYSTONE feat. かなたん
Creator:kwk
Version:Sakase
Source:
Tags:moph 404 AimNotFound Luscent Saturnalize -akito pop'n music うさぎと猫と少年の夢 kanatan
BeatmapID:1985100
BeatmapSetID:950550

[Difficulty]
HPDrainRate:5
CircleSize:4
OverallDifficulty:8
ApproachRate:9.5
SliderMultiplier:2.4
SliderTickRate:1

[Events]
//Background and Video events
0,0,"bg.jpg",0,0
//Break Periods
2,103962,106334
2,168994,180656
//Storyboard Layer 0 (Background)
//Storyboard Layer 1 (Fail)
//Storyboard Layer 2 (Pass)
//Storyboard Layer 3 (Foreground)
//Storyboard Layer 4 (Overlay)
//Storyboard Sound Samples

[TimingPoints]
1569,387.096774193548,4,2,69,50,1,0
13956,389.61038961039,4,2,69,60,1,0
13956,-200,4,2,69,60,0,0
14294,-200,4,2,69,5,0,0
14391,-200,4,2,69,60,0,0
14735,405.405405405405,4,2,69,60,1,0
14735,-200,4,2,69,60,0,0
14875,-200,4,2,69,5,0,0
14972,-200,4,2,69,60,0,0
15545,382.165605095541,4,2,69,60,1,0
15545,-200,4,2,69,60,0,0
16230,-200,4,2,69,5,0,0
16327,-200,4,2,69,60,0,0
17073,394.736842105263,4,2,69,60,1,0
17073,-200,4,2,69,60,0,0
17391,-200,4,2,69,5,0,0
17488,-200,4,2,69,60,0,0
17862,379.746835443038,4,2,69,60,1,0
17862,-200,4,2,69,60,0,0
17972,-200,4,2,69,5,0,0
18068,-200,4,2,69,60,0,0
18621,387.096774193548,4,2,69,60,1,0
18621,-200,4,2,69,60,0,0
19133,-200,4,2,69,50,0,0
19230,-200,4,2,69,60,0,0
20169,387.722132471729,4,2,69,60,1,0
20169,-200,4,2,69,60,0,0
20488,-200,4,2,69,5,0,0
20585,-200,4,2,69,60,0,0
20944,404.040404040404,4,2,69,60,1,0
20944,-200,4,2,69,60,0,0
21068,-200,4,2,69,5,0,0
21165,-200,4,2,69,60,0,0
21752,370.37037037037,4,2,69,50,1,0
21752,-200,4,2,69,50,0,0
22257,-200,4,2,69,60,0,0
22459,-200,4,2,69,75,0,0
22859,387.096774193548,4,2,69,50,1,0
23246,387.096774193548,4,2,69,75,1,0
23246,-333.333333333333,4,2,69,75,0,0
25762,-100,4,2,53,75,0,0
25956,-133.333333333333,4,2,53,75,0,0
28278,-100,4,2,53,75,0,0
29439,-76.9230769230769,4,2,53,75,0,0
41827,-133.333333333333,4,2,53,75,0,0
42214,-100,4,2,53,65,0,0
63504,-83.3333333333333,4,2,42,75,0,0
69891,-83.3333333333333,4,2,53,75,0,0
75891,-71.4285714285714,4,2,53,85,0,1
97568,-133.333333333333,4,2,53,65,0,0
102601,-100,4,1,53,75,0,0
103568,-100,4,2,53,75,0,0
106859,-100,4,2,53,65,0,0
128536,-83.3333333333333,4,2,42,75,0,0
134633,-83.3333333333333,4,2,53,75,0,0
140923,-71.4285714285714,4,2,53,85,0,1
162600,-133.333333333333,4,2,53,65,0,0
168359,-100,4,2,53,75,0,0
168456,-100,4,2,53,75,0,0
181375,-133.333333333333,4,2,69,80,0,0
187278,-100,4,2,53,75,0,0
189891,-83.3333333333333,4,2,53,75,0,0
192020,-333.333333333333,4,2,53,75,0,0
193955,-71.4285714285714,4,2,53,85,0,1
215245,-133.333333333333,4,2,53,65,0,0
220278,-100,4,1,53,75,0,0
221246,-100,4,2,53,75,0,0
224052,-100,4,2,69,75,0,0
224246,-100,4,2,53,75,0,0
224536,-83.3333333333333,4,2,53,85,0,0
229375,-166.666666666667,4,2,53,85,0,0
230730,-71.4285714285714,4,2,53,95,0,0
240891,-133.333333333333,4,2,53,85,0,0
240988,-100,4,2,69,100,0,0
241278,-100,4,2,53,100,0,0
246117,-100,4,2,53,5,0,0

[Colours]
Combo1 : 255,255,166
Combo2 : 255,128,128
Combo3 : 0,255,255
Combo4 : 0,255,128

[HitObjects]
4,111,13956,6,0,L|141:90,1,120,12|0,0:3|0:0,0:0:0:0:
158,90,14735,2,0,L|96:76,1,60,2|0,0:2|0:0,0:0:0:0:
76,72,15545,2,0,B|16:139|77:182|77:190|77:197|135:244|85:301,1,240,4|0,0:3|0:0,0:0:0:0:
388,353,17073,6,0,P|367:309|440:274,1,120,2|0,0:2|0:0,0:0:0:0:
444,284,17862,2,0,L|425:206,1,60
421,197,18621,2,0,B|377:172|377:172|329:189|329:189|299:164|317:125|317:125|336:149,1,180,4|4,0:3|0:3,0:0:0:0:
330,313,20169,6,0,P|257:333|230:281,1,120,4|0,0:3|0:0,0:0:0:0:
212,277,20944,2,0,P|219:307|203:349,1,60,2|0,0:2|0:0,0:0:0:0:
183,355,21752,2,0,P|154:279|118:349,1,180,4|4,0:3|0:3,0:0:0:0:
298,73,23246,6,0,P|371:90|445:57,1,143.999995605469,8|0,0:3|0:0,0:0:0:0:
433,66,24407,1,0,0:0:0:0:
433,66,24794,2,0,P|366:42|297:59,1,143.999995605469,4|0,0:3|0:0,0:0:0:0:
206,42,25762,1,2,0:3:0:0:
204,35,25859,1,2,0:3:0:0:
202,27,25956,2,0,L|166:128,1,90.0000034332277,0|0,1:0|0:0,0:0:0:0:
208,221,26343,5,8,0:2:0:0:
279,197,26439,1,8,0:2:0:0:
146,275,26633,5,8,0:2:0:0:
217,251,26729,1,8,0:2:0:0:
84,329,26924,5,8,0:2:0:0:
155,305,27020,1,8,0:2:0:0:
22,383,27214,5,8,0:2:0:0:
93,359,27310,1,8,0:2:0:0:
279,197,27504,5,8,0:2:0:0:
217,251,27633,1,0,0:0:0:0:
155,305,27762,1,0,0:0:0:0:
131,290,27891,2,0,L|126:261,3,30.0000011444092,8|8|8|4,0:2|0:3|0:3|0:3,0:0:0:0:
108,146,28278,6,2,P|34:222|146:241,2,240,12|0|0,0:0|0:0|0:0,0:0:0:0:
277,211,29246,1,2,0:0:0:0:
290,220,29343,1,2,0:2:0:0:
306,229,29439,6,0,P|326:193|303:142,1,77.9999964294435,4|0,3:1|0:0,0:0:0:0:
384,18,29633,2,0,L|403:107,1,77.9999964294435,10|0,0:2|0:0,0:0:0:0:
460,170,29827,1,2,3:2:0:0:
410,251,29923,2,0,L|513:258,1,77.9999964294435,2|8,1:2|0:2,0:0:0:0:
309,322,30117,6,0,P|263:308|231:318,1,77.9999964294435,2|0,0:2|3:2,0:0:0:0:
126,361,30310,2,0,P|142:320|119:280,2,77.9999964294435,2|8|0,0:2|0:2|0:0,0:0:0:0:
31,264,30601,1,2,3:2:0:0:
95,195,30698,1,2,1:2:0:0:
182,224,30794,2,0,P|228:238|259:227,1,77.9999964294435,10|0,0:2|0:0,0:0:0:0:
308,46,30988,6,0,L|198:14,1,77.9999964294435,2|0,3:2|0:0,0:0:0:0:
357,151,31181,2,0,L|247:119,1,77.9999964294435,10|0,0:2|0:0,0:0:0:0:
348,252,31375,1,2,3:2:0:0:
435,198,31472,2,0,L|559:183,2,77.9999964294435,2|8|2,1:2|0:2|0:2,0:0:0:0:
512,285,31762,5,0,3:0:0:0:
415,320,31859,2,0,L|493:312,2,77.9999964294435,2|8|0,0:2|0:2|0:0,0:0:0:0:
324,297,32149,1,2,3:2:0:0:
241,340,32246,1,2,1:2:0:0:
148,323,32343,2,0,P|129:273|168:213,1,77.9999964294435,10|0,0:2|0:0,0:0:0:0:
44,92,32536,5,2,3:2:0:0:
114,153,32633,1,0,0:0:0:0:
204,128,32730,1,10,0:2:0:0:
288,86,32827,1,2,0:2:0:0:
375,117,32923,1,2,3:2:0:0:
390,209,33020,1,2,1:2:0:0:
326,278,33117,2,0,P|274:277|243:239,1,77.9999964294435,10|0,0:2|0:0,0:0:0:0:
206,97,33310,5,2,3:2:0:0:
263,44,33407,1,0,0:0:0:0:
349,44,33504,1,10,0:2:0:0:
404,119,33601,1,2,0:2:0:0:
375,216,33698,1,2,3:2:0:0:
426,302,33794,1,2,1:2:0:0:
330,378,33891,2,0,L|218:361,1,77.9999964294435,10|0,0:2|0:0,0:0:0:0:
24,260,34085,6,0,L|127:240,1,77.9999964294435,2|0,3:2|0:0,0:0:0:0:
269,215,34278,1,10,0:2:0:0:
247,247,34375,1,2,0:2:0:0:
224,279,34472,2,0,L|327:259,1,77.9999964294435,2|0,3:2|1:2,0:0:0:0:
512,216,34665,2,0,L|409:196,1,77.9999964294435,10|0,0:2|0:0,0:0:0:0:
353,0,34859,6,0,P|377:30|383:68,1,77.9999964294435,6|0,3:2|0:0,0:0:0:0:
313,155,35052,1,10,0:2:0:0:
285,76,35149,1,8,0:2:0:0:
193,96,35246,1,10,0:2:0:0:
188,180,35343,1,8,0:2:0:0:
98,131,35439,2,0,P|84:84|106:38,1,77.9999964294435,10|8,0:2|0:2,0:0:0:0:
81,224,35633,6,0,L|61:326,1,77.9999964294435,6|0,3:2|0:0,0:0:0:0:
192,383,35827,2,0,L|173:271,1,77.9999964294435,10|0,0:2|0:0,0:0:0:0:
225,220,36020,1,2,3:2:0:0:
305,267,36117,2,0,P|349:278|411:252,1,77.9999964294435,2|8,1:2|0:2,0:0:0:0:
497,361,36310,6,0,L|487:284,1,77.9999964294435,2|0,0:2|3:2,0:0:0:0:
512,180,36504,2,0,L|403:188,2,77.9999964294435,2|8|0,0:2|0:2|0:0,0:0:0:0:
416,89,36794,1,2,3:2:0:0:
343,148,36891,1,2,1:2:0:0:
355,240,36988,2,0,L|366:353,1,77.9999964294435,10|0,0:2|0:0,0:0:0:0:
188,366,37181,6,0,P|225:355|283:370,1,77.9999964294435,2|0,3:2|0:0,0:0:0:0:
121,259,37375,2,0,P|158:270|216:255,1,77.9999964294435,10|0,0:2|0:0,0:0:0:0:
60,355,37568,1,2,3:2:0:0:
15,260,37665,2,0,L|25:135,1,77.9999964294435,2|8,1:2|0:2,0:0:0:0:
87,114,37859,1,2,0:2:0:0:
153,180,37956,6,0,L|206:107,1,77.9999964294435,0|2,3:2|0:2,0:0:0:0:
279,67,38149,1,8,0:2:0:0:
372,75,38246,1,8,0:2:0:0:
437,142,38343,1,8,0:2:0:0:
433,234,38439,1,8,0:3:0:0:
366,299,38536,2,0,P|318:301|281:251,1,77.9999964294435,8|4,0:3|0:3,0:0:0:0:
82,237,38730,5,8,0:2:0:0:
47,248,38827,1,8,0:2:0:0:
0,324,38923,5,8,0:2:0:0:
35,335,39020,1,8,0:2:0:0:
267,101,39310,5,8,0:2:0:0:
253,65,39407,1,8,0:2:0:0:
294,176,39504,5,8,0:2:0:0:
308,140,39601,1,8,0:2:0:0:
57,185,40278,5,8,0:2:0:0:
34,278,40375,1,8,0:2:0:0:
0,65,40665,1,0,1:0:0:0:
445,243,41052,5,8,0:2:0:0:
468,150,41149,1,8,0:2:0:0:
512,384,41439,1,4,0:3:0:0:
12,367,41827,6,0,B|45:336|45:336|113:359,1,90.0000034332277,4|0,1:2|0:0,0:0:0:0:
186,380,42214,1,8,0:2:0:0:
263,131,42407,2,0,L|242:198,1,60,0|8,1:2|0:1,0:0:0:0:
242,230,42601,1,0,0:0:0:0:
268,263,42698,1,8,0:1:0:0:
309,265,42794,2,0,L|333:192,2,60,0|0|0,1:0|0:0|0:0,0:0:0:0:
512,141,43181,6,0,B|417:161|417:161|347:111,1,180,8|0,0:2|0:0,0:0:0:0:
261,49,43568,1,0,1:0:0:0:
148,123,43762,1,8,0:2:0:0:
144,81,43859,1,0,1:0:0:0:
80,198,44052,1,0,1:0:0:0:
76,156,44149,1,0,1:0:0:0:
42,181,44246,1,0,1:0:0:0:
165,235,44439,1,0,1:0:0:0:
206,231,44536,1,8,0:2:0:0:
16,254,44730,1,0,0:0:0:0:
181,262,44923,6,0,L|346:242,1,120,4|0,1:2|0:0,0:0:0:0:
481,375,45310,1,8,0:2:0:0:
445,203,45504,1,0,1:2:0:0:
433,243,45601,1,8,0:1:0:0:
511,227,45698,1,0,0:0:0:0:
409,125,45891,1,0,1:0:0:0:
393,295,46085,1,0,0:0:0:0:
470,279,46182,1,0,0:0:0:0:
481,375,46278,6,0,L|377:280,1,120,8|0,0:2|0:0,0:0:0:0:
193,286,46665,1,0,1:0:0:0:
174,323,46762,1,0,0:0:0:0:
200,355,46859,1,8,0:2:0:0:
242,352,46956,1,0,1:0:0:0:
261,315,47053,1,0,0:0:0:0:
235,283,47150,1,0,1:0:0:0:
219,319,47246,6,0,P|299:341|271:238,1,180,0|0,1:0|0:0,0:0:0:0:
270,159,47633,2,0,P|270:118|297:70,1,60,8|0,0:2|0:0,0:0:0:0:
173,14,47827,2,0,P|173:55|146:103,1,60,0|0,0:0|0:0,0:0:0:0:
0,176,48020,6,0,P|63:156|131:177,1,120,4|0,1:2|0:0,0:0:0:0:
255,216,48407,1,8,0:2:0:0:
163,72,48601,1,0,1:2:0:0:
62,251,48794,1,0,0:0:0:0:
297,228,48988,5,0,1:0:0:0:
256,239,49085,1,0,0:0:0:0:
216,252,49181,1,0,0:0:0:0:
176,266,49278,1,0,0:0:0:0:
222,300,49375,5,8,0:2:0:0:
263,294,49472,1,0,0:0:0:0:
295,320,49568,1,0,0:0:0:0:
336,315,49665,1,0,0:0:0:0:
369,288,49762,1,0,1:0:0:0:
410,283,49859,1,0,0:0:0:0:
444,307,49956,5,8,0:2:0:0:
403,312,50053,1,0,1:0:0:0:
364,281,50149,5,0,0:0:0:0:
323,286,50246,1,0,1:0:0:0:
283,352,50343,5,0,1:0:0:0:
242,357,50440,1,0,1:0:0:0:
179,302,50536,5,0,1:2:0:0:
138,307,50633,1,0,0:0:0:0:
220,364,50730,5,8,0:2:0:0:
261,359,50827,1,0,0:0:0:0:
290,280,50923,5,0,0:0:0:0:
331,275,51020,1,0,0:0:0:0:
404,322,51117,6,0,P|415:249|361:193,1,120,4|0,1:2|0:0,0:0:0:0:
278,90,51504,1,8,0:2:0:0:
414,77,51698,1,0,1:2:0:0:
446,49,51795,1,8,0:1:0:0:
510,176,51988,1,8,0:1:0:0:
496,135,52085,1,0,1:0:0:0:
392,212,52278,1,0,0:0:0:0:
283,31,52472,6,0,L|279:100,1,60,8|0,0:2|0:0,0:0:0:0:
199,153,52665,2,0,B|127:117,1,60,0|0,0:0|0:0,0:0:0:0:
45,4,52859,1,0,1:0:0:0:
77,46,52955,1,0,0:0:0:0:
39,84,53052,1,8,0:2:0:0:
71,126,53148,1,0,0:0:0:0:
37,169,53246,1,0,0:0:0:0:
69,211,53342,1,0,1:0:0:0:
150,176,53439,5,0,1:0:0:0:
213,222,53536,1,8,0:2:0:0:
190,303,53633,1,0,0:0:0:0:
99,303,53730,1,0,1:2:0:0:
69,211,53827,6,0,L|38:108,1,60,8|0,0:2|0:0,0:0:0:0:
139,46,54020,1,8,0:2:0:0:
231,72,54117,1,8,0:2:0:0:
330,9,54214,6,0,L|301:153,1,120,4|0,3:2|0:0,0:0:0:0:
268,283,54601,1,8,0:2:0:0:
385,170,54794,1,0,1:2:0:0:
198,209,54988,1,0,0:0:0:0:
408,328,55181,2,0,L|466:312,1,60,0|0,1:0|0:0,0:0:0:0:
221,367,55375,1,0,0:0:0:0:
512,346,55568,6,0,L|330:311,1,180,8|0,0:2|0:0,0:0:0:0:
117,213,55956,1,0,1:0:0:0:
152,281,56052,1,0,0:0:0:0:
106,344,56149,1,8,0:2:0:0:
244,145,56343,1,0,0:0:0:0:
212,188,56439,1,0,1:0:0:0:
233,237,56536,1,0,1:0:0:0:
138,67,56730,1,0,1:2:0:0:
157,103,56826,1,0,0:0:0:0:
144,139,56923,2,0,P|107:145|61:125,1,60,8|0,0:2|0:0,0:0:0:0:
233,237,57117,2,0,P|267:224|333:242,1,60,0|0,0:0|0:0,0:0:0:0:
482,162,57310,6,0,P|516:220|465:299,1,120,4|0,1:2|0:0,0:0:0:0:
393,300,57601,1,0,0:0:0:0:
393,300,57698,2,0,B|381:187|381:187|451:236,1,180,8|8,0:2|0:1,0:0:0:0:
364,347,58085,2,0,L|357:249,1,60,0|8,0:0|0:1,0:0:0:0:
272,125,58278,2,0,L|276:184,1,60,0|0,1:0|0:0,0:0:0:0:
183,323,58472,2,0,L|178:263,1,60,0|0,0:0|0:0,0:0:0:0:
51,130,58665,6,0,P|154:115|160:65,1,120,8|0,0:2|0:0,0:0:0:0:
249,0,59052,1,0,1:0:0:0:
246,11,59117,1,0,0:0:0:0:
249,22,59181,1,0,0:0:0:0:
259,27,59246,2,0,L|319:7,5,40,8|0|0|0|0|0,0:2|0:0|0:0|0:0|0:0|0:0,0:0:0:0:
338,81,59633,2,0,L|381:61,5,40,0|0|0|0|0|0,1:0|0:0|0:0|1:2|0:0|0:0,0:0:0:0:
421,134,60020,2,0,L|464:114,5,40,8|0|0|0|0|0,0:2|0:0|0:0|0:0|0:0|0:0,0:0:0:0:
495,201,60407,6,0,B|438:232|438:232|363:209,1,120,4|0,1:2|0:0,0:0:0:0:
217,155,60794,1,8,0:2:0:0:
170,307,60988,1,0,1:2:0:0:
296,212,61181,1,0,0:0:0:0:
139,212,61375,1,0,1:0:0:0:
267,305,61568,1,0,0:0:0:0:
289,110,61762,6,0,P|239:64|168:95,1,120,8|0,0:2|0:0,0:0:0:0:
12,203,62149,1,0,1:0:0:0:
87,80,62343,2,0,L|91:158,1,60,8|0,0:2|1:0,0:0:0:0:
94,318,62536,1,0,0:0:0:0:
161,278,62633,1,0,1:0:0:0:
94,235,62730,5,8,0:2:0:0:
113,274,62827,1,8,0:2:0:0:
252,164,63020,5,8,0:2:0:0:
233,203,63117,1,8,0:2:0:0:
120,73,63310,5,8,0:2:0:0:
147,146,63407,1,8,0:2:0:0:
228,64,63504,6,0,L|385:43,1,143.999995605469,4|4,3:3|0:0,0:0:0:0:
461,69,63794,1,8,0:1:0:0:
415,148,63891,2,0,P|409:201|445:258,1,71.9999978027344,0|0,3:2|0:0,0:0:0:0:
496,303,64085,2,0,P|443:297|386:333,1,71.9999978027344,12|0,0:2|0:0,0:0:0:0:
341,384,64278,2,0,P|347:331|311:274,1,71.9999978027344,0|0,3:2|0:0,0:0:0:0:
260,229,64472,2,0,P|313:235|370:199,1,71.9999978027344,4|8,0:0|0:1,0:0:0:0:
292,105,64665,6,0,L|121:127,1,143.999995605469,4|12,3:2|0:2,0:0:0:0:
82,190,64956,1,0,0:0:0:0:
2,141,65052,2,0,P|-8:105|5:60,1,71.9999978027344,0|0,3:2|0:0,0:0:0:0:
145,54,65246,2,0,P|155:90|142:135,1,71.9999978027344,4|8,0:0|0:1,0:0:0:0:
85,222,65439,2,0,P|78:257|88:291,1,71.9999978027344,0|0,3:2|0:0,0:0:0:0:
234,273,65633,2,0,P|240:237|230:203,1,71.9999978027344,12|0,0:2|0:0,0:0:0:0:
148,123,65827,2,0,L|337:95,1,143.999995605469,0|4,3:2|0:0,0:0:0:0:
372,146,66117,1,8,0:1:0:0:
437,78,66214,5,4,3:2:0:0:
393,229,66407,5,12,0:2:0:0:
512,331,66601,6,0,P|445:311|357:355,1,143.999995605469,0|4,3:2|0:0,0:0:0:0:
288,363,66891,1,8,0:1:0:0:
199,331,66988,2,0,P|185:287|236:233,1,71.9999978027344,0|0,3:2|0:0,0:0:0:0:
101,239,67181,2,0,P|122:197|196:195,1,71.9999978027344,12|0,0:2|0:0,0:0:0:0:
249,179,67375,2,0,P|263:135|212:81,1,71.9999978027344,0|0,3:2|0:0,0:0:0:0:
347,87,67568,2,0,P|325:45|251:43,1,71.9999978027344,4|8,0:0|0:1,0:0:0:0:
159,43,67762,2,0,L|142:195,1,143.999995605469,4|12,3:2|0:2,0:0:0:0:
65,138,68052,1,0,0:0:0:0:
232,128,68149,6,0,L|329:122,1,71.9999978027344,0|0,3:2|0:0,0:0:0:0:
468,184,68343,2,0,P|431:177|396:188,1,71.9999978027344,4|8,0:0|0:1,0:0:0:0:
230,251,68536,2,0,P|305:238|323:321,1,143.999995605469,0|12,3:2|0:2,0:0:0:0:
254,340,68827,1,0,0:0:0:0:
162,323,68923,2,0,L|132:231,1,71.9999978027344,0|0,3:2|0:0,0:0:0:0:
30,216,69117,2,0,L|62:126,1,71.9999978027344,4|8,0:0|0:1,0:0:0:0:
111,12,69310,5,4,3:2:0:0:
276,77,69504,5,12,0:2:0:0:
1,42,69698,5,4,3:3:0:0:
116,240,71246,5,0,1:0:0:0:
215,224,71439,1,0,1:0:0:0:
315,340,71633,1,0,1:0:0:0:
216,324,71826,1,0,1:0:0:0:
323,230,72020,1,8,0:2:0:0:
422,214,72213,5,8,0:2:0:0:
460,233,72310,1,8,0:2:0:0:
473,266,72407,1,8,0:2:0:0:
474,294,72504,1,8,0:2:0:0:
471,315,72601,1,8,0:2:0:0:
466,328,72698,1,8,0:2:0:0:
461,333,72794,5,8,0:2:0:0:
418,249,72891,1,8,0:2:0:0:
426,155,72988,1,8,0:2:0:0:
499,96,73085,1,8,0:2:0:0:
130,85,73375,5,8,0:2:0:0:
218,119,73472,1,8,0:2:0:0:
303,79,73569,1,8,0:2:0:0:
355,0,73666,1,8,0:2:0:0:
30,194,73955,5,8,0:2:0:0:
123,198,74052,1,0,0:0:0:0:
200,250,74149,1,0,1:0:0:0:
226,340,74245,1,0,0:0:0:0:
328,314,74343,5,4,1:2:0:0:
330,296,74439,1,8,0:1:0:0:
333,279,74536,1,8,0:1:0:0:
336,262,74633,1,8,0:1:0:0:
339,245,74730,1,8,0:1:0:0:
342,227,74826,1,8,0:1:0:0:
345,210,74923,1,8,0:1:0:0:
347,193,75020,1,8,0:2:0:0:
350,176,75117,1,8,0:2:0:0:
353,159,75213,1,8,0:2:0:0:
356,141,75310,1,8,0:2:0:0:
359,124,75407,1,8,0:2:0:0:
450,124,75891,6,0,B|483:227,1,83.9999974365235,4|0,3:1|0:0,0:0:0:0:
379,332,76085,2,0,L|295:323,1,83.9999974365235,8|0,0:2|0:0,0:0:0:0:
136,354,76278,1,0,3:2:0:0:
44,370,76375,1,0,1:2:0:0:
6,285,76472,2,0,P|5:242|36:205,1,83.9999974365235,8|0,0:2|0:0,0:0:0:0:
155,198,76665,5,0,3:2:0:0:
193,114,76762,1,0,0:0:0:0:
157,29,76859,2,0,L|44:60,1,83.9999974365235,8|0,0:2|0:0,0:0:0:0:
281,94,77052,5,0,3:2:0:0:
371,74,77149,1,0,1:2:0:0:
459,100,77246,2,0,P|467:145|441:201,1,83.9999974365235,8|0,0:2|0:0,0:0:0:0:
366,318,77439,5,0,3:2:0:0:
357,276,77536,1,0,0:0:0:0:
285,205,77633,5,8,0:2:0:0:
276,247,77730,1,0,0:0:0:0:
205,324,77827,5,0,3:2:0:0:
196,282,77924,1,0,1:2:0:0:
122,213,78020,5,8,0:2:0:0:
113,255,78117,1,0,0:0:0:0:
141,331,78214,5,0,3:2:0:0:
165,327,78310,1,0,0:0:0:0:
225,261,78407,5,8,0:2:0:0:
249,265,78503,1,0,0:0:0:0:
283,346,78601,5,0,3:2:0:0:
307,342,78697,1,0,1:2:0:0:
371,279,78794,5,8,0:2:0:0:
404,365,78891,1,0,0:0:0:0:
466,296,78988,6,0,B|477:225|477:225|458:196|458:196|473:120,1,167.999994873047,0|8,3:2|0:2,0:0:0:0:
415,60,79278,1,0,0:0:0:0:
366,138,79375,2,0,L|248:121,1,83.9999974365235,0|0,3:2|1:2,0:0:0:0:
171,23,79568,2,0,L|279:11,1,83.9999974365235,8|0,0:2|0:0,0:0:0:0:
208,201,79762,5,0,3:2:0:0:
350,9,79956,1,8,0:2:0:0:
505,246,80149,5,0,3:2:0:0:
461,327,80246,1,0,1:2:0:0:
374,294,80343,2,0,P|334:290|291:304,1,83.9999974365235,8|0,0:2|0:0,0:0:0:0:
82,342,80536,5,0,3:2:0:0:
53,271,80633,1,0,0:0:0:0:
150,250,80730,5,8,0:2:0:0:
143,191,80827,1,0,0:0:0:0:
237,158,80923,5,0,3:2:0:0:
243,116,81020,1,0,1:2:0:0:
337,82,81117,5,8,0:2:0:0:
346,58,81214,1,0,0:0:0:0:
434,44,81310,5,4,3:2:0:0:
449,32,81407,1,0,0:0:0:0:
359,95,81504,5,8,0:2:0:0:
274,56,81601,1,8,0:2:0:0:
189,94,81698,5,8,0:2:0:0:
106,54,81794,1,8,0:2:0:0:
36,115,81891,1,8,0:2:0:0:
78,199,81988,1,8,0:2:0:0:
170,185,82085,5,4,3:2:0:0:
199,2,82278,1,8,0:2:0:0:
250,250,82472,5,0,3:2:0:0:
293,169,82568,1,0,1:2:0:0:
241,92,82665,2,0,L|132:105,1,83.9999974365235,8|0,0:2|0:0,0:0:0:0:
23,244,82859,5,0,3:2:0:0:
4,334,82956,1,0,0:0:0:0:
90,303,83052,2,0,P|125:289|215:305,1,83.9999974365235,8|0,0:2|0:0,0:0:0:0:
332,328,83246,5,0,3:2:0:0:
417,362,83343,1,0,1:2:0:0:
492,309,83439,2,0,P|503:245|476:193,1,83.9999974365235,8|0,0:2|0:0,0:0:0:0:
397,65,83633,5,0,3:2:0:0:
356,76,83730,1,0,0:0:0:0:
284,24,83827,5,8,0:2:0:0:
243,34,83924,1,0,0:0:0:0:
168,96,84020,5,0,3:2:0:0:
179,118,84117,1,0,1:2:0:0:
257,156,84214,5,8,0:2:0:0:
246,178,84311,1,0,0:0:0:0:
168,209,84407,5,0,3:2:0:0:
166,234,84504,1,0,0:0:0:0:
166,259,84601,1,8,0:2:0:0:
164,284,84698,1,0,0:0:0:0:
232,344,84794,5,0,3:2:0:0:
314,302,84891,1,0,1:2:0:0:
399,337,84988,1,8,0:2:0:0:
464,271,85085,1,0,0:0:0:0:
438,183,85181,5,0,3:2:0:0:
318,382,85375,1,8,0:2:0:0:
103,276,85568,2,0,P|148:240|227:252,1,83.9999974365235,0|0,3:2|1:2,0:0:0:0:
225,31,85762,2,0,P|180:67|101:55,1,83.9999974365235,8|0,0:2|0:0,0:0:0:0:
256,163,85956,5,0,3:2:0:0:
344,186,86052,1,0,0:0:0:0:
424,140,86149,1,8,0:2:0:0:
429,47,86246,1,0,0:0:0:0:
346,5,86343,5,0,3:2:0:0:
275,252,86536,1,8,0:2:0:0:
507,327,86730,6,0,P|467:298|401:310,1,83.9999974365235,0|0,3:2|0:0,0:0:0:0:
279,371,86923,2,0,P|231:381|170:345,1,83.9999974365235,8|0,0:2|0:0,0:0:0:0:
47,276,87117,1,0,3:2:0:0:
35,184,87214,1,0,1:2:0:0:
94,114,87310,2,0,L|199:154,1,83.9999974365235,8|0,0:2|0:0,0:0:0:0:
275,250,87504,2,0,B|318:261|318:261|357:239,1,83.9999974365235,0|0,3:2|0:0,0:0:0:0:
505,127,87698,5,8,0:2:0:0:
422,86,87794,1,8,0:2:0:0:
331,65,87891,1,8,0:2:0:0:
241,88,87988,1,8,0:2:0:0:
153,118,88085,1,8,0:2:0:0:
70,77,88181,1,8,0:2:0:0:
0,173,88278,6,0,L|28:281,1,83.9999974365235,4|0,3:1|0:0,0:0:0:0:
133,373,88472,2,0,L|161:265,1,83.9999974365235,8|0,0:2|0:0,0:0:0:0:
229,125,88665,1,0,3:2:0:0:
318,101,88762,1,0,1:2:0:0:
406,127,88859,2,0,L|444:247,1,83.9999974365235,8|0,0:2|0:0,0:0:0:0:
467,355,89052,5,0,3:2:0:0:
378,381,89149,1,0,0:0:0:0:
303,325,89246,2,0,P|301:283|351:245,1,83.9999974365235,8|0,0:2|0:0,0:0:0:0:
245,46,89439,1,0,3:2:0:0:
309,111,89536,1,0,1:2:0:0:
264,187,89633,2,0,L|134:176,1,83.9999974365235,8|0,0:2|0:0,0:0:0:0:
25,86,89827,5,0,3:2:0:0:
31,127,89923,1,0,0:0:0:0:
110,145,90020,5,8,0:2:0:0:
100,185,90116,1,0,0:0:0:0:
26,217,90214,5,0,3:2:0:0:
32,258,90310,1,0,1:2:0:0:
111,276,90407,5,8,0:2:0:0:
101,316,90503,1,0,0:0:0:0:
42,262,90601,5,0,3:2:0:0:
16,262,90698,1,0,0:0:0:0:
82,191,90794,5,8,0:2:0:0:
108,191,90891,1,0,0:0:0:0:
43,118,90988,5,0,3:2:0:0:
17,118,91085,1,0,1:2:0:0:
87,48,91181,5,8,0:2:0:0:
176,23,91278,1,0,0:0:0:0:
263,53,91375,6,0,P|303:142|264:196,1,167.999994873047,0|8,3:2|0:2,0:0:0:0:
179,210,91665,1,0,0:0:0:0:
131,130,91762,2,0,P|188:114|229:149,1,83.9999974365235,0|0,3:2|1:2,0:0:0:0:
376,219,91956,2,0,P|402:273|376:319,1,83.9999974365235,8|0,0:2|0:0,0:0:0:0:
144,373,92149,5,0,3:2:0:0:
272,192,92343,1,8,0:2:0:0:
78,33,92536,1,0,3:2:0:0:
39,117,92633,1,0,1:2:0:0:
96,189,92730,2,0,L|219:165,1,83.9999974365235,8|0,0:2|0:0,0:0:0:0:
340,74,92923,5,0,3:2:0:0:
266,93,93020,1,0,0:0:0:0:
343,158,93117,5,8,0:2:0:0:
399,143,93214,1,0,0:0:0:0:
377,229,93310,5,0,3:2:0:0:
336,241,93407,1,0,1:2:0:0:
409,302,93504,5,8,0:2:0:0:
433,295,93601,1,0,0:0:0:0:
385,378,93698,5,4,3:2:0:0:
369,384,93795,1,0,0:0:0:0:
291,335,93891,5,8,0:2:0:0:
199,317,93988,1,8,0:2:0:0:
131,380,94085,1,8,0:2:0:0:
41,362,94181,1,8,0:2:0:0:
21,270,94278,1,8,0:2:0:0:
89,207,94375,1,8,0:2:0:0:
179,226,94472,5,4,3:2:0:0:
237,220,94568,1,0,0:0:0:0:
284,185,94665,1,8,0:2:0:0:
297,127,94762,1,0,0:0:0:0:
317,52,94859,5,0,3:2:0:0:
321,93,94956,1,0,1:2:0:0:
242,136,95052,5,8,0:2:0:0:
248,177,95149,1,0,0:0:0:0:
311,242,95246,5,0,3:2:0:0:
352,248,95343,1,0,0:0:0:0:
391,234,95439,1,8,0:2:0:0:
413,198,95536,1,0,0:0:0:0:
489,156,95633,5,0,3:2:0:0:
464,121,95730,1,0,1:2:0:0:
378,116,95827,5,8,0:2:0:0:
348,86,95923,1,0,0:0:0:0:
251,12,96020,6,0,L|242:141,1,83.9999974365235,0|0,3:2|0:0,0:0:0:0:
130,177,96214,2,0,L|117:87,1,83.9999974365235,8|0,0:2|0:0,0:0:0:0:
38,248,96407,2,0,L|31:307,2,55.9999982910157,0|0|0,3:2|0:0|0:0,0:0:0:0:
129,302,96601,2,0,P|183:290|214:306,1,83.9999974365235,8|0,0:2|0:0,0:0:0:0:
460,348,96794,6,0,P|406:360|375:344,1,83.9999974365235,0|0,3:2|0:0,0:0:0:0:
301,246,96988,1,8,0:2:0:0:
275,165,97085,1,8,0:2:0:0:
302,95,97181,1,8,0:2:0:0:
363,66,97278,1,8,0:3:0:0:
421,74,97375,1,8,0:3:0:0:
462,102,97472,1,0,1:0:0:0:
463,128,97568,6,0,L|338:111,1,90.0000034332277,4|0,3:2|0:0,0:0:0:0:
254,64,97859,2,0,P|288:114|267:176,1,90.0000034332277,0|0,1:0|0:0,0:0:0:0:
257,176,98149,1,0,1:0:0:0:
143,44,98343,2,0,L|171:251,1,180.000006866455,8|0,0:2|0:0,0:0:0:0:
462,275,98923,1,8,0:0:0:0:
468,248,99020,1,8,0:0:0:0:
472,220,99117,6,0,P|420:206|359:234,1,90.0000034332277,4|0,3:2|0:0,0:0:0:0:
191,366,99504,1,0,0:0:0:0:
19,239,99698,1,0,1:0:0:0:
182,121,99891,1,8,0:2:0:0:
46,376,100085,1,0,0:0:0:0:
250,229,100278,1,8,0:2:0:0:
50,109,100472,1,0,0:0:0:0:
235,84,100665,5,8,0:2:0:0:
259,13,100761,1,8,0:2:0:0:
291,158,100955,5,8,0:2:0:0:
267,87,101051,1,8,0:2:0:0:
252,256,101246,5,8,0:2:0:0:
276,185,101342,1,8,0:2:0:0:
308,330,101536,5,8,0:2:0:0:
284,259,101632,1,8,0:2:0:0:
287,61,101826,5,8,0:2:0:0:
270,138,101955,1,0,0:0:0:0:
328,189,102084,1,0,0:0:0:0:
373,196,102213,2,0,L|341:214,3,30.0000011444092,8|8|4|4,0:3|0:3|0:3|0:3,0:0:0:0:
455,337,102601,6,2,B|372:279|288:329|280:331|272:334|210:380|95:319,2,360,4|0|4,0:2|2:0|1:2,0:0:0:0:
149,109,106859,5,4,1:2:0:0:
149,109,107439,1,0,0:0:0:0:
149,109,107633,1,0,0:0:0:0:
81,260,107827,1,0,0:0:0:0:
253,173,108020,1,0,0:0:0:0:
321,345,108214,6,0,P|389:344|420:293,1,120,8|0,0:2|0:0,0:0:0:0:
343,177,108601,1,0,1:2:0:0:
458,16,108794,1,8,0:2:0:0:
463,51,108891,1,8,0:2:0:0:
450,84,108988,1,0,0:0:0:0:
416,96,109085,1,0,1:2:0:0:
385,77,109181,1,0,1:0:0:0:
387,41,109277,1,0,1:0:0:0:
311,114,109472,1,0,0:0:0:0:
303,81,109568,1,8,0:2:0:0:
202,17,109762,1,8,0:2:0:0:
208,52,109859,1,8,0:2:0:0:
213,87,109956,6,0,L|179:214,1,120,0|0,1:2|0:0,0:0:0:0:
150,223,110536,6,0,L|258:212,1,60,0|0,0:0|0:0,0:0:0:0:
422,130,110730,2,0,L|324:116,1,60,0|0,0:0|0:0,0:0:0:0:
218,12,110923,2,0,L|252:101,1,60,0|0,1:0|0:0,0:0:0:0:
318,226,111117,1,0,0:0:0:0:
328,260,111214,1,0,0:0:0:0:
338,294,111310,2,0,B|262:344|262:344|161:288,1,180,8|0,0:2|0:0,0:0:0:0:
62,288,111698,5,0,1:2:0:0:
51,328,111794,1,0,0:0:0:0:
73,363,111891,1,8,0:2:0:0:
101,331,111988,1,8,0:2:0:0:
99,288,112085,1,0,0:0:0:0:
88,247,112181,1,0,1:2:0:0:
108,208,112278,6,0,P|164:169|232:180,1,120,0|0,1:0|1:0,0:0:0:0:
448,276,112665,1,8,0:2:0:0:
476,229,112762,1,0,0:0:0:0:
426,154,112859,1,8,0:2:0:0:
312,374,113052,6,0,L|294:238,1,120,4|0,1:2|0:0,0:0:0:0:
276,91,113439,1,8,0:2:0:0:
204,264,113633,1,0,1:2:0:0:
375,152,113827,1,0,0:0:0:0:
208,28,114020,5,0,1:0:0:0:
175,55,114117,1,0,0:0:0:0:
161,94,114213,1,0,0:0:0:0:
167,135,114310,1,0,0:0:0:0:
200,160,114407,5,8,0:2:0:0:
208,118,114504,1,0,0:0:0:0:
244,78,114601,1,0,0:0:0:0:
252,120,114698,1,0,0:0:0:0:
299,156,114794,1,0,1:0:0:0:
307,114,114891,1,0,0:0:0:0:
357,57,114988,5,8,0:2:0:0:
349,99,115085,1,0,1:0:0:0:
269,124,115181,5,0,0:0:0:0:
277,82,115278,1,0,1:0:0:0:
204,45,115375,5,0,1:0:0:0:
196,87,115472,1,0,1:0:0:0:
113,123,115568,5,0,1:2:0:0:
121,81,115665,1,0,0:0:0:0:
226,19,115762,5,8,0:2:0:0:
218,61,115859,1,0,0:0:0:0:
291,140,115956,5,0,0:0:0:0:
299,98,116053,1,0,0:0:0:0:
384,47,116149,6,0,L|400:218,1,120,4|0,1:2|0:0,0:0:0:0:
418,346,116536,1,8,0:2:0:0:
274,219,116730,1,0,1:2:0:0:
315,210,116827,1,8,0:1:0:0:
478,259,117020,1,8,0:1:0:0:
436,252,117117,1,0,1:0:0:0:
298,340,117310,1,0,0:0:0:0:
191,178,117504,6,0,L|207:242,1,60,8|0,0:2|0:0,0:0:0:0:
149,370,117698,2,0,L|75:308,1,60,0|0,0:0|0:0,0:0:0:0:
6,282,117891,1,0,1:0:0:0:
41,241,117987,1,0,0:0:0:0:
94,230,118084,1,8,0:2:0:0:
102,177,118180,1,0,1:0:0:0:
156,179,118278,1,0,0:0:0:0:
191,138,118374,1,0,1:0:0:0:
199,84,118472,5,0,1:0:0:0:
143,153,118568,1,8,0:2:0:0:
149,236,118665,1,0,0:0:0:0:
226,281,118762,1,0,1:0:0:0:
316,247,118859,2,0,L|306:146,1,60,8|0,0:2|0:0,0:0:0:0:
295,40,119052,1,8,0:2:0:0:
388,61,119149,1,8,0:2:0:0:
475,20,119246,6,0,L|472:195,1,120,4|8,1:2|0:2,0:0:0:0:
264,229,119633,1,0,1:0:0:0:
400,286,119826,1,8,0:2:0:0:
323,116,120020,1,0,0:0:0:0:
215,353,120214,2,0,L|315:363,1,60,8|0,0:2|0:0,0:0:0:0:
142,173,120408,1,0,1:0:0:0:
338,368,120600,6,0,L|155:346,1,180,8|0,0:2|0:0,0:0:0:0:
74,208,120988,1,8,0:2:0:0:
142,173,121084,1,0,0:0:0:0:
205,219,121181,1,0,1:0:0:0:
415,143,121375,1,8,0:2:0:0:
372,111,121471,1,0,1:2:0:0:
323,132,121568,1,0,0:0:0:0:
146,45,121762,1,8,0:2:0:0:
182,26,121858,1,0,0:0:0:0:
218,39,121955,2,0,P|224:76|204:122,1,60,0|0,1:0|0:0,0:0:0:0:
299,214,122149,2,0,P|292:246|326:295,1,60,8|0,0:2|0:0,0:0:0:0:
512,359,122342,6,0,L|475:222,1,120,4|8,1:2|0:2,0:0:0:0:
427,101,122633,1,0,0:0:0:0:
427,101,122730,2,0,P|477:76|434:130,1,180,0|0,1:0|1:1,0:0:0:0:
350,130,123117,2,0,P|346:93|363:44,1,60,0|0,0:0|1:1,0:0:0:0:
215,9,123310,2,0,P|224:29|218:68,1,60,8|0,0:2|0:0,0:0:0:0:
51,130,123504,2,0,P|47:93|64:44,1,60,0|0,1:0|0:0,0:0:0:0:
174,176,123697,6,0,L|86:293,1,120,8|0,0:2|1:0,0:0:0:0:
219,375,124084,1,8,0:2:0:0:
234,378,124149,1,0,0:0:0:0:
245,375,124213,1,0,0:0:0:0:
250,365,124278,2,0,L|230:305,5,40,0|0|0|8|0|0,1:0|0:0|0:0|0:2|0:0|0:0,0:0:0:0:
317,300,124665,2,0,L|316:260,5,40,0|0|0|8|0|0,0:0|0:0|0:0|0:2|0:0|0:0,0:0:0:0:
397,271,125052,2,0,L|440:251,5,40,0|0|0|8|0|0,1:0|0:0|0:0|0:2|0:0|0:0,0:0:0:0:
506,304,125439,6,0,B|525:245|525:245|491:194,1,120,4|8,1:2|0:2,0:0:0:0:
416,32,125827,1,0,1:0:0:0:
380,209,126020,1,8,0:2:0:0:
512,85,126214,1,0,0:0:0:0:
448,129,126310,1,0,1:2:0:0:
370,119,126407,1,8,0:2:0:0:
492,196,126601,1,0,1:0:0:0:
346,321,126794,6,0,L|225:306,1,120,8|0,0:2|1:0,0:0:0:0:
33,281,127181,1,8,0:2:0:0:
75,64,127375,1,0,1:2:0:0:
145,97,127472,1,0,0:0:0:0:
175,168,127568,1,8,0:2:0:0:
155,243,127665,1,0,0:0:0:0:
131,208,127762,5,8,0:2:0:0:
146,168,127859,1,8,0:2:0:0:
66,297,128052,1,8,0:2:0:0:
46,256,128149,1,8,0:2:0:0:
127,371,128342,1,8,0:2:0:0:
176,310,128439,1,8,0:2:0:0:
257,357,128536,6,0,P|318:373|414:336,1,143.999995605469,4|4,1:3|0:0,0:0:0:0:
453,278,128826,1,8,0:1:0:0:
427,187,128923,2,0,P|480:181|537:217,1,71.9999978027344,0|0,1:0|0:0,0:0:0:0:
327,241,129117,2,0,L|336:143,1,71.9999978027344,12|0,0:2|0:0,0:0:0:0:
468,79,129310,2,0,P|415:85|358:49,1,71.9999978027344,0|0,1:2|0:0,0:0:0:0:
310,0,129504,2,0,L|303:71,1,71.9999978027344,4|8,0:0|0:1,0:0:0:0:
242,159,129697,6,0,P|179:140|91:193,1,143.999995605469,4|12,1:2|0:2,0:0:0:0:
91,262,129988,1,0,0:0:0:0:
165,316,130084,2,0,P|179:279|172:217,1,71.9999978027344,0|0,1:2|0:0,0:0:0:0:
289,311,130278,2,0,P|282:346|292:380,1,71.9999978027344,4|8,0:2|0:1,0:0:0:0:
414,377,130472,2,0,P|420:341|410:307,1,71.9999978027344,0|0,1:0|0:0,0:0:0:0:
512,269,130665,2,0,P|498:232|505:170,1,71.9999978027344,12|0,0:2|0:0,0:0:0:0:
353,87,130859,2,0,P|402:163|347:250,1,143.999995605469,0|4,1:2|0:2,0:0:0:0:
306,169,131149,1,8,0:1:0:0:
222,210,131246,5,4,1:2:0:0:
129,55,131439,5,12,0:2:0:0:
0,211,131633,6,0,P|67:191|138:249,1,143.999995605469,0|4,1:2|0:2,0:0:0:0:
105,318,131923,1,8,0:1:0:0:
186,362,132020,2,0,P|230:358|270:308,1,71.9999978027344,0|0,1:0|0:0,0:0:0:0:
402,383,132214,2,0,L|338:288,1,71.9999978027344,12|0,0:2|0:0,0:0:0:0:
473,190,132407,2,0,P|456:221|426:240,1,71.9999978027344,0|0,1:2|0:0,0:0:0:0:
264,210,132601,2,0,L|200:115,1,71.9999978027344,4|8,0:2|0:1,0:0:0:0:
310,45,132794,2,0,P|375:106|350:181,1,143.999995605469,4|12,1:2|0:2,0:0:0:0:
343,244,133084,1,0,0:0:0:0:
223,150,133181,6,0,L|307:122,1,71.9999978027344,0|0,1:2|0:0,0:0:0:0:
252,292,133375,2,0,L|183:314,1,71.9999978027344,4|8,0:2|0:1,0:0:0:0:
127,239,133568,2,0,P|143:190|99:141,1,71.9999978027344,0|0,1:0|0:0,0:0:0:0:
11,56,133762,2,0,P|-5:105|39:154,1,71.9999978027344,12|0,0:2|0:0,0:0:0:0:
14,349,133955,2,0,L|47:176,1,143.999995605469,0|4,1:2|0:2,0:0:0:0:
223,150,134342,5,4,1:2:0:0:
96,10,134536,5,12,0:2:0:0:
127,252,134730,5,4,1:2:0:0:
135,19,136278,5,0,1:0:0:0:
117,208,136472,1,0,1:0:0:0:
200,84,136665,1,0,1:0:0:0:
29,207,136859,1,0,1:0:0:0:
269,145,137052,1,8,0:2:0:0:
206,299,137245,5,8,0:2:0:0:
225,337,137342,1,8,0:2:0:0:
258,350,137439,1,8,0:2:0:0:
286,351,137537,1,8,0:2:0:0:
307,348,137634,1,8,0:2:0:0:
320,343,137729,1,8,0:2:0:0:
325,338,137826,5,8,0:2:0:0:
241,295,137923,1,8,0:2:0:0:
147,303,138020,1,8,0:2:0:0:
82,235,138116,1,8,0:2:0:0:
209,34,138407,5,8,0:2:0:0:
213,128,138504,1,8,0:2:0:0:
267,205,138601,1,8,0:2:0:0:
241,295,138698,1,8,0:2:0:0:
3,286,138988,5,8,0:2:0:0:
83,235,139085,1,0,0:0:0:0:
122,150,139182,1,0,1:0:0:0:
213,129,139279,1,0,0:0:0:0:
307,193,139375,5,4,1:2:0:0:
304,210,139472,1,8,0:1:0:0:
301,228,139569,1,8,0:1:0:0:
298,245,139665,1,8,0:1:0:0:
295,262,139762,1,8,0:1:0:0:
293,279,139859,1,8,0:1:0:0:
290,296,139956,1,8,0:1:0:0:
287,314,140052,1,8,0:2:0:0:
284,331,140149,1,8,0:2:0:0:
281,348,140246,1,8,0:2:0:0:
278,365,140343,1,8,0:2:0:0:
276,383,140439,1,8,0:2:0:0:
179,300,140923,6,0,P|128:281|81:320,1,83.9999974365235,4|0,3:1|0:0,0:0:0:0:
4,184,141117,2,0,P|0:125|49:95,1,83.9999974365235,8|0,0:2|0:0,0:0:0:0:
202,22,141310,1,0,3:2:0:0:
289,52,141407,1,0,1:2:0:0:
374,87,141504,2,0,L|378:175,1,83.9999974365235,8|0,0:2|0:0,0:0:0:0:
453,337,141698,1,0,3:2:0:0:
366,307,141795,1,0,0:0:0:0:
281,272,141892,2,0,L|277:184,1,83.9999974365235,8|0,0:2|0:0,0:0:0:0:
131,74,142084,5,0,3:2:0:0:
69,143,142181,1,0,1:2:0:0:
105,228,142278,2,0,P|150:236|206:210,1,83.9999974365235,8|0,0:2|0:0,0:0:0:0:
234,93,142471,5,0,3:2:0:0:
225,51,142568,1,0,0:0:0:0:
317,60,142665,5,8,0:2:0:0:
322,17,142762,1,0,0:0:0:0:
402,62,142859,5,0,3:2:0:0:
421,24,142956,1,0,1:2:0:0:
477,96,143052,5,8,0:2:0:0:
508,67,143149,1,0,0:0:0:0:
449,13,143246,5,0,3:2:0:0:
424,16,143343,1,0,0:0:0:0:
364,86,143439,5,8,0:2:0:0:
339,80,143536,1,0,0:0:0:0:
262,126,143633,5,0,3:2:0:0:
241,112,143730,1,0,1:2:0:0:
159,128,143827,5,8,0:2:0:0:
120,44,143923,1,0,0:0:0:0:
29,62,144020,6,0,B|-13:140|-13:140|33:265,1,167.999994873047,0|8,3:2|0:2,0:0:0:0:
93,266,144310,1,0,0:0:0:0:
173,220,144407,2,0,P|216:220|258:247,1,83.9999974365235,0|0,3:2|1:2,0:0:0:0:
307,361,144601,2,0,P|349:361|386:342,1,83.9999974365235,8|0,0:2|0:0,0:0:0:0:
476,198,144794,5,0,3:2:0:0:
220,329,144988,1,8,0:2:0:0:
300,119,145181,5,0,3:2:0:0:
249,41,145278,1,0,1:2:0:0:
158,48,145375,2,0,P|121:88|120:131,1,83.9999974365235,8|0,0:2|0:0,0:0:0:0:
151,270,145568,5,0,3:2:0:0:
227,262,145665,1,0,0:0:0:0:
311,299,145762,5,8,0:2:0:0:
336,245,145859,1,0,0:0:0:0:
412,199,145956,5,0,3:2:0:0:
388,164,146053,1,0,1:2:0:0:
398,81,146149,5,8,0:2:0:0:
372,82,146246,1,0,0:0:0:0:
314,12,146343,5,4,3:2:0:0:
306,26,146440,1,0,0:0:0:0:
217,3,146536,5,8,0:2:0:0:
153,70,146633,1,8,0:2:0:0:
190,154,146730,5,8,0:2:0:0:
280,142,146826,1,8,0:2:0:0:
370,124,146923,1,8,0:2:0:0:
461,107,147020,1,8,0:2:0:0:
505,188,147117,5,4,3:2:0:0:
312,52,147310,1,8,0:2:0:0:
238,274,147504,5,0,3:2:0:0:
151,302,147600,1,0,1:2:0:0:
80,242,147697,2,0,P|78:183|104:135,1,83.9999974365235,8|0,0:2|0:0,0:0:0:0:
161,15,147891,5,0,3:2:0:0:
225,81,147988,1,0,0:0:0:0:
312,52,148084,2,0,P|347:38|437:54,1,83.9999974365235,8|0,0:2|0:0,0:0:0:0:
478,176,148278,5,0,3:2:0:0:
512,261,148375,1,0,1:2:0:0:
459,336,148471,2,0,P|395:347|343:320,1,83.9999974365235,8|0,0:2|0:0,0:0:0:0:
255,247,148665,5,0,3:2:0:0:
214,258,148762,1,0,0:0:0:0:
194,351,148859,5,8,0:2:0:0:
153,341,148956,1,0,0:0:0:0:
29,374,149052,5,0,3:2:0:0:
40,352,149149,1,0,1:2:0:0:
42,264,149246,5,8,0:2:0:0:
53,242,149343,1,0,0:0:0:0:
138,189,149439,5,0,3:2:0:0:
151,210,149536,1,0,0:0:0:0:
165,230,149633,1,8,0:2:0:0:
179,250,149730,1,0,0:0:0:0:
262,213,149826,5,0,3:2:0:0:
345,253,149923,1,0,1:2:0:0:
422,203,150020,1,8,0:2:0:0:
411,110,150117,1,0,0:0:0:0:
320,95,150213,5,0,3:2:0:0:
441,297,150407,1,8,0:2:0:0:
248,384,150601,2,0,P|247:328|279:280,1,83.9999974365235,0|0,3:2|1:2,0:0:0:0:
344,172,150794,2,0,P|335:116|295:74,1,83.9999974365235,8|0,0:2|0:0,0:0:0:0:
119,29,150988,5,0,3:2:0:0:
70,107,151084,1,0,0:0:0:0:
158,132,151181,1,8,0:2:0:0:
115,214,151278,1,0,0:0:0:0:
191,266,151375,5,0,3:2:0:0:
423,210,151568,1,8,0:2:0:0:
512,379,151762,6,0,L|421:359,1,83.9999974365235,0|0,3:2|0:0,0:0:0:0:
341,321,151955,2,0,L|222:351,1,83.9999974365235,8|0,0:2|0:0,0:0:0:0:
76,380,152149,1,0,3:2:0:0:
31,298,152246,1,0,1:2:0:0:
62,212,152342,2,0,P|102:188|191:222,1,83.9999974365235,8|0,0:2|0:0,0:0:0:0:
313,229,152536,2,0,P|345:178|330:113,1,83.9999974365235,0|0,3:2|0:0,0:0:0:0:
512,42,152730,5,8,0:2:0:0:
438,97,152826,1,8,0:2:0:0:
434,189,152923,1,8,0:2:0:0:
476,271,153020,1,8,0:2:0:0:
487,179,153117,1,8,0:2:0:0:
452,94,153213,1,8,0:2:0:0:
368,53,153310,6,0,L|252:72,1,83.9999974365235,4|0,3:1|0:0,0:0:0:0:
182,5,153504,2,0,L|102:124,1,83.9999974365235,8|0,0:2|0:0,0:0:0:0:
23,240,153697,1,0,3:2:0:0:
72,317,153794,1,0,1:2:0:0:
163,304,153891,2,0,P|182:270|173:213,1,83.9999974365235,8|0,0:2|0:0,0:0:0:0:
379,176,154084,5,0,3:2:0:0:
290,202,154181,1,0,0:0:0:0:
215,146,154278,2,0,P|213:104|263:66,1,83.9999974365235,8|0,0:2|0:0,0:0:0:0:
428,22,154471,1,0,3:2:0:0:
447,112,154568,1,0,1:2:0:0:
468,202,154665,2,0,L|424:336,1,83.9999974365235,8|0,0:2|0:0,0:0:0:0:
250,348,154859,5,0,3:2:0:0:
238,307,154955,1,0,0:0:0:0:
189,230,155052,5,8,0:2:0:0:
229,218,155148,1,0,0:0:0:0:
306,176,155245,5,0,3:2:0:0:
318,215,155343,1,0,1:2:0:0:
365,291,155440,5,8,0:2:0:0:
326,303,155536,1,0,0:0:0:0:
296,215,155633,5,0,3:2:0:0:
287,190,155729,1,0,0:0:0:0:
197,217,155827,5,8,0:2:0:0:
173,224,155923,1,0,0:0:0:0:
202,311,156020,5,0,3:2:0:0:
209,334,156116,1,0,1:2:0:0:
300,321,156213,5,8,0:2:0:0:
390,302,156310,1,0,0:0:0:0:
481,285,156407,2,0,L|475:108,1,167.999994873047,0|8,3:2|0:2,0:0:0:0:
422,41,156697,1,0,0:0:0:0:
381,124,156794,2,0,P|324:140|283:105,1,83.9999974365235,0|0,3:2|0:2,0:0:0:0:
198,5,156988,2,0,L|166:108,1,83.9999974365235,8|0,0:2|0:0,0:0:0:0:
119,217,157181,5,0,3:2:0:0:
333,52,157375,1,8,0:2:0:0:
473,203,157568,1,0,3:2:0:0:
512,287,157665,1,0,1:2:0:0:
455,359,157762,2,0,P|405:338|331:360,1,83.9999974365235,8|0,0:2|0:0,0:0:0:0:
167,347,157956,5,0,3:2:0:0:
233,384,158053,1,0,0:0:0:0:
253,294,158149,5,8,0:2:0:0:
200,266,158246,1,0,0:0:0:0:
233,179,158343,5,0,3:2:0:0:
269,199,158440,1,0,1:2:0:0:
281,108,158536,5,8,0:2:0:0:
258,97,158633,1,0,0:0:0:0:
284,8,158730,5,4,3:2:0:0:
298,16,158827,1,0,0:0:0:0:
387,37,158923,5,8,0:2:0:0:
321,102,159020,1,8,0:1:0:0:
231,78,159117,1,8,0:2:0:0:
148,117,159213,1,8,0:2:0:0:
134,208,159310,1,8,0:2:0:0:
187,283,159407,1,8,0:2:0:0:
279,272,159504,5,4,3:2:0:0:
306,220,159600,1,0,0:0:0:0:
305,162,159697,1,8,0:2:0:0:
277,112,159794,1,0,0:0:0:0:
192,111,159891,5,0,3:2:0:0:
174,149,159988,1,0,1:2:0:0:
88,163,160084,5,8,0:2:0:0:
65,198,160181,1,0,0:0:0:0:
23,265,160278,5,0,3:2:0:0:
60,245,160375,1,0,0:0:0:0:
101,242,160471,1,8,0:2:0:0:
140,257,160568,1,0,0:0:0:0:
199,321,160665,5,0,3:2:0:0:
234,296,160762,1,0,1:2:0:0:
314,265,160859,5,8,0:2:0:0:
349,290,160956,1,0,0:0:0:0:
430,333,161052,6,0,P|430:293|453:249,1,83.9999974365235,0|0,3:2|0:0,0:0:0:0:
512,127,161246,2,0,P|510:85|492:47,1,83.9999974365235,8|0,0:2|0:0,0:0:0:0:
331,33,161439,2,0,L|261:-6,2,55.9999982910157,0|0|0,3:2|0:2|0:0,0:0:0:0:
360,160,161633,2,0,L|258:112,1,83.9999974365235,8|0,0:2|0:0,0:0:0:0:
141,0,161826,6,0,P|167:39|159:101,1,83.9999974365235,0|0,3:2|0:0,0:0:0:0:
55,193,162020,1,8,0:2:0:0:
29,274,162117,1,8,0:2:0:0:
56,344,162213,1,8,0:2:0:0:
117,373,162310,1,8,0:3:0:0:
175,365,162407,1,8,0:3:0:0:
216,337,162504,1,0,1:0:0:0:
236,301,162600,6,0,L|209:199,1,90.0000034332277,4|0,3:2|0:0,0:0:0:0:
110,133,162891,2,0,P|150:150|191:136,1,90.0000034332277,0|0,1:0|0:0,0:0:0:0:
213,95,163182,1,0,1:0:0:0:
396,114,163376,2,0,P|333:105|282:198,1,180.000006866455,8|0,0:2|0:0,0:0:0:0:
442,241,163956,1,8,0:0:0:0:
442,241,164053,1,8,0:0:0:0:
414,315,164150,6,0,B|369:306|369:306|301:329,1,90.0000034332277,4|0,1:2|0:0,0:0:0:0:
251,364,164439,2,0,B|209:378|209:378|164:369,1,90.0000034332277,0|0,1:0|0:0,0:0:0:0:
92,314,164730,1,0,1:0:0:0:
148,192,164923,1,8,0:2:0:0:
262,262,165117,1,0,0:0:0:0:
231,271,165214,1,0,1:0:0:0:
200,278,165310,1,8,0:2:0:0:
118,107,165505,1,0,0:0:0:0:
240,86,165698,5,8,0:2:0:0:
264,15,165794,1,8,0:2:0:0:
241,170,165988,5,8,0:2:0:0:
265,99,166084,1,8,0:2:0:0:
191,238,166278,5,8,0:2:0:0:
215,167,166374,1,8,0:2:0:0:
192,323,166568,5,8,0:2:0:0:
216,252,166664,1,8,0:2:0:0:
232,55,166859,5,8,0:2:0:0:
264,139,166988,1,0,0:0:0:0:
304,224,167117,1,0,0:0:0:0:
335,212,167246,2,0,L|361:197,3,30.0000011444092,8|8|4|4,0:3|0:3|0:3|0:3,0:0:0:0:
466,330,167634,6,2,B|378:284|378:284|293:329|293:329|197:327|197:327|300:267,1,360.000013732911,4|0,0:2|0:0,0:1:0:0:
256,292,168794,1,4,1:2:0:0:
157,39,181181,5,4,0:2:0:0:
157,39,181568,1,0,0:0:0:0:
109,125,181762,1,0,3:0:0:0:
173,200,181956,1,0,0:0:0:0:
263,161,182149,1,0,3:0:0:0:
347,213,182343,2,0,P|356:266|328:321,1,90.0000034332277,0|0,0:0|3:0,0:0:0:0:
156,362,182730,5,0,0:0:0:0:
202,228,182923,1,0,3:0:0:0:
263,319,183117,1,0,0:0:0:0:
113,177,183310,1,0,3:0:0:0:
132,277,183504,1,0,0:0:0:0:
207,72,184278,5,4,0:3:0:0:
207,72,184665,2,0,L|238:195,1,90.0000034332277,0|0,0:0|3:0,0:0:0:0:
314,210,185052,1,0,0:0:0:0:
404,169,185246,1,0,3:0:0:0:
476,236,185439,2,0,L|445:345,1,90.0000034332277,0|0,0:0|3:0,0:0:0:0:
220,301,185827,5,0,0:0:0:0:
327,378,186020,1,0,3:0:0:0:
304,209,186214,1,0,0:0:0:0:
138,378,186407,1,0,3:0:0:0:
386,272,186601,1,0,0:0:0:0:
169,24,187375,5,4,1:2:0:0:
166,92,188923,5,0,1:0:0:0:
199,185,189117,1,0,0:0:0:0:
315,57,189310,1,0,0:0:0:0:
223,17,189504,1,0,1:0:0:0:
298,164,189698,1,8,0:2:0:0:
421,81,189891,5,8,0:2:0:0:
402,49,189988,1,8,0:2:0:0:
376,35,190085,1,8,0:2:0:0:
354,34,190182,1,8,0:2:0:0:
339,37,190279,1,8,0:2:0:0:
332,39,190376,1,8,0:2:0:0:
325,41,190472,5,8,0:2:0:0:
289,126,190568,1,8,0:2:0:0:
338,205,190665,1,8,0:2:0:0:
431,196,190762,1,8,0:2:0:0:
112,310,191052,5,8,0:2:0:0:
203,298,191148,1,8,0:2:0:0:
247,216,191245,1,8,0:2:0:0:
193,141,191342,1,8,0:2:0:0:
445,355,191633,5,8,0:2:0:0:
389,281,191729,1,0,0:0:0:0:
296,284,191826,1,8,0:3:0:0:
257,369,191923,1,0,0:0:0:0:
358,368,192020,6,0,L|324:178,1,179.999994506836,4|0,1:2|0:0,0:0:0:0:
321,167,193085,1,8,0:1:0:0:
318,140,193181,1,8,0:2:0:0:
313,109,193278,1,8,0:2:0:0:
307,75,193375,1,8,0:2:0:0:
300,37,193472,1,8,0:2:0:0:
300,37,193955,6,0,B|174:63,1,83.9999974365235,4|0,3:1|1:2,0:0:0:0:
63,169,194150,2,0,L|151:200,1,83.9999974365235,8|0,0:2|0:0,0:0:0:0:
374,332,194343,1,0,3:2:0:0:
282,348,194440,1,0,0:0:0:0:
244,263,194537,2,0,P|243:220|274:183,1,83.9999974365235,8|0,0:2|0:0,0:0:0:0:
451,59,194730,1,0,3:2:0:0:
489,143,194827,1,0,1:2:0:0:
452,227,194924,2,0,L|339:196,1,83.9999974365235,8|0,0:2|0:0,0:0:0:0:
168,119,195117,5,0,3:2:0:0:
126,128,195214,1,0,0:0:0:0:
57,200,195311,5,8,0:2:0:0:
97,209,195408,1,0,0:0:0:0:
174,280,195505,5,0,3:2:0:0:
132,289,195600,1,0,1:2:0:0:
63,363,195697,5,8,0:2:0:0:
105,372,195794,1,0,0:0:0:0:
178,304,195891,5,0,3:2:0:0:
174,280,195987,1,0,0:0:0:0:
108,220,196084,5,8,0:2:0:0:
112,196,196181,1,0,0:0:0:0:
193,162,196278,5,0,3:2:0:0:
189,138,196375,1,0,1:2:0:0:
126,74,196471,5,8,0:2:0:0:
212,41,196568,1,0,0:0:0:0:
297,94,196666,6,0,P|331:189|290:261,1,167.999994873047,0|8,3:2|0:2,0:0:0:0:
214,233,196956,1,0,0:0:0:0:
132,277,197053,2,0,P|118:315|132:361,1,83.9999974365235,0|0,3:2|1:2,0:0:0:0:
321,384,197246,2,0,L|417:353,1,83.9999974365235,8|0,0:2|0:0,0:0:0:0:
411,161,197440,5,0,3:2:0:0:
213,51,197634,1,8,0:2:0:0:
132,277,197827,5,0,3:2:0:0:
212,322,197924,1,0,1:2:0:0:
291,276,198021,2,0,P|295:236|281:193,1,83.9999974365235,8|0,0:2|0:0,0:0:0:0:
58,123,198214,5,0,3:2:0:0:
54,199,198311,1,0,0:0:0:0:
136,158,198407,5,8,0:2:0:0:
164,210,198504,1,0,0:0:0:0:
218,141,198601,5,0,3:2:0:0:
254,161,198698,1,0,1:2:0:0:
274,82,198794,5,8,0:2:0:0:
298,84,198891,1,0,0:0:0:0:
294,8,198988,5,4,3:2:0:0:
309,1,199085,1,0,0:0:0:0:
201,0,199182,5,8,0:2:0:0:
163,84,199279,1,8,0:2:0:0:
207,165,199376,5,8,0:2:0:0:
268,233,199472,1,8,0:2:0:0:
257,325,199569,1,8,0:2:0:0:
170,357,199666,1,8,0:2:0:0:
96,300,199763,5,4,3:2:0:0:
243,86,199956,1,8,0:2:0:0:
479,151,200150,5,0,3:2:0:0:
504,238,200246,1,0,1:2:0:0:
413,218,200343,2,0,P|361:210|312:250,1,83.9999974365235,8|0,0:2|0:0,0:0:0:0:
65,340,200537,5,0,3:2:0:0:
153,366,200634,1,0,0:0:0:0:
236,327,200730,2,0,P|245:285|194:235,1,83.9999974365235,8|0,0:2|0:0,0:0:0:0:
120,52,200924,5,0,3:2:0:0:
46,107,201021,1,0,1:2:0:0:
128,146,201117,2,0,L|248:147,1,83.9999974365235,8|0,0:2|0:0,0:0:0:0:
298,40,201311,5,0,3:2:0:0:
339,51,201408,1,0,0:0:0:0:
420,122,201505,5,8,0:2:0:0:
379,132,201600,1,0,0:0:0:0:
293,171,201697,5,0,3:2:0:0:
304,193,201794,1,0,1:2:0:0:
392,226,201891,5,8,0:2:0:0:
381,248,201987,1,0,0:0:0:0:
302,286,202084,5,0,3:2:0:0:
277,284,202181,1,0,0:0:0:0:
252,284,202278,1,8,0:2:0:0:
227,282,202375,1,0,0:0:0:0:
166,350,202472,5,0,3:2:0:0:
143,260,202569,1,0,1:2:0:0:
208,194,202666,1,8,0:2:0:0:
299,205,202763,1,0,0:0:0:0:
331,290,202859,5,0,3:2:0:0:
196,106,203053,1,8,0:2:0:0:
420,2,203246,2,0,L|381:124,1,83.9999974365235,0|0,3:2|1:2,0:0:0:0:
459,244,203440,2,0,P|425:221|381:229,1,83.9999974365235,8|0,0:2|0:0,0:0:0:0:
247,350,203634,5,0,3:2:0:0:
176,291,203730,1,0,0:0:0:0:
111,357,203827,1,8,0:2:0:0:
40,296,203924,1,0,0:0:0:0:
98,224,204021,5,0,3:2:0:0:
308,284,204214,1,8,0:2:0:0:
512,184,204407,6,0,P|467:164|422:178,1,83.9999974365235,0|0,3:2|0:0,0:0:0:0:
275,200,204601,2,0,P|314:171|325:125,1,83.9999974365235,8|0,0:2|0:0,0:0:0:0:
256,6,204794,1,0,3:2:0:0:
174,50,204891,1,0,1:2:0:0:
91,88,204988,2,0,L|98:219,1,83.9999974365235,8|0,0:2|0:0,0:0:0:0:
30,308,205181,2,0,P|62:288|120:302,1,83.9999974365235,0|0,3:2|0:0,0:0:0:0:
204,372,205375,5,8,0:2:0:0:
291,345,205471,1,8,0:2:0:0:
380,319,205568,1,8,0:2:0:0:
468,291,205665,1,8,0:2:0:0:
396,349,205762,1,8,0:2:0:0:
309,317,205858,1,8,0:2:0:0:
288,226,205955,6,0,P|296:172|342:142,1,83.9999974365235,4|0,3:1|0:0,0:0:0:0:
508,43,206149,2,0,L|376:32,1,83.9999974365235,8|0,0:0|0:0,0:0:0:0:
176,9,206342,1,0,3:2:0:0:
99,58,206439,1,0,1:2:0:0:
112,149,206536,2,0,P|146:168|203:159,1,83.9999974365235,8|0,0:2|0:0,0:0:0:0:
406,138,206730,5,0,3:2:0:0:
476,198,206827,1,0,0:0:0:0:
459,289,206924,2,0,L|376:303,1,83.9999974365235,8|0,0:2|0:0,0:0:0:0:
114,383,207116,1,0,3:2:0:0:
24,360,207213,1,0,1:2:0:0:
85,291,207310,2,0,P|146:288|191:332,1,83.9999974365235,8|0,0:2|0:0,0:0:0:0:
315,372,207504,5,0,3:2:0:0:
321,331,207600,1,0,0:0:0:0:
400,313,207697,5,8,0:2:0:0:
390,273,207793,1,0,0:0:0:0:
316,241,207891,5,0,3:2:0:0:
322,200,207987,1,0,1:2:0:0:
401,182,208084,5,8,0:2:0:0:
391,142,208180,1,0,0:0:0:0:
332,195,208278,5,0,3:2:0:0:
306,196,208375,1,0,0:0:0:0:
372,267,208471,5,8,0:2:0:0:
398,267,208568,1,0,0:0:0:0:
333,340,208665,5,0,3:2:0:0:
307,340,208762,1,0,1:2:0:0:
342,261,208858,5,8,0:2:0:0:
434,263,208955,1,0,0:0:0:0:
493,334,209052,6,0,P|530:263|466:183,1,167.999994873047,0|8,3:2|0:2,0:0:0:0:
404,155,209342,1,0,0:0:0:0:
314,178,209439,2,0,P|312:126|356:78,1,83.9999974365235,0|0,3:2|1:2,0:0:0:0:
184,4,209633,2,0,P|186:56|142:104,1,83.9999974365235,8|0,0:2|0:0,0:0:0:0:
0,176,209826,5,0,3:2:0:0:
75,382,210020,1,8,0:2:0:0:
320,317,210214,2,0,P|335:266|304:206,1,83.9999974365235,0|0,3:2|1:2,0:0:0:0:
168,81,210407,2,0,P|219:96|279:65,1,83.9999974365235,8|0,0:2|0:0,0:0:0:0:
419,0,210601,5,0,3:2:0:0:
448,71,210698,1,0,0:0:0:0:
351,92,210795,5,8,0:2:0:0:
358,151,210892,1,0,0:0:0:0:
264,184,210988,5,0,3:2:0:0:
258,226,211085,1,0,1:2:0:0:
164,260,211182,5,8,0:2:0:0:
155,284,211279,1,0,0:0:0:0:
67,298,211375,5,4,3:2:0:0:
52,310,211472,1,0,0:0:0:0:
2,233,211568,5,8,0:2:0:0:
87,198,211665,1,8,0:2:0:0:
166,246,211762,1,8,0:2:0:0:
254,222,211858,1,8,0:2:0:0:
335,266,211955,1,8,0:2:0:0:
421,233,212052,1,8,0:2:0:0:
472,310,212149,5,4,3:2:0:0:
425,274,212245,1,0,0:0:0:0:
413,216,212342,1,8,0:2:0:0:
432,160,212439,1,0,0:0:0:0:
502,112,212536,5,0,3:2:0:0:
464,92,212633,1,0,1:2:0:0:
425,21,212730,5,8,0:2:0:0:
387,41,212827,1,0,0:0:0:0:
302,39,212923,5,0,3:2:0:0:
322,76,213020,1,0,0:0:0:0:
325,117,213116,1,8,0:2:0:0:
310,156,213213,1,0,0:0:0:0:
249,210,213310,5,0,3:2:0:0:
218,180,213407,1,0,1:2:0:0:
142,215,213504,5,8,0:2:0:0:
111,185,213601,1,0,0:0:0:0:
27,231,213697,6,0,L|41:388,1,83.9999974365235,0|0,3:2|0:0,0:0:0:0:
216,384,213891,2,0,L|223:300,1,83.9999974365235,8|0,0:2|0:0,0:0:0:0:
409,267,214084,2,0,L|465:275,2,55.9999982910157,0|0|0,3:2|0:0|0:0,0:0:0:0:
356,154,214278,2,0,P|354:113|377:78,1,83.9999974365235,8|0,0:2|0:0,0:0:0:0:
311,226,214471,6,0,L|187:204,1,83.9999974365235,0|0,3:2|0:0,0:0:0:0:
59,180,214665,1,8,0:2:0:0:
33,99,214762,1,8,0:2:0:0:
60,29,214858,1,8,0:2:0:0:
121,0,214955,1,8,0:3:0:0:
179,8,215052,1,8,0:3:0:0:
220,36,215149,1,0,1:0:0:0:
233,78,215245,6,0,L|180:189,1,90.0000034332277,4|0,1:2|0:0,0:0:0:0:
103,284,215634,1,0,0:0:0:0:
260,253,215827,1,0,1:0:0:0:
375,355,216021,2,0,L|400:268,1,90.0000034332277,8|0,0:2|0:0,0:0:0:0:
431,151,216408,1,0,0:0:0:0:
359,14,216601,1,8,0:0:0:0:
332,8,216698,1,8,0:0:0:0:
304,4,216794,1,4,1:2:0:0:
213,138,216988,5,0,0:0:0:0:
356,104,217182,1,0,0:0:0:0:
228,45,217376,1,0,1:0:0:0:
297,190,217569,1,8,0:2:0:0:
83,170,217763,1,0,0:0:0:0:
91,209,217859,1,0,1:0:0:0:
102,247,217956,1,8,0:2:0:0:
202,161,218150,1,0,0:0:0:0:
226,303,218343,5,8,0:2:0:0:
155,327,218439,1,8,0:2:0:0:
300,359,218633,5,8,0:2:0:0:
229,335,218729,1,8,0:2:0:0:
398,320,218924,5,8,0:2:0:0:
327,344,219020,1,8,0:2:0:0:
472,376,219214,5,8,0:2:0:0:
401,352,219310,1,8,0:2:0:0:
203,355,219504,5,8,0:2:0:0:
280,338,219633,1,0,0:0:0:0:
311,266,219762,1,0,0:0:0:0:
297,234,219891,2,0,L|265:252,3,30.0000011444092,8|8|4|4,0:3|0:3|0:3|0:3,0:0:0:0:
380,37,220278,6,2,B|444:301|444:301|364:389,2,360,4|0|4,0:2|2:0|1:2,0:0:0:0:
119,70,224149,5,8,0:3:0:0:
119,70,224536,5,4,1:2:0:0:
166,53,224633,1,0,0:2:0:0:
214,67,224730,1,0,0:2:0:0:
270,135,224827,5,8,0:3:0:0:
317,152,224924,1,0,0:2:0:0:
365,138,225019,1,0,0:2:0:0:
429,43,225117,5,8,0:2:0:0:
449,119,225214,1,8,0:2:0:0:
471,194,225310,1,8,0:2:0:0:
512,271,225407,5,8,0:3:0:0:
499,316,225504,1,8,0:3:0:0:
486,361,225600,1,4,0:3:0:0:
413,313,225698,5,4,1:2:0:0:
363,311,225794,1,0,0:2:0:0:
319,336,225891,1,0,0:2:0:0:
221,372,225988,5,0,1:2:0:0:
247,329,226084,1,0,0:2:0:0:
248,279,226181,1,0,0:2:0:0:
162,226,226278,6,0,L|76:222,2,71.9999978027344,0|0|0,1:2|0:2|0:2,0:0:0:0:
251,169,226568,2,0,L|337:165,2,71.9999978027344,0|0|0,1:2|0:2|0:2,0:0:0:0:
167,142,226859,1,8,0:2:0:0:
149,71,226956,1,8,0:2:0:0:
182,16,227052,1,8,0:2:0:0:
237,0,227149,1,8,0:3:0:0:
285,15,227246,1,8,0:3:0:0:
315,45,227343,1,0,0:3:0:0:
409,5,227439,5,4,1:2:0:0:
428,51,227536,1,0,0:2:0:0:
410,98,227633,1,8,0:2:0:0:
321,138,227730,5,8,0:2:0:0:
302,184,227827,1,8,0:2:0:0:
320,231,227924,1,8,0:2:0:0:
400,290,228020,5,8,0:2:0:0:
345,324,228117,1,8,0:2:0:0:
280,314,228214,1,8,0:2:0:0:
196,384,228310,5,8,0:2:0:0:
171,316,228407,1,8,0:2:0:0:
194,247,228504,1,0,0:2:0:0:
278,177,228601,6,0,L|368:162,2,71.9999978027344,4|0|0,1:2|0:2|0:2,0:2:0:0:
223,106,228891,1,4,1:2:0:0:
143,92,228988,2,0,P|144:65|156:40,1,47.9999985351563
117,96,229117,2,0,P|98:71|95:43,1,47.9999985351563,0|4,0:0|1:2,0:0:0:0:
99,116,229246,2,0,P|66:110|50:89,1,47.9999985351563
100,150,229375,2,0,L|285:178,1,179.999994506836,8|4,0:1|0:3,0:0:0:0:
378,193,229956,5,8,0:2:0:0:
410,280,230052,1,8,0:2:0:0:
455,135,230149,1,8,0:2:0:0:
2,374,230730,6,0,P|72:354|157:372,1,83.9999974365235,4|0,3:1|0:0,0:0:0:0:
181,266,230923,2,0,P|251:286|336:268,1,83.9999974365235,8|0,0:2|0:0,0:0:0:0:
418,341,231117,1,0,3:2:0:0:
418,341,231214,1,0,1:2:0:0:
418,341,231310,2,0,L|399:226,1,83.9999974365235,8|0,0:2|0:0,0:0:0:0:
512,95,231504,5,0,3:2:0:0:
512,95,231601,1,0,0:0:0:0:
512,95,231698,2,0,L|483:235,1,83.9999974365235,8|0,0:2|0:0,0:0:0:0:
337,203,231891,1,0,3:2:0:0:
337,203,231988,1,0,1:2:0:0:
258,153,232085,1,8,0:2:0:0:
258,61,232181,1,0,0:0:0:0:
339,16,232278,6,0,P|392:14|437:49,1,83.9999974365235,0|0,3:2|0:0,0:0:0:0:
494,177,232472,2,0,P|510:211|463:278,1,83.9999974365235,8|0,0:2|0:0,0:0:0:0:
354,367,232665,1,0,3:2:0:0:
268,299,232762,1,0,1:2:0:0:
179,363,232859,2,0,L|84:292,1,83.9999974365235,8|0,0:2|0:0,0:0:0:0:
10,170,233052,5,0,3:2:0:0:
10,170,233149,1,0,0:0:0:0:
10,170,233246,2,0,P|55:177|124:133,1,83.9999974365235,8|0,0:2|0:0,0:0:0:0:
227,187,233439,1,0,3:2:0:0:
227,187,233536,1,0,1:2:0:0:
227,187,233633,1,8,0:2:0:0:
296,102,233730,1,0,0:0:0:0:
231,13,233827,6,0,L|135:-3,1,83.9999974365235,0|0,3:2|0:0,0:0:0:0:
13,172,234020,1,8,0:2:0:0:
111,149,234117,1,0,0:0:0:0:
82,245,234214,2,0,P|81:294|124:359,1,83.9999974365235,0|0,3:2|1:2,0:0:0:0:
321,383,234407,1,8,0:2:0:0:
367,303,234504,1,0,0:0:0:0:
275,300,234601,6,0,P|228:285|179:224,1,83.9999974365235,0|0,3:2|0:0,0:0:0:0:
137,10,234794,1,8,0:2:0:0:
102,86,234891,1,0,0:0:0:0:
185,77,234988,2,0,P|233:52|307:61,1,83.9999974365235,0|0,3:2|1:2,0:0:0:0:
482,0,235181,2,0,L|500:122,1,83.9999974365235,8|0,0:2|0:0,0:0:0:0:
512,247,235375,5,0,3:2:0:0:
422,224,235472,1,0,0:0:0:0:
331,206,235568,1,8,0:2:0:0:
248,247,235665,1,0,0:0:0:0:
260,338,235762,1,0,3:2:0:0:
350,358,235859,1,0,1:2:0:0:
403,281,235956,2,0,L|393:162,1,83.9999974365235,8|0,0:2|0:0,0:0:0:0:
448,72,236149,5,4,3:2:0:0:
360,102,236246,1,0,0:0:0:0:
273,68,236343,1,8,0:2:0:0:
182,85,236439,1,8,0:2:0:0:
146,170,236536,1,8,0:2:0:0:
206,239,236633,1,8,0:2:0:0:
159,318,236730,1,8,0:2:0:0:
69,298,236827,1,8,0:2:0:0:
61,205,236923,6,0,L|81:68,1,83.9999974365235,4|0,3:2|0:0,0:0:0:0:
235,100,237117,2,0,L|214:-13,1,83.9999974365235,8|0,0:2|0:0,0:0:0:0:
177,200,237310,1,0,3:2:0:0:
177,200,237407,1,0,1:2:0:0:
177,200,237504,6,0,L|286:205,1,83.9999974365235,8|0,0:2|0:0,0:0:0:0:
393,128,237698,2,0,L|533:141,1,83.9999974365235,0|0,3:2|0:0,0:0:0:0:
512,329,237891,5,8,0:2:0:0:
432,375,237988,1,0,0:0:0:0:
347,336,238085,2,0,P|335:299|360:234,1,83.9999974365235,0|0,3:2|1:2,0:0:0:0:
40,258,238278,5,8,0:2:0:0:
128,306,238375,1,0,0:0:0:0:
214,254,238472,2,0,P|226:217|201:152,1,83.9999974365235,0|0,3:2|0:0,0:0:0:0:
512,73,238665,5,8,0:2:0:0:
415,20,238762,1,0,0:0:0:0:
316,66,238859,2,0,P|304:103|329:168,1,83.9999974365235,0|0,3:2|1:2,0:0:0:0:
512,280,239052,6,0,P|475:268|410:293,1,83.9999974365235,8|0,0:2|0:0,0:0:0:0:
241,366,239246,2,0,P|204:378|139:353,1,83.9999974365235,0|0,3:2|0:0,0:0:0:0:
22,262,239439,5,8,0:2:0:0:
40,179,239536,1,8,0:2:0:0:
121,157,239633,1,8,0:2:0:0:
197,193,239730,1,8,0:3:0:0:
281,188,239827,1,8,0:3:0:0:
340,245,239923,1,4,0:3:0:0:
424,231,240020,5,8,0:2:0:0:
422,256,240117,1,8,0:2:0:0:
418,280,240214,1,8,0:2:0:0:
414,304,240310,1,8,0:2:0:0:
277,131,240601,5,8,0:2:0:0:
273,156,240698,1,8,0:2:0:0:
269,180,240794,1,8,0:2:0:0:
265,202,240891,2,0,L|346:194,3,45.0000017166138,8|2|2|4,0:2|0:1|0:1|0:1,0:0:0:0:
110,295,241568,5,8,0:2:0:0:
144,200,241665,1,8,0:2:0:0:
233,364,241956,1,0,1:0:0:0:
347,70,242343,5,8,0:2:0:0:
397,151,242439,1,8,0:2:0:0:
446,8,242730,1,4,0:3:0:0:
256,192,243117,5,4,1:1:0:0:
256,192,243214,12,0,246214,0:0:0:0:
