osu file format v14

[General]
AudioFilename: audio.mp3
AudioLeadIn: 0
PreviewTime: 13956
Countdown: 0
SampleSet: Soft
StackLeniency: 0.3
Mode: 0
LetterboxInBreaks: 0
WidescreenStoryboard: 1

[Editor]
Bookmarks: 41838,63504,75902,88278,103762,106859,128536,140923,168794,181181,192020,230730
DistanceSpacing: 0.3
BeatDivisor: 4
GridSize: 4
TimelineZoom: 3.499999

[Metadata]
Title:Natsuirozaka
TitleUnicode:懐色坂
Artist:VALLEYSTONE feat. Kanata.N
ArtistUnicode:VALLEYSTONE feat. かなたん
Creator:kwk
Version:Luscent's Extra
Source:
Tags:moph 404 AimNotFound Luscent Saturnalize -akito pop'n music うさぎと猫と少年の夢 kanatan
BeatmapID:1994839
BeatmapSetID:950550

[Difficulty]
HPDrainRate:5.4
CircleSize:3.8
OverallDifficulty:8.3
ApproachRate:9.5
SliderMultiplier:1.6
SliderTickRate:1

[Events]
//Background and Video events
0,0,"bg.jpg",0,0
//Break Periods
2,103962,105539
2,181181,182958
2,221639,222829
//Storyboard Layer 0 (Background)
//Storyboard Layer 1 (Fail)
//Storyboard Layer 2 (Pass)
//Storyboard Layer 3 (Foreground)
//Storyboard Layer 4 (Overlay)
//Storyboard Sound Samples

[TimingPoints]
1569,387.096774193548,4,2,69,50,1,0
1569,-100,4,2,69,50,0,0
13956,389.61038961039,4,2,69,60,1,0
13956,-100,4,2,69,60,0,0
14294,-100,4,2,69,5,0,0
14391,-100,4,2,69,60,0,0
14735,405.405405405405,4,2,69,60,1,0
14735,-125,4,2,69,60,0,0
14875,-125,4,2,69,5,0,0
14972,-125,4,2,69,60,0,0
15117,-125,4,2,69,5,0,0
15310,-125,4,2,69,60,0,0
15545,382.165605095541,4,2,69,60,1,0
16230,-125,4,2,69,5,0,0
16327,-125,4,2,69,60,0,0
17073,394.736842105263,4,2,69,60,1,0
17391,-100,4,2,69,5,0,0
17488,-100,4,2,69,60,0,0
17862,379.746835443038,4,2,69,60,1,0
17862,-125,4,2,69,60,0,0
17972,-125,4,2,69,5,0,0
18068,-125,4,2,69,60,0,0
18310,-125,4,2,69,5,0,0
18407,-125,4,2,69,60,0,0
18621,387.096774193548,4,2,69,60,1,0
19133,-125,4,2,69,50,0,0
19230,-125,4,2,69,60,0,0
20149,-100,4,2,69,60,0,0
20169,387.722132471729,4,2,69,60,1,0
20488,-100,4,2,69,5,0,0
20585,-100,4,2,69,60,0,0
20944,404.040404040404,4,2,69,60,1,0
20944,-125,4,2,69,60,0,0
21068,-125,4,2,69,5,0,0
21165,-125,4,2,69,60,0,0
21407,-125,4,2,69,5,0,0
21504,-125,4,2,69,60,0,0
21752,370.37037037037,4,2,69,50,1,0
22230,-125,4,2,69,60,0,0
22327,-125,4,2,69,75,0,0
22859,387.096774193548,4,2,69,50,1,0
23246,387.096774193548,4,2,69,75,1,0
23246,-100,4,2,69,75,0,0
24020,-125,4,2,69,60,0,0
25375,-100,4,2,69,60,0,0
25762,-100,4,2,53,75,0,0
25956,-100,4,2,53,75,0,0
26343,-100,4,2,53,75,0,0
28278,-100,4,2,53,75,0,0
29439,-45.4545454545455,4,2,53,75,0,0
39601,-100,4,2,53,75,0,0
39698,-100,4,2,69,75,0,0
40085,-100,4,2,53,75,0,0
41827,-83.3333333333333,4,2,53,75,0,0
42214,-83.3333333333333,4,2,53,65,0,0
63504,-83.3333333333333,4,2,53,75,0,0
63601,-83.3333333333333,4,2,42,75,0,0
69698,-133.333333333333,4,2,53,75,0,0
71149,-133.333333333333,4,2,53,5,0,0
71246,-133.333333333333,4,2,53,75,0,0
75891,-45.4545454545455,4,2,53,85,0,1
97568,-133.333333333333,4,2,53,65,0,0
98343,-100,4,2,53,65,0,0
102601,-100,4,1,53,75,0,0
103568,-100,4,2,53,75,0,0
103762,-45.4545454545455,4,2,53,75,0,0
106859,-55.5555555555556,4,2,53,65,0,0
108214,-74.0740740740741,4,2,53,65,0,0
119246,-50,4,2,53,65,0,0
126794,-66.6666666666667,4,2,53,65,0,0
128536,-83.3333333333333,4,2,53,75,0,0
128633,-83.3333333333333,4,2,42,75,0,0
134730,-125,4,2,53,75,0,0
140923,-45.4545454545455,4,2,53,85,0,1
162600,-125,4,2,53,65,0,0
163375,-100,4,2,53,65,0,0
168359,-100,4,2,53,75,0,0
168456,-100,4,2,53,75,0,0
175085,-100,4,2,42,75,0,0
179633,-80,4,2,42,75,0,0
180698,-80,4,2,53,75,0,0
181375,-80,4,2,69,80,0,0
187278,-80,4,2,53,75,0,0
187375,-100,4,2,53,75,0,0
188730,-100,4,2,53,5,0,0
188923,-100,4,2,53,75,0,0
189891,-100,4,2,53,75,0,0
192020,-250,4,2,53,75,0,0
192988,-71.4285714285714,4,2,53,75,0,0
193568,-133.333333333333,4,2,53,75,0,0
193859,-133.333333333333,4,2,53,75,0,0
193955,-41.6666666666667,4,2,53,85,0,1
203633,-41.6666666666667,4,2,53,85,0,1
205375,-41.6666666666667,4,2,53,85,0,1
215245,-90.9090909090909,4,2,53,65,0,0
220278,-142.857142857143,4,1,53,75,0,0
221246,-142.857142857143,4,2,53,75,0,0
224052,-142.857142857143,4,2,69,75,0,0
224246,-142.857142857143,4,2,53,75,0,0
224536,-100,4,2,53,85,0,0
226278,-71.4285714285714,4,2,53,85,0,0
227439,-62.5,4,2,53,85,0,0
229375,-41.6666666666667,4,2,53,85,0,0
233827,-55.5555555555556,4,2,53,95,0,0
235375,-41.6666666666667,4,2,53,95,0,0
240891,-71.4285714285714,4,2,53,85,0,0
240988,-71.4285714285714,4,2,69,100,0,0
241278,-71.4285714285714,4,2,53,100,0,0
245827,-45.4545454545455,4,2,53,5,0,0
246117,-100,4,2,53,5,0,0

[Colours]
Combo1 : 255,255,166
Combo2 : 255,128,128
Combo3 : 0,255,255
Combo4 : 0,255,128

[HitObjects]
93,125,13956,6,0,B|59:115|75:170|123:135|123:135|165:119|203:134,1,160,12|0,0:3|0:0,0:0:0:0:
198,295,14540,1,0,0:0:0:0:
284,116,14735,2,0,B|309:86|301:32|260:31|260:31|247:60|274:106,1,160,2|0,0:2|0:0,0:0:0:0:
249,190,15310,5,0,0:0:0:0:
328,216,15545,1,4,0:3:0:0:
328,216,15736,1,0,0:0:0:0:
408,196,15927,1,0,0:0:0:0:
460,131,16118,1,0,0:0:0:0:
445,212,16500,5,0,0:0:0:0:
427,293,16691,1,0,0:0:0:0:
468,364,16882,1,0,0:0:0:0:
342,260,17073,6,0,B|308:278|266:260|266:260|225:241|188:259,1,160,2|0,0:2|0:0,0:0:0:0:
87,315,17665,1,0,0:0:0:0:
248,177,17862,2,0,B|272:112|238:81|238:81|212:116|244:153,1,160
140,202,18431,5,0,0:0:0:0:
30,81,18621,1,4,0:3:0:0:
103,43,18814,1,0,0:0:0:0:
171,90,19008,1,0,0:0:0:0:
250,67,19201,1,4,0:3:0:0:
250,67,19588,5,0,0:0:0:0:
335,95,19782,1,0,0:0:0:0:
423,79,19975,1,0,0:0:0:0:
497,235,20169,6,0,P|423:266|330:245,1,160,4|0,0:3|0:0,0:0:0:0:
288,126,20750,1,0,0:0:0:0:
201,229,20944,2,0,B|165:279|193:328|193:328|226:296|219:277,1,160,2|0,0:2|0:0,0:0:0:0:
215,153,21550,5,0,0:0:0:0:
139,187,21752,1,4,0:3:0:0:
139,187,21937,1,0,0:0:0:0:
55,189,22122,1,0,0:0:0:0:
0,126,22307,1,4,0:3:0:0:
0,126,22859,5,0,0:0:0:0:
82,92,23052,1,0,0:0:0:0:
172,121,23246,6,0,B|276:140|240:88|356:115,1,160,8|0,0:3|0:0,0:0:0:0:
472,129,23827,1,0,0:0:0:0:
343,269,24020,2,0,P|260:226|359:211,1,256,0|4,0:0|0:3,0:0:0:0:
425,259,24988,1,0,0:0:0:0:
504,235,25181,1,0,0:0:0:0:
349,357,25375,6,0,B|237:368|282:325|149:352,1,160,0|2,0:0|0:3,0:0:0:0:
63,359,25956,1,0,1:0:0:0:
63,359,26149,1,0,0:0:0:0:
113,132,26343,5,8,0:2:0:0:
85,202,26439,1,8,0:2:0:0:
218,275,26633,5,8,0:2:0:0:
190,205,26729,1,8,0:2:0:0:
325,135,26923,5,8,0:2:0:0:
297,205,27019,1,8,0:2:0:0:
430,278,27213,5,8,0:2:0:0:
402,208,27309,1,8,0:2:0:0:
245,373,27504,5,8,0:2:0:0:
329,263,27633,5,0,0:0:0:0:
228,141,27762,5,0,0:0:0:0:
154,141,27891,6,0,L|163:94,3,26.6666666666667,4|0|0|0,0:3|0:0|0:0|0:0,0:0:0:0:
78,213,28278,6,2,B|147:255|227:213|227:213|305:172|384:179|423:224,1,360,12|0,0:0|0:0,0:1:0:0:
418,273,29246,1,2,0:2:0:0:
387,299,29343,1,2,0:2:0:0:
309,268,29439,6,0,P|269:290|199:293,1,88.000002685547,4|0,3:1|0:0,0:0:0:0:
59,245,29633,2,0,P|54:297|70:343,1,88.000002685547,10|0,0:0|0:0,0:0:0:0:
306,187,29827,1,2,3:2:0:0:
306,187,29923,2,0,P|313:127|298:79,1,88.000002685547,2|8,1:2|0:2,0:0:0:0:
39,37,30117,2,0,B|176:60|101:7|267:46,1,176.000005371094,2|2,0:2|0:2,0:0:0:0:
392,105,30407,2,0,P|380:44|358:14,1,88.000002685547,8|0,0:2|0:0,0:0:0:0:
234,152,30601,1,2,3:2:0:0:
171,110,30698,1,2,1:2:0:0:
104,142,30794,1,10,0:2:0:0:
99,217,30891,1,0,0:0:0:0:
161,259,30988,6,0,P|232:242|287:217,1,88.000002685547,2|0,3:2|0:0,0:0:0:0:
17,301,31181,2,0,P|37:371|65:424,1,88.000002685547,10|0,0:2|0:0,0:0:0:0:
288,297,31375,1,2,3:2:0:0:
364,319,31472,2,0,L|203:354,1,88.000002685547,2|8,1:2|0:2,0:0:0:0:
102,320,31665,6,0,B|84:189|143:260|129:90,1,176.000005371094,2|2,0:2|0:2,0:0:0:0:
13,44,31956,2,0,P|33:97|77:126,1,88.000002685547,8|0,0:2|0:0,0:0:0:0:
212,172,32149,1,2,3:2:0:0:
286,144,32246,1,2,1:2:0:0:
341,86,32343,2,0,P|344:33|330:-15,1,88.000002685547,10|0,0:2|0:0,0:0:0:0:
272,220,32536,5,2,3:2:0:0:
465,258,32730,5,10,0:2:0:0:
451,286,32827,1,2,0:2:0:0:
419,314,32923,1,2,3:2:0:0:
368,329,33020,1,2,1:2:0:0:
306,312,33117,1,10,0:2:0:0:
63,230,33310,5,2,3:2:0:0:
212,364,33504,5,10,0:2:0:0:
229,329,33601,1,2,0:2:0:0:
233,281,33698,1,2,3:2:0:0:
220,224,33794,1,2,1:2:0:0:
167,177,33891,1,10,0:2:0:0:
8,113,34085,6,0,P|61:129|115:120,1,88.000002685547,2|0,3:2|0:0,0:0:0:0:
297,82,34278,1,10,0:2:0:0:
297,82,34342,1,2,0:2:0:0:
297,82,34407,1,2,0:2:0:0:
297,82,34472,2,0,P|311:139|292:191,1,88.000002685547,2|0,3:2|1:2,0:0:0:0:
103,291,34665,2,0,P|89:234|108:182,1,88.000002685547,10|0,0:2|0:0,0:0:0:0:
419,201,34859,5,6,3:2:0:0:
253,384,35052,5,10,0:2:0:0:
277,347,35149,1,8,0:2:0:0:
247,313,35246,1,10,0:2:0:0:
271,276,35343,1,8,0:2:0:0:
249,238,35439,1,10,0:2:0:0:
273,201,35536,1,8,0:2:0:0:
247,164,35633,6,0,P|181:153|132:152,1,88.000002685547,6|0,3:2|0:0,0:0:0:0:
406,134,35827,2,0,P|472:145|521:146,1,88.000002685547,10|0,0:2|0:0,0:0:0:0:
289,0,36020,1,2,3:2:0:0:
289,0,36117,2,0,P|271:51|275:105,1,88.000002685547,2|8,1:2|0:2,0:0:0:0:
113,269,36310,2,0,P|45:270|2:174,1,176.000005371094,2|2,0:2|0:2,0:0:0:0:
136,172,36601,2,0,B|198:162|170:185|253:171,1,88.000002685547,8|0,0:2|0:0,0:0:0:0:
357,223,36794,1,2,3:2:0:0:
395,186,36891,1,2,1:2:0:0:
406,134,36988,2,0,P|403:90|376:38,1,88.000002685547,10|0,0:2|0:0,0:0:0:0:
206,256,37181,6,0,P|208:302|223:358,1,88.000002685547,2|0,3:2|0:0,0:0:0:0:
456,379,37375,2,0,B|467:337|469:292,1,88.000002685547,10|0,0:2|0:0,0:0:0:0:
465,121,37568,1,2,3:2:0:0:
465,121,37665,2,0,B|417:129|417:129|338:127,1,88.000002685547,2|8,1:2|0:2,0:0:0:0:
215,75,37859,2,0,B|98:64|153:106|19:94,1,176.000005371094,2|2,0:2|0:2,0:0:0:0:
269,140,38149,2,0,P|299:85|292:30,2,88.000002685547,8|8|8,0:2|0:2|0:2,0:0:0:0:
140,194,38439,1,8,0:3:0:0:
140,194,38536,2,0,L|159:302,1,88.000002685547,8|4,0:3|0:3,0:0:0:0:
206,351,38730,5,8,0:2:0:0:
255,332,38827,1,8,0:2:0:0:
305,345,38923,1,8,0:2:0:0:
356,332,39020,1,8,0:2:0:0:
475,253,39310,5,8,0:2:0:0:
456,203,39407,1,8,0:2:0:0:
442,151,39504,1,8,0:2:0:0:
472,106,39601,2,0,L|487:54,2,40,8|2|2,0:1|0:1|0:1,0:0:0:0:
418,35,39891,5,4,0:1:0:0:
220,139,40278,5,8,0:2:0:0:
138,121,40375,1,8,0:2:0:0:
302,311,40665,5,0,1:0:0:0:
220,139,41052,5,8,0:2:0:0:
138,157,41149,1,8,0:2:0:0:
390,326,41439,5,4,0:3:0:0:
110,382,41827,6,0,P|101:331|121:269,1,95.9999970703126,4|0,1:2|0:0,0:0:0:0:
252,209,42117,1,0,0:0:0:0:
265,223,42214,2,0,P|224:232|152:218,1,95.9999970703126,8|0,0:2|1:2,0:0:0:0:
102,186,42504,1,8,0:1:0:0:
80,175,42601,1,0,0:0:0:0:
55,173,42698,1,8,0:1:0:0:
32,181,42794,1,0,1:0:0:0:
174,41,42988,5,0,0:0:0:0:
300,121,43181,2,0,B|417:140|363:79|489:95,1,191.999994140625,8|0,0:2|1:0,0:0:0:0:
191,225,43762,2,0,P|182:164|205:110,1,95.9999970703126,8|0,0:2|1:0,0:0:0:0:
340,209,44149,1,0,1:0:0:0:
323,259,44246,1,0,1:0:0:0:
307,309,44343,1,0,1:0:0:0:
507,253,44536,1,8,0:2:0:0:
217,316,44730,1,0,1:0:0:0:
208,327,44827,1,0,0:0:0:0:
199,338,44923,6,0,P|117:336|62:342,1,95.9999970703126,4|0,1:2|0:0,0:0:0:0:
15,148,45310,1,8,0:2:0:0:
133,264,45504,1,0,1:2:0:0:
141,221,45601,1,8,0:1:0:0:
149,178,45698,1,0,0:0:0:0:
157,136,45794,1,8,0:0:0:0:
165,93,45891,1,0,1:0:0:0:
311,239,46085,1,0,0:0:0:0:
462,35,46278,6,0,P|385:27|256:34,1,191.999994140625,8|0,0:2|1:0,0:0:0:0:
71,34,46859,2,0,P|104:82|166:110,1,95.9999970703126,8|0,0:2|0:0,0:0:0:0:
241,131,47149,1,0,1:0:0:0:
241,131,47246,1,0,1:0:0:0:
233,174,47343,1,0,0:0:0:0:
225,216,47439,2,0,P|299:214|357:204,1,95.9999970703126,0|8,0:0|0:2,0:0:0:0:
376,229,47730,1,0,0:0:0:0:
400,281,47827,1,0,1:0:0:0:
382,342,47923,1,0,0:0:0:0:
382,342,48020,6,0,P|312:353|269:355,1,95.9999970703126,4|0,1:2|0:0,0:0:0:0:
32,317,48407,1,8,0:2:0:0:
205,340,48601,1,0,1:2:0:0:
191,288,48698,1,8,0:0:0:0:
150,254,48794,1,0,0:2:0:0:
136,202,48891,1,8,0:0:0:0:
150,151,48988,1,0,1:0:0:0:
250,52,49181,1,0,0:0:0:0:
419,121,49375,6,0,L|209:148,1,191.999994140625,8|0,0:2|1:0,0:0:0:0:
281,337,49956,1,8,0:2:0:0:
336,208,50149,1,0,1:0:0:0:
475,171,50343,1,0,1:0:0:0:
493,132,50439,1,0,1:0:0:0:
487,89,50536,2,0,P|480:52|457:16,1,47.9999985351563,0|0,1:2|0:0,0:0:0:0:
384,40,50730,2,0,P|320:38|249:45,1,95.9999970703126,8|0,0:2|1:0,0:0:0:0:
153,86,51020,1,0,0:0:0:0:
153,86,51117,6,0,P|147:172|155:260,1,143.999995605469,4|0,1:2|0:0,0:0:0:0:
130,359,51504,1,8,0:2:0:0:
227,274,51698,1,0,1:2:0:0:
273,265,51794,1,8,0:1:0:0:
320,256,51891,1,0,0:0:0:0:
367,247,51988,1,8,0:1:0:0:
414,238,52085,1,0,1:0:0:0:
233,183,52278,1,0,0:0:0:0:
478,188,52472,6,0,P|480:285|387:312,1,191.999994140625,8|0,0:2|1:0,0:0:0:0:
263,355,53052,1,8,0:2:0:0:
107,291,53246,1,0,1:0:0:0:
107,291,53343,1,0,1:0:0:0:
107,291,53439,2,0,P|40:266|-14:276,1,95.9999970703126,0|8,1:0|0:2,0:0:0:0:
102,151,53827,5,8,0:2:0:0:
154,182,53923,1,0,0:0:0:0:
215,168,54020,1,8,0:2:0:0:
248,115,54117,1,8,0:2:0:0:
233,54,54214,6,0,P|176:35|44:59,1,191.999994140625,4|8,3:2|0:2,0:0:0:0:
32,192,54794,1,0,1:2:0:0:
32,192,54891,1,8,0:1:0:0:
32,192,54988,1,0,0:0:0:0:
176,340,55181,1,0,1:0:0:0:
86,249,55375,1,0,0:0:0:0:
307,149,55568,6,0,P|320:240|305:344,1,191.999994140625,8|0,0:2|1:0,0:0:0:0:
87,321,56149,1,8,0:2:0:0:
220,265,56343,1,0,0:0:0:0:
390,324,56536,1,0,1:0:0:0:
397,332,56633,1,0,0:0:0:0:
404,341,56730,2,0,P|411:283|406:245,1,95.9999970703126,0|8,1:2|0:2,0:0:0:0:
149,72,57117,1,0,0:0:0:0:
126,114,57214,1,0,0:0:0:0:
103,156,57310,6,0,P|195:144|300:161,1,191.999994140625,4|8,1:2|0:2,0:0:0:0:
480,225,57891,1,0,1:0:0:0:
512,189,57988,1,8,0:1:0:0:
496,143,58085,1,0,0:0:0:0:
449,133,58181,1,8,0:1:0:0:
417,168,58278,1,0,1:0:0:0:
339,301,58472,1,0,0:0:0:0:
214,266,58665,6,0,B|104:243|158:279|66:258,1,143.999995605469,8|0,0:2|0:0,0:0:0:0:
21,281,59052,5,0,1:0:0:0:
19,252,59149,1,0,0:0:0:0:
18,224,59246,1,8,0:2:0:0:
30,198,59343,1,0,0:0:0:0:
28,169,59440,1,0,0:0:0:0:
27,141,59537,1,0,0:0:0:0:
2,106,59633,6,0,P|66:113|133:91,1,95.9999970703126,0|0,1:0|1:2,0:0:0:0:
167,76,59923,1,0,0:0:0:0:
237,46,60020,2,0,P|302:35|372:53,1,95.9999970703126,8|0,0:2|0:0,0:0:0:0:
351,242,60407,6,0,B|311:286|311:286|334:118,1,191.999994140625,4|8,1:2|0:2,0:0:0:0:
457,137,60988,1,0,1:2:0:0:
457,137,61085,1,0,0:0:0:0:
457,137,61181,2,0,P|469:72|459:37,1,95.9999970703126,0|0,0:0|1:0,0:0:0:0:
397,341,61568,1,0,0:0:0:0:
255,158,61762,2,0,B|120:135|191:183|58:157,1,191.999994140625,8|0,0:2|1:0,0:0:0:0:
10,248,62343,5,8,0:2:0:0:
304,102,62536,1,0,0:0:0:0:
308,99,62633,1,0,1:0:0:0:
312,96,62730,2,0,P|337:161|319:218,1,95.9999970703126,8|0,0:2|0:0,0:0:0:0:
369,331,63117,1,8,0:2:0:0:
329,348,63214,1,0,0:0:0:0:
286,344,63310,1,8,0:2:0:0:
248,321,63407,1,8,0:2:0:0:
205,313,63504,6,0,B|143:301|175:325|85:310,1,95.9999970703126,4|4,3:2|0:2,0:0:0:0:
84,326,63794,1,8,0:1:0:0:
137,239,63891,2,0,P|150:170|129:108,1,95.9999970703126,0|12,3:2|0:2,0:0:0:0:
49,55,64278,6,0,B|34:67|34:67|77:58|56:76|111:62,1,95.9999970703126,0|4,3:2|0:2,0:0:0:0:
134,48,64568,1,8,0:1:0:0:
239,37,64665,2,0,P|249:83|242:130,1,95.9999970703126,4|12,3:2|0:2,0:0:0:0:
485,184,65052,6,4,P|411:185|360:210,1,95.9999970703126,0|4,3:2|0:2,0:2:0:0:
297,223,65343,1,8,0:1:0:0:
344,254,65439,1,0,3:0:0:0:
376,372,65633,1,12,0:2:0:0:
196,365,65827,5,0,3:2:0:0:
196,365,65923,2,0,P|182:313|114:281,1,95.9999970703126,0|8,0:0|0:1,0:0:0:0:
0,258,66214,2,0,L|16:212,1,47.9999985351563,4|0,1:2|0:0,0:0:0:0:
182,161,66407,2,0,L|158:228,1,47.9999985351563,12|0,0:2|0:0,0:0:0:0:
65,343,66601,6,0,L|87:237,1,95.9999970703126,0|4,3:2|0:2,0:0:0:0:
92,223,66891,1,8,0:1:0:0:
15,139,66988,2,0,B|74:160|58:124|142:148,1,95.9999970703126,0|12,1:0|0:2,0:0:0:0:
265,107,67375,6,0,B|331:89|298:119|376:99,1,95.9999970703126,0|4,3:2|0:2,0:0:0:0:
377,116,67665,1,8,0:1:0:0:
483,146,67762,2,0,P|450:196|401:207,1,95.9999970703126,4|12,3:2|0:2,0:0:0:0:
169,201,68149,6,0,B|212:253|216:213|275:284,1,95.9999970703126,0|4,3:2|0:2,0:0:0:0:
350,271,68439,1,8,0:1:0:0:
298,296,68536,1,0,3:1:0:0:
161,384,68730,1,12,0:2:0:0:
486,364,68923,5,0,3:2:0:0:
486,364,69020,2,0,L|365:341,1,95.9999970703126,0|8,0:0|0:1,0:0:0:0:
311,371,69310,5,4,1:2:0:0:
121,185,69504,1,12,0:2:0:0:
371,204,69698,6,0,B|264:220|298:194|212:210|212:210|179:222|165:260|190:292|239:290|255:259|257:237|257:237|252:164|196:108,1,450.000017166138,4|0,3:2|0:0,0:0:0:0:
127,90,71246,5,0,1:0:0:0:
127,90,71439,1,0,1:0:0:0:
77,179,71633,1,0,1:0:0:0:
139,295,71827,1,0,1:0:0:0:
282,334,72020,1,8,1:2:0:0:
397,83,72214,5,8,0:2:0:0:
318,65,72310,1,8,0:2:0:0:
248,93,72407,1,8,0:2:0:0:
229,159,72504,1,8,0:2:0:0:
260,213,72601,1,8,0:2:0:0:
309,241,72698,1,8,0:2:0:0:
260,262,72794,5,8,0:2:0:0:
225,255,72891,1,8,0:2:0:0:
190,249,72988,1,8,0:2:0:0:
155,243,73085,1,8,0:2:0:0:
335,329,73375,5,8,0:2:0:0:
384,336,73472,1,8,0:2:0:0:
434,346,73569,1,8,0:2:0:0:
483,356,73666,1,8,0:2:0:0:
217,327,73956,5,8,0:2:0:0:
418,218,74085,5,0,1:0:0:0:
360,374,74214,5,0,0:0:0:0:
508,162,74343,5,4,1:2:0:0:
491,140,74439,1,8,0:1:0:0:
465,122,74536,1,8,0:1:0:0:
434,105,74633,1,8,0:1:0:0:
398,92,74730,1,8,0:1:0:0:
357,87,74827,1,8,0:1:0:0:
311,95,74923,1,8,0:1:0:0:
266,119,75020,1,8,0:2:0:0:
231,162,75117,1,8,0:2:0:0:
178,186,75214,1,8,0:2:0:0:
115,182,75310,1,8,0:2:0:0:
73,129,75407,1,8,0:2:0:0:
78,256,75891,6,0,P|151:281|260:245,1,176.000005371094,4|8,3:1|0:2,0:0:0:0:
324,221,76181,1,0,0:0:0:0:
407,250,76278,2,0,P|408:311|391:353,1,88.0000026855469,0|0,3:2|1:2,0:0:0:0:
182,110,76472,2,0,P|181:49|198:7,1,88.0000026855469,8|0,0:2|0:0,0:0:0:0:
381,69,76665,5,0,3:2:0:0:
449,126,76762,1,0,0:0:0:0:
366,154,76859,2,0,P|310:155|253:143,1,88.000002685547,8|0,0:2|0:0,0:0:0:0:
51,148,77052,1,0,3:2:0:0:
259,273,77246,1,8,0:2:0:0:
192,217,77343,1,0,0:0:0:0:
176,303,77439,6,0,P|206:339|249:360,1,88.0000026855469,0|0,3:2|0:0,0:0:0:0:
162,137,77633,2,0,P|126:167|105:210,1,88.0000026855469,8|0,0:2|0:0,0:0:0:0:
293,87,77827,2,0,P|263:51|220:30,1,88.0000026855469,0|0,3:2|1:0,0:0:0:0:
384,217,78020,2,0,P|420:186|441:144,1,88.0000026855469,8|0,0:2|0:0,0:0:0:0:
259,273,78214,5,0,3:2:0:0:
305,220,78310,1,0,0:0:0:0:
326,153,78407,1,8,0:2:0:0:
316,84,78504,1,0,0:0:0:0:
278,24,78601,2,0,L|163:9,1,88.000002685547,0|0,3:2|1:2,0:0:0:0:
425,134,78794,2,0,L|512:145,1,88.000002685547,8|0,0:2|0:0,0:0:0:0:
103,71,78988,6,0,B|96:116|139:139|139:139|182:162|180:217,1,176.000005371094,0|8,3:2|0:2,0:0:0:0:
175,304,79278,1,0,0:0:0:0:
243,359,79375,2,0,P|301:367|357:334,1,88.000002685547,0|0,3:2|1:2,0:0:0:0:
23,196,79568,2,0,P|15:250|34:305,1,88.000002685547,8|0,0:2|0:0,0:0:0:0:
254,166,79762,5,0,3:2:0:0:
324,218,79859,1,0,0:0:0:0:
243,253,79956,2,0,P|197:274|150:289,1,88.000002685547,8|0,0:2|0:0,0:0:0:0:
80,139,80149,1,0,3:2:0:0:
337,142,80343,1,8,0:2:0:0:
404,198,80440,1,0,0:0:0:0:
420,112,80536,6,0,P|390:76|347:55,1,88.0000026855469,0|0,3:2|0:0,0:0:0:0:
441,277,80730,2,0,P|477:247|498:204,1,88.0000026855469,8|0,0:2|0:0,0:0:0:0:
286,323,80923,2,0,P|316:359|359:380,1,88.0000026855469,0|0,3:2|1:0,0:0:0:0:
206,201,81117,2,0,P|170:231|149:274,1,88.0000026855469,8|0,0:2|0:0,0:0:0:0:
99,136,81310,5,4,3:2:0:0:
144,172,81406,1,0,0:0:0:0:
200,184,81503,1,8,0:2:0:0:
256,169,81600,1,8,0:2:0:0:
306,118,81698,5,8,0:2:0:0:
322,185,81794,1,8,0:2:0:0:
298,250,81891,1,8,0:2:0:0:
244,294,81988,1,8,0:2:0:0:
173,288,82085,6,0,B|49:306|104:258|-16:288,1,176.000005371094,4|8,3:2|0:2,0:0:0:0:
307,355,82375,1,0,0:0:0:0:
378,320,82472,2,0,P|404:273|403:216,1,88.000002685547,0|0,3:2|1:2,0:0:0:0:
155,130,82665,2,0,P|128:176|129:233,1,88.000002685547,8|0,0:2|0:0,0:0:0:0:
306,118,82859,5,0,3:2:0:0:
281,193,82956,1,0,0:0:0:0:
358,176,83052,2,0,B|411:157|402:173|457:154,1,88.000002685547,8|0,0:2|0:0,0:0:0:0:
222,338,83246,2,0,P|175:345|118:335,1,88.000002685547,0|0,3:2|1:2,0:0:0:0:
486,259,83439,2,0,P|479:302|456:339,1,88.000002685547,8|0,0:2|0:0,0:0:0:0:
323,253,83633,5,0,3:2:0:0:
240,268,83730,1,0,0:0:0:0:
170,238,83827,1,8,0:2:0:0:
149,176,83923,1,0,0:0:0:0:
165,122,84020,1,0,3:2:0:0:
196,87,84117,1,0,1:2:0:0:
232,77,84214,1,8,0:2:0:0:
259,81,84310,1,0,0:0:0:0:
315,136,84407,5,0,3:2:0:0:
248,158,84504,1,0,0:0:0:0:
180,136,84601,1,8,0:2:0:0:
114,162,84698,1,0,0:0:0:0:
89,236,84794,5,0,3:2:0:0:
111,312,84891,1,0,1:2:0:0:
172,362,84988,1,8,0:2:0:0:
251,359,85085,1,0,0:0:0:0:
319,321,85181,6,0,B|430:285|387:345|501:312,1,176.000005371094,0|8,3:2|0:2,0:0:0:0:
234,222,85472,1,0,0:0:0:0:
182,281,85568,2,0,P|174:341|185:376,1,88.000002685547,0|0,3:2|1:2,0:0:0:0:
511,245,85762,2,0,P|519:185|508:150,1,88.000002685547,8|0,0:2|0:0,0:0:0:0:
403,186,85956,5,0,3:2:0:0:
387,178,86052,1,0,0:0:0:0:
323,129,86149,1,8,0:2:0:0:
327,112,86245,1,0,0:0:0:0:
403,86,86343,2,0,L|392:-8,1,88.000002685547,0|0,3:2|0:0,0:0:0:0:
150,99,86536,2,0,L|139:186,1,88.000002685547,8|0,0:2|0:0,0:0:0:0:
292,277,86730,5,0,3:2:0:0:
301,286,86827,2,0,L|107:310,1,176.000005371094,2|0,0:0|0:0,0:0:0:0:
64,371,87117,1,0,3:2:0:0:
14,320,87214,1,0,1:2:0:0:
1,251,87310,2,0,P|3:198|28:149,1,88.000002685547,8|0,0:2|0:0,0:0:0:0:
144,64,87504,2,0,L|34:32,1,88.000002685547,0|0,3:2|0:0,0:0:0:0:
190,211,87698,5,8,0:2:0:0:
251,160,87794,1,8,0:2:0:0:
178,130,87891,1,8,0:2:0:0:
197,213,87988,1,8,0:2:0:0:
249,152,88084,1,8,0:2:0:0:
172,136,88181,1,8,0:2:0:0:
205,214,88278,6,0,B|317:191|274:238|393:214,1,176.000005371094,4|8,3:1|0:2,0:0:0:0:
471,304,88568,1,0,0:0:0:0:
512,236,88665,2,0,P|512:181|467:121,1,88.000002685547,0|0,3:2|1:2,0:0:0:0:
240,298,88859,2,0,L|223:405,1,88.000002685547,8|0,0:2|0:0,0:0:0:0:
403,94,89052,5,0,3:2:0:0:
329,123,89149,1,0,0:0:0:0:
252,100,89246,2,0,P|181:99|121:114,1,88.000002685547,8|0,0:2|0:0,0:0:0:0:
47,293,89439,2,0,P|118:294|178:279,1,88.000002685547,0|0,3:2|1:2,0:0:0:0:
393,256,89633,2,0,P|394:327|379:387,1,88.000002685547,8|0,0:2|0:0,0:0:0:0:
297,325,89827,5,0,3:2:0:0:
281,303,89923,1,0,0:0:0:0:
256,227,90020,1,8,0:2:0:0:
272,205,90116,1,0,0:0:0:0:
318,139,90214,1,0,3:2:0:0:
302,117,90310,1,0,1:2:0:0:
232,126,90407,5,8,0:2:0:0:
161,117,90504,1,0,0:0:0:0:
90,109,90601,5,0,3:2:0:0:
81,97,90698,1,0,0:0:0:0:
106,183,90794,1,8,0:2:0:0:
115,171,90891,1,0,0:0:0:0:
54,235,90988,1,0,3:2:0:0:
45,223,91085,1,0,1:2:0:0:
95,295,91181,5,8,0:2:0:0:
143,346,91278,1,0,0:0:0:0:
211,363,91375,6,0,B|323:340|280:387|399:363,1,176.000005371094,0|8,3:2|0:2,0:0:0:0:
495,264,91665,1,0,0:0:0:0:
507,185,91762,2,0,P|498:135|463:92,1,88.000002685547,0|0,3:2|1:2,0:0:0:0:
193,194,91956,2,0,P|202:244|237:287,1,88.000002685547,8|0,0:2|0:0,0:0:0:0:
351,32,92149,5,0,3:2:0:0:
327,107,92246,1,0,0:0:0:0:
357,180,92343,2,0,P|420:197|467:196,1,88.000002685547,8|0,0:2|0:0,0:0:0:0:
273,42,92536,2,0,P|227:32|172:33,1,88.000002685547,0|0,3:2|1:2,0:0:0:0:
424,283,92730,2,0,P|441:220|440:173,1,88.000002685547,8|0,0:2|0:0,0:0:0:0:
225,123,92923,5,0,3:2:0:0:
210,145,93019,1,0,0:0:0:0:
186,221,93116,1,8,0:2:0:0:
203,243,93214,1,0,0:0:0:0:
249,309,93310,1,0,3:2:0:0:
233,331,93406,1,0,1:2:0:0:
169,362,93504,5,8,0:2:0:0:
100,343,93601,1,0,0:0:0:0:
40,295,93698,5,4,3:2:0:0:
56,280,93794,1,0,0:0:0:0:
36,264,93891,1,8,0:2:0:0:
52,249,93987,1,8,0:2:0:0:
79,195,94085,5,8,0:2:0:0:
143,168,94181,1,8,0:2:0:0:
210,188,94278,1,8,0:2:0:0:
268,227,94375,1,8,0:2:0:0:
338,224,94472,6,0,P|371:131|331:34,1,176.000005371094,4|8,3:2|0:2,0:0:0:0:
181,53,94762,1,0,0:0:0:0:
181,53,94859,2,0,B|226:38|226:67|292:45,1,88.000002685547,0|0,3:2|1:2,0:0:0:0:
35,101,95052,2,0,P|26:48|43:-2,1,88.000002685547,8|0,0:2|0:0,0:0:0:0:
174,161,95246,5,0,3:2:0:0:
145,235,95343,1,0,0:0:0:0:
97,297,95439,2,0,P|71:313|0:328,1,88.000002685547,8|0,0:2|0:0,0:0:0:0:
223,222,95633,2,0,P|250:235|298:289,1,88.000002685547,0|0,3:2|1:2,0:0:0:0:
101,171,95827,2,0,P|99:140|122:72,1,88.000002685547,8|0,0:2|0:0,0:0:0:0:
383,240,96020,5,0,3:2:0:0:
395,318,96117,1,0,0:0:0:0:
352,384,96214,2,0,P|310:380|237:357,1,88.000002685547,8|0,0:2|0:0,0:0:0:0:
199,152,96407,5,0,3:2:0:0:
187,74,96504,1,0,0:0:0:0:
230,8,96601,2,0,P|272:12|345:35,1,88.000002685547,8|0,0:2|0:0,0:0:0:0:
447,99,96794,5,0,3:2:0:0:
483,169,96891,1,0,0:0:0:0:
464,246,96988,5,8,0:2:0:0:
396,266,97085,1,8,0:2:0:0:
337,246,97181,1,8,0:2:0:0:
286,228,97278,1,8,0:3:0:0:
242,231,97375,1,8,0:3:0:0:
209,243,97472,1,0,1:0:0:0:
127,288,97568,6,0,P|83:283|24:265,2,90.0000034332277,4|0|0,3:2|1:0|1:0,0:0:0:0:
282,384,98343,2,0,P|289:325|271:214,1,160,8|0,0:2|0:0,0:0:0:0:
115,107,98923,1,8,0:0:0:0:
123,115,99020,1,8,0:0:0:0:
130,124,99117,6,0,P|184:127|243:114,1,80,4|0,3:2|0:0,0:0:0:0:
283,91,99407,2,0,P|322:86|362:90,1,80,0|0,1:0|0:0,0:0:0:0:
430,134,99698,1,0,1:0:0:0:
126,229,99891,5,8,0:2:0:0:
366,226,100085,1,0,0:0:0:0:
393,278,100181,1,0,1:0:0:0:
420,331,100278,1,8,0:2:0:0:
98,342,100472,1,0,0:0:0:0:
293,319,100665,5,8,0:2:0:0:
219,339,100762,1,8,0:2:0:0:
220,229,100955,5,8,0:2:0:0:
294,249,101052,1,8,0:2:0:0:
295,135,101246,5,8,0:2:0:0:
221,155,101343,1,8,0:2:0:0:
222,45,101536,5,8,0:2:0:0:
296,65,101633,1,8,0:2:0:0:
153,78,101827,5,8,0:2:0:0:
349,189,101956,5,0,0:0:0:0:
156,190,102085,5,0,0:0:0:0:
77,215,102214,6,0,L|83:172,3,26.6666666666667,8|8|4|4,0:3|0:3|0:3|0:3,0:0:0:0:
5,277,102601,6,2,B|82:336|150:277|150:277|218:217|296:277,1,320,4|0,0:2|0:0,0:0:0:0:
222,353,103762,1,4,1:2:0:0:
132,87,106859,6,0,L|121:181,1,71.9999978027344,4|0,1:2|0:0,0:0:0:0:
132,87,107439,1,0,0:0:0:0:
51,118,107633,1,0,0:0:0:0:
32,202,107827,1,0,0:0:0:0:
82,271,108020,1,0,0:0:0:0:
201,216,108214,6,0,B|307:194|255:229|390:211,1,162.000000617981,8|0,0:2|0:0,0:0:0:0:
438,244,108601,1,0,1:2:0:0:
320,34,108794,1,8,0:2:0:0:
320,34,108891,2,0,P|317:114|322:165,1,108.000000411987,8|0,0:2|1:2,0:0:0:0:
254,279,109181,2,0,L|254:337,1,54.0000002059937,0|0,1:0|1:0,0:0:0:0:
320,384,109375,1,0,1:0:0:0:
117,341,109568,1,8,0:2:0:0:
277,198,109762,1,8,0:2:0:0:
196,187,109859,1,8,0:2:0:0:
115,176,109956,5,0,1:2:0:0:
115,176,110537,1,0,0:0:0:0:
78,97,110730,1,0,0:0:0:0:
126,24,110924,1,0,1:0:0:0:
212,26,111117,1,0,0:0:0:0:
330,102,111310,6,0,P|334:187|325:269,1,162.000000617981,8|0,0:2|0:0,0:0:0:0:
216,329,111698,2,0,P|268:292|360:287,1,108.000000411987,0|8,1:2|0:2,0:0:0:0:
457,352,112085,1,0,0:0:0:0:
485,164,112278,1,0,1:0:0:0:
476,172,112375,2,0,L|338:164,1,108.000000411987,0|0,0:0|0:0,0:0:0:0:
257,191,112665,2,0,P|185:195|130:189,1,108.000000411987,8|8,0:2|0:2,0:0:0:0:
77,231,112956,1,0,0:0:0:0:
7,191,113052,5,4,1:2:0:0:
121,49,113246,1,0,0:0:0:0:
234,119,113439,1,8,0:2:0:0:
359,59,113633,1,0,1:2:0:0:
350,106,113730,1,8,0:1:0:0:
341,154,113827,1,0,0:0:0:0:
332,201,113923,1,8,0:1:0:0:
324,249,114020,1,0,1:0:0:0:
161,303,114214,1,0,0:0:0:0:
440,335,114407,6,0,B|303:309|362:361|205:329,1,216.000000823975,8|0,0:2|1:0,0:0:0:0:
46,361,114988,2,0,P|26:298|41:241,1,108.000000411987,8|0,0:2|1:0,0:0:0:0:
240,245,115375,1,0,1:0:0:0:
240,245,115472,1,0,1:0:0:0:
240,245,115568,1,0,1:2:0:0:
50,139,115762,2,0,B|86:144|86:144|122:138|122:138|179:144,1,108.000000411987,8|0,0:2|0:0,0:0:0:0:
231,154,116052,1,0,0:0:0:0:
306,145,116149,6,0,P|315:84|281:22,1,108.000000411987,4|0,1:2|0:0,0:0:0:0:
118,34,116536,1,8,0:2:0:0:
117,223,116730,1,0,1:2:0:0:
164,235,116827,1,8,0:1:0:0:
210,221,116923,1,0,0:0:0:0:
257,233,117020,1,8,0:1:0:0:
305,226,117117,1,0,1:0:0:0:
498,345,117310,1,0,0:0:0:0:
451,162,117504,6,0,B|431:200|393:206|393:206|399:248|366:286,1,162.000000617981,8|0,0:2|0:0,0:0:0:0:
399,352,117891,1,0,1:0:0:0:
266,308,118085,1,8,0:2:0:0:
51,273,118278,1,0,1:0:0:0:
21,312,118375,1,0,1:0:0:0:
40,356,118472,1,0,1:0:0:0:
88,362,118568,1,8,0:2:0:0:
118,323,118665,2,0,P|122:279|112:241,1,54.0000002059937,0|0,0:0|1:0,0:0:0:0:
67,163,118859,5,8,0:2:0:0:
123,195,118956,1,0,0:0:0:0:
187,199,119052,1,8,0:2:0:0:
247,175,119149,1,8,0:2:0:0:
283,121,119246,6,0,P|288:77|270:22,1,80,4|0,1:2|0:0,0:0:0:0:
368,253,119439,2,0,P|403:279|460:291,1,80,8|0,0:2|0:0,0:0:0:0:
512,129,119633,2,0,L|491:229,1,80,0|0,1:0|0:0,0:0:0:0:
302,357,119827,1,8,0:2:0:0:
302,357,119923,1,0,1:0:0:0:
302,357,120020,6,0,P|277:299|277:248,1,80,0|0,0:0|1:0,0:0:0:0:
103,294,120214,2,0,P|94:333|75:368,1,80,8|0,0:2|0:0,0:0:0:0:
335,181,120407,2,0,L|426:164,1,80,0|0,1:0|0:0,0:0:0:0:
34,116,120601,6,0,B|80:133|109:112|109:112|126:120|126:120|161:104|218:122,1,160,8|0,0:2|1:0,0:0:0:0:
258,151,120891,1,0,0:0:0:0:
325,106,120988,2,0,P|338:53|324:11,1,80,8|0,0:2|0:0,0:0:0:0:
108,1,121181,2,0,P|95:54|109:96,1,80,0|0,1:0|0:0,0:0:0:0:
202,215,121375,2,0,P|151:193|108:201,1,80,8|0,0:2|1:2,0:0:0:0:
36,266,121568,1,0,0:0:0:0:
23,320,121665,1,0,1:0:0:0:
50,369,121762,6,0,P|96:381|152:369,1,80,8|0,0:2|0:0,0:0:0:0:
262,298,121956,2,0,P|308:286|364:298,1,80,0|0,1:0|0:0,0:0:0:0:
492,346,122149,1,8,0:2:0:0:
486,351,122246,1,0,0:0:0:0:
480,357,122343,6,0,P|473:295|491:246,1,80,4|0,1:2|0:0,0:0:0:0:
428,123,122536,2,0,P|435:185|417:234,1,80,8|0,0:2|0:0,0:0:0:0:
331,213,122730,6,0,B|231:190|270:230|154:210,1,160,0|8,1:0|0:0,0:0:0:0:
56,270,123020,1,0,1:1:0:0:
45,278,123117,2,0,P|41:223|50:181,1,80,0|0,0:0|1:1,0:0:0:0:
131,119,123310,2,0,L|209:135,1,80,8|0,0:2|0:0,0:0:0:0:
352,111,123504,2,0,P|356:56|347:14,1,80,0|0,1:0|0:0,0:0:0:0:
124,281,123698,6,0,B|172:304|225:275|225:275|245:286|245:286|298:258|359:288,1,240,8|0,0:2|0:0,0:0:0:0:
405,364,124085,5,8,0:2:0:0:
374,317,124181,1,0,0:0:0:0:
369,269,124278,1,0,1:0:0:0:
383,231,124375,1,0,0:0:0:0:
408,211,124472,1,8,0:2:0:0:
431,210,124568,1,0,1:0:0:0:
497,255,124665,5,0,0:0:0:0:
455,279,124762,1,0,1:0:0:0:
406,280,124859,1,8,0:2:0:0:
366,251,124956,1,0,0:0:0:0:
337,194,125052,5,0,1:0:0:0:
285,155,125149,1,0,0:0:0:0:
221,150,125246,1,8,0:2:0:0:
162,176,125343,1,0,0:0:0:0:
141,236,125439,6,0,P|224:193|102:154,1,240,4|0,1:2|0:0,0:0:0:0:
58,210,125827,2,0,B|48:251|65:289|65:289|55:282|55:282|67:328|62:396,1,160,0|8,1:0|0:2,0:0:0:0:
107,367,126117,1,0,1:0:0:0:
150,345,126214,1,0,0:0:0:0:
196,355,126310,1,0,1:2:0:0:
243,349,126407,1,8,0:2:0:0:
387,371,126601,1,0,1:0:0:0:
463,175,126794,6,0,B|467:230|504:279|504:279|466:240|442:228|442:228|418:216|389:215,1,240.000009155274,8|8,0:2|0:2,0:0:0:0:
350,240,127278,1,0,0:0:0:0:
296,233,127375,1,0,1:2:0:0:
349,41,127568,1,8,0:2:0:0:
392,90,127665,1,0,0:0:0:0:
390,156,127762,1,8,0:2:0:0:
221,122,127956,2,0,L|118:111,1,60.0000022888184,0|8,0:0|0:2,0:0:0:0:
62,58,128149,5,8,0:2:0:0:
69,117,128246,1,0,0:0:0:0:
103,166,128343,1,8,0:2:0:0:
110,225,128440,1,8,0:2:0:0:
70,269,128536,6,0,L|192:274,1,95.9999970703126,4|4,1:2|0:2,0:0:0:0:
268,316,128827,1,8,0:1:0:0:
193,341,128923,2,0,P|242:346|296:368,1,95.9999970703126,0|12,1:0|0:2,0:0:0:0:
403,182,129310,2,0,P|395:240|407:285,1,95.9999970703126,0|4,1:2|0:2,0:0:0:0:
458,345,129601,1,8,0:1:0:0:
498,278,129698,2,0,L|480:381,1,95.9999970703126,4|12,1:2|0:2,0:0:0:0:
259,252,130085,6,0,P|245:178|259:128,1,95.9999970703126,0|4,1:2|0:2,0:0:0:0:
338,94,130375,1,8,0:1:0:0:
283,112,130472,1,0,1:0:0:0:
124,65,130665,1,12,0:2:0:0:
54,163,130859,5,0,1:2:0:0:
62,159,130956,2,0,P|72:230|74:297,1,95.9999970703126,0|8,0:0|0:1,0:0:0:0:
47,344,131246,2,0,P|21:340|-13:330,1,47.9999985351563,4|0,1:2|0:0,0:0:0:0:
192,282,131439,2,0,P|218:286|252:296,1,47.9999985351563,12|0,0:2|0:0,0:0:0:0:
342,361,131633,6,0,P|382:329|452:328,1,95.9999970703126,0|4,1:2|0:2,0:0:0:0:
506,336,131923,1,8,0:1:0:0:
400,280,132020,2,0,L|417:201,1,47.9999985351563,0|0,1:0|0:0,0:0:0:0:
472,151,132214,1,12,0:2:0:0:
265,243,132407,2,0,P|225:211|155:210,1,95.9999970703126,0|4,1:2|0:2,0:0:0:0:
101,218,132697,1,8,0:1:0:0:
207,162,132794,2,0,L|190:83,1,47.9999985351563,4|0,1:2|0:0,0:0:0:0:
135,33,132988,1,12,0:2:0:0:
345,52,133181,6,0,P|365:116|343:185,1,95.9999970703126,0|4,1:2|0:2,0:0:0:0:
280,218,133472,1,8,0:1:0:0:
332,193,133568,1,0,1:0:0:0:
512,198,133762,1,12,0:2:0:0:
420,323,133956,5,0,1:2:0:0:
420,323,134052,2,0,B|355:331|378:313|318:325,1,95.9999970703126,0|0,0:0|0:0,0:0:0:0:
233,359,134343,5,4,1:2:0:0:
328,226,134536,1,12,0:2:0:0:
148,60,134730,6,0,B|85:115|13:109|13:109|67:117|137:110|137:110|93:133|82:175|94:221|129:258|197:240,1,480,4|0,1:2|0:0,0:0:0:0:
235,182,136278,5,0,1:0:0:0:
139,314,136472,1,0,1:0:0:0:
306,384,136665,1,0,1:0:0:0:
473,303,136859,1,0,1:0:0:0:
365,111,137052,1,8,0:2:0:0:
176,146,137246,5,8,0:2:0:0:
111,111,137343,1,8,0:2:0:0:
53,141,137439,1,8,0:2:0:0:
24,192,137536,1,8,0:2:0:0:
28,247,137633,1,8,0:2:0:0:
61,283,137730,1,8,0:2:0:0:
105,253,137827,5,8,0:2:0:0:
159,271,137923,1,8,0:2:0:0:
213,252,138020,1,8,0:2:0:0:
267,270,138116,1,8,0:2:0:0:
163,111,138407,5,8,0:2:0:0:
230,117,138504,1,8,0:2:0:0:
296,124,138601,1,8,0:2:0:0:
362,131,138698,1,8,0:2:0:0:
114,165,138988,5,8,0:2:0:0:
270,61,139117,5,0,1:0:0:0:
216,267,139246,5,0,0:0:0:0:
381,211,139375,5,4,1:2:0:0:
371,219,139472,1,8,0:1:0:0:
353,229,139568,1,8,0:1:0:0:
325,233,139665,1,8,0:1:0:0:
291,226,139762,1,8,0:1:0:0:
254,208,139859,1,8,0:1:0:0:
205,200,139956,1,8,0:1:0:0:
155,219,140052,1,8,0:2:0:0:
128,273,140149,1,8,0:2:0:0:
146,339,140246,1,8,0:2:0:0:
211,375,140343,1,8,0:2:0:0:
289,352,140439,1,8,0:2:0:0:
420,115,140923,6,0,P|329:156|233:130,1,176.000005371094,4|8,3:1|0:2,0:0:0:0:
171,117,141214,1,0,0:0:0:0:
85,134,141310,2,0,P|79:186|102:245,1,88.000002685547,0|0,3:2|1:2,0:0:0:0:
296,363,141504,2,0,P|302:311|279:252,1,88.000002685547,8|0,0:2|0:0,0:0:0:0:
36,284,141698,1,0,3:2:0:0:
59,370,141794,1,0,0:0:0:0:
121,307,141891,2,0,P|172:285|227:296,1,88.000002685547,8|0,0:2|0:0,0:0:0:0:
447,331,142085,1,0,3:2:0:0:
331,75,142278,1,8,0:2:0:0:
270,138,142375,1,0,0:0:0:0:
245,53,142472,6,0,P|193:44|127:60,1,88.000002685547,0|0,3:2|0:0,0:0:0:0:
357,161,142665,2,0,P|409:170|475:154,1,88.000002685547,8|0,0:2|0:0,0:0:0:0:
191,125,142859,6,0,P|141:143|92:190,1,88.000002685547,0|0,3:2|1:2,0:0:0:0:
414,90,143052,2,0,P|463:71|512:24,1,88.000002685547,8|0,0:2|0:0,0:0:0:0:
147,230,143246,5,0,3:2:0:0:
215,269,143343,1,0,0:0:0:0:
292,259,143439,1,8,0:2:0:0:
365,228,143536,1,0,0:0:0:0:
439,256,143633,2,0,P|439:324|424:354,1,88.000002685547,0|0,3:2|1:2,0:0:0:0:
250,109,143827,2,0,P|239:176|249:208,1,88.000002685547,8|0,0:2|0:0,0:0:0:0:
95,308,144020,6,0,B|204:274|169:337|314:312,1,176.000005371094,0|8,3:2|0:2,0:0:0:0:
365,228,144310,1,0,0:0:0:0:
420,159,144407,2,0,P|427:101|409:52,1,88.000002685547,0|0,3:2|1:2,0:0:0:0:
173,22,144601,2,0,P|166:80|184:129,1,88.000002685547,8|0,0:2|0:0,0:0:0:0:
104,223,144794,5,0,3:2:0:0:
24,260,144891,1,0,0:0:0:0:
32,172,144988,2,0,P|45:117|82:72,1,88.000002685547,8|0,0:2|0:0,0:0:0:0:
298,16,145181,1,0,3:2:0:0:
285,186,145375,1,8,0:2:0:0:
260,269,145472,1,0,0:0:0:0:
345,249,145568,6,0,P|399:218|423:171,1,88.000002685547,0|0,3:2|0:0,0:0:0:0:
199,205,145762,2,0,P|145:236|121:283,1,88.000002685547,8|0,0:2|0:0,0:0:0:0:
353,145,145956,6,0,P|365:84|346:34,1,88.000002685547,0|0,3:2|1:2,0:0:0:0:
192,300,146149,2,0,P|179:360|198:410,1,88.000002685547,8|0,0:2|0:2,0:0:0:0:
76,321,146343,5,4,3:2:0:0:
20,300,146439,1,0,0:0:0:0:
10,242,146536,1,8,0:2:0:0:
55,204,146633,1,8,0:2:0:0:
134,181,146730,5,8,0:2:0:0:
156,103,146826,1,8,0:2:0:0:
102,44,146923,1,8,0:2:0:0:
23,62,147020,1,8,0:2:0:0:
0,139,147117,6,0,B|128:109|73:172|244:128,1,176.000005371094,4|8,3:2|0:2,0:0:0:0:
337,210,147407,1,0,0:0:0:0:
391,141,147504,2,0,P|400:84|385:30,1,88.000002685547,0|0,3:2|1:2,0:0:0:0:
138,226,147698,2,0,P|129:283|144:337,1,88.000002685547,8|0,0:2|0:0,0:0:0:0:
395,282,147891,5,0,3:2:0:0:
370,366,147988,1,0,0:0:0:0:
455,345,148085,2,0,P|506:299|515:246,1,88.000002685547,8|0,0:2|0:0,0:0:0:0:
312,139,148278,2,0,P|326:206|367:240,1,88.000002685547,0|0,3:2|1:2,0:0:0:0:
290,335,148472,2,0,P|224:313|174:332,1,88.000002685547,8|0,0:2|0:0,0:0:0:0:
110,353,148665,5,0,3:2:0:0:
83,357,148761,1,0,0:0:0:0:
47,347,148858,1,8,0:2:0:0:
16,312,148955,1,0,0:0:0:0:
0,258,149052,1,0,3:2:0:0:
21,196,149148,1,0,1:2:0:0:
91,166,149245,1,8,0:2:0:0:
174,181,149342,1,0,0:0:0:0:
255,212,149439,5,0,3:2:0:0:
269,188,149535,1,0,0:0:0:0:
274,151,149632,1,8,0:2:0:0:
253,109,149729,1,0,0:0:0:0:
210,73,149826,1,0,3:2:0:0:
148,73,149922,1,0,1:2:0:0:
95,120,150019,1,8,0:2:0:0:
91,190,150116,1,0,0:0:0:0:
137,243,150214,6,0,B|248:207|205:267|319:234,1,176.000005371094,0|8,3:2|0:2,0:0:0:0:
469,221,150504,1,0,0:0:0:0:
507,300,150601,2,0,P|506:354|485:395,1,88.000002685547,0|0,3:2|1:2,0:0:0:0:
262,160,150794,2,0,P|263:106|284:65,1,88.000002685547,8|0,0:2|0:0,0:0:0:0:
476,33,150988,5,0,3:2:0:0:
461,42,151084,1,0,0:0:0:0:
390,78,151181,1,8,0:2:0:0:
377,66,151277,1,0,0:0:0:0:
310,14,151375,2,0,L|223:6,1,88.000002685547,0|0,3:2|0:0,0:0:0:0:
94,95,151568,2,0,L|0:29,1,88.000002685547,8|0,0:2|0:0,0:0:0:0:
216,134,151762,5,0,3:2:0:0:
227,128,151859,2,0,L|189:319,1,176.000005371094,2|0,0:0|0:0,0:0:0:0:
116,361,152149,1,0,3:2:0:0:
46,341,152246,1,0,1:2:0:0:
0,287,152342,2,0,P|-6:234|10:182,1,88.000002685547,8|0,0:2|0:0,0:0:0:0:
281,296,152536,2,0,P|266:337|237:370,1,88.000002685547,0|0,3:2|0:0,0:0:0:0:
75,235,152730,5,8,0:2:0:0:
133,180,152826,1,8,0:2:0:0:
153,256,152923,1,8,0:2:0:0:
73,227,153020,1,8,0:2:0:0:
140,183,153116,1,8,0:2:0:0:
147,262,153213,1,8,0:2:0:0:
73,219,153310,6,0,B|109:110|57:147|95:32,1,176.000005371094,4|8,3:1|0:2,0:0:0:0:
262,25,153601,1,0,0:0:0:0:
320,91,153698,2,0,P|322:145|296:208,1,88.000002685547,0|0,3:2|1:2,0:0:0:0:
149,282,153891,2,0,P|147:228|173:165,1,88.000002685547,8|0,0:2|0:0,0:0:0:0:
274,242,154085,5,0,3:2:0:0:
345,274,154181,1,0,0:0:0:0:
424,274,154278,2,0,B|483:263|454:286|519:274,1,88.000002685547,8|0,0:2|0:0,0:0:0:0:
222,298,154472,2,0,P|217:346|232:405,1,88.000002685547,0|0,3:2|1:2,0:0:0:0:
489,203,154665,2,0,P|494:155|479:96,1,88.000002685547,8|0,0:2|0:0,0:0:0:0:
408,35,154859,5,0,3:2:0:0:
385,49,154955,1,0,0:0:0:0:
307,67,155052,1,8,0:2:0:0:
286,50,155148,1,0,0:0:0:0:
206,58,155246,1,0,3:2:0:0:
180,50,155342,1,0,1:2:0:0:
112,70,155439,5,8,0:2:0:0:
91,137,155536,1,0,0:0:0:0:
114,203,155633,5,0,3:2:0:0:
139,212,155729,1,0,0:0:0:0:
226,197,155827,1,8,0:2:0:0:
251,206,155923,1,0,0:0:0:0:
263,293,156020,1,0,3:2:0:0:
238,302,156116,1,0,1:2:0:0:
180,344,156214,5,8,0:2:0:0:
114,368,156310,1,0,0:0:0:0:
48,342,156407,6,0,B|16:231|77:271|41:154,1,176.000005371094,0|8,3:2|0:2,0:0:0:0:
0,69,156698,1,0,0:0:0:0:
59,4,156794,2,0,P|120:-6|174:16,1,88.000002685547,0|0,3:2|1:2,0:0:0:0:
153,179,156988,2,0,P|142:123|163:72,1,88.000002685547,8|0,0:2|0:0,0:0:0:0:
264,27,157181,5,0,3:2:0:0:
332,67,157278,1,0,0:0:0:0:
410,56,157375,2,0,B|476:41|452:63|525:55,1,88.000002685547,8|0,0:2|0:0,0:0:0:0:
307,143,157568,2,0,B|241:128|265:150|192:142,1,88.000002685547,0|0,3:2|1:2,0:0:0:0:
496,217,157762,2,0,P|514:159|503:101,1,88.000002685547,8|0,0:2|0:0,0:0:0:0:
262,228,157956,5,0,3:2:0:0:
286,217,158052,1,0,0:0:0:0:
365,221,158149,1,8,0:2:0:0:
391,225,158245,1,0,0:0:0:0:
443,285,158343,1,0,3:2:0:0:
454,308,158439,1,0,1:2:0:0:
403,357,158536,5,8,0:2:0:0:
335,378,158633,1,0,0:0:0:0:
272,345,158730,5,4,3:2:0:0:
256,325,158827,1,0,0:0:0:0:
243,348,158923,1,8,0:2:0:0:
227,328,159020,1,8,0:2:0:0:
156,330,159117,5,8,0:2:0:0:
120,269,159214,1,8,0:2:0:0:
133,200,159310,1,8,0:2:0:0:
191,159,159407,1,8,0:2:0:0:
261,157,159504,6,0,B|302:128|337:150|341:152|345:153|383:178|430:152,1,176.000005371094,4|8,3:2|0:2,0:0:0:0:
102,28,159794,1,0,0:0:0:0:
54,91,159891,2,0,P|47:147|70:201,1,88.000002685547,0|0,3:2|1:2,0:0:0:0:
388,85,160085,2,0,P|395:29|372:-25,1,88.000002685547,8|0,0:2|0:0,0:0:0:0:
203,235,160278,5,0,3:2:0:0:
248,288,160375,1,0,0:0:0:0:
309,321,160472,2,0,P|362:337|427:322,1,88.000002685547,8|0,0:2|0:0,0:0:0:0:
172,306,160665,2,0,P|130:343|112:406,1,88.000002685547,0|0,3:2|1:2,0:0:0:0:
278,209,160859,2,0,P|264:154|219:106,1,88.000002685547,8|0,0:2|0:0,0:0:0:0:
61,35,161052,5,0,3:2:0:0:
135,62,161149,1,0,0:0:0:0:
210,38,161246,2,0,P|268:33|327:47,1,88.000002685547,8|0,0:2|0:0,0:0:0:0:
423,120,161439,5,0,3:2:0:0:
453,193,161536,1,0,0:0:0:0:
436,270,161633,2,0,P|388:289|305:289,1,88.000002685547,8|0,0:2|0:0,0:0:0:0:
222,242,161827,5,0,3:2:0:0:
140,210,161923,1,0,0:0:0:0:
64,235,162020,5,8,0:2:0:0:
46,303,162117,1,8,0:2:0:0:
80,354,162214,1,8,0:2:0:0:
127,375,162310,1,8,0:3:0:0:
169,364,162407,1,8,0:3:0:0:
191,336,162504,1,0,1:0:0:0:
268,271,162601,6,0,B|327:258|303:275|372:268,2,96,4|0|0,3:2|1:0|1:0,0:0:0:0:
58,217,163375,2,0,P|51:121|64:45,1,160,8|0,0:2|0:0,0:0:0:0:
247,11,163956,1,8,0:0:0:0:
255,19,164053,1,8,0:0:0:0:
264,26,164150,6,0,P|267:80|254:139,1,80,4|0,1:2|0:0,0:0:0:0:
231,179,164440,2,0,P|226:218|230:258,1,80,0|0,1:0|0:0,0:0:0:0:
274,326,164729,1,0,1:0:0:0:
386,94,164923,5,8,0:2:0:0:
466,263,165117,1,0,0:0:0:0:
431,307,165214,1,0,1:0:0:0:
397,351,165310,1,8,0:2:0:0:
121,353,165504,1,0,0:0:0:0:
129,155,165698,5,8,0:2:0:0:
109,230,165795,1,8,0:2:0:0:
219,228,165988,5,8,0:2:0:0:
199,154,166085,1,8,0:2:0:0:
313,153,166279,5,8,0:2:0:0:
293,227,166376,1,8,0:2:0:0:
403,226,166569,5,8,0:2:0:0:
383,152,166666,1,8,0:2:0:0:
331,322,166859,5,8,0:2:0:0:
446,108,166988,5,0,0:0:0:0:
486,271,167117,5,0,0:0:0:0:
416,303,167246,6,0,L|409:353,3,26.6666666666667,8|8|4|4,0:3|0:3|0:3|0:3,0:0:0:0:
319,245,167633,6,2,B|268:209|220:207|188:231|188:231|145:265|75:272|73:198|131:180|157:220,1,320,4|0,0:2|0:0,0:1:0:0:
37,370,168794,6,0,B|15:330|15:330|21:237,2,120,4|0|0,1:2|1:0|1:0,0:0:0:0:
139,98,169568,2,0,B|128:257|128:257,1,160,8|2,0:0|0:0,0:0:0:0:
187,364,170149,1,8,0:0:0:0:
213,333,170246,1,8,0:0:0:0:
248,315,170343,2,0,P|304:295|369:302,2,120,6|0|0,1:2|1:0|1:0,0:0:0:0:
450,274,171117,2,0,L|507:372,1,80,10|0,0:0|1:0,0:0:0:0:
349,203,171504,1,10,0:0:0:0:
349,203,171601,1,8,0:0:0:0:
349,203,171698,1,0,1:0:0:0:
496,39,171891,6,0,B|455:29|417:46|417:46|424:36|424:36|378:48|310:43,1,160,6|2,1:2|0:0,0:0:0:0:
270,90,172472,1,0,1:0:0:0:
107,29,172665,2,0,P|88:89|100:142,1,80,10|0,0:2|0:0,0:0:0:0:
216,146,173052,1,0,1:0:0:0:
196,240,173246,1,8,0:0:0:0:
21,295,173439,6,0,B|99:308|61:280|157:303,2,120,6|0|0,1:2|1:0|1:2,0:0:0:0:
40,139,174214,2,0,P|42:194|64:239,1,80,10|0,0:0|1:0,0:0:0:0:
228,336,174601,1,8,0:0:0:0:
228,336,174698,1,8,0:0:0:0:
454,384,174988,6,0,P|463:311|451:278,1,80,4|4,1:2|0:2,0:0:0:0:
415,245,175278,1,0,1:0:0:0:
429,170,175375,2,0,P|432:112|416:65,1,80,0|4,1:0|1:2,0:0:0:0:
209,181,175762,5,8,0:0:0:0:
164,242,175956,2,0,L|138:277,1,40,4|0,0:2|0:0,0:0:0:0:
177,111,176149,2,0,L|159:70,1,40,4|0,0:2|0:0,0:0:0:0:
283,188,176343,2,0,L|326:192,1,40,12|8,0:2|0:2,0:0:0:0:
49,318,176536,6,0,P|107:347|152:342,1,80,4|4,1:3|0:2,0:0:0:0:
194,326,176827,1,0,1:0:0:0:
266,305,176923,2,0,P|319:313|360:344,1,80,0|4,1:0|1:2,0:0:0:0:
396,176,177310,5,8,0:2:0:0:
464,269,177504,2,0,L|441:237,1,40,4|0,1:2|0:0,0:0:0:0:
444,69,177697,2,0,L|428:106,1,40,12|0,0:2|0:0,0:0:0:0:
282,187,177891,1,0,1:0:0:0:
108,297,178085,5,4,1:3:0:0:
72,249,178181,1,0,0:0:0:0:
69,192,178278,1,4,0:2:0:0:
95,147,178375,1,0,0:0:0:0:
137,123,178472,1,0,0:0:0:0:
180,127,178568,1,0,0:0:0:0:
214,147,178665,1,4,0:2:0:0:
237,174,178762,1,0,0:0:0:0:
327,213,178859,5,0,0:0:0:0:
366,167,178956,1,0,0:0:0:0:
353,112,179052,1,4,0:2:0:0:
309,82,179149,1,0,0:0:0:0:
261,86,179246,1,4,0:2:0:0:
227,115,179343,1,0,0:0:0:0:
225,154,179439,1,4,0:2:0:0:
241,186,179536,1,0,0:0:0:0:
319,247,179633,6,0,B|279:250|279:250|263:258|263:258|221:264,1,100,0|4,0:0|0:2,0:0:0:0:
152,298,179923,2,0,L|33:293,1,100,0|0,0:0|0:0,0:0:0:0:
0,237,180214,1,4,0:2:0:0:
172,212,180407,1,0,0:0:0:0:
99,168,180601,1,4,0:2:0:0:
339,101,180794,5,12,0:1:0:0:
256,192,184278,12,0,186988,0:0:0:0:
189,228,187375,6,0,B|152:211|123:159|123:159|142:262|63:351|-19:301|14:201|76:225|97:275|97:275|137:339|226:335|267:297,1,560,4|0,1:2|0:0,0:0:0:0:
357,345,188923,5,0,1:0:0:0:
357,345,189117,1,0,1:0:0:0:
267,210,189310,1,0,1:0:0:0:
441,141,189504,1,0,1:0:0:0:
224,365,189698,5,8,0:2:0:0:
231,127,189891,1,8,0:2:0:0:
154,83,189988,1,8,0:2:0:0:
71,99,190085,1,8,0:2:0:0:
11,151,190181,1,8,0:2:0:0:
0,226,190278,1,8,0:2:0:0:
37,287,190375,1,8,0:2:0:0:
73,317,190472,5,8,0:2:0:0:
127,306,190568,1,8,0:2:0:0:
182,295,190665,1,8,0:2:0:0:
237,284,190762,1,8,0:2:0:0:
184,191,191052,5,8,0:2:0:0:
241,163,191149,1,8,0:2:0:0:
298,135,191246,1,8,0:2:0:0:
356,107,191343,1,8,0:2:0:0:
293,371,191633,5,8,0:2:0:0:
397,171,191762,5,0,0:0:0:0:
467,305,191891,5,0,0:0:0:0:
254,296,192020,6,0,L|278:146,1,144,4|0,1:2|0:0,0:0:0:0:
222,114,192988,5,8,0:1:0:0:
167,103,193084,1,8,0:1:0:0:
114,120,193181,1,8,0:1:0:0:
75,159,193278,1,8,0:2:0:0:
59,212,193375,1,8,0:2:0:0:
70,267,193471,1,8,0:2:0:0:
99,314,193568,6,0,L|197:300,1,90.0000034332277,2|0,0:0|0:0,0:0:0:0:
281,254,193956,6,0,P|293:189|275:130,1,95.9999970703126,4|0,3:1|1:2,0:0:0:0:
87,84,194149,2,0,P|75:149|93:208,1,95.9999970703126,8|0,0:2|0:0,0:0:0:0:
266,66,194343,1,0,3:2:0:0:
337,90,194439,1,0,0:0:0:0:
410,66,194536,2,0,P|463:61|515:73,1,95.9999970703126,8|0,0:2|0:0,0:0:0:0:
199,228,194730,2,0,P|189:166|201:112,1,95.9999970703126,0|0,3:2|1:2,0:0:0:0:
457,216,194923,1,8,0:2:0:0:
469,291,195020,1,0,0:0:0:0:
433,359,195117,5,0,3:2:0:0:
395,349,195214,1,0,0:0:0:0:
318,352,195310,1,8,0:2:0:0:
280,362,195407,1,0,0:0:0:0:
209,331,195504,1,0,3:2:0:0:
179,305,195601,1,0,1:2:0:0:
168,238,195698,5,8,0:2:0:0:
201,180,195794,1,0,0:0:0:0:
263,153,195891,5,0,3:2:0:0:
301,163,195988,1,0,0:0:0:0:
377,166,196085,1,8,0:2:0:0:
415,156,196182,1,0,0:0:0:0:
460,94,196278,1,0,3:2:0:0:
459,55,196375,1,0,1:2:0:0:
413,5,196472,5,8,0:2:0:0:
346,4,196568,1,0,0:0:0:0:
304,57,196665,6,0,P|216:73|108:41,1,191.999994140625,0|8,3:2|0:2,0:0:0:0:
42,134,196956,1,0,0:0:0:0:
3,199,197052,2,0,P|5:255|30:296,1,95.9999970703126,0|0,3:2|1:2,0:0:0:0:
182,179,197246,2,0,P|232:167|287:180,1,95.9999970703126,8|0,0:2|0:0,0:0:0:0:
408,221,197439,1,0,3:2:0:0:
459,163,197536,1,0,0:0:0:0:
464,86,197633,2,0,P|447:38|397:0,1,95.9999970703126,8|0,0:2|0:0,0:0:0:0:
297,272,197827,2,0,P|364:299|419:294,1,95.9999970703126,0|0,3:2|1:2,0:0:0:0:
189,126,198020,1,8,0:2:0:0:
189,126,198117,1,0,0:0:0:0:
189,126,198214,5,0,3:2:0:0:
150,122,198311,1,0,0:0:0:0:
77,143,198407,1,8,0:2:0:0:
47,168,198504,1,0,0:0:0:0:
20,240,198601,1,0,3:2:0:0:
15,278,198698,1,0,1:2:0:0:
47,336,198794,5,8,0:2:0:0:
109,360,198891,1,0,0:0:0:0:
171,334,198988,5,4,3:2:0:0:
186,308,199085,1,0,0:0:0:0:
206,331,199181,1,8,0:2:0:0:
221,305,199278,1,8,0:2:0:0:
272,331,199375,5,8,0:2:0:0:
333,357,199472,1,8,0:2:0:0:
395,332,199568,1,8,0:2:0:0:
421,270,199665,1,8,0:2:0:0:
393,208,199762,6,0,B|268:184|324:227|187:205,1,191.999994140625,4|8,3:2|0:2,0:0:0:0:
63,118,200052,1,0,0:0:0:0:
6,170,200149,2,0,P|-1:221|18:279,1,95.9999970703126,0|0,3:2|1:2,0:0:0:0:
250,132,200343,2,0,P|257:81|238:23,1,95.9999970703126,8|0,0:2|0:0,0:0:0:0:
57,338,200536,1,0,3:2:0:0:
125,373,200633,1,0,0:0:0:0:
200,357,200730,2,0,P|256:370|300:388,1,95.9999970703126,8|0,0:2|0:0,0:0:0:0:
139,159,200923,2,0,P|133:221|141:272,1,95.9999970703126,0|0,3:2|1:2,0:0:0:0:
363,353,201117,1,8,0:2:0:0:
433,320,201214,1,0,0:0:0:0:
476,257,201310,5,0,3:2:0:0:
440,241,201407,1,0,0:0:0:0:
367,214,201504,5,8,0:2:0:0:
403,198,201601,1,0,0:0:0:0:
476,176,201698,5,0,3:2:0:0:
440,160,201795,1,0,1:2:0:0:
367,133,201892,5,8,0:2:0:0:
403,117,201987,1,0,0:0:0:0:
435,69,202085,5,0,3:2:0:0:
409,17,202181,1,0,0:0:0:0:
352,6,202278,1,8,0:2:0:0:
318,52,202375,1,0,0:0:0:0:
268,97,202472,5,0,3:2:0:0:
205,122,202568,1,0,1:2:0:0:
143,97,202665,1,8,0:2:0:0:
118,34,202762,1,0,0:0:0:0:
192,43,202859,6,0,B|207:98|187:134|187:134|196:153|196:153|172:189|194:243,1,191.999994140625,0|8,3:2|0:2,0:0:0:0:
87,362,203149,1,0,0:0:0:0:
26,299,203246,2,0,B|18:263|18:263|43:194,1,95.9999970703126,0|0,3:0|1:0,0:0:0:0:
261,197,203439,2,0,B|269:233|269:233|244:302,1,95.9999970703126,8|0,0:2|0:0,0:0:0:0:
356,340,203633,5,0,3:2:0:0:
373,333,203730,1,0,0:0:0:0:
442,265,203827,1,8,0:2:0:0:
425,258,203924,1,0,0:0:0:0:
350,213,204020,2,0,L|371:93,1,95.9999970703126,0|0,3:0|1:0,0:0:0:0:
265,290,204214,2,0,L|248:384,1,95.9999970703126,8|0,0:0|0:0,0:0:0:0:
2,250,204407,5,0,3:2:0:0:
12,259,204504,2,0,L|219:230,1,191.999994140625,2|0,0:0|0:0,0:0:0:0:
276,200,204794,1,0,3:2:0:0:
220,215,204891,1,0,1:2:0:0:
174,179,204988,1,8,0:2:0:0:
399,115,205181,1,0,3:2:0:0:
91,78,205375,5,8,0:2:0:0:
139,140,205471,1,8,0:2:0:0:
171,68,205568,1,8,0:2:0:0:
86,84,205665,1,8,0:2:0:0:
146,139,205761,1,8,0:2:0:0:
166,61,205858,1,8,0:2:0:0:
86,92,205956,6,0,B|104:207|58:162|78:284,1,191.999994140625,4|8,3:1|0:0,0:0:0:0:
254,357,206246,1,0,0:0:0:0:
254,357,206343,2,0,P|323:368|370:348,1,95.9999970703126,0|0,3:2|1:2,0:0:0:0:
211,208,206536,2,0,P|166:262|160:312,1,95.9999970703126,8|0,0:2|0:0,0:0:0:0:
432,256,206730,1,0,3:2:0:0:
461,184,206827,1,0,0:0:0:0:
439,110,206923,2,0,P|408:73|324:48,1,95.9999970703126,8|0,0:2|0:0,0:0:0:0:
337,210,207117,2,0,P|308:254|242:276,1,95.9999970703126,0|0,3:2|1:2,0:0:0:0:
25,316,207310,1,8,0:2:0:0:
25,316,207407,1,0,0:0:0:0:
25,316,207504,5,0,3:2:0:0:
6,282,207601,1,0,0:0:0:0:
46,216,207698,1,8,0:2:0:0:
41,177,207795,1,0,0:0:0:0:
77,110,207891,1,0,3:2:0:0:
116,104,207988,1,0,1:2:0:0:
178,129,208085,5,8,0:2:0:0:
214,184,208181,1,0,0:0:0:0:
263,242,208278,5,0,3:2:0:0:
301,248,208375,1,0,0:0:0:0:
368,285,208472,1,8,0:2:0:0:
406,276,208569,1,0,0:0:0:0:
464,227,208665,1,0,3:2:0:0:
476,190,208762,1,0,1:2:0:0:
450,117,208859,5,8,0:2:0:0:
408,52,208956,1,0,0:0:0:0:
332,40,209052,6,0,B|203:60|270:14|135:39,1,191.999994140625,0|8,3:2|0:2,0:0:0:0:
43,100,209343,1,0,0:0:0:0:
11,169,209439,2,0,P|2:217|11:280,1,95.9999970703126,0|0,3:2|1:2,0:0:0:0:
221,197,209633,2,0,P|218:133|190:86,1,95.9999970703126,8|0,0:2|0:0,0:0:0:0:
166,255,209827,1,0,3:2:0:0:
241,271,209923,1,0,0:0:0:0:
317,286,210020,2,0,P|324:337|305:398,1,95.9999970703126,8|0,0:2|0:0,0:0:0:0:
97,300,210214,2,0,P|90:249|109:188,1,95.9999970703126,0|0,3:2|1:2,0:0:0:0:
449,226,210407,1,8,0:2:0:0:
449,226,210504,1,0,0:0:0:0:
449,226,210601,5,0,3:2:0:0:
486,214,210698,1,0,0:0:0:0:
510,141,210794,1,8,0:2:0:0:
498,104,210891,1,0,0:0:0:0:
426,75,210988,1,0,3:2:0:0:
389,87,211085,1,0,1:2:0:0:
332,122,211181,1,8,0:2:0:0:
264,127,211278,1,0,0:0:0:0:
198,113,211375,5,4,3:2:0:0:
184,137,211472,1,0,0:0:0:0:
161,128,211568,1,8,0:2:0:0:
147,152,211665,1,8,0:2:0:0:
121,214,211762,5,8,0:2:0:0:
135,279,211859,1,8,0:2:0:0:
187,320,211956,1,8,0:2:0:0:
253,316,212052,1,8,0:2:0:0:
300,268,212149,6,0,B|428:240|363:289|501:262,1,191.999994140625,4|8,3:2|0:2,0:0:0:0:
234,182,212439,1,0,0:0:0:0:
213,257,212536,2,0,P|220:314|254:369,1,95.9999970703126,0|0,3:2|1:2,0:0:0:0:
506,186,212730,2,0,P|499:129|465:74,1,95.9999970703126,8|0,0:2|0:0,0:0:0:0:
314,109,212923,1,0,3:2:0:0:
267,120,213020,1,0,0:0:0:0:
224,96,213117,1,8,0:2:0:0:
177,107,213214,1,0,0:0:0:0:
132,90,213310,6,0,P|85:81|31:81,1,95.9999970703126,0|0,3:2|1:2,0:0:0:0:
342,217,213504,2,0,P|389:226|443:226,1,95.9999970703126,8|0,0:2|0:0,0:0:0:0:
155,178,213698,5,0,3:2:0:0:
80,161,213794,1,0,0:0:0:0:
6,183,213891,2,0,P|-5:233|2:288,1,95.9999970703126,8|0,0:2|0:0,0:0:0:0:
120,367,214085,5,0,3:2:0:0:
195,384,214181,1,0,0:0:0:0:
269,362,214278,2,0,P|280:312|273:257,1,95.9999970703126,8|0,0:2|0:0,0:0:0:0:
229,145,214472,5,0,3:2:0:0:
167,100,214568,1,0,0:0:0:0:
100,109,214665,5,8,0:2:0:0:
44,92,214762,1,8,0:2:0:0:
28,46,214859,1,8,0:2:0:0:
49,13,214956,1,8,0:3:0:0:
76,4,215052,1,8,0:3:0:0:
94,9,215149,1,0,1:0:0:0:
145,81,215246,6,0,P|150:150|139:239,2,132.00000402832,4|0|0,1:2|1:0|1:0,0:0:0:0:
7,302,216020,2,0,B|127:327|75:276|201:306,1,176.000005371094,8|0,0:2|0:0,0:0:0:0:
339,358,216601,1,8,0:0:0:0:
332,363,216698,1,8,0:0:0:0:
324,367,216794,6,0,P|319:305|325:251,1,88.000002685547,4|0,1:2|0:0,0:0:0:0:
363,211,217085,2,0,P|365:149|350:93,1,88.000002685547,0|0,1:0|0:0,0:0:0:0:
308,63,217375,1,0,1:0:0:0:
71,130,217568,5,8,0:2:0:0:
277,168,217762,1,0,0:0:0:0:
209,189,217859,1,0,1:0:0:0:
141,210,217956,1,8,0:2:0:0:
402,283,218149,1,0,0:0:0:0:
239,303,218343,5,8,0:2:0:0:
277,372,218439,1,8,0:2:0:0:
276,225,218633,5,8,0:2:0:0:
238,294,218729,1,8,0:2:0:0:
236,148,218923,5,8,0:2:0:0:
274,217,219019,1,8,0:2:0:0:
273,70,219213,5,8,0:2:0:0:
235,139,219309,1,8,0:2:0:0:
357,144,219504,5,8,0:2:0:0:
155,254,219633,5,0,0:0:0:0:
347,215,219762,5,0,0:0:0:0:
428,236,219891,6,0,L|421:186,3,29.3333342285157,8|8|4|4,0:3|0:3|0:3|0:3,0:0:0:0:
504,313,220278,6,2,B|423:374|352:313|352:313|281:250|199:313,1,335.999989746094,4|4,0:2|1:2,0:0:0:0:
255,78,224149,5,8,0:3:0:0:
67,144,224536,5,4,1:2:0:0:
113,199,224633,1,0,0:2:0:0:
177,220,224730,1,0,0:2:0:0:
241,216,224827,1,8,0:3:0:0:
298,201,224923,1,0,0:2:0:0:
339,163,225020,1,0,0:2:0:0:
269,130,225117,5,8,0:2:0:0:
248,173,225214,1,8,0:2:0:0:
253,220,225310,1,8,0:2:0:0:
281,258,225407,1,8,0:3:0:0:
303,300,225504,1,8,0:3:0:0:
301,348,225601,1,4,0:3:0:0:
223,314,225698,5,4,1:2:0:0:
185,285,225794,1,0,0:2:0:0:
140,285,225891,1,0,0:2:0:0:
103,302,225988,1,0,1:2:0:0:
66,299,226085,1,0,0:2:0:0:
36,286,226181,1,0,0:2:0:0:
1,214,226278,6,0,B|96:171|71:230|181:182,1,167.999994873047,0|0,1:2|1:2,0:0:0:0:
245,127,226665,2,0,P|253:92|249:52,1,55.9999982910157,0|0,0:2|0:2,0:0:0:0:
152,95,226859,5,8,0:2:0:0:
160,133,226956,1,8,0:2:0:0:
168,171,227052,1,8,0:2:0:0:
176,209,227149,1,8,0:3:0:0:
184,247,227246,1,8,0:3:0:0:
192,285,227343,1,0,0:3:0:0:
246,344,227439,5,4,1:2:0:0:
303,350,227536,1,0,0:2:0:0:
348,326,227633,1,8,0:2:0:0:
387,275,227730,5,8,0:2:0:0:
435,258,227827,1,8,0:2:0:0:
490,273,227924,1,8,0:2:0:0:
447,225,228020,5,8,0:2:0:0:
426,178,228117,1,8,0:2:0:0:
438,122,228214,1,8,0:2:0:0:
377,140,228310,5,8,0:2:0:0:
330,106,228407,1,8,0:2:0:0:
279,106,228504,1,0,0:2:0:0:
223,137,228601,5,4,1:2:0:0:
388,331,228891,5,4,1:2:0:0:
113,217,229181,5,4,1:2:0:0:
256,192,229278,12,0,230343,0:0:0:0:
116,220,230730,6,0,P|170:248|240:238,1,95.9999970703126,4|0,3:1|0:0,0:0:0:0:
409,238,230923,2,0,P|425:289|417:336,1,95.9999970703126,8|0,0:2|0:0,0:0:0:0:
221,112,231117,1,0,3:2:0:0:
221,112,231214,1,0,1:2:0:0:
221,112,231310,2,0,P|214:51|227:-7,1,95.9999970703126,8|0,0:2|0:0,0:0:0:0:
455,159,231504,5,0,3:2:0:0:
408,193,231601,1,0,0:0:0:0:
350,188,231698,1,8,0:2:0:0:
295,170,231794,1,0,0:0:0:0:
239,155,231891,1,0,1:2:0:0:
189,184,231988,1,0,1:2:0:0:
176,259,232085,5,8,0:2:0:0:
241,297,232181,1,0,0:2:0:0:
313,271,232278,6,0,P|314:201|297:164,1,95.9999970703126,0|0,3:2|0:0,0:0:0:0:
67,367,232472,2,0,P|137:368|174:351,1,95.9999970703126,8|0,0:2|0:0,0:0:0:0:
45,151,232665,1,0,3:2:0:0:
45,151,232762,1,0,1:2:0:0:
45,151,232859,2,0,P|44:221|61:258,1,95.9999970703126,8|0,0:2|0:0,0:0:0:0:
306,216,233052,5,0,3:2:0:0:
335,166,233149,1,0,0:0:0:0:
337,108,233246,1,8,0:2:0:0:
302,62,233343,1,0,0:0:0:0:
250,37,233439,2,0,P|199:36|132:52,1,95.9999970703126,0|0,3:2|1:2,0:0:0:0:
501,118,233633,5,8,0:2:0:0:
497,123,233698,1,0,0:0:0:0:
493,128,233762,1,0,0:0:0:0:
488,133,233827,2,0,P|477:91|475:53,1,71.9999978027344,0|0,3:2|0:0,0:0:0:0:
414,236,234020,2,0,L|398:312,2,47.9999985351563,8|0|0,0:2|0:0|0:0,0:0:0:0:
355,117,234214,2,0,P|320:97|274:83,1,71.9999978027344,0|0,3:2|1:2,0:0:0:0:
180,173,234407,5,8,0:2:0:0:
176,178,234472,1,0,0:0:0:0:
172,183,234536,1,0,0:0:0:0:
167,188,234601,2,0,P|153:145|156:94,1,71.9999978027344,0|0,3:2|0:0,0:0:0:0:
311,224,234794,1,8,0:2:0:0:
315,219,234859,1,0,0:0:0:0:
319,214,234923,1,0,0:0:0:0:
324,209,234988,2,0,P|335:251|323:306,1,71.9999978027344,0|0,3:2|1:0,0:0:0:0:
250,373,235181,2,0,B|203:375|226:347|151:358,1,71.9999978027344,8|0,0:2|0:0,0:0:0:0:
84,354,235375,6,0,P|41:369|-31:356,1,95.9999970703126,0|0,3:0|0:0,0:0:0:0:
240,280,235568,1,8,0:2:0:0:
240,280,235665,1,0,0:0:0:0:
240,280,235762,2,0,P|254:340|248:381,1,95.9999970703126,0|0,3:2|1:2,0:0:0:0:
56,215,235956,1,8,0:2:0:0:
56,215,236053,1,0,0:0:0:0:
56,215,236150,2,0,P|42:155|48:114,1,95.9999970703126,4|0,3:2|0:0,0:0:0:0:
177,94,236343,5,8,0:2:0:0:
234,94,236439,1,8,0:2:0:0:
262,143,236536,1,8,0:2:0:0:
234,193,236633,1,8,0:2:0:0:
177,193,236730,1,8,0:2:0:0:
149,143,236827,1,8,0:2:0:0:
177,94,236923,6,0,P|278:84|373:90,1,191.999994140625,4|8,3:2|0:2,0:0:0:0:
499,171,237310,1,0,3:2:0:0:
299,249,237504,1,8,0:2:0:0:
299,249,237601,1,0,0:2:0:0:
299,249,237698,6,0,P|286:185|292:130,1,95.9999970703126,0|0,3:2|0:0,0:0:0:0:
488,290,237891,1,8,0:2:0:0:
488,290,237988,1,0,0:0:0:0:
488,290,238085,2,0,P|501:354|495:409,1,95.9999970703126,0|0,3:2|1:2,0:0:0:0:
213,320,238278,1,8,0:2:0:0:
156,267,238375,1,0,0:0:0:0:
170,191,238472,6,0,B|235:199|200:177|265:188,1,95.9999970703126,0|0,3:2|0:2,0:0:0:0:
396,366,238665,1,8,0:2:0:0:
396,366,238762,1,0,0:0:0:0:
396,366,238859,2,0,P|399:302|371:235,1,95.9999970703126,0|0,3:2|1:2,0:0:0:0:
98,216,239052,2,0,L|-45:197,1,95.9999970703126,8|0,0:2|0:0,0:0:0:0:
333,78,239246,6,2,B|309:139|318:186|318:186|331:257|362:286|411:283|463:257|469:196|432:148|362:155|321:186|321:186|253:213|155:151,1,575.999982421876,0|8,3:2|0:3,0:1:0:0:
38,96,240020,5,8,0:2:0:0:
78,114,240117,1,8,0:2:0:0:
118,132,240214,1,8,0:2:0:0:
158,150,240310,1,8,0:2:0:0:
59,238,240601,5,8,0:2:0:0:
114,228,240698,1,8,0:2:0:0:
169,219,240795,1,8,0:2:0:0:
223,210,240891,2,0,L|286:199,2,55.9999982910157,8|2|2,0:2|0:1|0:1,0:0:0:0:
122,305,241181,5,4,0:1:0:0:
432,308,241568,5,8,0:2:0:0:
375,364,241665,1,8,0:2:0:0:
223,210,241956,1,0,1:0:0:0:
446,104,242343,5,8,0:2:0:0:
506,158,242439,1,8,0:2:0:0:
230,26,242730,1,4,0:3:0:0:
83,294,243117,5,4,1:1:0:0:
256,192,243310,12,0,246020,0:0:0:0:
