osu file format v14

[General]
AudioFilename: audio.mp3
AudioLeadIn: 0
PreviewTime: 13956
Countdown: 0
SampleSet: Soft
StackLeniency: 0.6
Mode: 0
LetterboxInBreaks: 0
WidescreenStoryboard: 1

[Editor]
Bookmarks: 41838,63504,75902,88278,103762,106859,128536,140923,168794,181181,192020,230730
DistanceSpacing: 1.2
BeatDivisor: 4
GridSize: 16
TimelineZoom: 2

[Metadata]
Title:Natsuirozaka
TitleUnicode:懐色坂
Artist:VALLEYSTONE feat. Kanata.N
ArtistUnicode:VALLEYSTONE feat. かなたん
Creator:kwk
Version:Hard
Source:
Tags:moph 404 AimNotFound Luscent Saturnalize -akito pop'n music うさぎと猫と少年の夢 kanatan
BeatmapID:2015370
BeatmapSetID:950550

[Difficulty]
HPDrainRate:3
CircleSize:3
OverallDifficulty:5
ApproachRate:8
SliderMultiplier:1.8
SliderTickRate:1

[Events]
//Background and Video events
0,0,"bg.jpg",0,0
//Break Periods
2,103962,106109
2,168995,180431
//Storyboard Layer 0 (Background)
//Storyboard Layer 1 (Fail)
//Storyboard Layer 2 (Pass)
//Storyboard Layer 3 (Foreground)
//Storyboard Layer 4 (Overlay)
//Storyboard Sound Samples

[TimingPoints]
1569,387.096774193548,4,2,69,50,1,0
13956,389.61038961039,4,2,69,60,1,0
13956,-200,4,2,69,60,0,0
14294,-200,4,2,69,5,0,0
14391,-200,4,2,69,60,0,0
14735,405.405405405405,4,2,69,60,1,0
14875,-200,4,2,69,5,0,0
14972,-200,4,2,69,60,0,0
15545,382.165605095541,4,2,69,60,1,0
15545,-200,4,2,69,60,0,0
16230,-200,4,2,69,5,0,0
16327,-200,4,2,69,60,0,0
17073,394.736842105263,4,2,69,60,1,0
17391,-200,4,2,69,5,0,0
17488,-200,4,2,69,60,0,0
17862,379.746835443038,4,2,69,60,1,0
17972,-200,4,2,69,5,0,0
18068,-200,4,2,69,60,0,0
18621,387.096774193548,4,2,69,60,1,0
18621,-200,4,2,69,50,0,0
19133,-200,4,2,69,50,0,0
19230,-200,4,2,69,60,0,0
20169,387.722132471729,4,2,69,60,1,0
20488,-200,4,2,69,5,0,0
20585,-200,4,2,69,60,0,0
20944,404.040404040404,4,2,69,60,1,0
21068,-200,4,2,69,5,0,0
21752,370.37037037037,4,2,69,50,1,0
21752,-200,4,2,69,60,0,0
22230,-200,4,2,69,60,0,0
22327,-200,4,2,69,75,0,0
22859,387.096774193548,4,2,69,50,1,0
23246,387.096774193548,4,2,69,75,1,0
23246,-333.333333333333,4,2,69,75,0,0
25762,-100,4,2,53,75,0,0
25956,-133.333333333333,4,2,53,75,0,0
28278,-100,4,2,53,75,0,0
29439,-83.3333333333333,4,2,53,75,0,0
39665,-83.3333333333333,4,2,69,75,0,0
40278,-83.3333333333333,4,2,53,75,0,0
41827,-133.333333333333,4,2,53,75,0,0
42214,-100,4,2,53,65,0,0
63504,-90.9090909090909,4,2,53,75,0,0
63601,-90.9090909090909,4,2,42,75,0,0
69698,-90.9090909090909,4,2,53,75,0,0
75891,-83.3333333333333,4,2,53,85,0,1
97568,-133.333333333333,4,2,53,65,0,0
102601,-100,4,1,53,75,0,0
103568,-100,4,2,53,75,0,0
106859,-100,4,2,53,65,0,0
128536,-90.9090909090909,4,2,53,75,0,0
128633,-90.9090909090909,4,2,42,75,0,0
134730,-90.9090909090909,4,2,53,75,0,0
140923,-83.3333333333333,4,2,53,85,0,1
162600,-133.333333333333,4,2,53,65,0,0
168359,-100,4,2,53,75,0,0
168456,-100,4,2,53,75,0,0
175133,-100,4,2,42,75,0,0
179633,-100,4,2,53,75,0,0
180504,-100,4,2,42,75,0,0
180698,-100,4,2,53,75,0,0
181375,-100,4,2,69,80,0,0
187278,-100,4,2,53,75,0,0
189698,-90.9090909090909,4,2,53,75,0,0
192020,-333.333333333333,4,2,53,75,0,0
193955,-83.3333333333333,4,2,53,85,0,1
215245,-133.333333333333,4,2,53,65,0,0
220278,-100,4,1,53,75,0,0
221246,-100,4,2,53,75,0,0
224052,-100,4,2,69,75,0,0
224246,-100,4,2,53,75,0,0
224536,-90.9090909090909,4,2,53,85,0,0
229375,-166.666666666667,4,2,53,85,0,0
230730,-83.3333333333333,4,2,53,95,0,0
240891,-133.333333333333,4,2,53,85,0,0
240988,-100,4,2,69,100,0,0
241278,-100,4,2,53,100,0,0
246117,-100,4,2,53,5,0,0

[Colours]
Combo1 : 255,255,166
Combo2 : 255,128,128
Combo3 : 0,255,255
Combo4 : 0,255,128

[HitObjects]
148,105,13956,5,12,0:3:0:0:
289,166,14735,1,2,0:2:0:0:
134,131,15545,2,0,B|166:194|166:194|156:237|156:237|188:317,1,180,4|0,0:3|0:0,0:0:0:0:
84,196,17073,5,2,0:2:0:0:
145,135,17862,1,0,0:0:0:0:
68,217,18621,2,0,L|214:192,1,135,4|4,0:3|0:3,0:0:0:0:
422,248,20169,5,4,0:3:0:0:
471,138,20944,1,2,0:2:0:0:
459,263,21752,2,0,P|404:234|350:289,1,135,4|4,0:3|0:3,0:0:0:0:
338,318,23246,6,0,L|294:218,1,107.999996704102,8|0,0:3|0:0,0:0:0:0:
292,217,24407,1,0,0:0:0:0:
292,217,24794,6,0,L|335:315,1,107.999996704102,4|0,0:3|0:0,0:0:0:0:
424,316,25762,2,0,L|453:269,2,45,2|0|0,0:3|0:0|1:0,0:0:0:0:
388,227,26343,5,8,0:2:0:0:
388,227,26439,1,8,0:2:0:0:
445,157,26633,1,8,0:2:0:0:
445,157,26730,1,8,0:2:0:0:
375,100,26924,1,8,0:2:0:0:
375,100,27020,1,8,0:2:0:0:
318,170,27214,1,8,0:2:0:0:
318,170,27310,1,8,0:2:0:0:
388,227,27504,6,0,L|436:219,2,45.0000017166138,8|0|0,0:2|0:0|0:0,0:0:0:0:
365,261,27891,2,0,P|365:272|366:283,3,22.5000008583069,8|8|8|4,0:2|0:3|0:3|0:3,0:0:0:0:
256,192,28278,12,0,29052,0:0:0:0:
29,289,29439,6,0,P|87:269|151:288,1,107.999996704102,4|10,3:1|0:2,0:0:0:0:
207,354,29827,1,2,3:2:0:0:
207,354,29923,1,2,1:2:0:0:
310,309,30117,1,2,0:2:0:0:
310,309,30214,2,0,L|281:195,1,107.999996704102,0|8,3:2|0:2,0:0:0:0:
371,141,30601,1,2,3:2:0:0:
371,141,30697,1,2,1:2:0:0:
371,141,30794,1,10,0:2:0:0:
276,87,30988,6,0,P|218:79|165:127,1,107.999996704102,2|10,3:2|0:2,0:0:0:0:
145,207,31375,1,2,3:2:0:0:
145,207,31472,1,2,1:2:0:0:
45,248,31665,1,2,0:2:0:0:
45,248,31762,2,0,P|39:176|69:132,1,107.999996704102,0|8,3:2|0:2,0:0:0:0:
159,117,32149,1,2,3:2:0:0:
159,117,32245,1,2,1:2:0:0:
159,117,32342,1,10,0:2:0:0:
107,22,32536,6,0,L|174:2,1,53.9999983520508,2|0,3:2|0:0,0:0:0:0:
205,34,32730,2,0,L|274:32,1,53.9999983520508,10|2,0:2|0:2,0:0:0:0:
296,70,32923,2,0,L|364:86,1,53.9999983520508,2|2,3:2|1:2,0:0:0:0:
374,128,33117,2,0,L|435:161,2,53.9999983520508,10|0|2,0:2|0:0|3:2,0:0:0:0:
317,48,33504,2,0,L|264:61,1,53.9999983520508,10|2,0:2|0:2,0:0:0:0:
215,46,33698,2,0,L|168:72,1,53.9999983520508,2|2,3:2|1:2,0:0:0:0:
115,71,33891,2,0,L|76:108,1,53.9999983520508,10|0,0:2|0:2,0:0:0:0:
79,160,34085,6,0,L|196:150,1,107.999996704102,2|10,3:2|0:2,0:0:0:0:
233,177,34375,1,0,0:0:0:0:
211,226,34472,2,0,L|103:235,1,107.999996704102,2|10,3:2|0:2,0:0:0:0:
27,311,34859,2,0,L|30:372,1,53.9999983520508,6|0,3:2|0:0,0:0:0:0:
73,328,35052,2,0,L|76:382,1,53.9999983520508,10|8,0:2|0:2,0:0:0:0:
109,324,35246,2,0,L|112:378,1,53.9999983520508,10|8,0:2|0:2,0:0:0:0:
148,298,35439,2,0,L|151:359,1,53.9999983520508,10|8,0:2|0:2,0:0:0:0:
186,384,35633,6,0,L|179:275,1,107.999996704102,6|10,3:2|0:2,0:0:0:0:
277,320,36020,1,2,3:2:0:0:
277,320,36116,1,2,1:2:0:0:
372,283,36310,1,2,0:2:0:0:
372,283,36407,2,0,L|365:174,1,107.999996704102,0|8,3:2|0:2,0:0:0:0:
259,201,36794,1,2,3:2:0:0:
259,201,36890,1,2,1:2:0:0:
259,201,36987,1,10,0:2:0:0:
301,111,37181,6,0,P|346:84|401:92,1,107.999996704102,2|10,3:2|0:2,0:0:0:0:
494,142,37568,1,2,3:2:0:0:
494,142,37665,1,2,1:2:0:0:
462,243,37858,1,2,0:2:0:0:
462,243,37955,2,0,L|333:233,1,107.999996704102,0|8,3:2|0:2,0:0:0:0:
260,180,38342,2,0,L|210:202,2,53.9999983520508,10|8|10,0:2|0:3|0:2,0:0:0:0:
330,96,38730,6,0,B|344:71|344:71|319:40,3,53.9999983520508,8|8|8|8,0:2|0:2|0:2|0:2,0:0:0:0:
183,51,39310,2,0,B|168:71|168:71|182:96,3,53.9999983520508,8|8|8|8,0:2|0:2|0:2|0:2,0:0:0:0:
262,151,40278,5,8,0:2:0:0:
262,151,40375,1,8,0:2:0:0:
260,274,40665,1,0,1:0:0:0:
351,168,41052,5,8,0:2:0:0:
351,168,41149,1,8,0:2:0:0:
349,26,41439,1,4,0:3:0:0:
255,182,41827,5,4,1:2:0:0:
410,266,42214,1,8,0:2:0:0:
333,306,42407,2,0,L|223:297,2,90,0|0|0,1:2|0:0|1:0,0:0:0:0:
408,355,42988,1,0,0:0:0:0:
487,313,43181,6,0,B|526:234|526:234|476:146,1,180,8|0,0:2|1:0,0:0:0:0:
424,83,43762,2,0,P|393:133|396:174,1,90,8|0,0:2|0:0,0:0:0:0:
433,241,44052,1,0,0:0:0:0:
433,241,44149,1,0,1:0:0:0:
512,78,44536,1,8,0:2:0:0:
338,96,44923,5,4,1:2:0:0:
338,95,45310,2,0,P|358:171|337:198,2,90,8|0|0,0:2|1:2|0:0,0:0:0:0:
251,120,45891,1,0,1:0:0:0:
163,96,46085,1,0,0:0:0:0:
83,136,46278,6,0,L|102:258,1,90,8|0,0:2|0:0,0:0:0:0:
169,274,46665,1,0,1:0:0:0:
253,321,46859,1,8,0:2:0:0:
253,321,46956,1,0,0:0:0:0:
253,321,47052,1,0,0:0:0:0:
324,271,47246,6,0,B|366:282|366:282|440:262,1,90,0|0,1:0|0:0,0:0:0:0:
407,179,47633,2,0,B|365:168|365:168|291:188,1,90,8|0,0:2|3:0,0:0:0:0:
245,231,48020,5,4,1:2:0:0:
104,149,48407,1,8,0:2:0:0:
104,149,48601,2,0,L|139:52,2,90,0|0|0,1:2|0:0|1:0,0:0:0:0:
101,238,49181,1,0,0:0:0:0:
177,290,49375,6,0,B|219:268|219:268|269:286,1,90,8|0,0:2|0:0,0:0:0:0:
342,317,49762,1,0,1:0:0:0:
271,373,49956,1,8,0:2:0:0:
259,282,50149,1,0,0:0:0:0:
248,192,50343,6,0,L|337:203,1,90,0|0,1:0|1:2,0:0:0:0:
396,134,50730,2,0,L|348:49,1,90,8|0,0:2|0:0,0:0:0:0:
285,116,51117,5,4,1:2:0:0:
476,175,51504,1,8,0:2:0:0:
476,175,51698,2,0,L|504:262,2,90,0|0|0,1:2|0:0|1:0,0:0:0:0:
392,142,52278,1,0,0:0:0:0:
305,105,52472,6,0,L|314:7,1,90,8|0,0:2|0:0,0:0:0:0:
225,36,52859,1,0,1:0:0:0:
139,9,53052,1,8,0:2:0:0:
139,9,53149,1,0,0:0:0:0:
139,9,53246,6,0,L|129:52,1,45,0|0,0:0|0:0,0:0:0:0:
87,71,53439,2,0,L|100:136,1,45,0|8,1:0|0:2,0:0:0:0:
136,135,53633,2,0,L|126:178,1,45,0|0,0:0|1:2,0:0:0:0:
84,197,53826,2,0,L|97:262,1,45,8|0,0:2|0:0,0:0:0:0:
137,250,54020,2,0,L|116:315,1,45,8|8,0:2|0:2,0:0:0:0:
104,334,54214,5,4,3:2:0:0:
283,322,54601,1,8,0:2:0:0:
283,322,54794,2,0,B|331:321|331:321|373:354,2,90,0|0|0,1:2|0:0|1:0,0:0:0:0:
199,355,55375,1,0,0:0:0:0:
122,308,55568,6,0,P|118:249|157:218,1,90,8|0,0:2|0:0,0:0:0:0:
225,216,55956,1,0,1:0:0:0:
225,216,56052,1,0,0:0:0:0:
225,216,56149,1,8,0:2:0:0:
312,237,56343,1,0,0:0:0:0:
372,170,56536,2,0,P|381:113|348:73,1,90,0|0,1:0|1:2,0:0:0:0:
306,18,56923,2,0,L|200:13,1,90,8|0,0:2|0:0,0:0:0:0:
132,14,57310,1,4,1:2:0:0:
132,14,57698,6,0,B|129:56|129:56|133:70|133:70|131:132,1,90,8|0,0:2|0:0,0:0:0:0:
93,185,58085,1,0,0:0:0:0:
162,241,58278,1,0,1:0:0:0:
99,306,58472,1,0,0:0:0:0:
172,357,58665,2,0,P|235:338|295:352,1,90,8|0,0:2|0:0,0:0:0:0:
345,363,59052,1,0,1:0:0:0:
345,363,59149,1,0,0:0:0:0:
345,363,59246,2,0,L|419:276,1,90,8|0,0:2|0:0,0:0:0:0:
318,244,59633,6,0,L|301:197,1,45,0|0,1:0|0:0,0:0:0:0:
255,211,59827,2,0,P|250:160|250:159,1,45,0|0,1:2|0:0,0:0:0:0:
205,168,60020,2,0,L|216:114,1,45,8|0,0:2|0:0,0:0:0:0:
168,102,60214,2,0,L|219:65,1,45,0|0,0:0|0:0,0:0:0:0:
184,36,60407,5,4,1:2:0:0:
357,9,60794,2,0,L|375:131,1,90,8|0,0:2|1:2,0:0:0:0:
387,186,61181,1,0,0:0:0:0:
405,274,61375,1,0,1:0:0:0:
319,246,61568,1,0,0:0:0:0:
249,303,61762,6,0,B|205:323|205:323|138:305,1,90,8|0,0:2|0:0,0:0:0:0:
87,265,62149,1,0,1:0:0:0:
93,175,62343,2,0,B|145:134|145:134|229:131,1,135,8|0,0:2|1:0,0:0:0:0:
289,175,62730,5,8,0:2:0:0:
289,175,62827,1,8,0:2:0:0:
351,110,63020,1,8,0:2:0:0:
351,110,63117,1,8,0:2:0:0:
434,167,63310,1,8,0:2:0:0:
434,167,63407,1,8,0:2:0:0:
434,167,63504,6,0,P|454:218|433:279,1,99.0000030212403,4|4,3:2|0:2,0:0:0:0:
357,306,63891,1,0,3:2:0:0:
265,268,64085,1,12,0:2:0:0:
190,332,64278,2,0,L|175:277,1,49.5000015106202,0|0,3:2|0:0,0:0:0:0:
130,302,64472,2,0,L|139:238,1,49.5000015106202,4|8,0:2|0:1,0:0:0:0:
88,244,64665,2,0,B|114:193|114:193|176:165,1,99.0000030212403,4|12,3:2|0:2,0:0:0:0:
245,142,65052,5,0,3:2:0:0:
329,194,65246,1,4,0:2:0:0:
420,157,65439,2,0,L|396:105,1,49.5000015106202,0|0,3:2|0:0,0:0:0:0:
447,95,65633,2,0,L|398:51,1,49.5000015106202,12|0,0:2|0:0,0:0:0:0:
441,23,65826,2,0,P|384:4|326:23,1,99.0000030212403,0|4,3:2|0:2,0:0:0:0:
272,77,66214,5,4,3:2:0:0:
181,37,66407,1,12,0:2:0:0:
86,66,66601,2,0,L|63:196,1,99.0000030212403,0|4,3:2|0:2,0:0:0:0:
31,275,66988,6,0,P|110:258|146:288,1,99.0000030212403,0|12,3:2|0:2,0:0:0:0:
197,329,67375,1,0,3:2:0:0:
293,306,67568,1,4,0:2:0:0:
373,363,67762,2,0,P|386:303|363:251,1,99.0000030212403,4|12,3:2|0:2,0:0:0:0:
332,178,68149,6,0,L|387:163,1,49.5000015106202,0|0,3:2|0:0,0:0:0:0:
362,118,68343,2,0,L|426:127,1,49.5000015106202,4|8,0:2|0:1,0:0:0:0:
393,78,68536,2,0,P|431:97|441:190,1,99.0000030212403,0|12,3:2|0:2,0:0:0:0:
424,241,68923,2,0,B|374:252|374:252|329:231,1,99.0000030212403,0|4,3:2|0:2,0:0:0:0:
237,198,69310,5,4,3:2:0:0:
241,98,69504,1,12,0:2:0:0:
247,0,69698,1,4,3:2:0:0:
249,28,71246,5,0,1:0:0:0:
243,128,71440,1,0,1:0:0:0:
239,228,71634,1,0,1:0:0:0:
236,326,71827,1,0,1:0:0:0:
316,286,72020,6,0,L|366:278,3,49.5000015106202,8|0|8|8,0:2|0:0|0:2|0:2,0:0:0:0:
399,243,72407,2,0,L|349:235,3,49.5000015106202,8|8|8|8,0:2|0:2|0:2|0:2,0:0:0:0:
322,193,72794,6,0,L|382:182,1,49.5000015106202,8|8,0:2|0:2,0:0:0:0:
413,157,72988,2,0,L|364:148,1,49.5000015106202,8|8,0:2|0:2,0:0:0:0:
243,85,73375,6,0,L|303:74,1,49.5000015106202,8|8,0:2|0:2,0:0:0:0:
334,49,73569,2,0,L|285:40,1,49.5000015106202,8|8,0:2|0:2,0:0:0:0:
90,30,73956,6,0,L|96:92,1,49.5000015106202,8|0,0:2|0:0,0:0:0:0:
64,118,74149,2,0,L|82:173,1,49.5000015106202,0|0,1:0|0:0,0:0:0:0:
118,195,74343,1,4,1:2:0:0:
256,192,74439,12,8,75407,0:2:0:0:
0,254,75891,6,0,P|54:237|121:276,1,107.999996704102,4|8,3:1|0:2,0:0:0:0:
180,327,76278,1,0,3:2:0:0:
280,287,76472,1,8,0:2:0:0:
363,355,76665,2,0,L|376:231,1,107.999996704102,0|8,3:2|0:2,0:0:0:0:
423,273,76956,1,0,0:0:0:0:
473,255,77052,2,0,L|459:131,1,107.999996704102,0|8,3:2|0:2,0:0:0:0:
405,53,77439,6,0,L|347:67,1,53.9999983520508,0|0,3:2|0:0,0:0:0:0:
321,21,77633,2,0,L|268:49,1,53.9999983520508,8|0,0:2|0:0,0:0:0:0:
231,11,77827,2,0,L|187:52,1,53.9999983520508,0|0,3:2|1:2,0:0:0:0:
141,24,78020,2,0,L|109:74,2,53.9999983520508,8|0|0,0:2|0:0|3:2,0:0:0:0:
178,128,78407,2,0,L|190:215,1,53.9999983520508,8|0,0:2|0:0,0:0:0:0:
134,201,78601,2,0,L|168:281,1,53.9999983520508,0|0,3:2|1:0,0:0:0:0:
110,282,78794,2,0,L|163:351,1,53.9999983520508,8|0,0:2|0:0,0:0:0:0:
108,383,78988,6,0,P|156:347|239:361,1,107.999996704102,0|8,3:2|0:2,0:0:0:0:
307,369,79375,1,0,3:2:0:0:
398,312,79568,1,8,0:2:0:0:
385,204,79762,2,0,B|323:198|323:198|248:237,1,107.999996704102,0|8,3:2|0:2,0:0:0:0:
230,232,80052,1,0,0:0:0:0:
176,239,80149,2,0,L|78:180,1,107.999996704102,0|8,3:2|0:2,0:0:0:0:
135,88,80536,6,0,P|153:113|155:161,1,53.9999983520508,0|0,3:2|0:0,0:0:0:0:
205,162,80730,2,0,P|211:136|228:114,1,53.9999983520508,8|0,0:2|0:0,0:0:0:0:
272,83,80923,2,0,P|290:108|292:156,1,53.9999983520508,0|0,3:2|1:2,0:0:0:0:
342,157,81117,2,0,P|348:131|365:109,2,53.9999983520508,8|0|4,0:2|0:0|3:2,0:0:0:0:
411,240,81504,6,0,L|351:236,1,53.9999983520508,8|8,0:2|0:2,0:0:0:0:
317,274,81698,2,0,L|257:270,1,53.9999983520508,8|8,0:2|0:2,0:0:0:0:
218,301,81891,2,0,L|158:297,1,53.9999983520508,8|8,0:2|0:2,0:0:0:0:
129,339,82085,6,0,P|131:282|96:218,1,107.999996704102,4|8,3:2|0:2,0:0:0:0:
12,190,82472,1,0,3:2:0:0:
0,82,82665,1,8,0:2:0:0:
90,22,82859,2,0,P|156:8|213:45,1,107.999996704102,0|8,3:2|0:2,0:0:0:0:
222,67,83149,1,0,0:0:0:0:
252,111,83246,2,0,P|309:126|378:78,1,107.999996704102,0|8,3:2|0:2,0:0:0:0:
395,9,83633,6,0,L|420:78,1,53.9999983520508,0|0,3:2|0:0,0:0:0:0:
458,90,83827,2,0,L|457:163,1,53.9999983520508,8|0,0:2|0:0,0:0:0:0:
489,187,84020,2,0,L|463:255,1,53.9999983520508,0|0,3:2|1:2,0:0:0:0:
484,288,84214,2,0,L|436:344,1,53.9999983520508,8|0,0:2|0:0,0:0:0:0:
407,364,84407,5,0,3:2:0:0:
298,357,84601,1,8,0:2:0:0:
190,349,84794,1,0,3:2:0:0:
190,349,84891,1,0,0:0:0:0:
190,349,84988,1,8,0:2:0:0:
293,319,85181,6,0,L|413:271,1,107.999996704102,0|8,3:2|0:2,0:0:0:0:
417,173,85568,1,0,3:2:0:0:
430,65,85762,1,8,0:2:0:0:
327,30,85956,2,0,L|247:7,2,53.9999983520508,0|0|8,3:2|0:0|0:2,0:0:0:0:
309,136,86343,2,0,L|326:268,1,107.999996704102,0|8,3:2|0:2,0:0:0:0:
288,367,86730,5,0,3:2:0:0:
193,315,86923,1,8,0:2:0:0:
95,362,87117,2,0,L|48:246,2,107.999996704102,0|8|0,3:2|0:2|3:2,0:0:0:0:
193,315,87698,6,0,L|206:259,1,53.9999983520508,8|8,0:2|0:2,0:0:0:0:
257,246,87891,2,0,L|270:190,1,53.9999983520508,8|8,0:2|0:2,0:0:0:0:
226,158,88085,2,0,L|239:102,1,53.9999983520508,8|8,0:2|0:2,0:0:0:0:
283,75,88278,6,0,P|220:85|175:52,1,107.999996704102,4|8,3:1|0:2,0:0:0:0:
82,25,88665,1,0,3:2:0:0:
9,105,88859,1,8,0:2:0:0:
74,190,89052,2,0,P|126:163|206:179,1,107.999996704102,0|8,3:2|0:2,0:0:0:0:
225,184,89343,1,0,0:0:0:0:
275,203,89439,2,0,L|270:83,1,107.999996704102,0|8,3:2|0:2,0:0:0:0:
364,41,89826,6,0,L|350:99,1,53.9999983520508,0|0,3:2|0:0,0:0:0:0:
396,125,90020,2,0,L|368:178,1,53.9999983520508,8|0,0:2|0:0,0:0:0:0:
406,215,90214,2,0,L|365:259,1,53.9999983520508,0|0,3:2|1:2,0:0:0:0:
393,305,90407,2,0,L|343:337,2,53.9999983520508,8|0|0,0:2|0:0|3:2,0:0:0:0:
295,246,90794,2,0,L|218:289,1,53.9999983520508,8|0,0:2|0:0,0:0:0:0:
210,231,90988,2,0,L|148:292,1,53.9999983520508,0|0,3:2|1:2,0:0:0:0:
125,240,91181,2,0,L|80:314,1,53.9999983520508,8|0,0:2|0:0,0:0:0:0:
75,336,91375,6,0,L|54:189,1,107.999996704102,0|8,3:2|0:2,0:0:0:0:
37,123,91762,1,0,3:2:0:0:
111,44,91955,1,8,0:2:0:0:
208,90,92149,2,0,B|270:96|270:96|345:57,1,107.999996704102,0|8,3:2|0:2,0:0:0:0:
361,55,92439,1,0,0:0:0:0:
413,68,92536,2,0,P|437:112|423:195,1,107.999996704102,0|8,3:2|0:2,0:0:0:0:
352,237,92923,6,0,P|334:212|332:164,1,53.9999983520508,0|0,3:2|0:0,0:0:0:0:
282,163,93117,2,0,P|276:189|259:211,1,53.9999983520508,8|0,0:2|0:0,0:0:0:0:
215,242,93310,2,0,P|197:217|195:169,1,53.9999983520508,0|0,3:2|1:2,0:0:0:0:
145,168,93504,2,0,P|139:194|122:216,2,53.9999983520508,8|0|4,0:2|0:0|3:2,0:0:0:0:
137,59,93891,1,8,0:2:0:0:
137,59,93988,1,0,0:0:0:0:
137,59,94085,2,0,L|82:37,3,53.9999983520508,8|8|8|8,0:2|0:2|0:2|0:2,0:0:0:0:
36,19,94472,6,0,L|56:150,1,107.999996704102,4|8,3:2|0:2,0:0:0:0:
135,195,94859,1,0,3:2:0:0:
81,288,95052,1,8,0:2:0:0:
175,340,95246,2,0,P|232:316|295:340,1,107.999996704102,0|8,3:2|0:2,0:0:0:0:
325,345,95536,1,0,0:0:0:0:
374,367,95633,2,0,P|426:376|474:352,1,107.999996704102,0|8,3:2|0:2,0:0:0:0:
494,246,96020,6,0,L|475:195,1,53.9999983520508,0|0,3:2|0:0,0:0:0:0:
421,200,96214,2,0,L|443:151,1,53.9999983520508,8|0,0:2|0:0,0:0:0:0:
401,115,96407,2,0,L|451:96,2,53.9999983520508,0|0|8,3:2|1:0|0:2,0:0:0:0:
324,37,96794,2,0,B|268:128|268:128|369:248,1,215.999993408203,0|8,3:2|0:2,0:0:0:0:
420,318,97568,6,0,P|360:293|289:326,1,135.000005149842,4|0,3:2|0:0,0:0:0:0:
224,352,98149,1,0,1:0:0:0:
224,352,98343,2,0,P|171:271|196:219,1,135.000005149842,8|0,0:2|0:0,0:0:0:0:
232,180,98923,1,8,0:0:0:0:
232,180,99117,2,0,P|239:134|221:101,1,67.5000025749208,4|0,3:2|0:0,0:0:0:0:
158,80,99504,1,0,0:0:0:0:
85,117,99698,1,0,1:0:0:0:
11,82,99891,2,0,L|1:148,1,67.5000025749208,8|0,0:2|0:0,0:0:0:0:
40,220,100278,2,0,L|28:306,1,67.5000025749208,8|0,0:2|0:0,0:0:0:0:
22,367,100665,5,8,0:2:0:0:
22,367,100762,1,8,0:2:0:0:
102,331,100956,1,8,0:2:0:0:
102,331,101053,1,8,0:2:0:0:
183,363,101246,1,8,0:2:0:0:
183,363,101343,1,8,0:2:0:0:
262,327,101536,1,8,0:2:0:0:
262,327,101633,1,8,0:2:0:0:
344,356,101827,6,0,L|398:363,2,45.0000017166138,8|0|0,0:2|0:0|0:0,0:0:0:0:
333,318,102214,2,0,P|333:307|346:274,3,33.7500012874604,8|8|4|0,0:3|0:3|0:3|0:0,0:0:0:0:
256,192,102601,12,4,103762,1:2:0:0:
60,62,106859,5,4,1:2:0:0:
60,62,107439,5,0,0:0:0:0:
128,121,107633,1,0,0:0:0:0:
218,115,107827,1,0,0:0:0:0:
272,43,108020,1,0,0:0:0:0:
361,51,108214,6,0,B|417:113|417:113|411:232,2,180,8|0|0,0:2|1:2|0:0,0:0:0:0:
295,112,109085,1,0,0:0:0:0:
295,112,109181,2,0,P|248:127|204:96,1,90,0|0,1:0|0:0,0:0:0:0:
154,41,109568,2,0,P|113:23|72:38,1,90,8|8,0:2|0:2,0:0:0:0:
7,101,109956,1,0,1:2:0:0:
0,328,110536,5,0,0:0:0:0:
85,357,110730,1,0,0:0:0:0:
167,322,110923,1,0,1:0:0:0:
253,346,111117,1,0,0:0:0:0:
335,310,111310,6,0,L|362:193,1,90,8|0,0:2|0:0,0:0:0:0:
290,158,111698,1,0,1:2:0:0:
208,195,111891,1,8,0:2:0:0:
143,134,112085,1,0,0:0:0:0:
143,134,112181,1,0,0:0:0:0:
143,134,112278,2,0,B|126:90|126:90|147:35,1,90,0|0,1:0|0:0,0:0:0:0:
218,3,112665,2,0,L|276:5,2,45,8|0|8,0:2|0:0|0:2,0:0:0:0:
222,93,113052,5,4,1:2:0:0:
412,17,113633,5,0,1:2:0:0:
469,86,113827,1,0,0:0:0:0:
416,159,114021,1,0,1:0:0:0:
468,231,114214,1,0,0:0:0:0:
425,309,114407,6,0,L|308:301,1,90,8|0,0:2|0:0,0:0:0:0:
245,301,114794,1,0,1:0:0:0:
172,355,114988,1,8,0:2:0:0:
108,291,115181,1,0,0:0:0:0:
149,210,115375,6,0,L|241:214,1,90,0|0,1:0|1:2,0:0:0:0:
351,213,115762,2,0,L|386:115,1,90,8|0,0:2|1:0,0:0:0:0:
341,33,116149,5,4,1:2:0:0:
165,71,116536,1,8,0:2:0:0:
165,71,116730,2,0,L|70:75,2,90,0|0|0,1:2|0:0|1:0,0:0:0:0:
254,67,117310,1,0,0:0:0:0:
344,63,117504,6,0,P|369:99|359:151,1,90,8|0,0:2|0:0,0:0:0:0:
327,225,117891,1,0,1:0:0:0:
354,311,118084,1,8,0:2:0:0:
354,311,118181,1,0,0:0:0:0:
354,311,118278,6,0,L|311:321,1,45,0|0,0:0|0:0,0:0:0:0:
292,363,118471,2,0,L|227:350,1,45,0|8,1:0|0:2,0:0:0:0:
228,314,118665,2,0,L|185:324,1,45,0|0,0:0|1:0,0:0:0:0:
166,366,118859,2,0,L|101:353,1,45,8|0,0:2|0:0,0:0:0:0:
113,313,119052,2,0,L|48:334,1,45,8|8,0:2|0:2,0:0:0:0:
29,346,119246,5,4,1:2:0:0:
24,202,119633,1,0,1:0:0:0:
24,202,119827,1,8,0:2:0:0:
98,251,120020,1,0,0:0:0:0:
181,216,120214,1,8,0:2:0:0:
187,126,120407,1,0,1:0:0:0:
108,81,120601,6,0,P|89:39|125:-20,1,90,8|0,0:2|1:0,0:0:0:0:
184,34,120988,2,0,B|234:39|234:39|284:8,1,90,8|0,0:2|1:0,0:0:0:0:
346,61,121375,1,8,0:2:0:0:
424,17,121568,2,0,P|441:51|416:122,1,90,0|8,0:0|0:2,0:0:0:0:
371,164,121956,2,0,P|352:210|382:278,1,90,0|8,1:0|0:2,0:0:0:0:
442,338,122343,1,4,1:2:0:0:
262,340,122730,6,0,B|220:337|220:337|206:341|206:341|144:339,1,90,0|8,1:0|0:0,0:0:0:0:
105,279,123117,1,0,0:0:0:0:
151,202,123310,1,8,0:2:0:0:
236,229,123504,1,0,1:0:0:0:
312,182,123697,2,0,P|311:137|283:94,1,90,8|0,0:2|1:0,0:0:0:0:
209,55,124084,1,8,0:2:0:0:
209,55,124181,1,0,1:0:0:0:
209,55,124278,2,0,L|123:117,1,90,0|8,1:0|2:0,0:0:0:0:
63,171,124665,6,0,L|110:188,1,45,0|0,0:0|0:0,0:0:0:0:
96,234,124859,2,0,P|147:239|148:239,1,45,8|0,0:2|0:0,0:0:0:0:
139,284,125052,2,0,L|193:273,1,45,0|0,1:0|0:0,0:0:0:0:
205,321,125246,2,0,L|242:270,1,45,8|0,0:2|0:0,0:0:0:0:
271,305,125439,5,4,1:2:0:0:
427,163,125827,2,0,P|468:149|537:174,1,90,0|8,1:0|0:2,0:0:0:0:
508,247,126214,1,0,0:0:0:0:
503,336,126407,1,8,0:2:0:0:
427,287,126601,1,0,1:0:0:0:
350,333,126794,6,0,B|307:341|307:341|262:326,1,90,8|0,0:2|1:0,0:0:0:0:
180,363,127181,2,0,B|169:319|169:319|189:266,1,90,8|0,0:2|1:2,0:0:0:0:
265,237,127568,1,8,0:2:0:0:
245,148,127762,2,0,L|120:138,1,90,8|0,0:2|0:0,0:0:0:0:
78,196,128149,5,8,0:2:0:0:
44,112,128343,1,8,0:2:0:0:
104,34,128536,2,0,L|216:42,1,99.0000030212403,4|4,1:2|0:2,0:0:0:0:
286,93,128923,1,0,1:0:0:0:
378,57,129117,1,12,0:2:0:0:
420,145,129310,2,0,L|365:160,1,49.5000015106202,0|0,1:2|0:0,0:0:0:0:
390,205,129504,2,0,L|326:196,1,49.5000015106202,4|8,0:2|0:1,0:0:0:0:
332,247,129697,2,0,B|281:221|281:221|253:159,1,99.0000030212403,4|12,1:2|0:2,0:0:0:0:
167,206,130084,5,0,1:2:0:0:
128,114,130278,1,4,0:2:0:0:
41,161,130471,2,0,L|65:213,1,49.5000015106202,0|0,1:0|0:0,0:0:0:0:
14,223,130665,2,0,L|63:267,1,49.5000015106202,12|0,0:2|0:0,0:0:0:0:
20,295,130858,2,0,P|77:314|135:295,1,99.0000030212403,0|4,1:2|0:2,0:0:0:0:
209,276,131246,5,4,1:2:0:0:
302,308,131439,1,12,0:2:0:0:
388,258,131633,2,0,L|403:158,1,99.0000030212403,0|4,1:2|0:2,0:0:0:0:
381,63,132020,6,0,P|302:46|266:76,1,99.0000030212403,0|12,1:0|0:2,0:0:0:0:
245,140,132407,1,0,1:2:0:0:
152,105,132600,1,4,0:2:0:0:
57,136,132794,2,0,P|45:183|59:230,1,99.0000030212403,4|12,1:2|0:2,0:0:0:0:
156,247,133181,5,0,1:2:0:0:
242,198,133375,1,4,0:2:0:0:
339,211,133568,1,0,1:0:0:0:
381,300,133762,1,12,0:2:0:0:
315,373,133955,2,0,B|265:384|265:384|223:360,1,99.0000030212403,0|4,1:2|0:2,0:0:0:0:
168,277,134342,5,4,1:2:0:0:
212,188,134536,1,12,0:2:0:0:
256,99,134730,1,4,1:2:0:0:
256,99,136278,5,0,1:0:0:0:
212,188,136472,1,0,1:0:0:0:
168,277,136666,1,0,1:0:0:0:
127,366,136859,1,0,1:0:0:0:
48,307,137052,6,0,L|44:257,3,49.5000015106202,8|0|8|8,0:2|0:0|0:2|0:2,0:0:0:0:
93,257,137439,2,0,L|96:207,3,49.5000015106202,8|8|8|8,0:2|0:0|0:2|0:2,0:0:0:0:
59,174,137827,6,0,L|55:124,1,49.5000015106202,8|8,0:2|0:2,0:0:0:0:
108,75,138020,2,0,L|104:124,1,49.5000015106202,8|8,0:2|0:2,0:0:0:0:
209,221,138407,6,0,L|205:171,1,49.5000015106202,8|8,0:2|0:2,0:0:0:0:
257,121,138601,2,0,L|253:170,1,49.5000015106202,8|8,0:2|0:2,0:0:0:0:
380,31,138988,6,0,L|383:80,1,49.5000015106202,8|0,0:2|0:0,0:0:0:0:
431,93,139181,2,0,L|427:142,1,49.5000015106202,0|0,1:0|0:0,0:0:0:0:
399,184,139375,1,4,1:2:0:0:
256,192,139472,12,8,140439,0:2:0:0:
421,33,140923,6,0,P|438:87|399:154,1,107.999996704102,4|8,3:1|0:2,0:0:0:0:
316,161,141310,1,0,3:2:0:0:
214,123,141504,1,8,0:2:0:0:
107,138,141697,2,0,P|78:184|85:258,1,107.999996704102,0|8,3:2|0:2,0:0:0:0:
116,273,141988,1,0,0:0:0:0:
169,267,142085,2,0,L|298:240,1,107.999996704102,0|8,3:2|0:2,0:0:0:0:
371,292,142471,6,0,L|357:234,1,53.9999983520508,0|0,3:2|0:0,0:0:0:0:
403,208,142665,2,0,L|375:155,1,53.9999983520508,8|0,0:2|0:0,0:0:0:0:
413,118,142859,2,0,L|372:74,1,53.9999983520508,0|0,3:2|1:2,0:0:0:0:
400,28,143052,2,0,L|350:-4,2,53.9999983520508,8|0|0,0:2|0:0|3:2,0:0:0:0:
316,127,143439,2,0,L|240:81,1,53.9999983520508,8|0,0:2|0:0,0:0:0:0:
231,138,143633,2,0,L|170:75,1,53.9999983520508,0|0,3:2|1:2,0:0:0:0:
147,129,143826,2,0,L|104:53,1,53.9999983520508,8|0,0:2|0:0,0:0:0:0:
90,10,144020,6,0,L|59:145,1,107.999996704102,0|8,3:2|0:2,0:0:0:0:
24,215,144407,1,0,3:2:0:0:
72,311,144600,1,8,0:2:0:0:
153,239,144794,2,0,B|211:226|254:277,1,107.999996704102,0|8,3:2|0:2,0:0:0:0:
278,318,145084,1,0,0:0:0:0:
268,371,145181,2,0,L|386:364,1,107.999996704102,0|8,3:2|0:2,0:0:0:0:
450,286,145568,6,0,P|425:268|377:266,1,53.9999983520508,0|0,3:2|0:0,0:0:0:0:
376,216,145762,2,0,P|402:210|424:193,1,53.9999983520508,8|0,0:2|0:0,0:0:0:0:
455,149,145955,2,0,P|430:131|382:129,1,53.9999983520508,0|0,3:2|1:2,0:0:0:0:
381,79,146149,2,0,P|407:73|429:56,2,53.9999983520508,8|0|4,0:2|0:0|3:2,0:0:0:0:
323,170,146536,6,0,L|266:149,1,53.9999983520508,8|8,0:2|0:2,0:0:0:0:
223,176,146730,2,0,L|166:155,1,53.9999983520508,8|8,0:2|0:2,0:0:0:0:
120,175,146923,2,0,L|63:154,1,53.9999983520508,8|8,0:2|0:2,0:0:0:0:
4,184,147117,6,0,L|83:80,1,107.999996704102,4|8,3:2|0:2,0:0:0:0:
143,19,147504,1,0,3:2:0:0:
242,60,147697,1,8,0:2:0:0:
344,25,147891,2,0,P|402:23|454:72,1,107.999996704102,0|8,3:2|0:2,0:0:0:0:
456,102,148181,1,0,0:0:0:0:
422,144,148278,2,0,P|364:146|312:97,1,107.999996704102,0|8,3:2|0:2,0:0:0:0:
265,27,148665,6,0,L|240:96,1,53.9999983520508,0|0,3:2|0:0,0:0:0:0:
202,108,148859,2,0,L|203:181,1,53.9999983520508,8|0,0:2|0:0,0:0:0:0:
171,205,149052,2,0,L|197:273,1,53.9999983520508,0|0,3:2|1:2,0:0:0:0:
176,306,149246,2,0,L|224:362,1,53.9999983520508,8|0,0:2|0:0,0:0:0:0:
253,380,149439,5,0,3:2:0:0:
358,357,149633,1,8,0:2:0:0:
463,336,149826,1,0,3:2:0:0:
463,336,149923,1,0,0:0:0:0:
463,336,150020,1,8,0:2:0:0:
388,257,150213,6,0,P|328:237|261:260,1,107.999996704102,0|8,3:2|0:2,0:0:0:0:
202,314,150600,1,0,3:2:0:0:
103,269,150794,1,8,0:2:0:0:
111,161,150988,2,0,L|25:127,2,53.9999983520508,0|0|8,3:2|0:0|0:2,0:0:0:0:
218,173,151375,2,0,P|245:118|194:59,1,107.999996704102,0|8,3:2|0:2,0:0:0:0:
138,17,151762,5,0,3:2:0:0:
110,121,151955,1,8,0:2:0:0:
3,101,152149,2,0,L|42:-4,2,107.999996704102,0|8|0,3:2|0:2|3:2,0:0:0:0:
20,228,152730,6,0,L|76:237,1,53.9999983520508,8|8,0:2|0:2,0:0:0:0:
93,287,152923,2,0,L|149:296,1,53.9999983520508,8|8,0:2|0:2,0:0:0:0:
179,250,153117,2,0,L|235:259,1,53.9999983520508,8|8,0:2|0:2,0:0:0:0:
266,299,153310,6,0,P|251:236|281:189,1,107.999996704102,4|8,3:1|0:2,0:0:0:0:
355,132,153697,1,0,3:2:0:0:
453,177,153891,1,8,0:2:0:0:
445,284,154084,2,0,L|347:340,1,107.999996704102,0|8,3:2|0:2,0:0:0:0:
302,312,154375,1,0,0:0:0:0:
255,338,154471,2,0,B|196:349|196:349|155:323,1,107.999996704102,0|8,3:2|0:2,0:0:0:0:
47,320,154859,6,0,L|69:264,1,53.9999983520508,0|0,3:2|0:0,0:0:0:0:
28,232,155052,2,0,L|63:184,1,53.9999983520508,8|0,0:2|0:0,0:0:0:0:
32,141,155246,2,0,L|79:103,1,53.9999983520508,0|0,3:2|1:2,0:0:0:0:
59,54,155439,2,0,L|113:30,2,53.9999983520508,8|0|0,0:2|0:0|3:2,0:0:0:0:
150,147,155826,2,0,L|229:109,1,53.9999983520508,8|0,0:2|0:0,0:0:0:0:
233,167,156020,2,0,L|299:110,1,53.9999983520508,0|0,3:2|1:2,0:0:0:0:
319,164,156213,2,0,L|369:93,1,53.9999983520508,8|0,0:2|0:0,0:0:0:0:
375,72,156407,6,0,B|372:132|372:132|433:209,1,107.999996704102,0|8,3:2|0:2,0:0:0:0:
491,230,156794,1,0,3:2:0:0:
467,335,156987,1,8,0:2:0:0:
375,276,157181,2,0,B|313:270|313:270|238:309,1,107.999996704102,0|8,3:2|0:2,0:0:0:0:
226,319,157471,1,0,0:0:0:0:
176,296,157568,2,0,P|149:249|148:196,1,107.999996704102,0|8,3:2|0:2,0:0:0:0:
236,133,157955,6,0,P|254:158|256:206,1,53.9999983520508,0|0,3:2|0:0,0:0:0:0:
306,207,158149,2,0,P|312:181|329:159,1,53.9999983520508,8|0,0:2|0:0,0:0:0:0:
373,128,158342,2,0,P|391:153|393:201,1,53.9999983520508,0|0,3:2|1:2,0:0:0:0:
443,202,158536,2,0,P|449:176|466:154,2,53.9999983520508,8|0|4,0:2|0:0|3:2,0:0:0:0:
454,309,158923,1,8,0:2:0:0:
454,309,159020,1,0,0:0:0:0:
454,309,159117,2,0,L|391:290,3,53.9999983520508,8|8|8|8,0:2|0:2|0:2|0:2,0:0:0:0:
367,334,159504,6,0,L|253:356,1,107.999996704102,4|8,3:2|0:2,0:0:0:0:
154,372,159891,1,0,3:2:0:0:
70,304,160084,1,8,0:2:0:0:
77,196,160278,2,0,P|136:213|167:255,1,107.999996704102,0|8,3:2|0:2,0:0:0:0:
209,277,160568,1,0,0:0:0:0:
263,278,160665,2,0,P|315:287|363:263,1,107.999996704102,0|8,3:2|0:2,0:0:0:0:
428,176,161052,6,0,L|399:125,1,53.9999983520508,0|0,3:2|0:0,0:0:0:0:
346,129,161246,2,0,L|324:178,1,53.9999983520508,8|0,0:2|0:0,0:0:0:0:
269,181,161439,2,0,L|240:130,2,53.9999983520508,0|0|8,3:2|0:0|0:2,0:0:0:0:
210,271,161826,2,0,B|106:72,1,215.999993408203,0|8,3:2|0:2,0:0:0:0:
16,185,162600,6,0,P|-9:245|24:316,1,135.000005149842,4|0,3:2|0:0,0:0:0:0:
97,340,163182,1,0,1:0:0:0:
97,340,163376,2,0,B|153:306|153:306|224:314,1,135.000005149842,8|0,0:2|0:0,0:0:0:0:
296,283,163956,1,8,0:0:0:0:
297,284,164150,2,0,P|305:316|297:348,2,67.5000025749208,4|0|0,1:2|0:0|0:0,0:0:0:0:
263,209,164729,1,0,1:0:0:0:
263,209,164924,2,0,L|352:196,1,67.5000025749208,8|0,0:2|0:0,0:0:0:0:
405,170,165311,2,0,L|414:103,1,67.5000025749208,8|0,0:2|0:0,0:0:0:0:
487,48,165698,5,8,0:2:0:0:
487,48,165795,1,8,0:2:0:0:
404,21,165987,1,8,0:2:0:0:
404,21,166084,1,8,0:2:0:0:
327,61,166279,1,8,0:2:0:0:
327,61,166376,1,8,0:2:0:0:
245,34,166569,1,8,0:2:0:0:
245,34,166666,1,8,0:2:0:0:
166,71,166858,6,0,L|113:83,2,45.0000017166138,8|0|0,0:2|0:0|0:0,0:0:0:0:
211,100,167245,2,0,P|203:111|207:136,3,22.5000008583069,8|8|4|4,0:3|0:3|0:3|0:3,0:0:0:0:
256,192,167634,12,4,168795,1:2:0:0:
212,77,181181,5,4,0:2:0:0:
212,77,181568,1,0,0:0:0:0:
300,70,181761,1,0,3:0:0:0:
374,118,181955,1,0,0:0:0:0:
405,201,182148,1,0,3:0:0:0:
381,286,182342,1,0,3:0:0:0:
381,286,182730,5,0,0:0:0:0:
405,201,182924,1,0,3:0:0:0:
374,118,183117,1,0,0:0:0:0:
300,70,183311,1,0,3:0:0:0:
212,77,183504,1,0,0:0:0:0:
67,249,184278,5,4,0:3:0:0:
67,249,184665,2,0,L|169:207,1,90,0|0,0:0|3:0,0:0:0:0:
234,216,185052,1,0,0:0:0:0:
306,270,185245,1,0,3:0:0:0:
338,352,185439,1,0,3:0:0:0:
338,352,185827,1,0,0:0:0:0:
306,270,186021,1,0,3:0:0:0:
234,216,186214,1,0,0:0:0:0:
150,215,186408,1,0,3:0:0:0:
67,249,186601,1,0,0:0:0:0:
293,335,187375,5,4,1:2:0:0:
293,335,188923,5,0,1:0:0:0:
299,235,189117,1,0,1:0:0:0:
303,135,189311,1,0,1:0:0:0:
306,37,189504,1,0,1:0:0:0:
212,70,189698,6,0,L|161:83,3,49.5000015106202,8|0|8|8,0:2|0:0|0:2|0:2,0:0:0:0:
132,120,190085,2,0,L|187:128,3,49.5000015106202,8|8|8|8,0:2|0:2|0:2|0:2,0:0:0:0:
214,163,190471,6,0,L|154:174,1,49.5000015106202,8|8,0:2|0:2,0:0:0:0:
130,207,190665,2,0,L|179:216,1,49.5000015106202,8|8,0:2|0:2,0:0:0:0:
299,278,191052,6,0,L|239:289,1,49.5000015106202,8|8,0:2|0:2,0:0:0:0:
208,314,191246,2,0,L|257:323,1,49.5000015106202,8|8,0:2|0:2,0:0:0:0:
408,268,191633,6,0,L|402:206,1,49.5000015106202,8|0,0:2|0:0,0:0:0:0:
434,180,191826,2,0,L|416:125,1,49.5000015106202,8|0,0:3|0:0,0:0:0:0:
380,103,192020,1,4,1:2:0:0:
256,192,192116,12,8,193085,0:1:0:0:
370,33,193955,5,4,3:1:0:0:
409,133,194149,1,8,0:2:0:0:
302,118,194342,2,0,B|249:106|249:106|188:127,1,107.999996704102,0|8,3:2|0:2,0:0:0:0:
175,173,194633,1,0,0:0:0:0:
144,217,194730,2,0,B|91:229|91:229|30:208,1,107.999996704102,0|8,3:2|0:2,0:0:0:0:
22,105,195117,6,0,L|77:126,1,53.9999983520508,0|0,3:2|0:0,0:0:0:0:
106,84,195310,2,0,L|154:119,1,53.9999983520508,8|0,0:2|0:0,0:0:0:0:
198,86,195504,2,0,L|235:132,1,53.9999983520508,0|0,3:2|1:2,0:0:0:0:
285,112,195698,2,0,L|309:165,2,53.9999983520508,8|0|0,0:2|0:0|3:2,0:0:0:0:
411,64,196084,2,0,L|365:140,1,53.9999983520508,8|0,0:2|0:0,0:0:0:0:
422,149,196278,2,0,L|359:210,1,53.9999983520508,0|0,3:2|1:2,0:0:0:0:
413,233,196471,2,0,L|337:276,1,53.9999983520508,8|0,0:2|0:0,0:0:0:0:
403,319,196665,6,0,B|355:288|355:288|270:293,1,107.999996704102,0|8,3:2|0:2,0:0:0:0:
196,296,197052,1,0,3:2:0:0:
109,360,197245,1,8,0:2:0:0:
19,298,197439,2,0,P|16:237|68:177,1,107.999996704102,0|8,3:2|0:2,0:0:0:0:
91,184,197729,1,0,0:0:0:0:
137,212,197826,2,0,B|189:226|189:226|276:188,1,107.999996704102,0|8,3:2|0:2,0:0:0:0:
342,173,198213,6,0,P|324:198|322:246,1,53.9999983520508,0|0,3:2|0:0,0:0:0:0:
329,273,198407,2,0,P|354:291|402:293,1,53.9999983520508,8|0,0:2|0:0,0:0:0:0:
429,286,198601,2,0,P|447:261|449:213,1,53.9999983520508,0|0,3:2|1:2,0:0:0:0:
442,186,198794,2,0,P|417:168|369:166,2,53.9999983520508,8|0|4,0:2|0:0|3:2,0:0:0:0:
326,198,199181,6,0,L|264:167,1,53.9999983520508,8|8,0:2|0:2,0:0:0:0:
223,183,199375,2,0,L|161:152,1,53.9999983520508,8|8,0:2|0:2,0:0:0:0:
120,168,199568,2,0,L|58:137,1,53.9999983520508,8|8,0:2|0:2,0:0:0:0:
25,88,199762,6,0,L|44:231,1,107.999996704102,4|8,3:2|0:2,0:0:0:0:
126,259,200149,1,0,3:2:0:0:
71,352,200342,1,8,0:2:0:0:
178,339,200536,2,0,P|226:329|297:352,1,107.999996704102,0|8,3:2|0:2,0:0:0:0:
328,370,200826,1,0,0:0:0:0:
375,344,200923,2,0,P|427:339|467:304,1,107.999996704102,0|8,3:2|0:2,0:0:0:0:
455,196,201310,6,0,L|386:171,1,53.9999983520508,0|0,3:2|0:0,0:0:0:0:
374,133,201504,2,0,L|301:134,1,53.9999983520508,8|0,0:2|0:0,0:0:0:0:
277,102,201697,2,0,L|209:128,1,53.9999983520508,0|0,3:2|1:2,0:0:0:0:
176,107,201891,2,0,L|120:155,1,53.9999983520508,8|0,0:2|0:0,0:0:0:0:
102,184,202084,5,0,3:2:0:0:
84,290,202278,1,8,0:2:0:0:
169,373,202471,1,0,3:2:0:0:
169,373,202568,1,0,0:0:0:0:
169,373,202665,1,8,0:2:0:0:
269,335,202858,6,0,P|289:275|266:208,1,107.999996704102,0|8,3:2|0:2,0:0:0:0:
186,178,203245,1,0,3:2:0:0:
177,70,203439,1,8,0:2:0:0:
275,25,203633,1,0,3:2:0:0:
275,25,203730,1,0,0:0:0:0:
275,25,203827,1,8,0:2:0:0:
301,128,204020,2,0,B|357:124|357:124|409:85,1,107.999996704102,0|8,3:2|0:2,0:0:0:0:
479,20,204407,5,0,3:2:0:0:
502,125,204600,1,8,0:2:0:0:
421,199,204794,2,0,B|417:253|417:253|457:312,2,107.999996704102,0|8|0,3:2|0:2|3:2,0:0:0:0:
335,265,205375,6,0,L|279:274,1,53.9999983520508,8|8,0:2|0:2,0:0:0:0:
262,324,205568,2,0,L|206:333,1,53.9999983520508,8|8,0:2|0:2,0:0:0:0:
176,287,205762,2,0,L|120:296,1,53.9999983520508,8|8,0:2|0:2,0:0:0:0:
89,336,205955,6,0,P|104:273|74:226,1,107.999996704102,4|8,3:1|0:0,0:0:0:0:
8,179,206342,1,0,3:2:0:0:
25,72,206536,1,8,0:2:0:0:
131,87,206729,2,0,L|279:76,1,107.999996704102,0|8,3:2|0:2,0:0:0:0:
288,56,207020,1,0,0:0:0:0:
335,79,207116,2,0,B|364:140|320:189,1,107.999996704102,0|8,3:2|0:2,0:0:0:0:
370,287,207504,6,0,L|314:309,1,53.9999983520508,0|0,3:2|0:0,0:0:0:0:
282,268,207698,2,0,L|234:303,1,53.9999983520508,8|0,0:2|0:0,0:0:0:0:
191,272,207891,2,0,L|153:319,1,53.9999983520508,0|0,3:2|1:2,0:0:0:0:
104,299,208085,2,0,L|80:353,2,53.9999983520508,8|0|0,0:2|0:0|3:2,0:0:0:0:
154,203,208471,2,0,L|116:124,1,53.9999983520508,8|0,0:2|0:0,0:0:0:0:
174,120,208665,2,0,L|117:54,1,53.9999983520508,0|0,3:2|1:2,0:0:0:0:
171,34,208859,2,0,L|100:-16,1,53.9999983520508,8|0,0:2|0:0,0:0:0:0:
77,25,209052,6,0,P|46:77|65:171,1,107.999996704102,0|8,3:2|0:2,0:0:0:0:
67,229,209439,1,0,3:2:0:0:
165,273,209632,1,8,0:2:0:0:
261,224,209826,2,0,B|301:202|301:202|363:208,1,107.999996704102,0|8,3:2|0:2,0:0:0:0:
444,282,210214,1,0,3:2:0:0:
495,187,210407,1,8,0:2:0:0:
461,84,210601,6,0,P|436:102|419:147,1,53.9999983520508,0|0,3:2|0:0,0:0:0:0:
372,133,210794,2,0,P|374:106|364:80,1,53.9999983520508,8|0,0:2|0:0,0:0:0:0:
333,37,210988,2,0,P|308:55|291:100,1,53.9999983520508,0|0,3:2|1:2,0:0:0:0:
243,86,211181,2,0,P|245:59|235:33,2,53.9999983520508,8|0|4,0:2|0:0|3:2,0:0:0:0:
142,126,211568,1,8,0:2:0:0:
137,121,211665,1,0,0:0:0:0:
142,126,211762,2,0,L|65:139,3,53.9999983520508,8|8|8|8,0:2|0:2|0:2|0:2,0:0:0:0:
43,104,212149,6,0,B|68:154|68:154|43:238,1,107.999996704102,4|8,3:2|0:2,0:0:0:0:
15,305,212536,1,0,3:2:0:0:
120,285,212729,1,8,0:2:0:0:
209,345,212923,2,0,B|264:358|264:358|329:322,1,107.999996704102,0|8,3:2|0:2,0:0:0:0:
354,304,213213,1,0,0:0:0:0:
347,250,213310,2,0,B|291:236|291:236|247:261,1,107.999996704102,0|8,3:2|0:2,0:0:0:0:
149,212,213698,6,0,L|156:158,1,53.9999983520508,0|0,3:2|0:0,0:0:0:0:
106,137,213892,2,0,L|148:104,1,53.9999983520508,8|0,0:2|0:0,0:0:0:0:
129,53,214085,2,0,L|182:59,2,53.9999983520508,0|0|8,3:2|0:0|0:2,0:0:0:0:
29,10,214472,2,0,B|0:115|0:115|23:234,1,215.999993408203,0|8,3:2|0:2,0:0:0:0:
5,354,215245,6,0,P|65:329|136:362,1,135.000005149842,4|0,1:2|0:0,0:0:0:0:
218,353,215827,1,0,1:0:0:0:
218,353,216021,2,0,B|251:295|251:295|213:208,1,135.000005149842,8|0,0:2|0:0,0:0:0:0:
158,184,216601,1,8,0:0:0:0:
158,184,216795,2,0,P|151:138|169:105,2,67.5000025749208,4|0|0,1:2|0:0|0:0,0:0:0:0:
233,153,217376,1,0,1:0:0:0:
296,202,217569,2,0,L|313:274,1,67.5000025749208,8|0,0:2|0:0,0:0:0:0:
392,270,217956,2,0,L|421:201,1,67.5000025749208,8|0,0:2|0:0,0:0:0:0:
448,132,218343,5,8,0:2:0:0:
448,132,218440,1,8,0:2:0:0:
368,96,218634,1,8,0:2:0:0:
368,96,218729,1,8,0:0:0:0:
287,128,218924,1,8,0:2:0:0:
287,128,219021,1,8,0:0:0:0:
208,92,219214,1,8,0:2:0:0:
208,92,219311,1,8,0:2:0:0:
126,121,219505,6,0,L|72:128,2,45.0000017166138,8|0|0,0:2|0:0|0:0,0:0:0:0:
137,83,219891,2,0,P|137:72|123:47,3,22.5000008583069,8|8|4|4,0:3|0:3|0:3|0:3,0:0:0:0:
256,192,220279,12,4,221440,1:2:0:0:
19,164,224149,5,8,0:3:0:0:
19,164,224536,2,0,L|14:115,2,49.5000015106202,4|0|0,1:2|0:2|0:2,0:0:0:0:
50,125,224827,2,0,L|57:76,2,49.5000015106202,8|0|0,0:3|0:2|0:2,0:0:0:0:
85,97,225117,2,0,L|105:52,2,49.5000015106202,8|8|8,0:2|0:2|0:2,0:0:0:0:
126,79,225407,2,0,L|157:40,2,49.5000015106202,8|8|4,0:3|0:3|0:3,0:0:0:0:
158,138,225698,6,0,L|159:83,2,49.5000015106202,4|0|0,1:2|0:2|0:2,0:0:0:0:
203,158,225988,2,0,L|189:104,2,49.5000015106202,0|0|0,1:2|0:2|0:2,0:0:0:0:
245,169,226278,2,0,L|218:120,2,49.5000015106202,0|0|0,1:2|0:2|0:2,0:0:0:0:
293,158,226568,2,0,L|254:118,2,49.5000015106202,0|0|0,1:2|0:2|0:2,0:0:0:0:
373,211,226859,6,0,L|444:198,1,49.5000015106202,8|8,0:2|0:2,0:0:0:0:
357,250,227052,2,0,L|428:255,1,49.5000015106202,8|8,0:2|0:3,0:0:0:0:
331,283,227246,2,0,L|398:307,1,49.5000015106202,8|0,0:3|0:3,0:0:0:0:
253,361,227439,6,0,L|252:307,2,49.5000015106202,4|0|8,1:2|0:0|0:2,0:0:0:0:
212,331,227730,2,0,L|197:279,2,49.5000015106202,8|8|8,0:2|0:2|0:2,0:0:0:0:
256,272,228020,2,0,L|270:220,2,49.5000015106202,8|8|8,0:2|0:2|0:2,0:0:0:0:
194,208,228310,2,0,L|179:156,2,49.5000015106202,8|8|8,0:0|0:0|0:0,0:0:0:0:
274,137,228601,2,0,L|288:85,2,49.5000015106202,4|0|0,1:2|0:0|0:0,0:0:0:0:
186,71,228891,2,0,L|171:19,2,49.5000015106202,4|0|0,1:2|0:2|0:0,0:0:0:0:
263,8,229181,1,4,1:2:0:0:
263,8,229278,1,0,0:0:0:0:
263,8,229375,6,0,B|328:24|328:24|405:5,1,134.999995880127,8|4,0:2|0:3,0:0:0:0:
471,49,229956,6,0,L|517:46,2,26.9999991760254,8|8|8,0:2|0:2|0:2,0:0:0:0:
512,164,230730,6,0,P|418:167|399:186,1,107.999996704102,4|8,3:1|0:2,0:0:0:0:
360,190,231020,1,0,0:0:0:0:
308,174,231117,2,0,P|321:110|303:59,1,107.999996704102,0|8,3:2|0:2,0:0:0:0:
259,49,231407,1,0,0:0:0:0:
209,70,231504,2,0,P|196:122|210:173,1,107.999996704102,0|8,3:2|0:2,0:0:0:0:
271,263,231891,1,0,3:2:0:0:
184,327,232085,5,8,0:2:0:0:
184,327,232181,1,0,0:0:0:0:
184,327,232278,2,0,P|120:343|57:286,1,107.999996704102,0|8,3:2|0:2,0:0:0:0:
30,232,232665,2,0,L|92:217,2,53.9999983520508,0|0|8,3:2|0:0|0:2,0:0:0:0:
92,143,233052,2,0,P|85:221|192:207,1,215.999993408203,0|0,3:2|3:2,0:0:0:0:
208,100,233633,6,0,L|184:51,2,53.9999983520508,8|0|0,0:2|0:0|3:2,0:0:0:0:
313,130,234020,2,0,L|289:81,2,53.9999983520508,8|0|0,0:2|0:0|3:2,0:0:0:0:
400,194,234407,2,0,L|424:145,2,53.9999983520508,8|0|0,0:2|0:0|3:2,0:0:0:0:
364,296,234794,2,0,L|448:295,2,53.9999983520508,8|0|0,0:2|0:0|3:2,0:0:0:0:
284,369,235181,6,0,B|208:333|130:358,1,107.999996704102,8|0,0:2|1:0,0:0:0:0:
73,370,235568,1,8,0:2:0:0:
12,279,235762,1,0,3:2:0:0:
70,187,235956,1,8,0:2:0:0:
177,196,236149,1,4,3:2:0:0:
272,144,236343,2,0,L|264:84,5,53.9999983520508,8|8|8|8|8|8,0:2|0:2|0:2|0:2|0:2|0:2,0:0:0:0:
214,71,236923,6,0,P|332:100|408:20,1,215.999993408203,4|0,3:2|3:2,0:0:0:0:
454,137,237504,1,8,0:2:0:0:
454,137,237601,1,0,0:0:0:0:
454,137,237698,1,0,3:2:0:0:
364,196,237891,1,8,0:2:0:0:
364,196,237988,1,0,0:0:0:0:
364,196,238085,1,0,3:2:0:0:
271,251,238278,5,8,0:2:0:0:
271,251,238375,1,0,0:0:0:0:
271,251,238472,1,0,3:2:0:0:
177,303,238665,1,8,0:0:0:0:
177,303,238762,1,0,0:0:0:0:
177,303,238859,1,0,3:2:0:0:
254,377,239052,1,8,0:2:0:0:
356,338,239246,6,0,B|379:284|379:284|346:210|346:210|382:126,1,215.999993408203,0|8,3:2|0:2,0:0:0:0:
376,139,239827,1,8,0:3:0:0:
451,216,240020,2,0,L|506:212,3,53.9999983520508,8|8|8|8,0:2|0:2|0:2|0:2,0:0:0:0:
280,280,240601,2,0,L|225:276,3,53.9999983520508,8|8|8|8,0:2|0:2|0:2|0:2,0:0:0:0:
121,186,241568,5,8,0:2:0:0:
121,186,241665,1,8,0:2:0:0:
67,310,241956,1,0,1:0:0:0:
22,177,242343,5,8,0:2:0:0:
22,177,242439,1,8,0:2:0:0:
132,254,242730,1,4,0:3:0:0:
142,113,243117,5,4,1:1:0:0:
256,192,243214,12,0,246117,0:0:0:0:
