osu file format v14

[General]
AudioFilename: audio.mp3
AudioLeadIn: 0
PreviewTime: 13956
Countdown: 0
SampleSet: Soft
StackLeniency: 0.5
Mode: 0
LetterboxInBreaks: 0
WidescreenStoryboard: 1

[Editor]
Bookmarks: 41838,63504,75902,88278,103762,106859,128536,140923,168794,181181,192020,230730
DistanceSpacing: 1.2
BeatDivisor: 4
GridSize: 16
TimelineZoom: 2.1

[Metadata]
Title:Natsuirozaka
TitleUnicode:懐色坂
Artist:VALLEYSTONE feat. Kanata.N
ArtistUnicode:VALLEYSTONE feat. かなたん
Creator:kwk
Version:Akito's Insane
Source:
Tags:moph 404 AimNotFound Luscent Saturnalize -akito pop'n music うさぎと猫と少年の夢 kanatan
BeatmapID:2095041
BeatmapSetID:950550

[Difficulty]
HPDrainRate:4
CircleSize:3.5
OverallDifficulty:8
ApproachRate:9
SliderMultiplier:2.4
SliderTickRate:1

[Events]
//Background and Video events
0,0,"bg.jpg",0,0
//Break Periods
2,168995,180581
//Storyboard Layer 0 (Background)
//Storyboard Layer 1 (Fail)
//Storyboard Layer 2 (Pass)
//Storyboard Layer 3 (Foreground)
//Storyboard Layer 4 (Overlay)
//Storyboard Sound Samples

[TimingPoints]
1569,387.096774193548,4,2,69,50,1,0
13956,389.61038961039,4,2,69,60,1,0
13956,-200,4,2,69,60,0,0
14735,405.405405405405,4,2,69,60,1,0
14875,-200,4,2,69,5,0,0
14972,-200,4,2,69,60,0,0
15545,382.165605095541,4,2,69,60,1,0
15545,-200,4,2,69,60,0,0
16230,-200,4,2,69,5,0,0
16327,-200,4,2,69,60,0,0
17073,394.736842105263,4,2,69,60,1,0
17073,-200,4,2,69,60,0,0
17391,-200,4,2,69,5,0,0
17488,-200,4,2,69,60,0,0
17862,379.746835443038,4,2,69,60,1,0
17972,-200,4,2,69,5,0,0
18068,-200,4,2,69,60,0,0
18621,387.096774193548,4,2,69,60,1,0
18814,-200,4,2,69,60,0,0
19133,-200,4,2,69,50,0,0
19230,-200,4,2,69,60,0,0
20169,387.722132471729,4,2,69,60,1,0
20488,-200,4,2,69,5,0,0
20585,-200,4,2,69,60,0,0
20944,404.040404040404,4,2,69,60,1,0
21068,-200,4,2,69,5,0,0
21165,-200,4,2,69,60,0,0
21752,370.37037037037,4,2,69,50,1,0
21932,-200,4,2,69,50,0,0
22327,-200,4,2,69,75,0,0
22859,387.096774193548,4,2,69,50,1,0
22859,-200,4,2,69,50,0,0
23246,387.096774193548,4,2,69,75,1,0
23246,-200,4,2,69,75,0,0
25762,-200,4,2,53,75,0,0
26343,-100,4,2,53,75,0,0
39665,-100,4,2,69,75,0,0
40278,-100,4,2,53,75,0,0
42214,-100,4,2,53,65,0,0
63504,-100,4,2,53,75,0,0
63601,-100,4,2,42,75,0,0
69698,-100,4,2,53,75,0,0
75891,-71.4285714285714,4,2,53,85,0,0
88278,-62.5,4,2,53,85,0,0
97568,-83.3333333333333,4,2,53,65,0,0
102601,-83.3333333333333,4,1,53,75,0,0
103568,-83.3333333333333,4,2,53,75,0,0
106859,-83.3333333333333,4,2,53,65,0,0
108214,-100,4,2,53,65,0,0
128536,-100,4,2,53,75,0,0
128633,-100,4,2,42,75,0,0
134730,-100,4,2,53,75,0,0
140923,-71.4285714285714,4,2,53,85,0,0
153310,-62.5,4,2,53,85,0,0
162601,-83.3333333333333,4,2,53,65,0,0
168359,-83.3333333333333,4,2,53,75,0,0
175133,-83.3333333333333,4,2,42,75,0,0
179633,-83.3333333333333,4,2,53,75,0,0
180504,-83.3333333333333,4,2,42,75,0,0
180698,-83.3333333333333,4,2,53,75,0,0
181181,-125,4,2,53,75,0,0
181375,-125,4,2,69,80,0,0
187278,-125,4,2,53,75,0,0
188923,-100,4,2,53,75,0,0
193568,-500,4,2,53,75,0,0
193956,-71.4285714285714,4,2,53,85,0,0
205956,-62.5,4,2,53,85,0,0
215246,-83.3333333333333,4,2,53,65,0,0
220278,-83.3333333333333,4,1,53,75,0,0
221246,-83.3333333333333,4,2,53,75,0,0
224052,-83.3333333333333,4,2,69,75,0,0
224149,-62.5,4,2,69,75,0,0
224246,-62.5,4,2,53,75,0,0
224536,-62.5,4,2,53,85,0,0
230343,-500,4,2,53,85,0,0
230730,-62.5,4,2,53,95,0,0
240891,-62.5,4,2,53,85,0,0
240988,-62.5,4,2,69,100,0,0
241278,-62.5,4,2,53,100,0,0
246117,-62.5,4,2,53,5,0,0

[Colours]
Combo1 : 255,255,166
Combo2 : 255,128,128
Combo3 : 0,255,255
Combo4 : 0,255,128

[HitObjects]
254,191,13956,5,12,0:3:0:0:
254,191,14345,1,0,0:0:0:0:
254,191,14735,1,2,0:2:0:0:
174,125,15343,1,0,0:0:0:0:
174,125,15545,2,0,P|176:97|174:62,1,60,4|0,0:3|0:0,0:0:0:0:
125,12,15927,1,0,0:0:0:0:
125,12,16118,1,0,0:0:0:0:
58,169,16500,2,0,B|26:162|26:162|-19:176,2,60
106,245,17073,6,0,L|106:272,1,15,2|0,0:2|0:0,0:0:0:0:
377,350,17862,1,0,0:0:0:0:
466,241,18431,5,0,0:0:0:0:
493,172,18621,1,4,0:3:0:0:
438,115,18814,2,0,L|352:125,1,60
275,50,19201,1,4,0:3:0:0:
189,131,19588,1,2,0:1:0:0:
229,195,19782,1,2,0:1:0:0:
183,259,19975,1,2,0:1:0:0:
37,215,20169,6,0,B|158:186|126:282|252:301,1,240,4|2,0:3|0:2,0:0:0:0:
312,253,20944,1,0,0:0:0:0:
429,322,21550,5,0,0:0:0:0:
402,250,21752,1,4,0:3:0:0:
453,191,21937,2,0,P|455:160|453:126,1,60
395,80,22307,1,4,0:3:0:0:
293,199,22859,2,0,L|287:136,1,60,0|0,0:0|0:0,0:0:0:0:
170,82,23246,6,0,P|120:108|51:92,2,120,8|0|0,0:3|0:0|0:0,0:0:0:0:
142,8,24407,1,0,0:0:0:0:
58,192,24794,5,4,0:3:0:0:
58,192,24988,2,0,L|129:183,1,60,0|0,0:0|0:0,0:0:0:0:
177,238,25375,2,0,L|304:258,1,120,0|2,0:0|0:3,0:0:0:0:
357,207,25956,1,0,1:0:0:0:
394,338,26149,1,0,0:0:0:0:
467,192,26343,5,8,0:2:0:0:
464,211,26439,1,8,0:2:0:0:
395,126,26633,5,8,0:2:0:0:
392,107,26729,1,8,0:2:0:0:
482,30,26923,5,8,0:2:0:0:
479,49,27019,1,8,0:2:0:0:
305,78,27214,5,8,0:2:0:0:
299,56,27310,1,8,0:2:0:0:
165,104,27504,5,8,0:2:0:0:
137,146,27601,1,0,0:0:0:0:
165,185,27698,1,0,0:0:0:0:
148,229,27794,1,0,0:0:0:0:
181,276,27891,6,0,L|171:337,3,40,8|8|8|4,0:2|0:3|0:3|0:3,0:0:0:0:
316,354,28278,2,2,P|310:234|317:109,2,240,12|0|0,0:0|0:0|0:0,0:1:0:0:
421,256,29246,5,2,0:2:0:0:
435,248,29343,1,2,0:2:0:0:
449,257,29439,2,0,P|452:218|452:177,1,60,4|0,3:1|0:0,0:0:0:0:
331,98,29633,2,0,P|328:137|328:178,1,60,10|0,0:2|0:0,0:0:0:0:
460,47,29827,1,2,3:2:0:0:
472,72,29923,2,0,L|397:63,1,60,2|8,1:2|0:2,0:0:0:0:
316,11,30117,6,0,L|256:20,1,60,2|0,0:2|3:2,0:0:0:0:
186,147,30310,1,2,0:2:0:0:
186,147,30407,2,0,L|198:82,1,60,8|0,0:2|0:0,0:0:0:0:
103,3,30601,1,2,3:2:0:0:
69,15,30698,1,2,1:2:0:0:
45,39,30794,1,10,0:2:0:0:
37,74,30891,1,0,0:0:0:0:
59,103,30988,6,0,L|64:171,1,60,2|0,3:2|0:0,0:0:0:0:
5,305,31181,2,0,L|20:231,1,60,10|0,0:2|0:0,0:0:0:0:
95,326,31375,1,2,3:2:0:0:
109,345,31472,2,0,P|143:336|184:331,1,60,2|8,1:2|0:2,0:0:0:0:
294,373,31665,5,2,0:2:0:0:
268,337,31762,1,0,3:2:0:0:
263,294,31859,1,2,0:2:0:0:
283,257,31956,2,0,L|356:246,1,60,8|0,0:2|0:0,0:0:0:0:
461,329,32149,1,2,3:2:0:0:
461,329,32246,1,2,1:2:0:0:
461,329,32343,2,0,L|398:322,1,60,10|0,0:2|0:0,0:0:0:0:
500,176,32536,6,0,P|440:170|381:160,1,120,2|10,3:2|0:2,0:0:0:0:
288,82,32827,1,2,0:2:0:0:
264,80,32923,1,2,3:2:0:0:
244,88,33020,1,2,1:2:0:0:
230,104,33117,2,0,L|235:184,1,60,10|0,0:2|0:0,0:0:0:0:
448,295,33310,6,0,P|377:257|330:277,1,120
261,321,33601,1,2,0:2:0:0:
230,282,33698,5,2,3:2:0:0:
192,260,33794,1,2,1:2:0:0:
151,257,33891,1,10,0:2:0:0:
110,276,33988,1,0,0:2:0:0:
44,319,34085,6,0,L|50:388,1,60,2|0,3:2|0:0,0:0:0:0:
9,223,34279,1,2,3:2:0:0:
9,223,34375,1,0,1:2:0:0:
9,223,34471,2,0,L|3:153,1,60,10|2,0:2|0:0,0:0:0:0:
105,90,34665,2,0,L|95:154,1,60,10|0,0:2|0:0,0:0:0:0:
1,11,34859,6,0,P|35:5|82:1,1,60,6|0,3:2|0:0,0:0:0:0:
198,111,35052,1,10,0:2:0:0:
213,118,35149,1,8,0:2:0:0:
235,113,35246,1,10,0:2:0:0:
256,123,35343,1,8,0:2:0:0:
287,115,35439,1,10,0:2:0:0:
317,137,35536,1,8,0:2:0:0:
359,107,35633,6,0,L|426:93,1,60,6|0,3:2|0:0,0:0:0:0:
490,198,35827,2,0,L|424:192,1,60,10|0,0:2|0:0,0:0:0:0:
340,289,36020,1,2,3:2:0:0:
340,289,36117,2,0,B|351:257|351:257|344:221,1,60,2|8,1:2|0:2,0:0:0:0:
197,259,36310,5,2,0:2:0:0:
197,259,36407,2,0,L|266:247,1,60,0|2,3:2|0:2,0:0:0:0:
324,372,36601,2,0,L|264:362,1,60,8|0,0:2|0:0,0:0:0:0:
118,347,36794,1,2,3:2:0:0:
92,317,36891,1,2,1:2:0:0:
88,277,36988,1,10,0:2:0:0:
102,242,37085,1,0,0:0:0:0:
84,203,37181,6,0,L|3:213,1,60,2|0,3:2|0:0,0:0:0:0:
149,143,37375,2,0,L|218:152,1,60,10|0,0:2|0:0,0:0:0:0:
49,117,37568,1,2,3:2:0:0:
49,117,37665,2,0,B|21:60|21:60|42:-2,1,120,2|2,1:2|0:2,0:0:0:0:
189,56,37956,1,0,3:2:0:0:
208,53,38052,1,2,0:2:0:0:
248,25,38149,5,8,0:2:0:0:
298,27,38245,1,8,0:2:0:0:
343,50,38342,1,10,0:2:0:0:
376,92,38439,1,8,0:3:0:0:
388,141,38536,1,8,0:3:0:0:
378,191,38632,1,4,0:3:0:0:
404,233,38730,5,8,0:2:0:0:
412,250,38827,1,8,0:2:0:0:
389,298,38923,5,8,0:2:0:0:
383,317,39020,1,8,0:2:0:0:
242,269,39310,5,8,0:2:0:0:
223,260,39407,1,8,0:2:0:0:
182,289,39504,5,8,0:2:0:0:
161,294,39601,1,8,0:2:0:0:
7,220,40278,5,8,0:2:0:0:
7,220,40375,1,8,0:2:0:0:
76,180,40665,1,0,1:0:0:0:
211,243,41052,5,8,0:2:0:0:
211,243,41149,1,8,0:2:0:0:
282,211,41439,1,4,0:3:0:0:
465,105,41827,6,0,P|339:110|217:104,1,240,4|8,1:2|0:2,0:0:0:0:
143,6,42407,2,0,B|152:36|152:36|144:77,1,60,0|8,1:2|0:1,0:0:0:0:
63,145,42601,2,0,B|54:115|54:115|62:74,1,60,0|8,0:0|0:1,0:0:0:0:
157,168,42794,2,0,L|140:341,1,120,0|0,1:0|0:0,0:0:0:0:
1,384,43181,6,0,B|126:382|95:272|238:288,1,240,8|0,0:2|1:0,0:0:0:0:
338,354,43762,1,8,0:2:0:0:
338,354,43859,1,0,1:0:0:0:
435,299,44052,1,0,1:0:0:0:
435,299,44149,2,0,P|430:242|435:170,1,120,0|0,1:0|0:0,0:0:0:0:
383,119,44536,1,8,0:2:0:0:
290,25,44923,6,0,P|222:49|163:35,1,120,4|0,1:2|0:0,0:0:0:0:
38,153,45310,2,0,P|106:129|165:143,1,120,8|0,0:2|1:2,0:0:0:0:
181,214,45601,1,8,0:1:0:0:
181,214,45698,2,0,L|173:294,1,60,0|8,0:0|0:0,0:0:0:0:
267,183,45891,2,0,L|256:96,1,60,0|0,1:0|0:0,0:0:0:0:
333,242,46085,1,0,0:0:0:0:
449,218,46278,6,0,B|330:190|356:312|232:308,1,240,8|0,0:2|1:0,0:0:0:0:
184,367,46859,2,0,L|100:377,1,60,8|0,0:2|1:0,0:0:0:0:
24,280,47052,2,0,L|93:289,1,60,0|0,0:0|1:0,0:0:0:0:
168,196,47246,1,0,1:0:0:0:
168,196,47343,1,0,0:0:0:0:
168,196,47439,2,0,B|179:165|179:165|174:131,1,60,0|0,0:0|3:0,0:0:0:0:
78,25,47633,2,0,L|87:169,1,120,8|0,0:2|3:0,0:0:0:0:
282,315,48020,6,0,P|275:174|282:50,1,240,4|8,1:2|0:2,0:0:0:0:
340,26,48601,2,0,L|401:38,1,60,0|8,1:2|0:1,0:0:0:0:
213,24,48794,2,0,L|152:36,1,60,0|8,0:0|0:1,0:0:0:0:
379,142,48988,1,0,1:0:0:0:
379,142,49085,1,0,0:0:0:0:
379,142,49181,2,0,L|460:130,1,60,0|0,0:0|0:0,0:0:0:0:
463,286,49375,6,0,L|447:211,1,60,8|0,0:2|0:0,0:0:0:0:
373,296,49568,2,0,L|367:369,1,60,0|0,0:0|0:0,0:0:0:0:
282,291,49762,2,0,L|274:225,1,60,0|0,1:0|0:0,0:0:0:0:
190,308,49956,1,8,0:2:0:0:
190,308,50052,1,0,1:0:0:0:
190,308,50149,2,0,L|183:384,1,60,0|0,0:0|1:0,0:0:0:0:
139,196,50343,5,0,1:0:0:0:
139,196,50439,1,0,1:0:0:0:
139,196,50536,1,0,1:2:0:0:
82,249,50730,2,0,L|89:308,1,60,8|0,0:2|0:0,0:0:0:0:
11,196,50923,2,0,L|4:136,1,60,0|0,0:0|0:0,0:0:0:0:
114,30,51117,6,0,L|360:7,1,240,4|8,1:2|0:2,0:0:0:0:
411,59,51698,1,0,1:2:0:0:
336,151,51891,1,0,0:0:0:0:
336,151,51988,1,8,0:1:0:0:
336,151,52085,2,0,P|333:210|339:278,2,120,0|0|8,1:0|0:0|0:2,0:0:0:0:
417,290,52665,5,0,0:0:0:0:
328,354,52859,2,0,L|231:342,1,60,0|0,1:0|0:0,0:0:0:0:
152,367,53052,1,8,0:2:0:0:
142,352,53149,1,0,0:0:0:0:
137,331,53246,1,0,0:0:0:0:
144,308,53343,1,0,0:0:0:0:
177,279,53439,5,0,1:0:0:0:
198,248,53536,1,8,0:2:0:0:
195,209,53633,1,0,0:0:0:0:
176,178,53730,1,0,1:2:0:0:
133,165,53827,5,8,0:2:0:0:
14,123,54020,1,8,0:2:0:0:
14,123,54117,1,8,0:2:0:0:
14,123,54214,1,4,3:2:0:0:
167,62,54601,5,8,0:2:0:0:
278,151,54794,2,0,B|267:123|267:123|274:90,1,60,0|8,1:2|0:0,0:0:0:0:
365,17,54988,2,0,B|376:45|376:45|369:78,1,60,0|8,0:0|0:0,0:0:0:0:
470,186,55181,2,0,L|457:122,1,60,0|0,1:0|0:0,0:0:0:0:
388,273,55375,1,0,0:0:0:0:
388,273,55472,1,0,0:0:0:0:
388,273,55568,6,0,P|263:251|144:235,1,240,8|0,0:2|1:0,0:0:0:0:
23,384,56149,1,8,0:2:0:0:
115,325,56343,1,0,0:0:0:0:
62,227,56536,1,0,1:0:0:0:
62,227,56633,1,0,0:0:0:0:
62,227,56730,2,0,L|51:163,1,60,0|0,1:2|0:0,0:0:0:0:
144,53,56923,1,8,0:2:0:0:
288,129,57310,5,4,1:2:0:0:
378,66,57601,1,0,0:0:0:0:
378,66,57698,2,0,P|374:130|380:217,1,120,8|0,0:2|0:0,0:0:0:0:
437,238,58085,2,0,L|500:256,1,60,0|8,0:0|0:1,0:0:0:0:
349,263,58278,2,0,L|281:286,1,60,0|0,1:0|0:0,0:0:0:0:
439,337,58472,1,0,0:0:0:0:
253,377,58665,6,0,B|217:315|293:187|227:124,1,240,8|0,0:2|1:0,0:0:0:0:
165,204,59246,2,0,L|77:217,1,60,8|0,0:2|0:0,0:0:0:0:
197,38,59439,1,0,0:0:0:0:
197,38,59536,1,0,0:0:0:0:
197,38,59633,2,0,L|341:63,1,120,0|0,1:0|1:2,0:0:0:0:
380,18,60020,1,8,0:2:0:0:
448,59,60214,1,0,0:0:0:0:
391,212,60407,6,0,L|407:284,3,60,4|0|0|0,1:2|0:0|0:0|0:0,0:0:0:0:
342,320,60794,2,0,B|290:295|290:295|188:316,1,120,8|0,0:2|1:2,0:0:0:0:
61,274,61181,2,0,L|68:342,1,60,0|8,0:0|0:0,0:0:0:0:
160,195,61375,2,0,L|150:265,1,60,0|0,1:0|0:0,0:0:0:0:
74,187,61568,1,0,0:0:0:0:
249,39,61762,6,0,P|149:90|14:53,1,240,8|0,0:2|1:0,0:0:0:0:
133,0,62343,1,8,0:2:0:0:
259,148,62536,1,0,0:0:0:0:
259,148,62633,1,0,1:0:0:0:
259,148,62730,2,0,L|326:136,1,60,8|8,0:2|0:2,0:0:0:0:
432,202,62923,1,0,0:0:0:0:
428,222,63020,1,8,0:2:0:0:
445,260,63117,5,8,0:2:0:0:
405,232,63214,1,0,0:0:0:0:
358,227,63310,1,8,0:2:0:0:
317,250,63407,1,8,0:2:0:0:
292,289,63504,6,0,L|299:353,1,60,4|0,3:2|0:0,0:0:0:0:
199,288,63698,2,0,L|207:219,1,60,4|8,0:2|0:1,0:0:0:0:
126,339,63891,1,0,3:2:0:0:
64,290,64085,1,12,0:2:0:0:
0,336,64278,1,0,3:2:0:0:
113,215,64472,1,4,0:2:0:0:
113,215,64568,1,8,0:1:0:0:
113,215,64665,2,0,L|108:135,1,60,4|0,3:2|0:0,0:0:0:0:
205,22,64859,1,12,0:2:0:0:
0,61,65052,6,0,P|65:71|128:37,1,120,0|4,3:2|0:2,0:0:0:0:
113,50,65343,1,8,0:1:0:0:
113,50,65439,1,0,3:2:0:0:
213,122,65633,1,12,0:2:0:0:
315,54,65827,2,0,L|386:62,1,60,0|0,3:2|0:0,0:0:0:0:
463,138,66020,2,0,L|398:147,1,60,4|8,0:2|0:1,0:0:0:0:
312,229,66214,1,4,3:2:0:0:
288,262,66311,1,0,0:0:0:0:
286,305,66408,1,12,0:2:0:0:
301,339,66504,1,0,0:0:0:0:
336,363,66601,6,0,P|398:346|458:338,1,120,0|4,3:2|0:2,0:0:0:0:
490,269,66891,1,8,0:1:0:0:
490,269,66988,1,0,3:2:0:0:
347,144,67181,1,12,0:2:0:0:
195,239,67375,1,0,3:2:0:0:
254,117,67568,1,4,0:2:0:0:
254,117,67665,1,8,0:1:0:0:
253,116,67762,2,0,L|264:174,1,60,4|0,3:2|0:0,0:0:0:0:
191,329,67956,1,12,0:2:0:0:
95,257,68149,6,0,P|99:196|95:115,1,120,0|4,3:2|0:2,0:0:0:0:
45,84,68439,1,8,0:1:0:0:
45,83,68536,1,0,3:2:0:0:
157,23,68730,1,12,0:2:0:0:
253,116,68923,2,0,L|391:98,1,120,0|4,3:2|0:2,0:0:0:0:
468,170,69214,1,8,0:1:0:0:
494,205,69310,1,4,3:2:0:0:
504,246,69407,1,0,0:0:0:0:
498,289,69504,1,12,0:2:0:0:
476,328,69601,1,0,0:0:0:0:
476,328,69698,5,4,3:2:0:0:
282,164,71246,6,0,L|143:143,1,120,0|0,1:0|1:0,0:0:0:0:
71,239,71633,2,0,L|208:263,1,120,0|0,1:0|1:0,0:0:0:0:
382,82,72020,6,0,L|243:61,1,120,8|8,0:2|0:2,0:0:0:0:
306,265,72407,1,8,0:2:0:0:
306,265,72504,1,8,0:2:0:0:
306,265,72601,2,0,L|385:250,1,60,8|8,0:2|0:2,0:0:0:0:
498,355,72794,5,8,0:2:0:0:
475,371,72891,1,8,0:2:0:0:
459,349,72988,1,8,0:2:0:0:
480,330,73085,2,0,L|487:264,1,60,8|0,0:2|0:0,0:0:0:0:
460,63,73375,5,8,0:2:0:0:
429,41,73472,1,8,0:2:0:0:
408,70,73569,1,8,0:2:0:0:
436,96,73666,2,0,L|445:183,1,60,8|0,0:2|0:0,0:0:0:0:
306,265,73956,6,0,L|315:122,1,120,8|0,0:2|1:0,0:0:0:0:
260,88,74343,1,4,1:2:0:0:
150,157,74536,2,0,L|160:216,1,60,8|8,0:1|0:1,0:0:0:0:
59,315,74730,5,8,0:1:0:0:
77,304,74827,1,8,0:1:0:0:
99,299,74923,1,8,0:1:0:0:
120,306,75020,1,8,0:2:0:0:
155,341,75117,5,8,0:2:0:0:
198,370,75214,1,8,0:2:0:0:
248,371,75310,1,8,0:2:0:0:
291,342,75407,1,8,0:2:0:0:
294,325,75504,5,2,0:0:0:0:
420,217,75891,6,0,P|328:174|339:83,1,167.999994873047,4|8,3:1|0:2,0:0:0:0:
235,23,76181,1,0,0:0:0:0:
235,23,76278,1,0,3:2:0:0:
237,45,76375,1,0,1:2:0:0:
234,69,76472,2,0,B|194:54|194:54|146:66,1,83.9999974365235,8|0,0:2|0:0,0:0:0:0:
8,176,76665,5,0,3:2:0:0:
57,157,76762,1,0,0:0:0:0:
95,175,76859,2,0,P|138:182|177:190,1,83.9999974365235,8|0,0:2|0:0,0:0:0:0:
362,265,77052,5,0,3:2:0:0:
316,248,77149,1,0,1:2:0:0:
279,274,77246,2,0,P|235:281|196:289,1,83.9999974365235,8|0,0:2|0:0,0:0:0:0:
94,384,77439,6,0,P|98:341|107:297,1,83.9999974365235,0|0,3:2|0:0,0:0:0:0:
36,178,77633,2,0,P|29:225|23:263,1,83.9999974365235,8|0,0:2|0:0,0:0:0:0:
177,190,77827,2,0,P|190:146|212:91,1,83.9999974365235,0|0,3:2|1:2,0:0:0:0:
77,19,78020,2,0,P|91:58|103:98,1,83.9999974365235,8|0,0:2|0:0,0:0:0:0:
288,165,78214,5,0,3:2:0:0:
311,153,78310,1,0,0:0:0:0:
340,164,78407,2,0,P|384:152|448:140,1,83.9999974365235,8|0,0:2|0:0,0:0:0:0:
473,322,78601,1,0,3:2:0:0:
444,330,78698,1,0,1:0:0:0:
416,321,78794,2,0,B|398:284|398:284|409:232,1,83.9999974365235,8|0,0:2|0:0,0:0:0:0:
299,67,78988,6,0,B|333:143|270:150|315:260,1,167.999994873047,0|8,3:2|0:2,0:0:0:0:
221,353,79278,1,0,0:0:0:0:
221,353,79375,2,0,P|217:308|220:249,1,83.9999974365235,0|0,3:2|1:2,0:0:0:0:
123,171,79568,2,0,P|127:225|124:281,1,83.9999974365235,8|0,0:2|0:0,0:0:0:0:
45,373,79762,5,0,3:2:0:0:
0,229,79956,1,8,0:2:0:0:
59,82,80149,1,0,3:2:0:0:
59,82,80246,1,0,1:2:0:0:
59,82,80343,2,0,P|105:72|167:51,1,83.9999974365235,8|0,0:2|0:0,0:0:0:0:
221,181,80536,6,0,P|175:167|115:157,1,83.9999974365235,0|0,3:2|0:0,0:0:0:0:
252,278,80730,2,0,P|205:284|164:293,1,83.9999974365235,8|0,0:2|0:0,0:0:0:0:
427,183,80923,2,0,P|473:169|533:159,1,83.9999974365235,0|0,3:2|1:2,0:0:0:0:
422,296,81117,2,0,P|469:302|509:311,1,83.9999974365235,8|0,0:2|0:0,0:0:0:0:
327,126,81310,6,0,B|311:166|311:166|322:211,1,83.9999974365235,4|0,3:2|0:0,0:0:0:0:
321,348,81504,1,8,0:2:0:0:
333,315,81601,1,8,0:2:0:0:
324,283,81698,1,8,0:2:0:0:
342,247,81794,1,8,0:2:0:0:
321,206,81891,1,8,0:2:0:0:
334,176,81988,1,8,0:2:0:0:
322,97,82085,6,0,B|237:75|237:121|148:100,1,167.999994873047,4|8,3:2|0:2,0:0:0:0:
396,32,82375,1,0,0:0:0:0:
396,32,82472,2,0,B|419:67|419:67|413:127,1,83.9999974365235,0|0,3:2|1:2,0:0:0:0:
228,215,82665,2,0,B|215:175|215:175|226:132,1,83.9999974365235,8|0,0:2|0:0,0:0:0:0:
111,10,82859,6,0,P|113:103|107:220,1,167.999994873047,0|8,3:2|0:2,0:0:0:0:
28,267,83149,1,0,0:0:0:0:
28,267,83246,2,0,P|14:225|23:172,1,83.9999974365235,0|0,3:2|1:2,0:0:0:0:
134,350,83439,2,0,P|148:308|139:255,1,83.9999974365235,8|0,0:2|0:0,0:0:0:0:
355,95,83633,6,0,P|306:97|258:93,1,83.9999974365235,0|0,3:2|0:0,0:0:0:0:
208,185,83827,2,0,P|255:184|305:187,1,83.9999974365235,8|0,0:2|0:0,0:0:0:0:
377,303,84020,2,0,P|380:256|390:185,1,83.9999974365235,0|0,3:2|1:2,0:0:0:0:
260,297,84214,2,0,P|265:339|267:380,1,83.9999974365235,8|0,0:2|0:0,0:0:0:0:
491,259,84407,5,0,3:2:0:0:
498,234,84504,1,0,0:0:0:0:
492,208,84601,2,0,P|476:165|488:106,1,83.9999974365235,8|0,0:2|0:0,0:0:0:0:
363,2,84794,1,0,3:2:0:0:
356,27,84891,1,0,1:2:0:0:
362,53,84988,2,0,P|378:96|366:155,1,83.9999974365235,8|0,0:2|0:0,0:0:0:0:
178,138,85181,6,0,B|265:146|244:198|326:214,1,167.999994873047,0|8,3:2|0:2,0:0:0:0:
186,240,85472,1,0,0:0:0:0:
186,240,85568,2,0,P|140:252|91:269,1,83.9999974365235,0|0,3:2|1:2,0:0:0:0:
0,149,85762,2,0,P|46:161|95:178,1,83.9999974365235,8|0,0:2|0:0,0:0:0:0:
24,330,85956,6,0,B|11:303|11:303|11:280|11:280|-4:225,1,83.9999974365235,0|0,3:2|0:0,0:0:0:0:
174,127,86149,2,0,B|187:100|187:100|187:77|187:77|202:22,1,83.9999974365235,8|0,0:2|0:0,0:0:0:0:
4,14,86343,1,0,3:2:0:0:
4,14,86439,1,0,0:0:0:0:
4,14,86536,2,0,P|53:7|109:2,1,83.9999974365235,8|0,0:2|0:0,0:0:0:0:
262,236,86730,6,0,P|265:188|262:146,1,83.9999974365235,0|0,3:2|0:0,0:0:0:0:
363,86,86923,2,0,P|360:127|363:169,1,83.9999974365235,8|0,0:2|0:0,0:0:0:0:
505,291,87117,1,0,3:2:0:0:
458,273,87214,1,0,1:2:0:0:
417,297,87310,2,0,B|375:289|375:289|314:316,1,83.9999974365235,8|0,0:2|0:0,0:0:0:0:
146,187,87504,1,0,3:2:0:0:
154,358,87698,5,8,0:2:0:0:
144,332,87794,1,8,0:2:0:0:
155,305,87891,1,8,0:2:0:0:
179,270,87988,1,8,0:2:0:0:
182,224,88085,1,8,0:2:0:0:
146,187,88181,1,8,0:2:0:0:
93,130,88278,6,0,B|145:108|240:158|290:130,1,192,4|8,3:1|0:2,0:0:0:0:
406,76,88568,1,0,0:0:0:0:
399,53,88665,2,0,P|352:35|280:37,1,96,0|0,3:2|1:2,0:0:0:0:
381,168,88859,2,0,P|425:185|473:188,1,96,8|0,0:2|0:0,0:0:0:0:
283,339,89052,5,0,3:2:0:0:
300,300,89149,1,0,0:0:0:0:
283,254,89246,2,0,P|280:202|281:156,1,96,8|0,0:2|0:0,0:0:0:0:
182,0,89439,1,0,3:2:0:0:
165,39,89536,1,0,1:2:0:0:
182,85,89633,2,0,P|185:137|184:183,1,96,8|0,0:2|0:0,0:0:0:0:
3,227,89827,6,0,B|50:229|100:226,1,96,0|0,3:2|0:0,0:0:0:0:
141,344,90020,2,0,B|94:342|44:345,1,96,8|0,0:2|0:0,0:0:0:0:
187,256,90214,2,0,P|240:252|301:256,1,96,0|0,3:2|1:2,0:0:0:0:
377,351,90407,2,0,P|324:347|263:351,1,96,8|0,0:2|0:0,0:0:0:0:
421,254,90601,5,0,3:2:0:0:
412,221,90698,1,0,0:0:0:0:
430,196,90794,2,0,B|446:150|446:150|431:92,1,96,8|0,0:2|0:0,0:0:0:0:
257,34,90988,2,0,P|307:36|393:28,1,96,0|0,3:2|1:2,0:0:0:0:
294,137,91181,2,0,P|243:134|170:140,1,96,8|0,0:2|0:0,0:0:0:0:
101,3,91375,6,0,B|138:96|72:96|111:200,1,192,0|8,3:2|0:2,0:0:0:0:
0,330,91665,1,0,0:0:0:0:
42,320,91762,1,0,3:2:0:0:
88,330,91859,1,0,1:2:0:0:
130,316,91956,2,0,P|179:304|250:319,1,96,8|0,0:2|0:0,0:0:0:0:
372,221,92149,5,0,3:2:0:0:
300,373,92343,1,8,0:2:0:0:
265,202,92536,1,0,3:2:0:0:
251,160,92633,1,0,1:2:0:0:
264,117,92730,2,0,P|311:107|363:101,1,96,8|0,0:2|0:0,0:0:0:0:
418,281,92923,6,0,P|412:234|405:185,1,96,0|0,3:2|0:0,0:0:0:0:
512,81,93117,2,0,P|503:131|499:176,1,96,8|0,0:2|0:0,0:0:0:0:
512,380,93310,1,0,3:2:0:0:
466,367,93407,1,0,1:2:0:0:
421,383,93504,1,8,0:2:0:0:
378,370,93601,1,0,0:0:0:0:
328,370,93698,6,0,P|280:366|229:370,1,96,4|0,3:2|0:0,0:0:0:0:
161,268,93891,2,0,P|209:272|260:268,1,96,8|8,0:2|0:2,0:0:0:0:
405,147,94085,1,8,0:2:0:0:
378,121,94181,1,8,0:2:0:0:
337,112,94278,1,8,0:2:0:0:
294,122,94375,1,8,0:2:0:0:
262,157,94472,6,0,B|151:187|178:121|48:157,1,192,4|8,3:2|0:2,0:0:0:0:
14,12,94762,1,0,0:0:0:0:
64,0,94859,1,0,3:2:0:0:
110,24,94956,1,0,1:2:0:0:
130,72,95052,2,0,P|125:127|129:187,1,96,8|0,0:2|0:0,0:0:0:0:
16,338,95246,5,0,3:2:0:0:
33,298,95343,1,0,0:0:0:0:
15,261,95439,2,0,B|36:217|36:217|21:154,1,96,8|0,0:2|0:0,0:0:0:0:
211,201,95633,1,0,3:2:0:0:
194,239,95730,1,0,1:2:0:0:
211,277,95826,2,0,B|190:321|190:321|205:384,1,96,8|0,0:2|0:0,0:0:0:0:
382,291,96020,6,0,P|436:282|490:278,1,96,0|0,3:2|0:0,0:0:0:0:
392,187,96214,2,0,P|337:178|284:174,1,96,8|0,0:2|0:0,0:0:0:0:
484,43,96407,1,0,3:2:0:0:
489,63,96504,1,0,1:0:0:0:
490,86,96601,2,0,P|494:138|490:189,1,96,8|0,0:2|0:0,0:0:0:0:
390,95,96794,2,0,P|386:42|390:-8,1,96,0|0,3:2|0:0,0:0:0:0:
261,99,96988,5,8,0:2:0:0:
232,113,97085,1,8,0:2:0:0:
191,114,97181,1,8,0:2:0:0:
154,100,97278,1,8,0:3:0:0:
112,88,97375,1,8,0:3:0:0:
76,88,97472,1,0,1:0:0:0:
41,107,97568,6,0,L|34:270,1,143.999995605469,4|0,3:2|0:0,0:0:0:0:
91,316,97859,1,0,1:0:0:0:
91,316,97956,1,0,0:0:0:0:
211,214,98149,1,0,1:0:0:0:
303,346,98343,2,0,B|364:279|327:195|316:227|276:146|321:74,1,287.999991210938,8|0,0:2|0:0,0:0:0:0:
494,0,98923,5,8,0:0:0:0:
494,0,99020,1,8,0:0:0:0:
494,0,99117,2,0,P|483:112|349:121,1,215.999993408203,4|0,3:2|1:0,0:0:0:0:
396,142,99504,1,0,0:0:0:0:
249,0,99698,1,0,1:0:0:0:
143,47,99891,1,8,0:2:0:0:
248,105,100085,1,0,0:0:0:0:
248,105,100181,1,0,1:0:0:0:
248,105,100278,1,8,0:2:0:0:
350,64,100472,1,0,0:0:0:0:
315,179,100665,5,8,0:2:0:0:
319,202,100762,1,8,0:2:0:0:
239,298,100956,5,8,0:2:0:0:
244,270,101052,1,8,0:2:0:0:
159,170,101246,5,8,0:2:0:0:
164,196,101343,1,8,0:0:0:0:
87,299,101536,5,8,0:2:0:0:
93,276,101633,1,8,0:2:0:0:
38,190,101827,5,8,0:2:0:0:
2,103,102020,1,0,0:0:0:0:
93,47,102214,2,0,L|80:-21,3,47.9999985351563,8|8|8|8,0:3|0:3|0:3|0:3,0:0:0:0:
176,344,102601,5,4,0:2:0:0:
256,192,102649,12,4,103762,1:2:0:0:
474,152,106859,6,0,B|311:92|372:247|208:261,1,287.999991210938,4|0,1:2|0:0,0:0:0:0:
83,138,107439,1,0,0:0:0:0:
38,290,107633,1,0,0:0:0:0:
111,268,107827,1,0,0:0:0:0:
171,318,108020,1,0,0:0:0:0:
207,134,108214,6,0,P|212:63|368:20,1,240,8|0,0:2|1:2,0:0:0:0:
322,196,108794,1,8,0:2:0:0:
322,196,108891,1,8,0:2:0:0:
322,196,108988,2,0,P|318:158|321:121,1,60,0|0,0:0|1:2,0:0:0:0:
437,84,109181,1,0,1:0:0:0:
437,84,109278,1,0,1:0:0:0:
437,84,109375,1,0,0:0:0:0:
488,193,109568,1,8,0:2:0:0:
482,216,109665,1,0,0:0:0:0:
493,235,109762,1,8,0:2:0:0:
485,259,109859,1,8,0:2:0:0:
492,281,109956,5,0,1:2:0:0:
369,366,110536,1,0,0:0:0:0:
286,257,110730,1,0,0:0:0:0:
213,292,110923,1,0,1:0:0:0:
140,264,111117,1,0,0:0:0:0:
222,133,111310,6,0,B|311:107|386:160|468:129,1,240,8|0,0:2|1:2,0:0:0:0:
391,51,111891,1,8,0:2:0:0:
391,51,111988,1,8,0:2:0:0:
321,161,112181,1,0,1:2:0:0:
321,161,112278,1,0,1:0:0:0:
188,50,112472,1,0,0:0:0:0:
109,120,112665,2,0,P|113:184|108:264,1,120,8|8,0:2|0:2,0:0:0:0:
211,379,113052,6,0,B|192:320|232:255|205:171,1,180,4|0,1:2|0:0,0:0:0:0:
254,131,113439,1,8,0:2:0:0:
342,225,113633,1,0,1:2:0:0:
381,211,113730,1,8,0:1:0:0:
416,228,113827,1,0,0:0:0:0:
458,235,113923,1,8,0:1:0:0:
499,213,114020,1,0,1:0:0:0:
473,50,114214,2,0,L|468:120,1,60,0|0,0:0|0:0,0:0:0:0:
314,0,114407,6,0,L|322:60,1,60,8|0,0:2|0:0,0:0:0:0:
170,172,114601,1,0,0:0:0:0:
170,172,114698,1,0,0:0:0:0:
170,172,114794,2,0,L|241:135,1,60,0|0,1:0|0:0,0:0:0:0:
71,146,114988,2,0,L|67:225,1,60,8|0,0:2|1:0,0:0:0:0:
141,75,115181,2,0,L|73:32,1,60,0|0,0:0|1:0,0:0:0:0:
143,265,115375,6,0,P|138:334|145:414,1,120,0|0,1:0|1:2,0:0:0:0:
228,277,115665,1,0,0:0:0:0:
262,258,115762,1,8,0:2:0:0:
293,261,115859,1,0,0:0:0:0:
316,278,115956,1,0,1:0:0:0:
324,292,116052,1,0,0:0:0:0:
327,302,116149,5,4,1:2:0:0:
327,302,116536,1,8,0:2:0:0:
433,339,116730,1,0,1:2:0:0:
427,325,116827,1,8,0:1:0:0:
422,309,116923,1,0,0:0:0:0:
422,292,117020,1,8,0:1:0:0:
424,276,117117,2,0,P|459:231|428:132,1,120,0|0,1:0|0:0,0:0:0:0:
324,31,117504,1,8,0:2:0:0:
306,127,117698,6,0,L|373:114,1,60,0|0,0:0|0:0,0:0:0:0:
231,61,117891,1,0,1:0:0:0:
160,202,118085,2,0,P|229:195|284:222,1,120,8|0,0:2|0:0,0:0:0:0:
348,332,118472,2,0,B|335:304|335:304|348:263,1,60,0|8,1:0|0:2,0:0:0:0:
254,352,118665,1,0,0:0:0:0:
233,343,118762,1,0,1:0:0:0:
212,345,118859,1,8,0:2:0:0:
80,317,119052,1,8,0:2:0:0:
101,308,119149,1,8,0:2:0:0:
121,311,119246,6,0,P|138:248|147:165,1,120,4|8,1:2|0:2,0:0:0:0:
52,16,119633,1,0,1:0:0:0:
0,86,119827,2,0,B|57:101|57:101|132:70,1,120,8|0,0:2|0:0,0:0:0:0:
184,124,120117,1,0,1:0:0:0:
184,124,120214,2,0,B|241:109|241:109|316:140,1,120,8|0,0:2|1:0,0:0:0:0:
395,6,120601,6,0,P|391:70|394:129,1,120,8|0,0:2|1:0,0:0:0:0:
462,264,120988,1,8,0:2:0:0:
394,306,121181,1,0,1:0:0:0:
322,271,121375,1,8,0:2:0:0:
230,376,121568,1,0,0:0:0:0:
230,376,121665,1,0,1:0:0:0:
230,376,121762,1,8,0:2:0:0:
137,198,121956,2,0,P|142:250|140:327,1,120,0|8,1:0|0:2,0:0:0:0:
0,137,122343,6,0,P|53:110|155:127,1,120,4|8,1:2|0:2,0:0:0:0:
202,62,122730,2,0,P|255:89|357:72,1,120,0|8,1:0|0:0,0:0:0:0:
400,37,123020,1,0,1:1:0:0:
415,68,123117,1,0,0:0:0:0:
418,102,123214,1,0,1:1:0:0:
406,136,123310,1,8,0:2:0:0:
469,235,123504,1,0,1:0:0:0:
335,326,123698,6,0,P|416:322|480:325,1,120,8|0,0:2|1:0,0:0:0:0:
302,239,124085,1,8,0:2:0:0:
210,319,124278,1,0,1:0:0:0:
189,308,124375,1,0,0:0:0:0:
165,310,124472,2,0,P|105:290|38:302,1,120,8|0,0:2|0:0,0:0:0:0:
0,181,124762,1,0,0:0:0:0:
31,194,124859,1,8,0:2:0:0:
62,183,124956,1,0,0:0:0:0:
92,197,125052,2,0,P|125:156|114:66,1,120,0|8,1:0|0:2,0:0:0:0:
239,3,125439,6,0,B|217:62|217:62|238:128,1,120,4|8,1:2|0:2,0:0:0:0:
348,40,125827,1,0,1:0:0:0:
425,161,126020,1,8,0:2:0:0:
401,144,126117,1,0,1:0:0:0:
369,140,126214,1,0,0:0:0:0:
340,147,126310,1,0,1:2:0:0:
315,165,126407,2,0,P|310:223|314:289,1,120,8|0,0:2|1:0,0:0:0:0:
462,370,126794,6,0,B|441:311|441:311|464:221,1,120,8|0,0:2|1:0,0:0:0:0:
358,348,127181,1,8,0:2:0:0:
325,321,127278,1,0,0:0:0:0:
290,312,127375,1,0,1:2:0:0:
249,316,127472,1,0,0:0:0:0:
213,339,127568,1,8,0:2:0:0:
128,234,127762,1,8,0:2:0:0:
128,234,127859,1,8,0:2:0:0:
185,156,128052,1,8,0:2:0:0:
185,156,128149,1,8,0:2:0:0:
91,58,128343,1,8,0:2:0:0:
104,80,128439,1,8,0:2:0:0:
118,105,128536,6,0,L|125:41,1,60,4|0,1:2|0:0,0:0:0:0:
234,0,128730,2,0,L|242:69,1,60,4|8,0:2|0:1,0:0:0:0:
335,117,128923,1,0,1:0:0:0:
397,166,129117,1,12,0:2:0:0:
461,120,129310,1,0,1:2:0:0:
348,241,129504,1,4,0:2:0:0:
348,241,129600,1,8,0:1:0:0:
348,241,129697,2,0,L|268:246,1,60,4|0,1:2|0:0,0:0:0:0:
185,305,129891,1,12,0:2:0:0:
67,196,130084,6,0,P|132:206|195:172,1,120,0|4,1:2|0:2,0:0:0:0:
180,185,130375,1,8,0:1:0:0:
180,185,130471,1,0,1:0:0:0:
197,35,130665,1,12,0:2:0:0:
312,146,130859,2,0,L|383:154,1,60,0|0,1:2|0:0,0:0:0:0:
426,40,131052,2,0,L|361:49,1,60,4|8,0:2|0:1,0:0:0:0:
244,90,131246,1,4,1:2:0:0:
220,123,131343,1,0,0:0:0:0:
218,166,131440,1,12,0:2:0:0:
233,200,131536,1,0,0:0:0:0:
268,222,131633,6,0,P|285:284|293:344,1,120,0|4,1:2|0:2,0:0:0:0:
216,383,131923,1,8,0:1:0:0:
216,383,132020,1,0,1:0:0:0:
142,343,132213,1,12,0:2:0:0:
64,376,132407,1,0,1:2:0:0:
151,260,132600,1,4,0:2:0:0:
151,260,132697,1,8,0:1:0:0:
151,260,132794,2,0,L|140:202,1,60,4|0,1:2|0:0,0:0:0:0:
43,126,132988,1,12,0:2:0:0:
239,154,133181,6,0,P|300:158|381:154,1,120,0|4,1:2|0:2,0:0:0:0:
418,87,133471,1,8,0:1:0:0:
418,86,133568,1,0,1:0:0:0:
349,241,133762,1,12,0:2:0:0:
506,324,133955,2,0,P|437:330|388:344,1,120,0|4,1:2|0:2,0:0:0:0:
272,384,134246,1,8,0:0:0:0:
237,358,134342,1,4,1:2:0:0:
196,348,134439,1,0,0:0:0:0:
153,354,134536,1,12,0:2:0:0:
114,376,134633,1,0,0:0:0:0:
114,376,134730,5,4,1:2:0:0:
231,220,136278,6,0,L|370:241,1,120,0|0,1:0|1:0,0:0:0:0:
442,145,136665,2,0,L|305:121,1,120,0|0,1:0|1:0,0:0:0:0:
131,302,137052,6,0,L|270:323,1,120,8|8,0:2|0:2,0:0:0:0:
207,119,137439,1,8,0:2:0:0:
207,119,137536,1,8,0:0:0:0:
207,119,137633,2,0,L|128:134,1,60,8|8,0:2|0:2,0:0:0:0:
15,29,137826,5,8,0:2:0:0:
38,13,137923,1,8,0:2:0:0:
54,35,138020,1,8,0:2:0:0:
33,54,138117,2,0,L|26:120,1,60,8|0,0:2|0:0,0:0:0:0:
53,321,138407,5,8,0:2:0:0:
84,343,138504,1,8,0:2:0:0:
105,314,138601,1,8,0:2:0:0:
77,288,138698,2,0,L|68:201,1,60,8|0,0:2|0:0,0:0:0:0:
207,119,138988,6,0,L|198:262,1,120,8|0,0:2|1:0,0:0:0:0:
253,296,139375,1,4,1:2:0:0:
363,227,139568,2,0,L|353:168,1,60,8|8,0:1|0:1,0:0:0:0:
465,61,139762,5,8,0:1:0:0:
447,72,139859,1,8,0:1:0:0:
425,77,139955,1,8,0:1:0:0:
404,70,140052,1,8,0:2:0:0:
358,43,140149,5,8,0:2:0:0:
315,14,140246,1,8,0:2:0:0:
265,13,140342,1,8,0:2:0:0:
222,42,140439,1,8,0:2:0:0:
219,59,140536,5,0,0:0:0:0:
6,196,140923,6,0,P|98:239|92:324,1,167.999994873047,4|8,3:1|0:2,0:0:0:0:
224,370,141213,1,0,0:0:0:0:
247,378,141310,1,0,3:2:0:0:
269,380,141407,1,0,1:2:0:0:
293,377,141504,2,0,B|278:337|278:337|290:289,1,83.9999974365235,8|0,0:2|0:0,0:0:0:0:
439,207,141697,5,0,3:2:0:0:
390,226,141794,1,0,0:0:0:0:
352,208,141891,2,0,P|309:201|270:193,1,83.9999974365235,8|0,0:2|0:0,0:0:0:0:
222,62,142084,5,0,3:2:0:0:
176,45,142181,1,0,1:2:0:0:
139,71,142278,2,0,P|95:78|56:86,1,83.9999974365235,8|0,0:2|0:0,0:0:0:0:
11,281,142471,6,0,P|15:238|24:194,1,83.9999974365235,0|0,3:2|0:0,0:0:0:0:
148,251,142665,2,0,P|156:292|159:333,1,83.9999974365235,8|0,0:2|0:0,0:0:0:0:
293,372,142859,2,0,P|306:328|352:299,1,83.9999974365235,0|0,3:2|1:2,0:0:0:0:
465,244,143052,2,0,P|494:287|491:323,1,83.9999974365235,8|0,0:2|0:0,0:0:0:0:
367,202,143246,5,0,3:2:0:0:
355,179,143342,1,0,0:0:0:0:
366,150,143439,2,0,P|396:122|425:77,1,83.9999974365235,8|0,0:2|0:0,0:0:0:0:
294,12,143633,1,0,3:2:0:0:
265,4,143730,1,0,1:2:0:0:
237,13,143826,2,0,B|219:50|219:50|230:102,1,83.9999974365235,8|0,0:2|0:0,0:0:0:0:
248,229,144020,6,0,B|172:263|165:200|55:245,1,167.999994873047,0|8,3:2|0:2,0:0:0:0:
130,353,144310,1,0,0:0:0:0:
130,353,144407,2,0,P|175:349|234:352,1,83.9999974365235,0|0,3:2|1:2,0:0:0:0:
348,298,144601,2,0,P|389:298|431:294,1,83.9999974365235,8|0,0:2|0:0,0:0:0:0:
498,154,144794,5,0,3:2:0:0:
381,28,144988,1,8,0:2:0:0:
253,162,145181,1,0,3:2:0:0:
253,162,145278,1,0,1:2:0:0:
253,162,145375,2,0,P|234:111|241:64,1,83.9999974365235,8|0,0:2|0:0,0:0:0:0:
126,144,145568,6,0,P|83:149|13:143,1,83.9999974365235,0|0,3:2|0:0,0:0:0:0:
0,284,145762,2,0,P|41:279|83:280,1,83.9999974365235,8|0,0:2|0:0,0:0:0:0:
215,364,145955,2,0,P|173:372|133:384,1,83.9999974365235,0|0,3:2|1:2,0:0:0:0:
216,244,146149,2,0,P|263:250|305:277,1,83.9999974365235,8|0,0:2|0:0,0:0:0:0:
439,365,146342,6,0,B|423:325|423:325|434:280,1,83.9999974365235,4|0,3:2|0:0,0:0:0:0:
512,166,146536,1,8,0:2:0:0:
479,154,146633,1,8,0:2:0:0:
447,163,146730,1,8,0:2:0:0:
411,145,146826,1,8,0:2:0:0:
370,166,146923,1,8,0:2:0:0:
340,153,147020,1,8,0:2:0:0:
271,106,147117,6,0,B|186:84|186:130|97:109,1,167.999994873047,4|8,3:2|0:2,0:0:0:0:
185,18,147407,1,0,0:0:0:0:
185,18,147504,2,0,B|226:-5|294:22,1,83.9999974365235,0|0,3:2|1:2,0:0:0:0:
372,129,147698,2,0,B|395:170|368:238,1,83.9999974365235,8|0,0:2|0:0,0:0:0:0:
494,284,147891,6,0,P|496:199|514:109,1,167.999994873047,0|8,3:2|0:2,0:0:0:0:
365,14,148181,1,0,0:0:0:0:
365,14,148278,2,0,P|351:56|360:109,1,83.9999974365235,0|0,3:2|1:2,0:0:0:0:
361,237,148472,2,0,B|320:260|252:233,1,83.9999974365235,8|0,0:2|0:0,0:0:0:0:
156,287,148665,6,0,P|154:238|158:190,1,83.9999974365235,0|0,3:2|0:0,0:0:0:0:
41,151,148859,2,0,P|42:198|39:248,1,83.9999974365235,8|0,0:2|0:0,0:0:0:0:
137,90,149052,2,0,P|184:93|255:103,1,83.9999974365235,0|0,3:2|1:2,0:0:0:0:
357,195,149246,2,0,P|315:197|273:202,1,83.9999974365235,8|0,0:2|0:0,0:0:0:0:
250,329,149439,5,0,3:2:0:0:
275,336,149536,1,0,0:0:0:0:
301,330,149633,2,0,P|344:314|403:326,1,83.9999974365235,8|0,0:2|0:0,0:0:0:0:
512,202,149826,1,0,3:2:0:0:
487,195,149923,1,0,1:2:0:0:
461,201,150020,2,0,P|418:217|359:205,1,83.9999974365235,8|0,0:2|0:0,0:0:0:0:
219,250,150213,6,0,B|234:170|286:191|294:104,1,167.999994873047,0|8,3:2|0:2,0:0:0:0:
186,102,150504,1,0,0:0:0:0:
186,102,150601,2,0,P|131:102|65:83,1,83.9999974365235,0|0,3:2|1:2,0:0:0:0:
0,210,150794,2,0,P|41:203|83:204,1,83.9999974365235,8|0,0:2|0:0,0:0:0:0:
154,305,150988,6,0,B|162:338|162:338|154:358|154:358|152:386,1,83.9999974365235,0|0,3:2|0:0,0:0:0:0:
318,359,151181,2,0,B|316:331|316:331|308:311|308:311|316:278,1,83.9999974365235,8|0,0:2|0:0,0:0:0:0:
450,227,151375,1,0,3:2:0:0:
450,227,151471,1,0,0:0:0:0:
450,227,151568,2,0,P|457:276|462:332,1,83.9999974365235,8|0,0:2|0:0,0:0:0:0:
325,173,151762,6,0,P|277:170|235:173,1,83.9999974365235,0|0,3:2|0:0,0:0:0:0:
109,50,151955,2,0,P|150:53|192:50,1,83.9999974365235,8|0,0:2|0:0,0:0:0:0:
339,5,152149,1,0,3:2:0:0:
357,52,152246,1,0,1:2:0:0:
333,93,152342,2,0,B|341:135|341:135|314:196,1,83.9999974365235,8|0,0:2|0:0,0:0:0:0:
189,278,152536,1,0,3:2:0:0:
33,117,152730,5,8,0:2:0:0:
59,107,152826,1,8,0:2:0:0:
86,118,152923,1,8,0:2:0:0:
121,142,153020,1,8,0:2:0:0:
167,145,153117,1,8,0:2:0:0:
204,109,153213,1,8,0:2:0:0:
261,56,153310,6,0,B|226:156|226:156|261:253,1,192,4|8,3:1|0:2,0:0:0:0:
417,258,153600,1,0,0:0:0:0:
440,250,153697,2,0,P|458:203|456:131,1,96,0|0,3:2|1:2,0:0:0:0:
346,85,153891,2,0,P|328:132|330:204,1,96,8|0,0:2|0:0,0:0:0:0:
328,324,154084,5,0,3:2:0:0:
289,307,154181,1,0,0:0:0:0:
243,324,154278,2,0,P|191:327|145:326,1,96,8|0,0:2|0:0,0:0:0:0:
20,232,154471,1,0,3:2:0:0:
59,249,154568,1,0,1:2:0:0:
105,232,154665,2,0,P|157:229|203:230,1,96,8|0,0:2|0:0,0:0:0:0:
321,283,154859,6,0,B|323:236|320:186,1,96,0|0,3:2|0:0,0:0:0:0:
436,156,155052,2,0,B|434:203|437:253,1,96,8|0,0:2|0:0,0:0:0:0:
354,95,155246,2,0,P|355:47|351:0,1,96,0|0,3:2|1:2,0:0:0:0:
227,123,155439,2,0,P|225:170|229:218,1,96,8|0,0:2|0:0,0:0:0:0:
175,323,155633,5,0,3:2:0:0:
142,332,155730,1,0,0:0:0:0:
117,314,155826,2,0,B|71:298|71:298|13:313,1,96,8|0,0:2|0:0,0:0:0:0:
115,212,156020,2,0,P|117:162|109:76,1,96,0|0,3:2|1:2,0:0:0:0:
2,23,156213,2,0,P|-1:74|5:147,1,96,8|0,0:2|0:0,0:0:0:0:
122,23,156407,6,0,B|215:-14|215:52|319:13,1,192,0|8,3:2|0:2,0:0:0:0:
461,106,156697,1,0,0:0:0:0:
419,116,156794,1,0,3:2:0:0:
373,106,156891,1,0,0:2:0:0:
331,120,156988,2,0,P|282:132|211:117,1,96,8|0,0:2|0:0,0:0:0:0:
124,230,157181,5,0,3:2:0:0:
260,365,157375,1,8,0:2:0:0:
390,215,157568,1,0,3:2:0:0:
432,201,157665,1,0,1:2:0:0:
475,214,157762,2,0,P|485:261|491:313,1,96,8|0,0:2|0:0,0:0:0:0:
346,384,157955,6,0,P|340:337|333:288,1,96,0|0,3:2|0:0,0:0:0:0:
221,126,158149,2,0,P|212:176|208:221,1,96,8|0,0:2|0:0,0:0:0:0:
69,370,158342,1,0,3:2:0:0:
115,383,158439,1,0,1:2:0:0:
160,367,158536,1,8,0:2:0:0:
203,380,158633,1,0,0:0:0:0:
253,380,158730,6,0,P|301:384|352:380,1,96,4|0,3:2|0:0,0:0:0:0:
512,289,158923,2,0,P|464:285|413:289,1,96,8|8,0:2|0:2,0:0:0:0:
279,211,159117,1,8,0:2:0:0:
253,184,159213,1,8,0:2:0:0:
244,143,159310,1,8,0:2:0:0:
254,100,159407,1,8,0:2:0:0:
289,67,159504,6,0,B|348:27|409:95|485:39,1,192,4|8,3:2|0:2,0:0:0:0:
512,147,159794,1,0,0:0:0:0:
476,184,159891,1,0,3:2:0:0:
424,189,159988,1,0,1:2:0:0:
382,159,160084,2,0,P|335:144|281:186,1,96,8|0,0:2|0:0,0:0:0:0:
253,302,160278,5,0,3:2:0:0:
213,319,160375,1,0,0:0:0:0:
176,301,160471,2,0,B|132:322|132:322|69:307,1,96,8|0,0:2|0:0,0:0:0:0:
129,173,160665,1,0,3:2:0:0:
167,156,160762,1,0,1:2:0:0:
205,173,160859,2,0,B|249:152|249:152|312:167,1,96,8|0,0:2|0:0,0:0:0:0:
480,263,161052,6,0,P|471:209|467:155,1,96,0|0,3:2|0:0,0:0:0:0:
376,255,161246,2,0,P|367:310|363:363,1,96,8|0,0:2|0:0,0:0:0:0:
211,289,161439,1,0,3:2:0:0:
191,284,161536,1,0,0:0:0:0:
168,283,161633,2,0,P|116:279|65:283,1,96,8|0,0:2|0:0,0:0:0:0:
159,383,161826,2,0,P|212:387|262:383,1,96,0|0,3:2|0:0,0:0:0:0:
285,255,162020,5,8,0:2:0:0:
282,222,162117,1,8,0:2:0:0:
261,187,162213,1,8,0:2:0:0:
230,162,162310,1,8,0:3:0:0:
198,132,162407,1,8,0:3:0:0:
180,102,162504,1,4,0:3:0:0:
188,64,162601,6,0,P|262:62|352:68,1,143.999995605469,4|0,3:2|0:0,0:0:0:0:
442,100,162891,1,0,1:0:0:0:
442,100,162987,1,0,0:0:0:0:
512,10,163182,1,0,1:0:0:0:
332,66,163376,2,0,B|302:151|368:214|366:180|434:239|421:323,1,287.999991210938,8|0,0:2|0:0,0:0:0:0:
229,245,163956,5,8,0:0:0:0:
229,245,164053,1,8,0:0:0:0:
229,245,164149,1,4,1:2:0:0:
322,297,164343,1,0,0:0:0:0:
225,352,164537,1,0,0:0:0:0:
327,199,164730,2,0,L|472:181,1,143.999995605469,0|8,1:0|0:2,0:0:0:0:
387,84,165116,1,0,0:0:0:0:
387,84,165213,1,0,1:0:0:0:
387,84,165310,1,8,0:2:0:0:
399,219,165505,1,0,0:0:0:0:
265,108,165698,5,8,0:2:0:0:
269,131,165794,1,8,0:2:0:0:
189,227,165987,5,8,0:2:0:0:
194,199,166085,1,8,0:2:0:0:
109,99,166278,5,8,0:2:0:0:
114,125,166375,1,0,0:0:0:0:
37,228,166568,5,8,0:2:0:0:
43,205,166665,1,8,0:2:0:0:
130,275,166858,5,8,0:2:0:0:
212,345,167053,1,0,0:0:0:0:
321,330,167245,2,0,L|389:317,3,47.9999985351563,8|8|8|8,0:3|0:3|0:3|0:3,0:0:0:0:
0,384,167634,5,4,1:2:0:0:
256,192,167682,12,4,168795,1:2:0:0:
157,39,181181,5,4,0:2:0:0:
157,39,181568,1,0,0:0:0:0:
167,123,181762,1,0,3:0:0:0:
83,132,181956,1,0,0:0:0:0:
73,49,182149,1,0,3:0:0:0:
167,123,182343,2,0,L|157:254,1,96,0|0,3:0|3:0,0:0:0:0:
273,355,182730,5,0,0:0:0:0:
261,258,182924,1,0,3:0:0:0:
357,248,183116,1,0,0:0:0:0:
369,343,183311,1,0,3:0:0:0:
261,258,183505,2,0,L|272:107,2,96,0|0|0,0:0|3:0|3:0,0:0:0:0:
444,58,184278,5,4,0:3:0:0:
444,58,184665,2,0,L|479:190,1,96,0|0,0:0|3:0,0:0:0:0:
378,233,185052,1,0,0:0:0:0:
299,197,185246,1,0,3:0:0:0:
277,280,185439,2,0,L|249:411,1,96,0|0,3:0|3:0,0:0:0:0:
129,235,185827,5,0,0:0:0:0:
35,283,186020,1,0,3:0:0:0:
35,177,186214,1,0,0:0:0:0:
136,150,186407,1,0,3:0:0:0:
35,283,186601,2,0,L|49:383,2,96,0|0|0,0:0|3:0|3:0,0:0:0:0:
150,31,187375,5,4,1:2:0:0:
282,220,188923,6,0,L|143:241,1,120,0|0,1:0|1:0,0:0:0:0:
71,145,189310,2,0,L|208:121,1,120,0|0,1:0|1:0,0:0:0:0:
382,302,189697,6,0,L|243:323,1,120,8|8,0:2|0:2,0:0:0:0:
306,119,190084,1,8,0:2:0:0:
306,119,190181,1,8,0:0:0:0:
306,119,190278,2,0,L|385:134,1,60,8|8,0:2|0:2,0:0:0:0:
498,29,190471,5,8,0:2:0:0:
475,13,190568,1,8,0:2:0:0:
459,35,190665,1,8,0:2:0:0:
480,54,190762,2,0,L|487:120,1,60,8|0,0:2|0:0,0:0:0:0:
460,321,191052,5,8,0:2:0:0:
429,343,191149,1,8,0:2:0:0:
408,314,191246,1,8,0:2:0:0:
436,288,191343,2,0,L|445:201,1,60,8|0,0:2|0:0,0:0:0:0:
306,119,191633,6,0,L|315:262,1,120,8|8,0:2|0:3,0:0:0:0:
260,296,192020,1,4,1:2:0:0:
88,306,192987,1,0,0:0:0:0:
67,313,193084,1,8,0:1:0:0:
30,290,193181,5,8,0:2:0:0:
1,247,193278,1,8,0:2:0:0:
0,197,193374,1,8,0:2:0:0:
29,154,193471,1,8,0:2:0:0:
48,150,193568,6,0,L|90:155,1,36,2|0,0:0|0:0,0:0:0:0:
217,27,193956,6,0,P|174:52|124:43,1,83.9999974365235,4|0,3:1|1:2,0:0:0:0:
285,143,194149,2,0,P|326:143|360:166,1,83.9999974365235,8|0,0:2|0:0,0:0:0:0:
184,282,194343,1,0,3:2:0:0:
189,257,194439,1,0,0:0:0:0:
185,234,194536,2,0,P|180:192|184:150,1,83.9999974365235,8|0,0:2|0:0,0:0:0:0:
69,230,194730,1,0,3:2:0:0:
64,255,194826,1,0,1:2:0:0:
68,278,194923,2,0,P|72:319|68:361,1,83.9999974365235,8|0,0:2|0:0,0:0:0:0:
298,326,195117,6,0,B|339:310|339:310|392:321,1,83.9999974365235,0|0,3:2|0:0,0:0:0:0:
508,233,195310,2,0,B|467:217|467:217|414:228,1,83.9999974365235,8|0,0:2|0:0,0:0:0:0:
269,117,195504,2,0,P|316:122|364:118,1,83.9999974365235,0|0,3:2|1:2,0:0:0:0:
458,21,195698,2,0,P|411:16|363:20,1,83.9999974365235,8|0,0:2|0:0,0:0:0:0:
150,75,195891,5,0,3:2:0:0:
145,99,195988,1,0,0:0:0:0:
156,122,196085,2,0,L|169:216,1,83.9999974365235,8|0,0:2|0:0,0:0:0:0:
30,322,196278,1,0,3:2:0:0:
64,301,196375,1,0,1:2:0:0:
99,316,196472,2,0,B|140:303|140:303|192:312,1,83.9999974365235,8|0,0:2|0:0,0:0:0:0:
425,282,196665,6,0,B|339:294|356:239|263:244,1,167.999994873047,0|8,3:2|0:2,0:0:0:0:
182,137,196956,1,0,0:0:0:0:
156,122,197052,2,0,P|134:169|135:212,1,83.9999974365235,0|0,3:2|1:2,0:0:0:0:
272,84,197246,2,0,P|268:42|248:5,1,83.9999974365235,8|0,0:2|0:0,0:0:0:0:
390,187,197439,6,0,P|383:274|392:379,1,167.999994873047,0|8,3:2|0:2,0:0:0:0:
280,286,197730,1,0,0:0:0:0:
249,264,197827,1,0,3:2:0:0:
212,259,197923,1,0,1:2:0:0:
174,278,198020,2,0,P|151:324|152:372,1,83.9999974365235,8|0,0:2|0:0,0:0:0:0:
7,64,198214,6,0,P|48:67|90:67,1,83.9999974365235,0|0,3:2|0:0,0:0:0:0:
159,174,198407,2,0,P|117:170|75:170,1,83.9999974365235,8|0,0:2|0:0,0:0:0:0:
228,97,198601,2,0,P|254:130|260:199,1,83.9999974365235,0|0,3:2|1:2,0:0:0:0:
388,2,198794,2,0,P|362:34|352:75,1,83.9999974365235,8|0,0:2|0:0,0:0:0:0:
449,194,198988,6,0,L|363:177,1,83.9999974365235,4|0,3:2|0:0,0:0:0:0:
169,349,199181,1,8,0:2:0:0:
161,332,199278,1,8,0:2:0:0:
176,296,199375,5,8,0:2:0:0:
220,272,199472,1,8,0:2:0:0:
268,294,199568,1,8,0:2:0:0:
314,270,199665,1,8,0:2:0:0:
374,326,199762,6,0,P|329:220|364:150,1,167.999994873047,4|8,3:2|0:2,0:0:0:0:
483,86,200052,1,0,0:0:0:0:
483,86,200149,2,0,B|445:101|445:101|389:82,1,83.9999974365235,0|0,3:2|1:2,0:0:0:0:
280,2,200343,2,0,P|285:48|281:92,1,83.9999974365235,8|0,0:2|0:0,0:0:0:0:
218,182,200536,5,0,3:2:0:0:
193,198,200633,1,0,0:0:0:0:
168,186,200730,2,0,P|148:146|161:83,1,83.9999974365235,8|0,0:2|0:0,0:0:0:0:
16,221,200923,1,0,3:2:0:0:
52,218,201020,1,0,1:2:0:0:
76,247,201117,2,0,P|76:288|57:325,1,83.9999974365235,8|0,0:2|0:0,0:0:0:0:
208,302,201310,6,0,P|255:297|302:297,1,83.9999974365235,0|0,3:2|0:0,0:0:0:0:
406,199,201504,2,0,P|359:194|312:194,1,83.9999974365235,8|0,0:2|0:0,0:0:0:0:
399,301,201698,2,0,P|395:344|399:385,1,83.9999974365235,0|0,3:2|1:2,0:0:0:0:
504,247,201891,2,0,P|508:204|504:163,1,83.9999974365235,8|0,0:2|0:0,0:0:0:0:
459,18,202085,5,0,3:2:0:0:
424,6,202181,1,0,0:0:0:0:
396,13,202278,2,0,B|378:51|378:51|393:100,1,83.9999974365235,8|0,0:2|0:0,0:0:0:0:
228,212,202472,1,0,3:2:0:0:
263,224,202568,1,0,1:2:0:0:
291,217,202665,2,0,B|309:179|309:179|294:130,1,83.9999974365235,8|0,0:2|0:0,0:0:0:0:
120,0,202859,6,0,L|135:217,1,167.999994873047,0|8,3:2|0:2,0:0:0:0:
47,249,203149,1,0,0:0:0:0:
47,249,203246,2,0,B|25:210|25:210|43:127,1,83.9999974365235,0|0,3:2|1:2,0:0:0:0:
180,337,203439,2,0,P|135:332|92:334,1,83.9999974365235,8|0,0:2|0:0,0:0:0:0:
228,212,203633,2,0,B|329:193|295:261|400:264,1,167.999994873047,0|8,3:2|0:2,0:0:0:0:
501,262,203923,1,0,0:0:0:0:
501,262,204020,1,0,3:2:0:0:
492,279,204117,1,0,0:0:0:0:
476,301,204214,2,0,P|472:346|475:393,1,83.9999974365235,8|0,0:2|0:0,0:0:0:0:
373,234,204407,6,0,P|358:199|365:148,1,83.9999974365235,0|0,3:2|0:0,0:0:0:0:
248,46,204601,2,0,P|263:81|257:130,1,83.9999974365235,8|0,0:2|0:0,0:0:0:0:
57,260,204794,2,0,P|132:244|230:233,1,167.999994873047,0|8,3:2|0:2,0:0:0:0:
288,284,205085,1,0,0:0:0:0:
288,284,205181,1,0,3:2:0:0:
110,140,205375,5,8,0:2:0:0:
101,115,205472,1,8,0:2:0:0:
121,73,205568,1,8,0:2:0:0:
167,51,205665,1,8,0:2:0:0:
213,79,205762,1,8,0:2:0:0:
259,53,205859,1,8,0:2:0:0:
320,106,205956,6,0,B|433:89|397:151|501:151,1,192,4|8,3:1|0:0,0:0:0:0:
360,204,206246,1,0,0:0:0:0:
360,204,206343,2,0,B|379:246|379:246|364:300,1,96,0|0,3:2|1:2,0:0:0:0:
247,380,206536,2,0,B|229:336|229:336|246:281,1,96,8|0,0:2|0:0,0:0:0:0:
74,171,206730,5,0,3:2:0:0:
72,200,206827,1,0,0:0:0:0:
88,221,206923,2,0,L|206:198,1,96,8|0,0:2|0:0,0:0:0:0:
324,30,207117,1,0,3:2:0:0:
340,70,207214,1,0,1:2:0:0:
320,106,207310,2,0,L|189:89,1,96,8|0,0:2|0:0,0:0:0:0:
389,282,207504,6,0,P|384:231|385:186,1,96,0|0,3:2|0:0,0:0:0:0:
497,281,207698,2,0,P|502:332|501:377,1,96,8|0,0:2|0:0,0:0:0:0:
323,363,207891,2,0,P|273:357|218:392,1,96,0|0,3:2|1:2,0:0:0:0:
125,243,208085,2,0,P|168:262|215:255,1,96,8|0,0:2|0:0,0:0:0:0:
3,342,208278,5,0,3:2:0:0:
0,316,208375,1,0,0:0:0:0:
14,291,208472,2,0,P|18:245|12:189,1,96,8|0,0:2|0:0,0:0:0:0:
119,72,208665,1,0,3:2:0:0:
116,98,208762,1,0,1:2:0:0:
130,123,208859,2,0,P|134:169|128:225,1,96,8|0,0:2|0:0,0:0:0:0:
293,375,209052,6,0,P|238:275|279:207,1,192,0|8,3:2|0:2,0:0:0:0:
323,111,209343,1,0,0:0:0:0:
323,111,209439,2,0,B|277:92|277:92|206:112,1,96,0|0,3:2|1:2,0:0:0:0:
382,205,209633,2,0,B|428:224|428:224|499:204,1,96,8|0,0:2|0:0,0:0:0:0:
235,290,209827,6,0,B|127:264|158:351|28:350,1,192,0|8,3:2|0:2,0:0:0:0:
0,177,210117,1,0,0:0:0:0:
33,152,210214,1,0,3:2:0:0:
71,153,210310,1,0,1:2:0:0:
104,175,210407,2,0,P|155:185|219:171,1,96,8|0,0:2|0:0,0:0:0:0:
417,42,210601,6,0,L|527:58,1,96,0|0,3:2|0:0,0:0:0:0:
421,153,210794,2,0,L|311:169,1,96,8|0,0:2|0:0,0:0:0:0:
199,47,210988,2,0,P|253:44|298:70,1,96,0|0,3:2|1:2,0:0:0:0:
211,193,211181,2,0,P|167:212|120:208,1,96,8|0,0:2|0:0,0:0:0:0:
43,29,211375,6,0,P|51:81|54:132,1,96,4|0,3:2|0:0,0:0:0:0:
3,314,211568,1,8,0:2:0:0:
41,298,211665,1,8,0:2:0:0:
81,306,211762,1,8,0:2:0:0:
117,330,211859,1,8,0:2:0:0:
164,338,211956,1,8,0:2:0:0:
205,324,212052,1,8,0:2:0:0:
265,262,212149,6,0,P|355:264|404:374,1,192,4|8,3:2|0:2,0:0:0:0:
459,209,212439,1,0,0:0:0:0:
434,177,212536,1,0,3:2:0:0:
437,136,212633,1,0,1:2:0:0:
463,102,212730,2,0,B|484:62|484:62|472:-1,1,96,8|0,0:2|0:0,0:0:0:0:
325,48,212923,5,0,3:2:0:0:
314,81,213020,1,0,0:0:0:0:
327,118,213117,2,0,P|332:172|329:226,1,96,8|0,0:2|0:0,0:0:0:0:
222,350,213310,1,0,3:2:0:0:
233,317,213407,1,0,1:2:0:0:
220,280,213504,2,0,P|215:226|218:172,1,96,8|0,0:2|0:0,0:0:0:0:
112,73,213698,6,0,B|157:83|157:83|236:57,1,96,0|0,3:2|0:0,0:0:0:0:
92,191,213891,2,0,B|47:181|47:181|-32:207,1,96,8|0,0:2|0:0,0:0:0:0:
31,374,214085,1,0,3:2:0:0:
61,380,214181,1,0,0:0:0:0:
92,375,214278,2,0,P|116:329|104:273,1,96,8|0,0:2|0:0,0:0:0:0:
257,80,214472,6,0,P|250:141|256:199,1,96,0|0,3:2|0:0,0:0:0:0:
377,362,214665,1,8,0:2:0:0:
399,329,214762,1,8,0:2:0:0:
395,287,214859,1,8,0:2:0:0:
373,251,214956,1,8,0:3:0:0:
354,209,215052,1,8,0:3:0:0:
366,165,215149,1,0,1:0:0:0:
399,135,215246,6,0,P|476:119|515:49,1,143.999995605469,4|0,1:2|0:0,0:0:0:0:
465,10,215536,1,0,1:0:0:0:
465,10,215633,1,0,0:0:0:0:
308,86,215827,1,0,1:0:0:0:
147,14,216020,2,0,L|158:207,1,143.999995605469,8|0,0:2|0:0,0:0:0:0:
102,219,216310,1,0,0:0:0:0:
102,219,216407,1,0,0:0:0:0:
172,337,216601,1,8,0:0:0:0:
172,337,216698,1,8,0:0:0:0:
172,337,216794,6,0,B|224:317|274:355|342:329,1,143.999995605469,4|0,1:2|0:0,0:0:0:0:
376,287,217085,1,0,1:0:0:0:
376,287,217181,1,0,0:0:0:0:
449,316,217375,1,0,1:0:0:0:
511,267,217568,1,8,0:2:0:0:
426,129,217762,5,0,0:0:0:0:
353,156,217956,1,8,0:2:0:0:
290,109,218149,1,0,0:0:0:0:
155,55,218343,5,8,0:2:0:0:
132,51,218440,1,8,0:2:0:0:
36,131,218634,5,8,0:2:0:0:
64,126,218730,1,8,0:2:0:0:
164,211,218924,5,8,0:2:0:0:
138,206,219021,1,0,0:0:0:0:
35,283,219214,5,8,0:2:0:0:
58,277,219311,1,8,0:2:0:0:
144,332,219505,5,8,0:2:0:0:
231,368,219698,1,0,0:0:0:0:
287,277,219892,2,0,L|355:290,3,47.9999985351563,8|8|0|8,0:3|0:3|0:0|0:3,0:0:0:0:
250,105,220278,5,4,0:2:0:0:
256,192,220302,12,4,221439,1:2:0:0:
206,129,224149,5,8,0:3:0:0:
406,32,224536,5,4,1:2:0:0:
413,61,224633,1,0,0:2:0:0:
419,89,224730,1,0,0:2:0:0:
417,113,224827,1,8,0:3:0:0:
409,138,224923,1,0,0:2:0:0:
398,159,225020,1,0,0:2:0:0:
459,103,225117,5,8,0:2:0:0:
429,88,225213,1,8,0:2:0:0:
403,79,225310,1,8,0:2:0:0:
382,72,225407,1,8,0:3:0:0:
355,73,225504,1,8,0:3:0:0:
325,77,225601,1,4,0:3:0:0:
251,54,225698,5,4,1:2:0:0:
230,88,225794,1,0,0:2:0:0:
237,126,225891,1,0,0:2:0:0:
258,160,225988,1,0,1:2:0:0:
266,197,226085,1,0,0:2:0:0:
251,233,226181,1,0,0:2:0:0:
199,270,226278,1,0,1:2:0:0:
139,242,226375,1,0,0:2:0:0:
129,176,226472,1,0,0:2:0:0:
182,143,226568,1,0,1:2:0:0:
245,164,226665,1,0,0:2:0:0:
307,151,226762,1,0,0:2:0:0:
374,111,226859,5,8,0:2:0:0:
390,108,226956,1,8,0:2:0:0:
408,110,227052,1,8,0:2:0:0:
424,116,227149,1,8,0:3:0:0:
437,122,227246,1,8,0:3:0:0:
451,132,227343,1,0,0:3:0:0:
470,174,227439,5,4,1:2:0:0:
470,174,227536,1,0,0:0:0:0:
470,174,227633,2,0,L|457:292,1,96,8|8,0:0|0:2,0:0:0:0:
356,331,227827,1,8,0:2:0:0:
356,331,227923,1,8,0:2:0:0:
356,331,228020,2,8,L|342:227,1,96,8|8,0:2|0:2,0:2:0:0:
261,107,228214,1,8,0:2:0:0:
261,107,228310,1,8,0:2:0:0:
261,107,228407,2,8,L|246:214,1,96,8|8,0:2|0:2,0:2:0:0:
154,229,228601,5,4,1:2:0:0:
143,216,228698,1,0,0:0:0:0:
127,204,228795,1,0,0:0:0:0:
107,196,228892,1,4,1:2:0:0:
84,193,228988,1,0,0:2:0:0:
58,199,229085,1,0,0:0:0:0:
34,240,229181,5,4,1:2:0:0:
83,264,229278,1,0,0:0:0:0:
139,271,229375,1,8,0:2:0:0:
191,250,229472,1,12,0:3:0:0:
221,206,229568,5,8,0:3:0:0:
245,198,229665,1,4,0:3:0:0:
267,210,229762,1,4,0:3:0:0:
288,203,229859,1,4,0:3:0:0:
349,252,229956,5,8,0:2:0:0:
412,206,230052,5,8,0:2:0:0:
479,248,230149,6,0,L|468:372,1,96,8|0,0:2|0:0,0:0:0:0:
379,384,230343,6,0,L|370:340,1,36,0|0,0:0|0:0,0:0:0:0:
295,74,230730,6,0,P|195:104|158:236,1,192,4|8,3:1|0:2,0:0:0:0:
313,174,231020,1,0,0:0:0:0:
313,174,231117,2,0,B|358:157|358:157|412:168,1,96,0|0,3:2|1:2,0:0:0:0:
246,343,231310,2,0,L|232:233,1,96,8|0,0:2|0:0,0:0:0:0:
31,101,231504,6,0,B|-26:192|63:219|1:326,1,192,0|8,3:2|0:2,0:0:0:0:
111,379,231794,1,0,0:0:0:0:
111,379,231891,2,0,B|131:332|131:332|119:269,1,96,0|0,3:2|1:2,0:0:0:0:
245,140,232085,1,8,0:2:0:0:
233,177,232181,1,0,0:0:0:0:
250,217,232278,6,0,P|246:268|251:328,1,96,0|0,3:2|0:0,0:0:0:0:
366,384,232472,2,0,P|368:336|364:288,1,96,8|0,0:2|0:0,0:0:0:0:
512,171,232665,1,0,3:2:0:0:
475,151,232762,1,0,0:0:0:0:
434,167,232859,2,0,P|384:181|328:169,1,96,8|0,0:2|0:0,0:0:0:0:
130,37,233052,6,0,B|234:-4|210:82|328:72,1,192,0|8,3:2|0:2,0:0:0:0:
166,140,233343,1,0,0:0:0:0:
166,140,233439,2,0,P|158:190|158:245,1,96,0|0,3:2|1:2,0:0:0:0:
92,360,233633,5,8,0:2:0:0:
92,360,233730,1,0,0:0:0:0:
92,360,233827,2,0,L|194:337,1,96,0|0,3:2|0:0,0:0:0:0:
360,237,234020,5,8,0:2:0:0:
360,237,234117,1,0,0:0:0:0:
360,237,234214,2,0,L|258:214,1,96,0|0,3:2|1:2,0:0:0:0:
460,358,234407,5,8,0:2:0:0:
460,358,234504,1,0,0:0:0:0:
460,358,234601,2,0,P|487:314|459:236,1,96,0|0,3:2|0:0,0:0:0:0:
357,31,234794,5,8,0:2:0:0:
357,31,234891,1,0,0:0:0:0:
357,31,234988,2,0,P|330:75|358:153,1,96,0|0,3:2|1:2,0:0:0:0:
191,327,235181,5,8,0:2:0:0:
229,335,235278,1,0,0:0:0:0:
262,321,235375,2,0,P|267:276|266:225,1,96,0|0,1:0|0:0,0:0:0:0:
97,61,235568,1,8,0:2:0:0:
135,53,235665,1,0,0:0:0:0:
168,67,235762,2,0,P|173:112|172:162,1,96,0|0,3:2|1:2,0:0:0:0:
17,268,235956,2,0,L|132:251,1,96,8|0,0:2|0:0,0:0:0:0:
255,226,236149,5,4,3:2:0:0:
299,208,236246,1,0,0:0:0:0:
344,217,236343,1,8,0:2:0:0:
400,282,236439,5,8,0:2:0:0:
439,290,236536,1,8,0:2:0:0:
475,281,236633,1,8,0:2:0:0:
506,205,236730,5,8,0:2:0:0:
496,183,236827,1,8,0:2:0:0:
440,122,236923,6,0,B|341:141|344:87|232:122,1,192,4|8,3:2|0:2,0:0:0:0:
116,35,237214,1,0,0:0:0:0:
116,35,237310,2,0,P|161:18|234:31,1,96,0|0,3:2|1:2,0:0:0:0:
74,227,237504,5,8,0:2:0:0:
74,227,237601,1,0,0:0:0:0:
74,227,237698,2,0,P|72:172|61:121,1,96,0|0,3:2|0:0,0:0:0:0:
228,322,237891,5,8,0:2:0:0:
203,316,237988,1,0,0:0:0:0:
177,328,238085,2,0,P|184:271|195:231,1,96,0|0,3:2|1:2,0:0:0:0:
379,124,238278,5,8,0:2:0:0:
330,103,238375,1,0,0:0:0:0:
284,124,238472,2,0,P|229:131|169:123,1,96,0|0,3:2|0:0,0:0:0:0:
295,243,238665,5,8,0:2:0:0:
352,230,238762,1,0,0:0:0:0:
403,258,238859,2,0,P|457:262|512:253,1,96,0|0,3:2|1:2,0:0:0:0:
305,352,239052,2,0,P|257:357|209:353,1,96,8|0,0:2|0:0,0:0:0:0:
5,196,239246,6,0,B|49:180|49:180|134:198,1,96,0|0,3:2|0:0,0:0:0:0:
261,54,239439,1,8,0:2:0:0:
239,91,239536,1,8,0:2:0:0:
234,128,239633,1,8,0:2:0:0:
245,161,239730,1,8,0:3:0:0:
263,193,239827,1,8,0:3:0:0:
271,222,239923,1,4,0:3:0:0:
239,261,240020,5,8,0:2:0:0:
204,289,240117,1,8,0:2:0:0:
157,268,240214,1,8,0:2:0:0:
113,294,240310,2,0,P|92:338|94:394,1,96,8|0,0:2|0:0,0:0:0:0:
334,310,240601,5,8,0:2:0:0:
371,322,240698,1,8,0:2:0:0:
409,314,240794,1,8,0:2:0:0:
449,327,240891,2,0,P|464:280|454:224,1,96,8|2,0:2|0:1,0:0:0:0:
278,57,241568,5,8,0:2:0:0:
278,57,241665,1,8,0:2:0:0:
143,166,242343,5,8,0:2:0:0:
143,166,242439,1,8,0:2:0:0:
501,237,243117,5,4,1:1:0:0:
256,192,243141,12,0,245827,0:0:0:0:
