osu file format v14

[General]
AudioFilename: audio (6).mp3
AudioLeadIn: 0
PreviewTime: 34525
Countdown: 0
SampleSet: None
StackLeniency: 0.7
Mode: 3
LetterboxInBreaks: 0
SpecialStyle: 0
WidescreenStoryboard: 1

[Editor]
DistanceSpacing: 1.5
BeatDivisor: 8
GridSize: 32
TimelineZoom: 2.9

[Metadata]
Title:SuKyu 4k Pack ~Dream~
TitleUnicode:SuKyu 4k Pack ~Dream~
Artist:VA
ArtistUnicode:VA
Creator:Stella-
Version:Berry Go!! (Lv. 10)
Source:
Tags:
BeatmapID:4565440
BeatmapSetID:2155155

[Difficulty]
HPDrainRate:8
CircleSize:4
OverallDifficulty:8
ApproachRate:9.2
SliderMultiplier:1.72
SliderTickRate:1

[Events]
//Background and Video events
0,0,"bg (2).jpg",0,0
//Break Periods
//Storyboard Layer 0 (Background)
//Storyboard Layer 1 (Fail)
//Storyboard Layer 2 (Pass)
//Storyboard Layer 3 (Foreground)
//Storyboard Layer 4 (Overlay)
//Storyboard Sound Samples

[TimingPoints]
668,342.857142857143,4,2,0,5,1,0

[Colours]
Combo1 : 252,187,122
Combo2 : 169,112,152
Combo3 : 213,174,213
Combo4 : 253,81,81
Combo5 : 182,228,20
Combo6 : 255,6,249
Combo7 : 207,194,194
Combo8 : 244,255,43

[HitObjects]
448,192,668,5,0,0:0:0:0:
64,192,668,1,0,0:0:0:0:
320,192,753,1,0,0:0:0:0:
192,192,839,1,0,0:0:0:0:
64,192,925,1,0,0:0:0:0:
448,192,1010,1,0,0:0:0:0:
320,192,1096,1,0,0:0:0:0:
192,192,1182,1,0,0:0:0:0:
64,192,1239,1,0,0:0:0:0:
320,192,1296,1,0,0:0:0:0:
192,192,1353,1,0,0:0:0:0:
448,192,1410,1,0,0:0:0:0:
320,192,1468,1,0,0:0:0:0:
192,192,1525,1,0,0:0:0:0:
64,192,1525,1,0,0:0:0:0:
64,192,1610,1,0,0:0:0:0:
320,192,1696,1,0,0:0:0:0:
192,192,1696,1,0,0:0:0:0:
448,192,1696,1,0,0:0:0:0:
320,192,1868,1,0,0:0:0:0:
64,192,2039,1,0,0:0:0:0:
320,192,2039,1,0,0:0:0:0:
448,192,2039,1,0,0:0:0:0:
192,192,2125,1,0,0:0:0:0:
320,192,2210,1,0,0:0:0:0:
448,192,2296,1,0,0:0:0:0:
192,192,2382,1,0,0:0:0:0:
320,192,2439,1,0,0:0:0:0:
448,192,2496,1,0,0:0:0:0:
64,192,2553,1,0,0:0:0:0:
192,192,2639,1,0,0:0:0:0:
320,192,2725,1,0,0:0:0:0:
448,192,2725,1,0,0:0:0:0:
192,192,2810,1,0,0:0:0:0:
320,192,2896,1,0,0:0:0:0:
192,192,2982,1,0,0:0:0:0:
64,192,3068,1,0,0:0:0:0:
448,192,3068,1,0,0:0:0:0:
320,192,3125,1,0,0:0:0:0:
192,192,3182,1,0,0:0:0:0:
64,192,3239,1,0,0:0:0:0:
448,192,3325,1,0,0:0:0:0:
64,192,3410,1,0,0:0:0:0:
192,192,3410,1,0,0:0:0:0:
448,192,3496,1,0,0:0:0:0:
192,192,3582,1,0,0:0:0:0:
320,192,3668,1,0,0:0:0:0:
448,192,3753,1,0,0:0:0:0:
64,192,3753,1,0,0:0:0:0:
192,192,3839,1,0,0:0:0:0:
320,192,3925,1,0,0:0:0:0:
448,192,3925,1,0,0:0:0:0:
64,192,4010,1,0,0:0:0:0:
192,192,4096,1,0,0:0:0:0:
448,192,4096,1,0,0:0:0:0:
320,192,4182,1,0,0:0:0:0:
448,192,4268,1,0,0:0:0:0:
64,192,4353,1,0,0:0:0:0:
192,192,4439,1,0,0:0:0:0:
448,192,4439,1,0,0:0:0:0:
64,192,4525,1,0,0:0:0:0:
320,192,4610,1,0,0:0:0:0:
448,192,4696,1,0,0:0:0:0:
320,192,4782,1,0,0:0:0:0:
64,192,4782,1,0,0:0:0:0:
192,192,4782,1,0,0:0:0:0:
192,192,4953,1,0,0:0:0:0:
320,192,4953,1,0,0:0:0:0:
320,192,5125,1,0,0:0:0:0:
448,192,5125,1,0,0:0:0:0:
192,192,5182,1,0,0:0:0:0:
64,192,5239,1,0,0:0:0:0:
320,192,5296,1,0,0:0:0:0:
192,192,5382,1,0,0:0:0:0:
448,192,5468,1,0,0:0:0:0:
320,192,5468,1,0,0:0:0:0:
64,192,5553,1,0,0:0:0:0:
192,192,5639,1,0,0:0:0:0:
448,192,5639,1,0,0:0:0:0:
320,192,5725,1,0,0:0:0:0:
64,192,5810,1,0,0:0:0:0:
192,192,5868,1,0,0:0:0:0:
320,192,5925,1,0,0:0:0:0:
448,192,5982,1,0,0:0:0:0:
192,192,6068,1,0,0:0:0:0:
64,192,6153,1,0,0:0:0:0:
320,192,6153,1,0,0:0:0:0:
192,192,6239,1,0,0:0:0:0:
448,192,6325,1,0,0:0:0:0:
320,192,6325,1,0,0:0:0:0:
64,192,6410,1,0,0:0:0:0:
320,192,6496,1,0,0:0:0:0:
192,192,6496,1,0,0:0:0:0:
448,192,6582,1,0,0:0:0:0:
192,192,6668,1,0,0:0:0:0:
320,192,6725,1,0,0:0:0:0:
448,192,6782,1,0,0:0:0:0:
64,192,6839,1,0,0:0:0:0:
192,192,6839,1,0,0:0:0:0:
320,192,6925,1,0,0:0:0:0:
64,192,7010,1,0,0:0:0:0:
320,192,7096,1,0,0:0:0:0:
448,192,7182,1,0,0:0:0:0:
192,192,7182,1,0,0:0:0:0:
64,192,7268,1,0,0:0:0:0:
448,192,7353,1,0,0:0:0:0:
320,192,7396,1,0,0:0:0:0:
192,192,7439,1,0,0:0:0:0:
64,192,7482,1,0,0:0:0:0:
320,192,7525,1,0,0:0:0:0:
448,192,7525,1,0,0:0:0:0:
192,192,7610,1,0,0:0:0:0:
64,192,7696,1,0,0:0:0:0:
448,192,7696,1,0,0:0:0:0:
320,192,7782,1,0,0:0:0:0:
192,192,7868,1,0,0:0:0:0:
64,192,7868,1,0,0:0:0:0:
320,192,7953,1,0,0:0:0:0:
192,192,8039,1,0,0:0:0:0:
320,192,8096,1,0,0:0:0:0:
448,192,8153,1,0,0:0:0:0:
192,192,8210,1,0,0:0:0:0:
64,192,8210,1,0,0:0:0:0:
320,192,8296,1,0,0:0:0:0:
64,192,8382,1,0,0:0:0:0:
320,192,8468,1,0,0:0:0:0:
448,192,8553,1,0,0:0:0:0:
192,192,8553,1,0,0:0:0:0:
64,192,8725,1,0,0:0:0:0:
192,192,8725,1,0,0:0:0:0:
320,192,8725,1,0,0:0:0:0:
64,192,8896,1,0,0:0:0:0:
320,192,8896,1,0,0:0:0:0:
448,192,8896,1,0,0:0:0:0:
192,192,8982,1,0,0:0:0:0:
320,192,9068,1,0,0:0:0:0:
448,192,9153,1,0,0:0:0:0:
192,192,9239,1,0,0:0:0:0:
64,192,9239,1,0,0:0:0:0:
448,192,9296,1,0,0:0:0:0:
320,192,9353,1,0,0:0:0:0:
192,192,9410,1,0,0:0:0:0:
64,192,9468,1,0,0:0:0:0:
448,192,9525,1,0,0:0:0:0:
320,192,9582,1,0,0:0:0:0:
192,192,9582,1,0,0:0:0:0:
64,192,9668,1,0,0:0:0:0:
192,192,9753,1,0,0:0:0:0:
448,192,9753,1,0,0:0:0:0:
320,192,9839,1,0,0:0:0:0:
448,192,9925,1,0,0:0:0:0:
64,192,9925,1,0,0:0:0:0:
64,192,10096,1,0,0:0:0:0:
192,192,10096,1,0,0:0:0:0:
320,192,10096,1,0,0:0:0:0:
448,192,10268,1,0,0:0:0:0:
64,192,10268,1,0,0:0:0:0:
320,192,10325,1,0,0:0:0:0:
192,192,10382,1,0,0:0:0:0:
64,192,10439,1,0,0:0:0:0:
320,192,10496,1,0,0:0:0:0:
448,192,10553,1,0,0:0:0:0:
192,192,10610,1,0,0:0:0:0:
64,192,10610,1,0,0:0:0:0:
320,192,10696,1,0,0:0:0:0:
448,192,10782,1,0,0:0:0:0:
64,192,10782,1,0,0:0:0:0:
192,192,10868,1,0,0:0:0:0:
320,192,10953,1,0,0:0:0:0:
64,192,10953,1,0,0:0:0:0:
192,192,11039,1,0,0:0:0:0:
320,192,11125,1,0,0:0:0:0:
448,192,11125,1,0,0:0:0:0:
320,192,11296,1,0,0:0:0:0:
192,192,11296,1,0,0:0:0:0:
64,192,11468,1,0,0:0:0:0:
192,192,11468,1,0,0:0:0:0:
448,192,11468,1,0,0:0:0:0:
64,192,11639,1,0,0:0:0:0:
192,192,11639,1,0,0:0:0:0:
320,192,11725,1,0,0:0:0:0:
448,192,11810,1,0,0:0:0:0:
64,192,11810,1,0,0:0:0:0:
320,192,11896,1,0,0:0:0:0:
192,192,11982,1,0,0:0:0:0:
64,192,11982,1,0,0:0:0:0:
320,192,12068,1,0,0:0:0:0:
448,192,12153,1,0,0:0:0:0:
192,192,12153,1,0,0:0:0:0:
64,192,12239,1,0,0:0:0:0:
192,192,12325,1,0,0:0:0:0:
448,192,12325,1,0,0:0:0:0:
320,192,12410,1,0,0:0:0:0:
192,192,12496,1,0,0:0:0:0:
64,192,12496,1,0,0:0:0:0:
448,192,12582,1,0,0:0:0:0:
320,192,12668,1,0,0:0:0:0:
64,192,12668,1,0,0:0:0:0:
192,192,12753,1,0,0:0:0:0:
64,192,12839,1,0,0:0:0:0:
448,192,12839,1,0,0:0:0:0:
320,192,12925,1,0,0:0:0:0:
448,192,13010,1,0,0:0:0:0:
64,192,13010,1,0,0:0:0:0:
192,192,13053,1,0,0:0:0:0:
320,192,13096,1,0,0:0:0:0:
64,192,13182,1,0,0:0:0:0:
320,192,13268,1,0,0:0:0:0:
448,192,13268,1,0,0:0:0:0:
64,192,13353,1,0,0:0:0:0:
192,192,13410,1,0,0:0:0:0:
448,192,13468,1,0,0:0:0:0:
320,192,13525,1,0,0:0:0:0:
64,192,13525,1,0,0:0:0:0:
192,192,13610,1,0,0:0:0:0:
64,192,13696,1,0,0:0:0:0:
448,192,13696,1,0,0:0:0:0:
320,192,13782,1,0,0:0:0:0:
192,192,13868,1,0,0:0:0:0:
64,192,13868,1,0,0:0:0:0:
320,192,13953,1,0,0:0:0:0:
448,192,14039,1,0,0:0:0:0:
64,192,14039,1,0,0:0:0:0:
192,192,14082,1,0,0:0:0:0:
320,192,14125,1,0,0:0:0:0:
64,192,14210,1,0,0:0:0:0:
320,192,14296,1,0,0:0:0:0:
192,192,14382,1,0,0:0:0:0:
64,192,14382,1,0,0:0:0:0:
448,192,14382,1,0,0:0:0:0:
192,192,14553,1,0,0:0:0:0:
320,192,14553,1,0,0:0:0:0:
448,192,14553,1,0,0:0:0:0:
64,192,14639,1,0,0:0:0:0:
192,192,14725,1,0,0:0:0:0:
448,192,14725,1,0,0:0:0:0:
320,192,14810,1,0,0:0:0:0:
64,192,14896,1,0,0:0:0:0:
192,192,14953,1,0,0:0:0:0:
320,192,15010,1,0,0:0:0:0:
448,192,15068,1,0,0:0:0:0:
64,192,15068,1,0,0:0:0:0:
192,192,15153,1,0,0:0:0:0:
64,192,15239,1,0,0:0:0:0:
448,192,15239,1,0,0:0:0:0:
320,192,15325,1,0,0:0:0:0:
192,192,15410,1,0,0:0:0:0:
64,192,15410,1,0,0:0:0:0:
448,192,15410,1,0,0:0:0:0:
192,192,15582,1,0,0:0:0:0:
320,192,15582,1,0,0:0:0:0:
448,192,15753,1,0,0:0:0:0:
64,192,15753,1,0,0:0:0:0:
320,192,15796,1,0,0:0:0:0:
192,192,15839,1,0,0:0:0:0:
448,192,15925,1,0,0:0:0:0:
64,192,16010,1,0,0:0:0:0:
192,192,16010,1,0,0:0:0:0:
448,192,16096,1,0,0:0:0:0:
320,192,16153,1,0,0:0:0:0:
64,192,16210,1,0,0:0:0:0:
448,192,16268,1,0,0:0:0:0:
192,192,16268,1,0,0:0:0:0:
320,192,16353,1,0,0:0:0:0:
64,192,16439,1,0,0:0:0:0:
448,192,16439,1,0,0:0:0:0:
192,192,16525,1,0,0:0:0:0:
448,192,16610,1,0,0:0:0:0:
320,192,16610,1,0,0:0:0:0:
192,192,16696,1,0,0:0:0:0:
448,192,16782,1,0,0:0:0:0:
64,192,16782,1,0,0:0:0:0:
320,192,16825,1,0,0:0:0:0:
192,192,16868,1,0,0:0:0:0:
448,192,16953,1,0,0:0:0:0:
192,192,17039,1,0,0:0:0:0:
64,192,17125,1,0,0:0:0:0:
448,192,17125,1,0,0:0:0:0:
320,192,17125,1,0,0:0:0:0:
64,192,17296,1,0,0:0:0:0:
192,192,17296,1,0,0:0:0:0:
320,192,17296,1,0,0:0:0:0:
448,192,17382,1,0,0:0:0:0:
64,192,17468,1,0,0:0:0:0:
320,192,17468,1,0,0:0:0:0:
192,192,17553,1,0,0:0:0:0:
448,192,17639,1,0,0:0:0:0:
320,192,17696,1,0,0:0:0:0:
192,192,17753,1,0,0:0:0:0:
448,192,17810,1,0,0:0:0:0:
64,192,17810,1,0,0:0:0:0:
320,192,17896,1,0,0:0:0:0:
64,192,17982,1,0,0:0:0:0:
448,192,17982,1,0,0:0:0:0:
192,192,18025,1,0,0:0:0:0:
320,192,18068,1,0,0:0:0:0:
192,192,18110,1,0,0:0:0:0:
64,192,18153,1,0,0:0:0:0:
320,192,18196,1,0,0:0:0:0:
448,192,18239,1,0,0:0:0:0:
64,192,18282,1,0,0:0:0:0:
192,192,18325,1,0,0:0:0:0:
320,192,18368,1,0,0:0:0:0:
448,192,18410,1,0,0:0:0:0:
192,192,18496,1,0,0:0:0:0:
64,192,18496,1,0,0:0:0:0:
320,192,18496,1,0,0:0:0:0:
192,192,18668,1,0,0:0:0:0:
320,192,18668,1,0,0:0:0:0:
448,192,18753,1,0,0:0:0:0:
320,192,18839,1,0,0:0:0:0:
64,192,18839,1,0,0:0:0:0:
192,192,18925,1,0,0:0:0:0:
64,192,19010,1,0,0:0:0:0:
448,192,19010,1,0,0:0:0:0:
64,192,19182,1,0,0:0:0:0:
192,192,19182,1,0,0:0:0:0:
448,192,19182,1,0,0:0:0:0:
192,192,19353,1,0,0:0:0:0:
320,192,19353,1,0,0:0:0:0:
448,192,19353,1,0,0:0:0:0:
64,192,19525,1,0,0:0:0:0:
192,192,19525,1,0,0:0:0:0:
320,192,19525,1,0,0:0:0:0:
192,192,19696,1,0,0:0:0:0:
320,192,19696,1,0,0:0:0:0:
448,192,19696,1,0,0:0:0:0:
64,192,19782,1,0,0:0:0:0:
192,192,19868,1,0,0:0:0:0:
320,192,19953,1,0,0:0:0:0:
448,192,20039,1,0,0:0:0:0:
64,192,20039,1,0,0:0:0:0:
192,192,20125,1,0,0:0:0:0:
320,192,20210,1,0,0:0:0:0:
448,192,20210,1,0,0:0:0:0:
192,192,20296,1,0,0:0:0:0:
64,192,20382,1,0,0:0:0:0:
448,192,20382,1,0,0:0:0:0:
320,192,20468,1,0,0:0:0:0:
192,192,20553,1,0,0:0:0:0:
448,192,20553,1,0,0:0:0:0:
64,192,20639,1,0,0:0:0:0:
320,192,20725,1,0,0:0:0:0:
448,192,20725,1,0,0:0:0:0:
192,192,20810,1,0,0:0:0:0:
64,192,20896,1,0,0:0:0:0:
448,192,20896,1,0,0:0:0:0:
64,192,21068,1,0,0:0:0:0:
192,192,21068,1,0,0:0:0:0:
448,192,21068,1,0,0:0:0:0:
192,192,21239,1,0,0:0:0:0:
320,192,21239,1,0,0:0:0:0:
320,192,21410,1,0,0:0:0:0:
192,192,21410,1,0,0:0:0:0:
320,192,21582,1,0,0:0:0:0:
192,192,21582,1,0,0:0:0:0:
320,192,21753,1,0,0:0:0:0:
192,192,21753,1,0,0:0:0:0:
64,192,21925,1,0,0:0:0:0:
192,192,21925,1,0,0:0:0:0:
448,192,22010,1,0,0:0:0:0:
320,192,22096,1,0,0:0:0:0:
64,192,22096,1,0,0:0:0:0:
192,192,22182,1,0,0:0:0:0:
64,192,22268,1,0,0:0:0:0:
448,192,22268,1,0,0:0:0:0:
320,192,22353,1,0,0:0:0:0:
448,192,22439,1,0,0:0:0:0:
64,192,22439,1,0,0:0:0:0:
192,192,22525,1,0,0:0:0:0:
64,192,22610,1,0,0:0:0:0:
320,192,22610,1,0,0:0:0:0:
448,192,22610,1,0,0:0:0:0:
192,192,22696,1,0,0:0:0:0:
320,192,22739,1,0,0:0:0:0:
448,192,22782,1,0,0:0:0:0:
192,192,22868,1,0,0:0:0:0:
64,192,22868,1,0,0:0:0:0:
320,192,22953,1,0,0:0:0:0:
448,192,22953,1,0,0:0:0:0:
192,192,23125,1,0,0:0:0:0:
320,192,23210,1,0,0:0:0:0:
320,192,23296,1,0,0:0:0:0:
64,192,23296,1,0,0:0:0:0:
192,192,23382,1,0,0:0:0:0:
192,192,23468,1,0,0:0:0:0:
320,192,23553,1,0,0:0:0:0:
448,192,23639,1,0,0:0:0:0:
64,192,23639,1,0,0:0:0:0:
192,192,23725,1,0,0:0:0:0:
320,192,23810,1,0,0:0:0:0:
192,192,23896,1,0,0:0:0:0:
64,192,23982,1,0,0:0:0:0:
448,192,23982,1,0,0:0:0:0:
320,192,24050,1,0,0:0:0:0:
192,192,24119,1,0,0:0:0:0:
64,192,24188,1,0,0:0:0:0:
320,192,24256,1,0,0:0:0:0:
192,192,24325,1,0,0:0:0:0:
448,192,24393,1,0,0:0:0:0:
320,192,24462,1,0,0:0:0:0:
192,192,24530,1,0,0:0:0:0:
64,192,24599,1,0,0:0:0:0:
320,192,24668,1,0,0:0:0:0:
192,192,24736,1,0,0:0:0:0:
448,192,24805,1,0,0:0:0:0:
64,192,24873,1,0,0:0:0:0:
320,192,24942,1,0,0:0:0:0:
448,192,25010,1,0,0:0:0:0:
64,192,25010,1,0,0:0:0:0:
192,192,25079,1,0,0:0:0:0:
320,192,25148,1,0,0:0:0:0:
64,192,25216,1,0,0:0:0:0:
192,192,25285,1,0,0:0:0:0:
320,192,25353,1,0,0:0:0:0:
448,192,25353,1,0,0:0:0:0:
192,192,25439,1,0,0:0:0:0:
64,192,25525,1,0,0:0:0:0:
448,192,25525,1,0,0:0:0:0:
320,192,25610,1,0,0:0:0:0:
192,192,25696,1,0,0:0:0:0:
320,192,25782,1,0,0:0:0:0:
448,192,25868,1,0,0:0:0:0:
64,192,25953,1,0,0:0:0:0:
320,192,26039,1,0,0:0:0:0:
448,192,26039,1,0,0:0:0:0:
192,192,26125,1,0,0:0:0:0:
64,192,26210,1,0,0:0:0:0:
320,192,26296,1,0,0:0:0:0:
192,192,26382,1,0,0:0:0:0:
448,192,26382,1,0,0:0:0:0:
64,192,26382,1,0,0:0:0:0:
192,192,26553,1,0,0:0:0:0:
320,192,26553,1,0,0:0:0:0:
448,192,26553,1,0,0:0:0:0:
64,192,26725,1,0,0:0:0:0:
448,192,26725,1,0,0:0:0:0:
192,192,26782,1,0,0:0:0:0:
320,192,26839,1,0,0:0:0:0:
64,192,26896,1,0,0:0:0:0:
448,192,26953,1,0,0:0:0:0:
320,192,27010,1,0,0:0:0:0:
192,192,27068,1,0,0:0:0:0:
64,192,27068,1,0,0:0:0:0:
192,192,27239,1,0,0:0:0:0:
320,192,27239,1,0,0:0:0:0:
448,192,27239,1,0,0:0:0:0:
320,192,27410,1,0,0:0:0:0:
64,192,27410,1,0,0:0:0:0:
192,192,27582,1,0,0:0:0:0:
320,192,27582,1,0,0:0:0:0:
448,192,27582,1,0,0:0:0:0:
64,192,27668,1,0,0:0:0:0:
448,192,27753,1,0,0:0:0:0:
320,192,27796,1,0,0:0:0:0:
192,192,27839,1,0,0:0:0:0:
64,192,27882,1,0,0:0:0:0:
448,192,27925,1,0,0:0:0:0:
320,192,27925,1,0,0:0:0:0:
192,192,28096,1,0,0:0:0:0:
192,192,28210,1,0,0:0:0:0:
192,192,28325,1,0,0:0:0:0:
320,192,28439,1,0,0:0:0:0:
320,192,28553,1,0,0:0:0:0:
320,192,28668,1,0,0:0:0:0:
192,192,28782,1,0,0:0:0:0:
64,192,28782,1,0,0:0:0:0:
320,192,28896,1,0,0:0:0:0:
448,192,28896,1,0,0:0:0:0:
192,192,29010,1,0,0:0:0:0:
64,192,29010,1,0,0:0:0:0:
320,192,29125,1,0,0:0:0:0:
448,192,29125,1,0,0:0:0:0:
192,192,29210,1,0,0:0:0:0:
64,192,29296,1,0,0:0:0:0:
448,192,29296,1,0,0:0:0:0:
320,192,29353,1,0,0:0:0:0:
192,192,29410,1,0,0:0:0:0:
64,192,29468,1,0,0:0:0:0:
320,192,29536,1,0,0:0:0:0:
192,192,29605,1,0,0:0:0:0:
64,192,29673,1,0,0:0:0:0:
448,192,29742,1,0,0:0:0:0:
320,192,29810,1,0,0:0:0:0:
64,192,29810,1,0,0:0:0:0:
192,192,29879,1,0,0:0:0:0:
320,192,29948,1,0,0:0:0:0:
448,192,30016,1,0,0:0:0:0:
64,192,30085,1,0,0:0:0:0:
192,192,30153,1,0,0:0:0:0:
320,192,30222,1,0,0:0:0:0:
64,192,30290,1,0,0:0:0:0:
192,192,30359,1,0,0:0:0:0:
448,192,30428,1,0,0:0:0:0:
320,192,30496,1,0,0:0:0:0:
192,192,30496,1,0,0:0:0:0:
64,192,30582,1,0,0:0:0:0:
192,192,30668,1,0,0:0:0:0:
448,192,30668,1,0,0:0:0:0:
320,192,30753,1,0,0:0:0:0:
64,192,30839,1,0,0:0:0:0:
448,192,30896,1,0,0:0:0:0:
320,192,30953,1,0,0:0:0:0:
192,192,31010,1,0,0:0:0:0:
448,192,31068,1,0,0:0:0:0:
64,192,31125,1,0,0:0:0:0:
192,192,31182,1,0,0:0:0:0:
320,192,31239,1,0,0:0:0:0:
64,192,31296,1,0,0:0:0:0:
192,192,31353,1,0,0:0:0:0:
448,192,31439,1,0,0:0:0:0:
320,192,31439,1,0,0:0:0:0:
64,192,31525,1,0,0:0:0:0:
448,192,31593,1,0,0:0:0:0:
320,192,31662,1,0,0:0:0:0:
192,192,31730,1,0,0:0:0:0:
448,192,31799,1,0,0:0:0:0:
320,192,31868,1,0,0:0:0:0:
64,192,31868,1,0,0:0:0:0:
192,192,31936,1,0,0:0:0:0:
320,192,32005,1,0,0:0:0:0:
448,192,32073,1,0,0:0:0:0:
64,192,32142,1,0,0:0:0:0:
320,192,32210,1,0,0:0:0:0:
448,192,32210,1,0,0:0:0:0:
192,192,32296,1,0,0:0:0:0:
64,192,32382,1,0,0:0:0:0:
320,192,32382,1,0,0:0:0:0:
448,192,32468,1,0,0:0:0:0:
320,192,32553,1,0,0:0:0:0:
64,192,32553,1,0,0:0:0:0:
192,192,32639,1,0,0:0:0:0:
64,192,32725,1,0,0:0:0:0:
448,192,32725,1,0,0:0:0:0:
320,192,32810,1,0,0:0:0:0:
448,192,32896,1,0,0:0:0:0:
64,192,32896,1,0,0:0:0:0:
192,192,32982,1,0,0:0:0:0:
320,192,33068,1,0,0:0:0:0:
448,192,33068,1,0,0:0:0:0:
192,192,33153,1,0,0:0:0:0:
64,192,33239,1,0,0:0:0:0:
320,192,33239,1,0,0:0:0:0:
192,192,33325,1,0,0:0:0:0:
320,192,33410,1,0,0:0:0:0:
448,192,33410,1,0,0:0:0:0:
192,192,33496,1,0,0:0:0:0:
192,192,33582,1,0,0:0:0:0:
448,192,33582,1,0,0:0:0:0:
64,192,33582,1,0,0:0:0:0:
192,192,33925,1,0,0:0:0:0:
64,192,34268,1,0,0:0:0:0:
192,192,34268,1,0,0:0:0:0:
320,192,34353,1,0,0:0:0:0:
448,192,34353,1,0,0:0:0:0:
192,192,34439,1,0,0:0:0:0:
64,192,34439,1,0,0:0:0:0:
320,192,34525,1,0,0:0:0:0:
448,192,34610,1,0,0:0:0:0:
64,192,34610,1,0,0:0:0:0:
192,192,34653,1,0,0:0:0:0:
320,192,34696,1,0,0:0:0:0:
448,192,34739,1,0,0:0:0:0:
64,192,34782,1,0,0:0:0:0:
320,192,34825,1,0,0:0:0:0:
192,192,34868,1,0,0:0:0:0:
64,192,34910,1,0,0:0:0:0:
320,192,34953,1,0,0:0:0:0:
448,192,34953,1,0,0:0:0:0:
448,192,35039,1,0,0:0:0:0:
448,192,35125,1,0,0:0:0:0:
448,192,35210,1,0,0:0:0:0:
192,192,35296,1,0,0:0:0:0:
64,192,35296,1,0,0:0:0:0:
64,192,35382,1,0,0:0:0:0:
64,192,35468,1,0,0:0:0:0:
64,192,35553,1,0,0:0:0:0:
320,192,35639,1,0,0:0:0:0:
448,192,35639,1,0,0:0:0:0:
448,192,35725,1,0,0:0:0:0:
448,192,35810,1,0,0:0:0:0:
448,192,35896,1,0,0:0:0:0:
320,192,35982,1,0,0:0:0:0:
192,192,36025,1,0,0:0:0:0:
64,192,36068,1,0,0:0:0:0:
448,192,36110,1,0,0:0:0:0:
320,192,36153,1,0,0:0:0:0:
192,192,36196,1,0,0:0:0:0:
448,192,36239,1,0,0:0:0:0:
320,192,36282,1,0,0:0:0:0:
64,192,36325,1,0,0:0:0:0:
192,192,36325,1,0,0:0:0:0:
192,192,36410,1,0,0:0:0:0:
192,192,36496,1,0,0:0:0:0:
192,192,36582,1,0,0:0:0:0:
320,192,36668,1,0,0:0:0:0:
448,192,36668,1,0,0:0:0:0:
320,192,36753,1,0,0:0:0:0:
320,192,36839,1,0,0:0:0:0:
320,192,36925,1,0,0:0:0:0:
192,192,37010,1,0,0:0:0:0:
64,192,37010,1,0,0:0:0:0:
192,192,37096,1,0,0:0:0:0:
192,192,37182,1,0,0:0:0:0:
192,192,37268,1,0,0:0:0:0:
320,192,37353,1,0,0:0:0:0:
448,192,37353,1,0,0:0:0:0:
64,192,37410,1,0,0:0:0:0:
192,192,37468,1,0,0:0:0:0:
320,192,37525,1,0,0:0:0:0:
64,192,37582,1,0,0:0:0:0:
448,192,37639,1,0,0:0:0:0:
320,192,37696,1,0,0:0:0:0:
192,192,37696,1,0,0:0:0:0:
64,192,37753,1,0,0:0:0:0:
320,192,37810,1,0,0:0:0:0:
192,192,37868,1,0,0:0:0:0:
448,192,37925,1,0,0:0:0:0:
320,192,37982,1,0,0:0:0:0:
192,192,38039,1,0,0:0:0:0:
64,192,38039,1,0,0:0:0:0:
448,192,38082,1,0,0:0:0:0:
320,192,38125,1,0,0:0:0:0:
192,192,38168,1,0,0:0:0:0:
64,192,38210,1,0,0:0:0:0:
320,192,38253,1,0,0:0:0:0:
448,192,38296,1,0,0:0:0:0:
64,192,38339,1,0,0:0:0:0:
192,192,38382,1,0,0:0:0:0:
320,192,38425,1,0,0:0:0:0:
448,192,38468,1,0,0:0:0:0:
192,192,38553,1,0,0:0:0:0:
64,192,38553,1,0,0:0:0:0:
448,192,38610,1,0,0:0:0:0:
320,192,38668,1,0,0:0:0:0:
192,192,38725,1,0,0:0:0:0:
64,192,38782,1,0,0:0:0:0:
448,192,38839,1,0,0:0:0:0:
320,192,38839,1,0,0:0:0:0:
192,192,38896,1,0,0:0:0:0:
64,192,38953,1,0,0:0:0:0:
320,192,39010,1,0,0:0:0:0:
448,192,39068,1,0,0:0:0:0:
192,192,39068,1,0,0:0:0:0:
64,192,39153,1,0,0:0:0:0:
320,192,39239,1,0,0:0:0:0:
448,192,39239,1,0,0:0:0:0:
192,192,39325,1,0,0:0:0:0:
448,192,39353,1,0,0:0:0:0:
64,192,39410,1,0,0:0:0:0:
320,192,39468,1,0,0:0:0:0:
192,192,39525,1,0,0:0:0:0:
448,192,39582,1,0,0:0:0:0:
320,192,39639,1,0,0:0:0:0:
64,192,39668,1,0,0:0:0:0:
192,192,39753,1,0,0:0:0:0:
448,192,39753,1,0,0:0:0:0:
320,192,39839,1,0,0:0:0:0:
192,192,39925,1,0,0:0:0:0:
64,192,39925,1,0,0:0:0:0:
320,192,40010,1,0,0:0:0:0:
64,192,40096,1,0,0:0:0:0:
448,192,40096,1,0,0:0:0:0:
320,192,40139,1,0,0:0:0:0:
192,192,40182,1,0,0:0:0:0:
64,192,40225,1,0,0:0:0:0:
448,192,40268,1,0,0:0:0:0:
192,192,40310,1,0,0:0:0:0:
320,192,40353,1,0,0:0:0:0:
448,192,40396,1,0,0:0:0:0:
192,192,40439,1,0,0:0:0:0:
64,192,40439,1,0,0:0:0:0:
64,192,40525,1,0,0:0:0:0:
64,192,40610,1,0,0:0:0:0:
64,192,40696,1,0,0:0:0:0:
320,192,40782,1,0,0:0:0:0:
448,192,40782,1,0,0:0:0:0:
448,192,40868,1,0,0:0:0:0:
448,192,40953,1,0,0:0:0:0:
448,192,41039,1,0,0:0:0:0:
192,192,41125,1,0,0:0:0:0:
64,192,41125,1,0,0:0:0:0:
64,192,41210,1,0,0:0:0:0:
64,192,41296,1,0,0:0:0:0:
64,192,41382,1,0,0:0:0:0:
192,192,41468,1,0,0:0:0:0:
320,192,41510,1,0,0:0:0:0:
448,192,41553,1,0,0:0:0:0:
64,192,41596,1,0,0:0:0:0:
192,192,41639,1,0,0:0:0:0:
320,192,41682,1,0,0:0:0:0:
64,192,41725,1,0,0:0:0:0:
192,192,41768,1,0,0:0:0:0:
448,192,41810,1,0,0:0:0:0:
320,192,41810,1,0,0:0:0:0:
320,192,41896,1,0,0:0:0:0:
320,192,41982,1,0,0:0:0:0:
320,192,42068,1,0,0:0:0:0:
192,192,42153,1,0,0:0:0:0:
64,192,42153,1,0,0:0:0:0:
192,192,42239,1,0,0:0:0:0:
192,192,42325,1,0,0:0:0:0:
192,192,42410,1,0,0:0:0:0:
320,192,42496,1,0,0:0:0:0:
448,192,42496,1,0,0:0:0:0:
320,192,42582,1,0,0:0:0:0:
320,192,42668,1,0,0:0:0:0:
320,192,42753,1,0,0:0:0:0:
192,192,42839,1,0,0:0:0:0:
64,192,42839,1,0,0:0:0:0:
448,192,42896,1,0,0:0:0:0:
320,192,42953,1,0,0:0:0:0:
192,192,43010,1,0,0:0:0:0:
448,192,43068,1,0,0:0:0:0:
64,192,43125,1,0,0:0:0:0:
192,192,43182,1,0,0:0:0:0:
320,192,43182,1,0,0:0:0:0:
448,192,43239,1,0,0:0:0:0:
192,192,43296,1,0,0:0:0:0:
320,192,43353,1,0,0:0:0:0:
64,192,43410,1,0,0:0:0:0:
192,192,43468,1,0,0:0:0:0:
320,192,43525,1,0,0:0:0:0:
448,192,43525,1,0,0:0:0:0:
64,192,43568,1,0,0:0:0:0:
192,192,43610,1,0,0:0:0:0:
320,192,43653,1,0,0:0:0:0:
448,192,43696,1,0,0:0:0:0:
192,192,43739,1,0,0:0:0:0:
64,192,43782,1,0,0:0:0:0:
448,192,43825,1,0,0:0:0:0:
320,192,43868,1,0,0:0:0:0:
192,192,43910,1,0,0:0:0:0:
64,192,43953,1,0,0:0:0:0:
320,192,44039,1,0,0:0:0:0:
448,192,44039,1,0,0:0:0:0:
64,192,44096,1,0,0:0:0:0:
192,192,44153,1,0,0:0:0:0:
320,192,44210,1,0,0:0:0:0:
448,192,44268,1,0,0:0:0:0:
64,192,44325,1,0,0:0:0:0:
192,192,44325,1,0,0:0:0:0:
320,192,44382,1,0,0:0:0:0:
448,192,44439,1,0,0:0:0:0:
192,192,44496,1,0,0:0:0:0:
320,192,44553,1,0,0:0:0:0:
448,192,44553,1,0,0:0:0:0:
320,192,44725,1,0,0:0:0:0:
448,192,44725,1,0,0:0:0:0:
64,192,44725,1,0,0:0:0:0:
64,192,44896,1,0,0:0:0:0:
192,192,44896,1,0,0:0:0:0:
320,192,44896,1,0,0:0:0:0:
64,192,45239,1,0,0:0:0:0:
192,192,45239,1,0,0:0:0:0:
320,192,45239,1,0,0:0:0:0:
448,192,45239,1,0,0:0:0:0:
64,192,45582,1,0,0:0:0:0:
448,192,45582,1,0,0:0:0:0:
192,192,45625,1,0,0:0:0:0:
320,192,45668,1,0,0:0:0:0:
448,192,45710,1,0,0:0:0:0:
64,192,45753,1,0,0:0:0:0:
320,192,45796,1,0,0:0:0:0:
192,192,45839,1,0,0:0:0:0:
64,192,45882,1,0,0:0:0:0:
448,192,45925,1,0,0:0:0:0:
320,192,45925,1,0,0:0:0:0:
448,192,46010,1,0,0:0:0:0:
192,192,46010,1,0,0:0:0:0:
448,192,46096,1,0,0:0:0:0:
64,192,46096,1,0,0:0:0:0:
448,192,46182,1,0,0:0:0:0:
64,192,46268,1,0,0:0:0:0:
192,192,46268,1,0,0:0:0:0:
64,192,46353,1,0,0:0:0:0:
320,192,46353,1,0,0:0:0:0:
64,192,46439,1,0,0:0:0:0:
448,192,46439,1,0,0:0:0:0:
64,192,46525,1,0,0:0:0:0:
448,192,46610,1,0,0:0:0:0:
320,192,46610,1,0,0:0:0:0:
448,192,46696,1,0,0:0:0:0:
192,192,46696,1,0,0:0:0:0:
448,192,46782,1,0,0:0:0:0:
64,192,46782,1,0,0:0:0:0:
448,192,46868,1,0,0:0:0:0:
320,192,46953,1,0,0:0:0:0:
192,192,46996,1,0,0:0:0:0:
64,192,47039,1,0,0:0:0:0:
448,192,47082,1,0,0:0:0:0:
320,192,47125,1,0,0:0:0:0:
192,192,47168,1,0,0:0:0:0:
448,192,47210,1,0,0:0:0:0:
320,192,47253,1,0,0:0:0:0:
192,192,47296,1,0,0:0:0:0:
64,192,47296,1,0,0:0:0:0:
192,192,47382,1,0,0:0:0:0:
448,192,47382,1,0,0:0:0:0:
192,192,47468,1,0,0:0:0:0:
320,192,47468,1,0,0:0:0:0:
192,192,47553,1,0,0:0:0:0:
448,192,47639,1,0,0:0:0:0:
320,192,47639,1,0,0:0:0:0:
320,192,47725,1,0,0:0:0:0:
64,192,47725,1,0,0:0:0:0:
320,192,47810,1,0,0:0:0:0:
192,192,47810,1,0,0:0:0:0:
320,192,47896,1,0,0:0:0:0:
64,192,47982,1,0,0:0:0:0:
192,192,47982,1,0,0:0:0:0:
192,192,48068,1,0,0:0:0:0:
448,192,48068,1,0,0:0:0:0:
192,192,48153,1,0,0:0:0:0:
320,192,48153,1,0,0:0:0:0:
192,192,48239,1,0,0:0:0:0:
448,192,48325,1,0,0:0:0:0:
320,192,48325,1,0,0:0:0:0:
64,192,48382,1,0,0:0:0:0:
192,192,48439,1,0,0:0:0:0:
320,192,48496,1,0,0:0:0:0:
64,192,48553,1,0,0:0:0:0:
448,192,48610,1,0,0:0:0:0:
192,192,48668,1,0,0:0:0:0:
320,192,48668,1,0,0:0:0:0:
64,192,48725,1,0,0:0:0:0:
320,192,48782,1,0,0:0:0:0:
192,192,48839,1,0,0:0:0:0:
448,192,48896,1,0,0:0:0:0:
320,192,48953,1,0,0:0:0:0:
64,192,49010,1,0,0:0:0:0:
192,192,49010,1,0,0:0:0:0:
448,192,49053,1,0,0:0:0:0:
320,192,49096,1,0,0:0:0:0:
192,192,49139,1,0,0:0:0:0:
64,192,49182,1,0,0:0:0:0:
320,192,49225,1,0,0:0:0:0:
448,192,49268,1,0,0:0:0:0:
64,192,49310,1,0,0:0:0:0:
192,192,49353,1,0,0:0:0:0:
320,192,49396,1,0,0:0:0:0:
448,192,49439,1,0,0:0:0:0:
64,192,49525,1,0,0:0:0:0:
192,192,49525,1,0,0:0:0:0:
448,192,49582,1,0,0:0:0:0:
320,192,49639,1,0,0:0:0:0:
192,192,49696,1,0,0:0:0:0:
64,192,49753,1,0,0:0:0:0:
320,192,49810,1,0,0:0:0:0:
448,192,49810,1,0,0:0:0:0:
192,192,49868,1,0,0:0:0:0:
64,192,49925,1,0,0:0:0:0:
320,192,49982,1,0,0:0:0:0:
192,192,50039,1,0,0:0:0:0:
448,192,50039,1,0,0:0:0:0:
64,192,50125,1,0,0:0:0:0:
448,192,50210,1,0,0:0:0:0:
320,192,50210,1,0,0:0:0:0:
192,192,50296,1,0,0:0:0:0:
448,192,50325,1,0,0:0:0:0:
64,192,50382,1,0,0:0:0:0:
320,192,50439,1,0,0:0:0:0:
192,192,50496,1,0,0:0:0:0:
448,192,50553,1,0,0:0:0:0:
320,192,50610,1,0,0:0:0:0:
64,192,50639,1,0,0:0:0:0:
448,192,50725,1,0,0:0:0:0:
192,192,50725,1,0,0:0:0:0:
320,192,50810,1,0,0:0:0:0:
64,192,50896,1,0,0:0:0:0:
192,192,50896,1,0,0:0:0:0:
320,192,50982,1,0,0:0:0:0:
448,192,51068,1,0,0:0:0:0:
64,192,51068,1,0,0:0:0:0:
320,192,51110,1,0,0:0:0:0:
192,192,51153,1,0,0:0:0:0:
64,192,51196,1,0,0:0:0:0:
448,192,51239,1,0,0:0:0:0:
192,192,51282,1,0,0:0:0:0:
320,192,51325,1,0,0:0:0:0:
448,192,51368,1,0,0:0:0:0:
64,192,51410,1,0,0:0:0:0:
192,192,51410,1,0,0:0:0:0:
64,192,51496,1,0,0:0:0:0:
448,192,51496,1,0,0:0:0:0:
64,192,51582,1,0,0:0:0:0:
320,192,51582,1,0,0:0:0:0:
64,192,51668,1,0,0:0:0:0:
448,192,51753,1,0,0:0:0:0:
320,192,51753,1,0,0:0:0:0:
448,192,51839,1,0,0:0:0:0:
192,192,51839,1,0,0:0:0:0:
448,192,51925,1,0,0:0:0:0:
64,192,51925,1,0,0:0:0:0:
448,192,52010,1,0,0:0:0:0:
64,192,52096,1,0,0:0:0:0:
192,192,52096,1,0,0:0:0:0:
64,192,52182,1,0,0:0:0:0:
320,192,52182,1,0,0:0:0:0:
64,192,52268,1,0,0:0:0:0:
448,192,52268,1,0,0:0:0:0:
64,192,52353,1,0,0:0:0:0:
192,192,52439,1,0,0:0:0:0:
320,192,52482,1,0,0:0:0:0:
448,192,52525,1,0,0:0:0:0:
64,192,52568,1,0,0:0:0:0:
192,192,52610,1,0,0:0:0:0:
320,192,52653,1,0,0:0:0:0:
64,192,52696,1,0,0:0:0:0:
192,192,52739,1,0,0:0:0:0:
320,192,52782,1,0,0:0:0:0:
448,192,52782,1,0,0:0:0:0:
320,192,52868,1,0,0:0:0:0:
192,192,52868,1,0,0:0:0:0:
320,192,52953,1,0,0:0:0:0:
64,192,52953,1,0,0:0:0:0:
320,192,53039,1,0,0:0:0:0:
64,192,53125,1,0,0:0:0:0:
192,192,53125,1,0,0:0:0:0:
192,192,53210,1,0,0:0:0:0:
448,192,53210,1,0,0:0:0:0:
192,192,53296,1,0,0:0:0:0:
320,192,53296,1,0,0:0:0:0:
192,192,53382,1,0,0:0:0:0:
448,192,53468,1,0,0:0:0:0:
320,192,53468,1,0,0:0:0:0:
320,192,53553,1,0,0:0:0:0:
64,192,53553,1,0,0:0:0:0:
320,192,53639,1,0,0:0:0:0:
192,192,53639,1,0,0:0:0:0:
320,192,53725,1,0,0:0:0:0:
64,192,53810,1,0,0:0:0:0:
192,192,53810,1,0,0:0:0:0:
448,192,53868,1,0,0:0:0:0:
320,192,53925,1,0,0:0:0:0:
192,192,53982,1,0,0:0:0:0:
448,192,54039,1,0,0:0:0:0:
64,192,54096,1,0,0:0:0:0:
320,192,54153,1,0,0:0:0:0:
192,192,54153,1,0,0:0:0:0:
448,192,54210,1,0,0:0:0:0:
192,192,54268,1,0,0:0:0:0:
320,192,54325,1,0,0:0:0:0:
64,192,54382,1,0,0:0:0:0:
192,192,54439,1,0,0:0:0:0:
448,192,54496,1,0,0:0:0:0:
320,192,54496,1,0,0:0:0:0:
64,192,54539,1,0,0:0:0:0:
192,192,54582,1,0,0:0:0:0:
320,192,54625,1,0,0:0:0:0:
448,192,54668,1,0,0:0:0:0:
192,192,54710,1,0,0:0:0:0:
64,192,54753,1,0,0:0:0:0:
448,192,54796,1,0,0:0:0:0:
320,192,54839,1,0,0:0:0:0:
192,192,54882,1,0,0:0:0:0:
64,192,54925,1,0,0:0:0:0:
448,192,55010,1,0,0:0:0:0:
320,192,55010,1,0,0:0:0:0:
64,192,55068,1,0,0:0:0:0:
192,192,55125,1,0,0:0:0:0:
320,192,55182,1,0,0:0:0:0:
448,192,55239,1,0,0:0:0:0:
192,192,55296,1,0,0:0:0:0:
64,192,55296,1,0,0:0:0:0:
320,192,55353,1,0,0:0:0:0:
448,192,55410,1,0,0:0:0:0:
192,192,55468,1,0,0:0:0:0:
448,192,55525,1,0,0:0:0:0:
320,192,55525,1,0,0:0:0:0:
448,192,55610,1,0,0:0:0:0:
64,192,55696,1,0,0:0:0:0:
320,192,55696,1,0,0:0:0:0:
64,192,55782,1,0,0:0:0:0:
320,192,55868,1,0,0:0:0:0:
192,192,55868,1,0,0:0:0:0:
320,192,55953,1,0,0:0:0:0:
192,192,56039,1,0,0:0:0:0:
64,192,56039,1,0,0:0:0:0:
448,192,56125,1,0,0:0:0:0:
64,192,56125,1,0,0:0:0:0:
320,192,56210,1,0,0:0:0:0:
448,192,56210,1,0,0:0:0:0:
192,192,56210,1,0,0:0:0:0:
64,192,56296,1,0,0:0:0:0:
192,192,56339,1,0,0:0:0:0:
320,192,56382,1,0,0:0:0:0:
448,192,56425,1,0,0:0:0:0:
320,192,56468,1,0,0:0:0:0:
192,192,56510,1,0,0:0:0:0:
64,192,56553,1,0,0:0:0:0:
448,192,56596,1,0,0:0:0:0:
320,192,56639,1,0,0:0:0:0:
192,192,56682,1,0,0:0:0:0:
64,192,56725,1,0,0:0:0:0:
192,192,56768,1,0,0:0:0:0:
320,192,56810,1,0,0:0:0:0:
448,192,56853,1,0,0:0:0:0:
192,192,56896,1,0,0:0:0:0:
64,192,56896,1,0,0:0:0:0:
320,192,56953,1,0,0:0:0:0:
448,192,57010,1,0,0:0:0:0:
192,192,57068,1,0,0:0:0:0:
320,192,57125,1,0,0:0:0:0:
448,192,57182,1,0,0:0:0:0:
64,192,57239,1,0,0:0:0:0:
192,192,57296,1,0,0:0:0:0:
320,192,57353,1,0,0:0:0:0:
64,192,57410,1,0,0:0:0:0:
448,192,57468,1,0,0:0:0:0:
320,192,57525,1,0,0:0:0:0:
192,192,57582,1,0,0:0:0:0:
448,192,57639,1,0,0:0:0:0:
320,192,57696,1,0,0:0:0:0:
64,192,57753,1,0,0:0:0:0:
192,192,57810,1,0,0:0:0:0:
320,192,57868,1,0,0:0:0:0:
64,192,57925,1,0,0:0:0:0:
192,192,57982,1,0,0:0:0:0:
320,192,58039,1,0,0:0:0:0:
192,192,58096,1,0,0:0:0:0:
320,192,58153,1,0,0:0:0:0:
448,192,58210,1,0,0:0:0:0:
320,192,58268,1,0,0:0:0:0:
64,192,58268,1,0,0:0:0:0:
192,192,58353,1,0,0:0:0:0:
320,192,58439,1,0,0:0:0:0:
192,192,58525,1,0,0:0:0:0:
320,192,58610,1,0,0:0:0:0:
448,192,58610,1,0,0:0:0:0:
64,192,58696,1,0,0:0:0:0:
192,192,58782,1,0,0:0:0:0:
320,192,58782,1,0,0:0:0:0:
64,192,58868,1,0,0:0:0:0:
448,192,58896,1,0,0:0:0:0:
320,192,58953,1,0,0:0:0:0:
192,192,59010,1,0,0:0:0:0:
64,192,59068,1,0,0:0:0:0:
448,192,59125,1,0,0:0:0:0:
320,192,59182,1,0,0:0:0:0:
192,192,59239,1,0,0:0:0:0:
448,192,59296,1,0,0:0:0:0:
64,192,59353,1,0,0:0:0:0:
320,192,59410,1,0,0:0:0:0:
448,192,59468,1,0,0:0:0:0:
192,192,59525,1,0,0:0:0:0:
320,192,59582,1,0,0:0:0:0:
64,192,59639,1,0,0:0:0:0:
192,192,59696,1,0,0:0:0:0:
320,192,59753,1,0,0:0:0:0:
448,192,59810,1,0,0:0:0:0:
64,192,59868,1,0,0:0:0:0:
320,192,59925,1,0,0:0:0:0:
192,192,59982,1,0,0:0:0:0:
64,192,60039,1,0,0:0:0:0:
448,192,60096,1,0,0:0:0:0:
192,192,60153,1,0,0:0:0:0:
320,192,60210,1,0,0:0:0:0:
448,192,60268,1,0,0:0:0:0:
192,192,60325,1,0,0:0:0:0:
64,192,60325,1,0,0:0:0:0:
320,192,60410,1,0,0:0:0:0:
192,192,60496,1,0,0:0:0:0:
320,192,60582,1,0,0:0:0:0:
448,192,60582,1,0,0:0:0:0:
64,192,60668,1,0,0:0:0:0:
192,192,60753,1,0,0:0:0:0:
320,192,60839,1,0,0:0:0:0:
448,192,60839,1,0,0:0:0:0:
192,192,60925,1,0,0:0:0:0:
64,192,61010,1,0,0:0:0:0:
320,192,61010,1,0,0:0:0:0:
448,192,61010,1,0,0:0:0:0:
192,192,61182,1,0,0:0:0:0:
320,192,61239,1,0,0:0:0:0:
448,192,61296,1,0,0:0:0:0:
64,192,61353,1,0,0:0:0:0:
192,192,61410,1,0,0:0:0:0:
320,192,61468,1,0,0:0:0:0:
192,192,61525,1,0,0:0:0:0:
64,192,61582,1,0,0:0:0:0:
448,192,61639,1,0,0:0:0:0:
320,192,61696,1,0,0:0:0:0:
192,192,61753,1,0,0:0:0:0:
448,192,61810,1,0,0:0:0:0:
64,192,61868,1,0,0:0:0:0:
192,192,61925,1,0,0:0:0:0:
320,192,61982,1,0,0:0:0:0:
64,192,62039,1,0,0:0:0:0:
192,192,62096,1,0,0:0:0:0:
320,192,62153,1,0,0:0:0:0:
448,192,62210,1,0,0:0:0:0:
64,192,62210,1,0,0:0:0:0:
64,192,62296,1,0,0:0:0:0:
64,192,62382,1,0,0:0:0:0:
448,192,62382,1,0,0:0:0:0:
448,192,62468,1,0,0:0:0:0:
448,192,62553,1,0,0:0:0:0:
192,192,62639,1,0,0:0:0:0:
64,192,62639,1,0,0:0:0:0:
320,192,62725,1,0,0:0:0:0:
448,192,62725,1,0,0:0:0:0:
320,192,62810,1,0,0:0:0:0:
320,192,62896,1,0,0:0:0:0:
64,192,62982,1,0,0:0:0:0:
448,192,62982,1,0,0:0:0:0:
192,192,63068,1,0,0:0:0:0:
320,192,63068,1,0,0:0:0:0:
192,192,63153,1,0,0:0:0:0:
192,192,63239,1,0,0:0:0:0:
320,192,63325,1,0,0:0:0:0:
448,192,63325,1,0,0:0:0:0:
192,192,63410,1,0,0:0:0:0:
64,192,63410,1,0,0:0:0:0:
320,192,63496,1,0,0:0:0:0:
448,192,63496,1,0,0:0:0:0:
64,192,63582,1,0,0:0:0:0:
192,192,63668,1,0,0:0:0:0:
448,192,63668,1,0,0:0:0:0:
320,192,63753,1,0,0:0:0:0:
64,192,63753,1,0,0:0:0:0:
192,192,63810,1,0,0:0:0:0:
320,192,63868,1,0,0:0:0:0:
448,192,63925,1,0,0:0:0:0:
64,192,63982,1,0,0:0:0:0:
320,192,64039,1,0,0:0:0:0:
192,192,64096,1,0,0:0:0:0:
64,192,64153,1,0,0:0:0:0:
448,192,64210,1,0,0:0:0:0:
320,192,64268,1,0,0:0:0:0:
192,192,64325,1,0,0:0:0:0:
448,192,64382,1,0,0:0:0:0:
64,192,64439,1,0,0:0:0:0:
192,192,64496,1,0,0:0:0:0:
320,192,64553,1,0,0:0:0:0:
448,192,64610,1,0,0:0:0:0:
64,192,64668,1,0,0:0:0:0:
192,192,64668,1,0,0:0:0:0:
320,192,64725,1,0,0:0:0:0:
448,192,64782,1,0,0:0:0:0:
192,192,64839,1,0,0:0:0:0:
320,192,64896,1,0,0:0:0:0:
64,192,64953,1,0,0:0:0:0:
192,192,65010,1,0,0:0:0:0:
448,192,65068,1,0,0:0:0:0:
320,192,65125,1,0,0:0:0:0:
64,192,65125,1,0,0:0:0:0:
192,192,65296,1,0,0:0:0:0:
320,192,65296,1,0,0:0:0:0:
192,192,65468,1,0,0:0:0:0:
64,192,65468,1,0,0:0:0:0:
448,192,65468,1,0,0:0:0:0:
192,192,65639,1,0,0:0:0:0:
320,192,65639,1,0,0:0:0:0:
192,192,65810,1,0,0:0:0:0:
320,192,65982,1,0,0:0:0:0:
448,192,65982,1,0,0:0:0:0:
192,192,66068,1,0,0:0:0:0:
64,192,66153,1,0,0:0:0:0:
448,192,66153,1,0,0:0:0:0:
320,192,66239,1,0,0:0:0:0:
192,192,66325,1,0,0:0:0:0:
64,192,66410,1,0,0:0:0:0:
448,192,66496,1,0,0:0:0:0:
192,192,66496,1,0,0:0:0:0:
320,192,66582,1,0,0:0:0:0:
192,192,66668,1,0,0:0:0:0:
64,192,66753,1,0,0:0:0:0:
448,192,66753,1,0,0:0:0:0:
320,192,66839,1,0,0:0:0:0:
192,192,66925,1,0,0:0:0:0:
64,192,67010,1,0,0:0:0:0:
448,192,67010,1,0,0:0:0:0:
320,192,67068,1,0,0:0:0:0:
192,192,67125,1,0,0:0:0:0:
64,192,67182,1,0,0:0:0:0:
448,192,67182,1,0,0:0:0:0:
320,192,67239,1,0,0:0:0:0:
192,192,67296,1,0,0:0:0:0:
64,192,67353,1,0,0:0:0:0:
448,192,67353,1,0,0:0:0:0:
448,192,67439,1,0,0:0:0:0:
448,192,67525,1,0,0:0:0:0:
64,192,67525,1,0,0:0:0:0:
192,192,67610,1,0,0:0:0:0:
320,192,67696,1,0,0:0:0:0:
192,192,67782,1,0,0:0:0:0:
64,192,67868,1,0,0:0:0:0:
448,192,67868,1,0,0:0:0:0:
320,192,67936,1,0,0:0:0:0:
192,192,68005,1,0,0:0:0:0:
64,192,68074,1,0,0:0:0:0:
320,192,68142,1,0,0:0:0:0:
192,192,68210,1,0,0:0:0:0:
448,192,68279,1,0,0:0:0:0:
320,192,68348,1,0,0:0:0:0:
192,192,68416,1,0,0:0:0:0:
64,192,68485,1,0,0:0:0:0:
320,192,68553,1,0,0:0:0:0:
192,192,68622,1,0,0:0:0:0:
448,192,68691,1,0,0:0:0:0:
64,192,68759,1,0,0:0:0:0:
320,192,68828,1,0,0:0:0:0:
448,192,68896,1,0,0:0:0:0:
64,192,68896,1,0,0:0:0:0:
192,192,68965,1,0,0:0:0:0:
320,192,69034,1,0,0:0:0:0:
64,192,69102,1,0,0:0:0:0:
192,192,69171,1,0,0:0:0:0:
320,192,69239,1,0,0:0:0:0:
448,192,69239,1,0,0:0:0:0:
192,192,69325,1,0,0:0:0:0:
64,192,69410,1,0,0:0:0:0:
448,192,69410,1,0,0:0:0:0:
320,192,69496,1,0,0:0:0:0:
192,192,69582,1,0,0:0:0:0:
320,192,69668,1,0,0:0:0:0:
448,192,69753,1,0,0:0:0:0:
64,192,69839,1,0,0:0:0:0:
320,192,69925,1,0,0:0:0:0:
448,192,69925,1,0,0:0:0:0:
192,192,70010,1,0,0:0:0:0:
64,192,70096,1,0,0:0:0:0:
320,192,70182,1,0,0:0:0:0:
192,192,70268,1,0,0:0:0:0:
448,192,70268,1,0,0:0:0:0:
64,192,70268,1,0,0:0:0:0:
192,192,70439,1,0,0:0:0:0:
320,192,70439,1,0,0:0:0:0:
448,192,70439,1,0,0:0:0:0:
64,192,70610,1,0,0:0:0:0:
448,192,70610,1,0,0:0:0:0:
192,192,70668,1,0,0:0:0:0:
320,192,70725,1,0,0:0:0:0:
64,192,70782,1,0,0:0:0:0:
448,192,70839,1,0,0:0:0:0:
320,192,70896,1,0,0:0:0:0:
192,192,70953,1,0,0:0:0:0:
64,192,70953,1,0,0:0:0:0:
192,192,71125,1,0,0:0:0:0:
320,192,71125,1,0,0:0:0:0:
448,192,71125,1,0,0:0:0:0:
320,192,71296,1,0,0:0:0:0:
64,192,71296,1,0,0:0:0:0:
192,192,71468,1,0,0:0:0:0:
320,192,71468,1,0,0:0:0:0:
448,192,71468,1,0,0:0:0:0:
64,192,71553,1,0,0:0:0:0:
448,192,71639,1,0,0:0:0:0:
320,192,71682,1,0,0:0:0:0:
192,192,71725,1,0,0:0:0:0:
64,192,71768,1,0,0:0:0:0:
448,192,71810,1,0,0:0:0:0:
320,192,71810,1,0,0:0:0:0:
192,192,71982,1,0,0:0:0:0:
192,192,72068,1,0,0:0:0:0:
192,192,72153,1,0,0:0:0:0:
320,192,72325,1,0,0:0:0:0:
320,192,72410,1,0,0:0:0:0:
320,192,72496,1,0,0:0:0:0:
320,192,72582,1,0,0:0:0:0:
192,192,72668,1,0,0:0:0:0:
64,192,72668,1,0,0:0:0:0:
320,192,72782,1,0,0:0:0:0:
448,192,72782,1,0,0:0:0:0:
192,192,72896,1,0,0:0:0:0:
64,192,72896,1,0,0:0:0:0:
320,192,73010,1,0,0:0:0:0:
448,192,73010,1,0,0:0:0:0:
192,192,73096,1,0,0:0:0:0:
64,192,73182,1,0,0:0:0:0:
448,192,73182,1,0,0:0:0:0:
320,192,73239,1,0,0:0:0:0:
192,192,73296,1,0,0:0:0:0:
64,192,73353,1,0,0:0:0:0:
320,192,73422,1,0,0:0:0:0:
192,192,73491,1,0,0:0:0:0:
64,192,73559,1,0,0:0:0:0:
448,192,73628,1,0,0:0:0:0:
320,192,73696,1,0,0:0:0:0:
64,192,73696,1,0,0:0:0:0:
192,192,73765,1,0,0:0:0:0:
320,192,73834,1,0,0:0:0:0:
448,192,73902,1,0,0:0:0:0:
64,192,73971,1,0,0:0:0:0:
192,192,74039,1,0,0:0:0:0:
320,192,74108,1,0,0:0:0:0:
64,192,74176,1,0,0:0:0:0:
192,192,74245,1,0,0:0:0:0:
448,192,74314,1,0,0:0:0:0:
320,192,74382,1,0,0:0:0:0:
192,192,74382,1,0,0:0:0:0:
64,192,74468,1,0,0:0:0:0:
192,192,74553,1,0,0:0:0:0:
448,192,74553,1,0,0:0:0:0:
320,192,74639,1,0,0:0:0:0:
64,192,74725,1,0,0:0:0:0:
448,192,74782,1,0,0:0:0:0:
320,192,74839,1,0,0:0:0:0:
192,192,74896,1,0,0:0:0:0:
448,192,74953,1,0,0:0:0:0:
64,192,75010,1,0,0:0:0:0:
192,192,75068,1,0,0:0:0:0:
320,192,75125,1,0,0:0:0:0:
64,192,75182,1,0,0:0:0:0:
192,192,75239,1,0,0:0:0:0:
448,192,75325,1,0,0:0:0:0:
320,192,75325,1,0,0:0:0:0:
64,192,75410,1,0,0:0:0:0:
448,192,75479,1,0,0:0:0:0:
320,192,75548,1,0,0:0:0:0:
192,192,75616,1,0,0:0:0:0:
448,192,75685,1,0,0:0:0:0:
320,192,75753,1,0,0:0:0:0:
64,192,75753,1,0,0:0:0:0:
192,192,75822,1,0,0:0:0:0:
320,192,75891,1,0,0:0:0:0:
448,192,75959,1,0,0:0:0:0:
64,192,76028,1,0,0:0:0:0:
320,192,76096,1,0,0:0:0:0:
448,192,76096,1,0,0:0:0:0:
192,192,76182,1,0,0:0:0:0:
64,192,76268,1,0,0:0:0:0:
320,192,76268,1,0,0:0:0:0:
448,192,76353,1,0,0:0:0:0:
320,192,76439,1,0,0:0:0:0:
64,192,76439,1,0,0:0:0:0:
192,192,76525,1,0,0:0:0:0:
64,192,76610,1,0,0:0:0:0:
448,192,76610,1,0,0:0:0:0:
320,192,76696,1,0,0:0:0:0:
448,192,76782,1,0,0:0:0:0:
64,192,76782,1,0,0:0:0:0:
192,192,76868,1,0,0:0:0:0:
320,192,76953,1,0,0:0:0:0:
448,192,76953,1,0,0:0:0:0:
192,192,77039,1,0,0:0:0:0:
64,192,77125,1,0,0:0:0:0:
320,192,77125,1,0,0:0:0:0:
192,192,77210,1,0,0:0:0:0:
320,192,77296,1,0,0:0:0:0:
448,192,77296,1,0,0:0:0:0:
192,192,77382,1,0,0:0:0:0:
192,192,77468,1,0,0:0:0:0:
448,192,77468,1,0,0:0:0:0:
64,192,77468,1,0,0:0:0:0:
192,192,77639,1,0,0:0:0:0:
320,192,77639,1,0,0:0:0:0:
192,192,77810,1,0,0:0:0:0:
448,192,77810,1,0,0:0:0:0:
448,192,77982,1,0,0:0:0:0:
64,192,77982,1,0,0:0:0:0:
320,192,77982,1,0,0:0:0:0:
64,192,78153,1,0,0:0:0:0:
192,192,78153,1,0,0:0:0:0:
320,192,78239,1,0,0:0:0:0:
448,192,78239,1,0,0:0:0:0:
192,192,78325,1,0,0:0:0:0:
64,192,78325,1,0,0:0:0:0:
320,192,78410,1,0,0:0:0:0:
192,192,78496,1,0,0:0:0:0:
320,192,78496,1,0,0:0:0:0:
448,192,78496,1,0,0:0:0:0:
192,192,78839,1,0,0:0:0:0:
320,192,78882,1,0,0:0:0:0:
448,192,78925,1,0,0:0:0:0:
64,192,79010,1,0,0:0:0:0:
192,192,79010,1,0,0:0:0:0:
448,192,79053,1,0,0:0:0:0:
320,192,79096,1,0,0:0:0:0:
192,192,79139,1,0,0:0:0:0:
448,192,79182,1,0,0:0:0:0:
64,192,79268,1,0,0:0:0:0:
192,192,79268,1,0,0:0:0:0:
320,192,79268,1,0,0:0:0:0:
448,192,79353,1,0,0:0:0:0:
64,192,79396,1,0,0:0:0:0:
192,192,79439,1,0,0:0:0:0:
320,192,79482,1,0,0:0:0:0:
64,192,79525,1,0,0:0:0:0:
448,192,79525,1,0,0:0:0:0:
192,192,79563,1,0,0:0:0:0:
320,192,79601,1,0,0:0:0:0:
64,192,79696,1,0,0:0:0:0:
448,192,79696,1,0,0:0:0:0:
320,192,79734,1,0,0:0:0:0:
192,192,79772,1,0,0:0:0:0:
64,192,79868,1,0,0:0:0:0:
448,192,79868,1,0,0:0:0:0:
192,192,79906,1,0,0:0:0:0:
320,192,79944,1,0,0:0:0:0:
64,192,80039,1,0,0:0:0:0:
448,192,80039,1,0,0:0:0:0:
320,192,80077,1,0,0:0:0:0:
192,192,80115,1,0,0:0:0:0:
320,192,80210,1,0,0:0:0:0:
320,192,80296,1,0,0:0:0:0:
320,192,80382,1,0,0:0:0:0:
320,192,80468,1,0,0:0:0:0:
320,192,80553,1,0,0:0:0:0:
320,192,80639,1,0,0:0:0:0:
320,192,80725,1,0,0:0:0:0:
320,192,80810,1,0,0:0:0:0:
192,192,80896,1,0,0:0:0:0:
64,192,80939,1,0,0:0:0:0:
448,192,80982,1,0,0:0:0:0:
320,192,81025,1,0,0:0:0:0:
192,192,81068,1,0,0:0:0:0:
448,192,81110,1,0,0:0:0:0:
64,192,81153,1,0,0:0:0:0:
192,192,81196,1,0,0:0:0:0:
320,192,81239,1,0,0:0:0:0:
64,192,81315,1,0,0:0:0:0:
192,192,81315,1,0,0:0:0:0:
320,192,81353,1,0,0:0:0:0:
448,192,81391,1,0,0:0:0:0:
64,192,81429,1,0,0:0:0:0:
320,192,81468,1,0,0:0:0:0:
192,192,81506,1,0,0:0:0:0:
448,192,81544,1,0,0:0:0:0:
320,192,81582,1,0,0:0:0:0:
192,192,81668,1,0,0:0:0:0:
64,192,81753,1,0,0:0:0:0:
448,192,81753,1,0,0:0:0:0:
192,192,81925,1,0,0:0:0:0:
320,192,81925,1,0,0:0:0:0:
448,192,81925,1,0,0:0:0:0:
64,192,82010,1,0,0:0:0:0:
320,192,82039,1,0,0:0:0:0:
192,192,82096,1,0,0:0:0:0:
448,192,82153,1,0,0:0:0:0:
320,192,82210,1,0,0:0:0:0:
192,192,82268,1,0,0:0:0:0:
64,192,82268,1,0,0:0:0:0:
448,192,82353,1,0,0:0:0:0:
320,192,82439,1,0,0:0:0:0:
64,192,82439,1,0,0:0:0:0:
192,192,82525,1,0,0:0:0:0:
64,192,82610,1,0,0:0:0:0:
448,192,82610,1,0,0:0:0:0:
320,192,82668,1,0,0:0:0:0:
192,192,82696,1,0,0:0:0:0:
448,192,82725,1,0,0:0:0:0:
320,192,82782,1,0,0:0:0:0:
192,192,82782,1,0,0:0:0:0:
192,192,82868,1,0,0:0:0:0:
192,192,82953,1,0,0:0:0:0:
320,192,82996,1,0,0:0:0:0:
448,192,83039,1,0,0:0:0:0:
64,192,83082,1,0,0:0:0:0:
192,192,83125,1,0,0:0:0:0:
320,192,83168,1,0,0:0:0:0:
64,192,83253,1,0,0:0:0:0:
192,192,83253,1,0,0:0:0:0:
448,192,83296,1,0,0:0:0:0:
320,192,83296,1,0,0:0:0:0:
192,192,83382,1,0,0:0:0:0:
320,192,83425,1,0,0:0:0:0:
448,192,83468,1,0,0:0:0:0:
64,192,83510,1,0,0:0:0:0:
192,192,83553,1,0,0:0:0:0:
320,192,83639,1,0,0:0:0:0:
448,192,83639,1,0,0:0:0:0:
64,192,83639,1,0,0:0:0:0:
320,192,83725,1,0,0:0:0:0:
192,192,83810,1,0,0:0:0:0:
448,192,83853,1,0,0:0:0:0:
192,192,83896,1,0,0:0:0:0:
320,192,83982,1,0,0:0:0:0:
448,192,83982,1,0,0:0:0:0:
64,192,84025,1,0,0:0:0:0:
192,192,84068,1,0,0:0:0:0:
64,192,84110,1,0,0:0:0:0:
448,192,84153,1,0,0:0:0:0:
320,192,84196,1,0,0:0:0:0:
192,192,84239,1,0,0:0:0:0:
64,192,84282,1,0,0:0:0:0:
320,192,84325,1,0,0:0:0:0:
192,192,84368,1,0,0:0:0:0:
64,192,84410,1,0,0:0:0:0:
320,192,84496,1,0,0:0:0:0:
448,192,84496,1,0,0:0:0:0:
64,192,84539,1,0,0:0:0:0:
192,192,84582,1,0,0:0:0:0:
320,192,84625,1,0,0:0:0:0:
64,192,84668,1,0,0:0:0:0:
192,192,84753,1,0,0:0:0:0:
320,192,84753,1,0,0:0:0:0:
448,192,84753,1,0,0:0:0:0:
64,192,84839,1,0,0:0:0:0:
448,192,84882,1,0,0:0:0:0:
320,192,84925,1,0,0:0:0:0:
192,192,84968,1,0,0:0:0:0:
64,192,85010,1,0,0:0:0:0:
448,192,85010,1,0,0:0:0:0:
320,192,85049,1,0,0:0:0:0:
192,192,85087,1,0,0:0:0:0:
64,192,85182,1,0,0:0:0:0:
448,192,85182,1,0,0:0:0:0:
192,192,85220,1,0,0:0:0:0:
320,192,85258,1,0,0:0:0:0:
64,192,85353,1,0,0:0:0:0:
448,192,85353,1,0,0:0:0:0:
320,192,85392,1,0,0:0:0:0:
192,192,85430,1,0,0:0:0:0:
64,192,85525,1,0,0:0:0:0:
448,192,85525,1,0,0:0:0:0:
192,192,85563,1,0,0:0:0:0:
320,192,85601,1,0,0:0:0:0:
192,192,85696,1,0,0:0:0:0:
192,192,85782,1,0,0:0:0:0:
192,192,85868,1,0,0:0:0:0:
192,192,85953,1,0,0:0:0:0:
192,192,86039,1,0,0:0:0:0:
192,192,86125,1,0,0:0:0:0:
192,192,86210,1,0,0:0:0:0:
192,192,86296,1,0,0:0:0:0:
320,192,86382,1,0,0:0:0:0:
448,192,86425,1,0,0:0:0:0:
64,192,86468,1,0,0:0:0:0:
192,192,86510,1,0,0:0:0:0:
320,192,86553,1,0,0:0:0:0:
64,192,86596,1,0,0:0:0:0:
448,192,86639,1,0,0:0:0:0:
320,192,86682,1,0,0:0:0:0:
192,192,86725,1,0,0:0:0:0:
320,192,86801,1,0,0:0:0:0:
448,192,86801,1,0,0:0:0:0:
192,192,86839,1,0,0:0:0:0:
64,192,86877,1,0,0:0:0:0:
448,192,86915,1,0,0:0:0:0:
192,192,86953,1,0,0:0:0:0:
320,192,86992,1,0,0:0:0:0:
64,192,87030,1,0,0:0:0:0:
192,192,87068,1,0,0:0:0:0:
320,192,87153,1,0,0:0:0:0:
64,192,87239,1,0,0:0:0:0:
448,192,87239,1,0,0:0:0:0:
64,192,87410,1,0,0:0:0:0:
192,192,87410,1,0,0:0:0:0:
320,192,87410,1,0,0:0:0:0:
448,192,87496,1,0,0:0:0:0:
192,192,87525,1,0,0:0:0:0:
320,192,87582,1,0,0:0:0:0:
64,192,87639,1,0,0:0:0:0:
192,192,87696,1,0,0:0:0:0:
448,192,87753,1,0,0:0:0:0:
320,192,87753,1,0,0:0:0:0:
64,192,87839,1,0,0:0:0:0:
448,192,87925,1,0,0:0:0:0:
192,192,87925,1,0,0:0:0:0:
320,192,88010,1,0,0:0:0:0:
64,192,88096,1,0,0:0:0:0:
448,192,88096,1,0,0:0:0:0:
192,192,88153,1,0,0:0:0:0:
320,192,88182,1,0,0:0:0:0:
64,192,88210,1,0,0:0:0:0:
320,192,88268,1,0,0:0:0:0:
192,192,88268,1,0,0:0:0:0:
320,192,88353,1,0,0:0:0:0:
320,192,88439,1,0,0:0:0:0:
192,192,88482,1,0,0:0:0:0:
64,192,88525,1,0,0:0:0:0:
448,192,88568,1,0,0:0:0:0:
320,192,88610,1,0,0:0:0:0:
192,192,88653,1,0,0:0:0:0:
320,192,88739,1,0,0:0:0:0:
448,192,88739,1,0,0:0:0:0:
192,192,88782,1,0,0:0:0:0:
64,192,88782,1,0,0:0:0:0:
320,192,88868,1,0,0:0:0:0:
192,192,88910,5,0,0:0:0:0:
64,192,88953,1,0,0:0:0:0:
448,192,88996,1,0,0:0:0:0:
320,192,89039,1,0,0:0:0:0:
448,192,89125,1,0,0:0:0:0:
64,192,89125,1,0,0:0:0:0:
192,192,89125,1,0,0:0:0:0:
192,192,89210,1,0,0:0:0:0:
320,192,89296,1,0,0:0:0:0:
64,192,89339,1,0,0:0:0:0:
320,192,89382,1,0,0:0:0:0:
448,192,89468,1,0,0:0:0:0:
64,192,89468,1,0,0:0:0:0:
192,192,89468,1,0,0:0:0:0:
320,192,89510,1,0,0:0:0:0:
448,192,89553,1,0,0:0:0:0:
192,192,89596,1,0,0:0:0:0:
64,192,89639,1,0,0:0:0:0:
320,192,89682,1,0,0:0:0:0:
192,192,89725,1,0,0:0:0:0:
64,192,89768,1,0,0:0:0:0:
320,192,89810,1,0,0:0:0:0:
448,192,89810,1,0,0:0:0:0:
448,192,89896,1,0,0:0:0:0:
448,192,89982,1,0,0:0:0:0:
320,192,89982,1,0,0:0:0:0:
448,192,90068,1,0,0:0:0:0:
192,192,90153,1,0,0:0:0:0:
64,192,90153,1,0,0:0:0:0:
64,192,90239,1,0,0:0:0:0:
64,192,90325,1,0,0:0:0:0:
192,192,90325,1,0,0:0:0:0:
64,192,90410,1,0,0:0:0:0:
320,192,90496,1,0,0:0:0:0:
448,192,90496,1,0,0:0:0:0:
448,192,90582,1,0,0:0:0:0:
448,192,90668,1,0,0:0:0:0:
320,192,90668,1,0,0:0:0:0:
448,192,90753,1,0,0:0:0:0:
320,192,90839,1,0,0:0:0:0:
192,192,90882,1,0,0:0:0:0:
64,192,90925,1,0,0:0:0:0:
448,192,90968,1,0,0:0:0:0:
320,192,91010,1,0,0:0:0:0:
192,192,91053,1,0,0:0:0:0:
448,192,91096,1,0,0:0:0:0:
320,192,91139,1,0,0:0:0:0:
64,192,91182,1,0,0:0:0:0:
192,192,91182,1,0,0:0:0:0:
192,192,91268,1,0,0:0:0:0:
192,192,91353,1,0,0:0:0:0:
64,192,91353,1,0,0:0:0:0:
192,192,91439,1,0,0:0:0:0:
320,192,91525,1,0,0:0:0:0:
448,192,91525,1,0,0:0:0:0:
320,192,91610,1,0,0:0:0:0:
320,192,91696,1,0,0:0:0:0:
448,192,91696,1,0,0:0:0:0:
320,192,91782,1,0,0:0:0:0:
192,192,91868,1,0,0:0:0:0:
64,192,91868,1,0,0:0:0:0:
192,192,91953,1,0,0:0:0:0:
192,192,92039,1,0,0:0:0:0:
64,192,92039,1,0,0:0:0:0:
192,192,92125,1,0,0:0:0:0:
320,192,92210,1,0,0:0:0:0:
448,192,92210,1,0,0:0:0:0:
64,192,92268,1,0,0:0:0:0:
192,192,92325,1,0,0:0:0:0:
320,192,92382,1,0,0:0:0:0:
64,192,92439,1,0,0:0:0:0:
448,192,92496,1,0,0:0:0:0:
320,192,92553,1,0,0:0:0:0:
192,192,92553,1,0,0:0:0:0:
64,192,92610,1,0,0:0:0:0:
320,192,92668,1,0,0:0:0:0:
192,192,92725,1,0,0:0:0:0:
448,192,92782,1,0,0:0:0:0:
320,192,92839,1,0,0:0:0:0:
192,192,92896,1,0,0:0:0:0:
64,192,92896,1,0,0:0:0:0:
448,192,92939,1,0,0:0:0:0:
320,192,92982,1,0,0:0:0:0:
192,192,93025,1,0,0:0:0:0:
64,192,93068,1,0,0:0:0:0:
320,192,93110,1,0,0:0:0:0:
448,192,93153,1,0,0:0:0:0:
64,192,93196,1,0,0:0:0:0:
192,192,93239,1,0,0:0:0:0:
320,192,93282,1,0,0:0:0:0:
448,192,93325,1,0,0:0:0:0:
192,192,93410,1,0,0:0:0:0:
64,192,93410,1,0,0:0:0:0:
448,192,93468,1,0,0:0:0:0:
320,192,93525,1,0,0:0:0:0:
192,192,93582,1,0,0:0:0:0:
64,192,93639,1,0,0:0:0:0:
448,192,93696,1,0,0:0:0:0:
320,192,93696,1,0,0:0:0:0:
192,192,93753,1,0,0:0:0:0:
64,192,93810,1,0,0:0:0:0:
320,192,93868,1,0,0:0:0:0:
448,192,93925,1,0,0:0:0:0:
192,192,93925,1,0,0:0:0:0:
64,192,94010,1,0,0:0:0:0:
320,192,94096,1,0,0:0:0:0:
448,192,94096,1,0,0:0:0:0:
192,192,94182,1,0,0:0:0:0:
448,192,94210,1,0,0:0:0:0:
64,192,94268,1,0,0:0:0:0:
320,192,94325,1,0,0:0:0:0:
192,192,94382,1,0,0:0:0:0:
448,192,94439,1,0,0:0:0:0:
320,192,94496,1,0,0:0:0:0:
64,192,94525,1,0,0:0:0:0:
192,192,94610,1,0,0:0:0:0:
448,192,94610,1,0,0:0:0:0:
320,192,94696,1,0,0:0:0:0:
192,192,94782,1,0,0:0:0:0:
64,192,94782,1,0,0:0:0:0:
320,192,94868,1,0,0:0:0:0:
64,192,94953,1,0,0:0:0:0:
448,192,94953,1,0,0:0:0:0:
320,192,94996,1,0,0:0:0:0:
192,192,95039,1,0,0:0:0:0:
64,192,95082,1,0,0:0:0:0:
448,192,95125,1,0,0:0:0:0:
192,192,95168,1,0,0:0:0:0:
320,192,95210,1,0,0:0:0:0:
448,192,95253,1,0,0:0:0:0:
192,192,95296,1,0,0:0:0:0:
64,192,95296,1,0,0:0:0:0:
64,192,95382,1,0,0:0:0:0:
64,192,95468,1,0,0:0:0:0:
192,192,95468,1,0,0:0:0:0:
64,192,95553,1,0,0:0:0:0:
320,192,95639,1,0,0:0:0:0:
448,192,95639,1,0,0:0:0:0:
448,192,95725,1,0,0:0:0:0:
448,192,95810,1,0,0:0:0:0:
320,192,95810,1,0,0:0:0:0:
448,192,95896,1,0,0:0:0:0:
192,192,95982,1,0,0:0:0:0:
64,192,95982,1,0,0:0:0:0:
64,192,96068,1,0,0:0:0:0:
64,192,96153,1,0,0:0:0:0:
192,192,96153,1,0,0:0:0:0:
64,192,96239,1,0,0:0:0:0:
192,192,96325,1,0,0:0:0:0:
320,192,96368,1,0,0:0:0:0:
448,192,96410,1,0,0:0:0:0:
64,192,96453,1,0,0:0:0:0:
192,192,96496,1,0,0:0:0:0:
320,192,96539,1,0,0:0:0:0:
64,192,96582,1,0,0:0:0:0:
192,192,96625,1,0,0:0:0:0:
448,192,96668,1,0,0:0:0:0:
320,192,96668,1,0,0:0:0:0:
320,192,96753,1,0,0:0:0:0:
320,192,96839,1,0,0:0:0:0:
448,192,96839,1,0,0:0:0:0:
320,192,96925,1,0,0:0:0:0:
192,192,97010,1,0,0:0:0:0:
64,192,97010,1,0,0:0:0:0:
192,192,97096,1,0,0:0:0:0:
192,192,97182,1,0,0:0:0:0:
64,192,97182,1,0,0:0:0:0:
192,192,97268,1,0,0:0:0:0:
320,192,97353,1,0,0:0:0:0:
448,192,97353,1,0,0:0:0:0:
320,192,97439,1,0,0:0:0:0:
320,192,97525,1,0,0:0:0:0:
448,192,97525,1,0,0:0:0:0:
320,192,97610,1,0,0:0:0:0:
192,192,97696,1,0,0:0:0:0:
64,192,97696,1,0,0:0:0:0:
448,192,97753,1,0,0:0:0:0:
320,192,97810,1,0,0:0:0:0:
192,192,97868,1,0,0:0:0:0:
448,192,97925,1,0,0:0:0:0:
64,192,97982,1,0,0:0:0:0:
192,192,98039,1,0,0:0:0:0:
320,192,98039,1,0,0:0:0:0:
448,192,98096,1,0,0:0:0:0:
192,192,98153,1,0,0:0:0:0:
320,192,98210,1,0,0:0:0:0:
64,192,98268,1,0,0:0:0:0:
192,192,98325,1,0,0:0:0:0:
320,192,98382,1,0,0:0:0:0:
448,192,98382,1,0,0:0:0:0:
64,192,98425,1,0,0:0:0:0:
192,192,98468,1,0,0:0:0:0:
320,192,98510,1,0,0:0:0:0:
448,192,98553,1,0,0:0:0:0:
192,192,98596,1,0,0:0:0:0:
64,192,98639,1,0,0:0:0:0:
448,192,98682,1,0,0:0:0:0:
320,192,98725,1,0,0:0:0:0:
192,192,98768,1,0,0:0:0:0:
64,192,98810,1,0,0:0:0:0:
320,192,98896,1,0,0:0:0:0:
448,192,98896,1,0,0:0:0:0:
64,192,98953,1,0,0:0:0:0:
192,192,99010,1,0,0:0:0:0:
320,192,99068,1,0,0:0:0:0:
448,192,99125,1,0,0:0:0:0:
64,192,99182,1,0,0:0:0:0:
192,192,99182,1,0,0:0:0:0:
320,192,99239,1,0,0:0:0:0:
448,192,99296,1,0,0:0:0:0:
192,192,99353,1,0,0:0:0:0:
320,192,99410,1,0,0:0:0:0:
448,192,99410,1,0,0:0:0:0:
320,192,99582,1,0,0:0:0:0:
448,192,99582,1,0,0:0:0:0:
64,192,99582,1,0,0:0:0:0:
64,192,99753,1,0,0:0:0:0:
192,192,99753,1,0,0:0:0:0:
320,192,99753,1,0,0:0:0:0:
64,192,100096,1,0,0:0:0:0:
192,192,100096,1,0,0:0:0:0:
320,192,100096,1,0,0:0:0:0:
448,192,100096,1,0,0:0:0:0:
64,192,100439,1,0,0:0:0:0:
448,192,100439,1,0,0:0:0:0:
192,192,100482,1,0,0:0:0:0:
320,192,100525,1,0,0:0:0:0:
448,192,100568,1,0,0:0:0:0:
64,192,100610,1,0,0:0:0:0:
320,192,100653,1,0,0:0:0:0:
192,192,100696,1,0,0:0:0:0:
64,192,100739,1,0,0:0:0:0:
448,192,100782,1,0,0:0:0:0:
320,192,100782,1,0,0:0:0:0:
448,192,100868,1,0,0:0:0:0:
192,192,100868,1,0,0:0:0:0:
448,192,100953,1,0,0:0:0:0:
64,192,100953,1,0,0:0:0:0:
448,192,101039,1,0,0:0:0:0:
64,192,101125,1,0,0:0:0:0:
192,192,101125,1,0,0:0:0:0:
64,192,101210,1,0,0:0:0:0:
320,192,101210,1,0,0:0:0:0:
64,192,101296,1,0,0:0:0:0:
448,192,101296,1,0,0:0:0:0:
64,192,101382,1,0,0:0:0:0:
448,192,101468,1,0,0:0:0:0:
320,192,101468,1,0,0:0:0:0:
448,192,101553,1,0,0:0:0:0:
192,192,101553,1,0,0:0:0:0:
448,192,101639,1,0,0:0:0:0:
64,192,101639,1,0,0:0:0:0:
448,192,101725,1,0,0:0:0:0:
320,192,101810,1,0,0:0:0:0:
192,192,101853,1,0,0:0:0:0:
64,192,101896,1,0,0:0:0:0:
448,192,101939,1,0,0:0:0:0:
320,192,101982,1,0,0:0:0:0:
192,192,102025,1,0,0:0:0:0:
448,192,102068,1,0,0:0:0:0:
320,192,102110,1,0,0:0:0:0:
192,192,102153,1,0,0:0:0:0:
64,192,102153,1,0,0:0:0:0:
448,192,102239,1,0,0:0:0:0:
192,192,102239,1,0,0:0:0:0:
192,192,102325,1,0,0:0:0:0:
320,192,102325,1,0,0:0:0:0:
192,192,102410,1,0,0:0:0:0:
448,192,102496,1,0,0:0:0:0:
320,192,102496,1,0,0:0:0:0:
320,192,102582,1,0,0:0:0:0:
64,192,102582,1,0,0:0:0:0:
320,192,102668,1,0,0:0:0:0:
192,192,102668,1,0,0:0:0:0:
320,192,102753,1,0,0:0:0:0:
64,192,102839,1,0,0:0:0:0:
192,192,102839,1,0,0:0:0:0:
192,192,102925,1,0,0:0:0:0:
448,192,102925,1,0,0:0:0:0:
192,192,103010,1,0,0:0:0:0:
320,192,103010,1,0,0:0:0:0:
192,192,103096,1,0,0:0:0:0:
448,192,103182,1,0,0:0:0:0:
320,192,103182,1,0,0:0:0:0:
64,192,103239,1,0,0:0:0:0:
192,192,103296,1,0,0:0:0:0:
320,192,103353,1,0,0:0:0:0:
64,192,103410,1,0,0:0:0:0:
448,192,103468,1,0,0:0:0:0:
192,192,103525,1,0,0:0:0:0:
320,192,103525,1,0,0:0:0:0:
64,192,103582,1,0,0:0:0:0:
320,192,103639,1,0,0:0:0:0:
192,192,103696,1,0,0:0:0:0:
448,192,103753,1,0,0:0:0:0:
320,192,103810,1,0,0:0:0:0:
64,192,103868,1,0,0:0:0:0:
192,192,103868,1,0,0:0:0:0:
448,192,103910,1,0,0:0:0:0:
320,192,103953,1,0,0:0:0:0:
192,192,103996,1,0,0:0:0:0:
64,192,104039,1,0,0:0:0:0:
320,192,104082,1,0,0:0:0:0:
448,192,104125,1,0,0:0:0:0:
64,192,104168,1,0,0:0:0:0:
192,192,104210,1,0,0:0:0:0:
320,192,104253,1,0,0:0:0:0:
448,192,104296,1,0,0:0:0:0:
64,192,104382,1,0,0:0:0:0:
192,192,104382,1,0,0:0:0:0:
448,192,104439,1,0,0:0:0:0:
320,192,104496,1,0,0:0:0:0:
192,192,104553,1,0,0:0:0:0:
64,192,104610,1,0,0:0:0:0:
320,192,104668,1,0,0:0:0:0:
448,192,104668,1,0,0:0:0:0:
192,192,104725,1,0,0:0:0:0:
64,192,104782,1,0,0:0:0:0:
320,192,104839,1,0,0:0:0:0:
192,192,104896,1,0,0:0:0:0:
448,192,104896,1,0,0:0:0:0:
64,192,104982,1,0,0:0:0:0:
448,192,105068,1,0,0:0:0:0:
320,192,105068,1,0,0:0:0:0:
192,192,105153,1,0,0:0:0:0:
448,192,105182,1,0,0:0:0:0:
64,192,105239,1,0,0:0:0:0:
320,192,105296,1,0,0:0:0:0:
192,192,105353,1,0,0:0:0:0:
448,192,105410,1,0,0:0:0:0:
320,192,105468,1,0,0:0:0:0:
64,192,105496,1,0,0:0:0:0:
448,192,105582,1,0,0:0:0:0:
192,192,105582,1,0,0:0:0:0:
320,192,105668,1,0,0:0:0:0:
64,192,105753,1,0,0:0:0:0:
192,192,105753,1,0,0:0:0:0:
320,192,105839,1,0,0:0:0:0:
448,192,105925,1,0,0:0:0:0:
64,192,105925,1,0,0:0:0:0:
320,192,105968,1,0,0:0:0:0:
192,192,106010,1,0,0:0:0:0:
64,192,106053,1,0,0:0:0:0:
448,192,106096,1,0,0:0:0:0:
192,192,106139,1,0,0:0:0:0:
320,192,106182,1,0,0:0:0:0:
448,192,106225,1,0,0:0:0:0:
64,192,106268,1,0,0:0:0:0:
192,192,106268,1,0,0:0:0:0:
448,192,106353,1,0,0:0:0:0:
64,192,106353,1,0,0:0:0:0:
64,192,106439,1,0,0:0:0:0:
320,192,106439,1,0,0:0:0:0:
64,192,106525,1,0,0:0:0:0:
448,192,106610,1,0,0:0:0:0:
320,192,106610,1,0,0:0:0:0:
448,192,106696,1,0,0:0:0:0:
192,192,106696,1,0,0:0:0:0:
448,192,106782,1,0,0:0:0:0:
64,192,106782,1,0,0:0:0:0:
448,192,106868,1,0,0:0:0:0:
64,192,106953,1,0,0:0:0:0:
192,192,106953,1,0,0:0:0:0:
64,192,107039,1,0,0:0:0:0:
320,192,107039,1,0,0:0:0:0:
64,192,107125,1,0,0:0:0:0:
448,192,107125,1,0,0:0:0:0:
192,192,107125,1,0,0:0:0:0:
64,192,107210,1,0,0:0:0:0:
192,192,107296,1,0,0:0:0:0:
320,192,107339,1,0,0:0:0:0:
448,192,107382,1,0,0:0:0:0:
64,192,107425,1,0,0:0:0:0:
192,192,107468,1,0,0:0:0:0:
320,192,107510,1,0,0:0:0:0:
64,192,107553,1,0,0:0:0:0:
192,192,107596,1,0,0:0:0:0:
320,192,107639,1,0,0:0:0:0:
448,192,107639,1,0,0:0:0:0:
320,192,107725,1,0,0:0:0:0:
192,192,107725,1,0,0:0:0:0:
320,192,107810,1,0,0:0:0:0:
64,192,107810,1,0,0:0:0:0:
320,192,107896,1,0,0:0:0:0:
64,192,107982,1,0,0:0:0:0:
192,192,107982,1,0,0:0:0:0:
192,192,108068,1,0,0:0:0:0:
448,192,108068,1,0,0:0:0:0:
192,192,108153,1,0,0:0:0:0:
320,192,108153,1,0,0:0:0:0:
192,192,108239,1,0,0:0:0:0:
448,192,108325,1,0,0:0:0:0:
320,192,108325,1,0,0:0:0:0:
320,192,108410,1,0,0:0:0:0:
64,192,108410,1,0,0:0:0:0:
320,192,108496,1,0,0:0:0:0:
192,192,108496,1,0,0:0:0:0:
320,192,108582,1,0,0:0:0:0:
64,192,108668,1,0,0:0:0:0:
192,192,108668,1,0,0:0:0:0:
448,192,108725,1,0,0:0:0:0:
320,192,108782,1,0,0:0:0:0:
192,192,108839,1,0,0:0:0:0:
448,192,108896,1,0,0:0:0:0:
64,192,108953,1,0,0:0:0:0:
320,192,109010,1,0,0:0:0:0:
192,192,109010,1,0,0:0:0:0:
448,192,109068,1,0,0:0:0:0:
192,192,109125,1,0,0:0:0:0:
320,192,109182,1,0,0:0:0:0:
64,192,109239,1,0,0:0:0:0:
192,192,109296,1,0,0:0:0:0:
448,192,109353,1,0,0:0:0:0:
320,192,109353,1,0,0:0:0:0:
64,192,109396,1,0,0:0:0:0:
192,192,109439,1,0,0:0:0:0:
320,192,109482,1,0,0:0:0:0:
448,192,109525,1,0,0:0:0:0:
192,192,109568,1,0,0:0:0:0:
64,192,109610,1,0,0:0:0:0:
448,192,109653,1,0,0:0:0:0:
320,192,109696,1,0,0:0:0:0:
192,192,109739,1,0,0:0:0:0:
64,192,109782,1,0,0:0:0:0:
448,192,109868,1,0,0:0:0:0:
320,192,109868,1,0,0:0:0:0:
64,192,109925,1,0,0:0:0:0:
192,192,109982,1,0,0:0:0:0:
320,192,110039,1,0,0:0:0:0:
448,192,110096,1,0,0:0:0:0:
192,192,110153,1,0,0:0:0:0:
64,192,110153,1,0,0:0:0:0:
320,192,110210,1,0,0:0:0:0:
448,192,110268,1,0,0:0:0:0:
192,192,110325,1,0,0:0:0:0:
448,192,110382,1,0,0:0:0:0:
320,192,110382,1,0,0:0:0:0:
448,192,110468,1,0,0:0:0:0:
64,192,110553,1,0,0:0:0:0:
320,192,110553,1,0,0:0:0:0:
64,192,110639,1,0,0:0:0:0:
320,192,110725,1,0,0:0:0:0:
192,192,110725,1,0,0:0:0:0:
320,192,110810,1,0,0:0:0:0:
192,192,110896,1,0,0:0:0:0:
64,192,110896,1,0,0:0:0:0:
448,192,110982,1,0,0:0:0:0:
64,192,110982,1,0,0:0:0:0:
320,192,111068,1,0,0:0:0:0:
448,192,111068,1,0,0:0:0:0:
192,192,111068,1,0,0:0:0:0:
64,192,111153,1,0,0:0:0:0:
192,192,111196,1,0,0:0:0:0:
320,192,111239,1,0,0:0:0:0:
448,192,111282,1,0,0:0:0:0:
320,192,111325,1,0,0:0:0:0:
192,192,111368,1,0,0:0:0:0:
64,192,111410,1,0,0:0:0:0:
448,192,111453,1,0,0:0:0:0:
320,192,111496,1,0,0:0:0:0:
192,192,111539,1,0,0:0:0:0:
64,192,111582,1,0,0:0:0:0:
192,192,111625,1,0,0:0:0:0:
320,192,111668,1,0,0:0:0:0:
448,192,111710,1,0,0:0:0:0:
192,192,111753,1,0,0:0:0:0:
64,192,111753,1,0,0:0:0:0:
