osu file format v14

[General]
AudioFilename: Fairy Tail Opening 18 audio.mp3
AudioLeadIn: 0
PreviewTime: 51253
Countdown: 0
SampleSet: Normal
StackLeniency: 0.7
Mode: 0
LetterboxInBreaks: 1
WidescreenStoryboard: 1

[Editor]
DistanceSpacing: 1
BeatDivisor: 4
GridSize: 4
TimelineZoom: 1.4

[Metadata]
Title:BREAK OUT (TV Size)
TitleUnicode:BREAK OUT (TV Size)
Artist:V6
ArtistUnicode:V6
Creator:miyagi
Version:Normal
Source:Fairy Tail
Tags:opening 18 season 2 opening 4 フェアリーテイル Fearī Teiru Natsu Dragneel Lucy Heartfilia Happy Gray Fullbuster Erza Scarlet Wendy Marvell ByBy_ChAn Kin ByBy13
BeatmapID:624085
BeatmapSetID:275115

[Difficulty]
HPDrainRate:5
CircleSize:3
OverallDifficulty:4
ApproachRate:5
SliderMultiplier:1.3
SliderTickRate:1

[Events]
//Background and Video events
0,0,"fairy-tail-wallpaper-natsu-lucy editor.jpg",0,0
Video,0,"new_ break out!.wmv"
//Break Periods
2,13953,15178
2,19953,21178
2,31953,33553
//Storyboard Layer 0 (Background)
//Storyboard Layer 1 (Fail)
//Storyboard Layer 2 (Pass)
//Storyboard Layer 3 (Foreground)
//Storyboard Sound Samples

[TimingPoints]
1378,375,4,1,1,45,1,0
37753,-133.333333333333,4,2,1,45,0,0
49753,-100,4,1,1,45,0,0
51253,-100,4,1,1,70,0,1
62503,-100,4,1,1,60,0,0
69253,-100,4,1,1,70,0,1
81253,-100,4,1,1,60,0,0

[Colours]
Combo1 : 128,128,128
Combo2 : 0,255,255
Combo3 : 0,155,230
Combo4 : 180,180,103
Combo5 : 255,128,0
Combo6 : 125,255,125
Combo7 : 255,255,0
Combo8 : 255,0,0

[HitObjects]
140,188,1378,117,10,0:0:0:0:
224,88,1753,2,0,L|286:113,1,65
332,156,2128,2,0,L|356:220,1,65
280,324,2690,1,8,0:0:0:0:
232,204,3065,1,8,0:0:0:0:
144,296,3440,1,8,0:0:0:0:
38,220,3815,6,0,L|38:88,1,130
229,45,4753,2,0,L|288:72,1,65
329,122,5128,2,0,L|344:188,1,65
415,293,5690,1,8,0:0:0:0:
288,316,6065,1,8,0:0:0:0:
164,284,6440,1,8,0:0:0:0:
152,219,6628,2,0,B|54:131,1,130
119,19,7378,1,0,0:0:0:0:
236,76,7753,101,8,0:0:0:0:
368,76,8128,1,4,2:0:0:0:
300,188,8503,2,0,L|168:212,1,130,0|4,0:0|2:0,0:0:0:0:
256,311,9253,2,0,L|384:288,1,130,0|4,0:0|2:0,0:0:0:0:
471,189,10003,1,8,0:0:0:0:
351,120,10378,1,4,2:0:0:0:
216,136,10753,6,8,L|96:76,1,130,8|12,0:0|2:0,0:0:0:0:
152,196,11503,2,8,P|88:196|43:239,1,130,8|12,0:0|2:0,0:0:0:0:
168,280,12253,2,8,P|194:335|255:329,2,130,8|12|8,0:0|2:0|0:0,0:0:0:0:
218,159,13378,1,4,2:0:0:0:
328,90,13753,1,4,0:0:0:0:
260,304,16378,6,8,L|365:224,1,130
274,132,17128,2,8,L|172:212,1,130
260,304,17878,1,4,2:0:0:0:
388,284,18253,6,0,P|420:232|392:176,1,130
348,53,19003,2,0,P|288:84|272:140,1,130,0|4,0:0|2:0,0:0:0:0:
257,269,19753,1,4,0:0:0:0:
260,304,22378,6,8,L|363:224,1,130
274,132,23128,2,8,L|172:212,1,130
264,296,23878,1,4,2:0:0:0:
392,296,24253,5,8,0:0:0:0:
416,236,24440,2,0,L|445:178,6,65
360,204,25753,2,0,L|240:152,1,130
164,48,26503,6,0,P|116:96|108:156,1,130
172,268,27253,1,0,0:0:0:0:
284,204,27628,2,0,B|312:156|312:156|356:160|372:120,2,130,0|0|4,0:0|0:0|0:0,0:0:0:0:
184,284,28753,6,0,L|64:232,1,130
184,184,29503,2,0,P|172:124|208:67,1,130
315,140,30253,1,0,0:0:0:0:
288,268,30628,2,0,B|316:220|316:220|364:220|384:180,2,130
166,314,31753,1,4,0:0:0:0:
296,40,34753,6,0,P|328:96|304:156,1,130,0|4,0:0|2:0,0:0:0:0:
184,112,35503,2,0,P|172:176|203:229,1,130,0|4,0:0|2:0,0:0:0:0:
336,216,36253,2,4,P|336:280|294:328,1,130,0|4,0:0|2:0,2:0:0:0:
164,352,37003,1,0,0:0:0:0:
53,284,37378,1,4,2:0:0:0:
124,216,37753,38,0,P|156:184|208:172,1,97.50000371933
209,74,38503,2,0,P|248:101|296:108,1,97.50000371933
353,188,39253,2,0,P|402:180|450:195,1,97.50000371933
450,292,40003,101,0,0:0:0:0:
357,323,40378,1,0,0:0:0:0:
287,254,40753,2,0,P|258:213|214:202,1,97.50000371933
196,296,41503,2,0,P|150:286|120:246,1,97.50000371933
125,147,42253,54,0,P|172:137|223:153,3,97.50000371933
305,203,43753,2,0,P|276:242|230:256,1,97.50000371933
133,241,44503,1,0,0:0:0:0:
125,147,44878,2,0,P|176:143|221:163,1,97.50000371933
249,253,45628,53,0,0:0:0:0:
199,337,46003,1,0,0:0:0:0:
295,348,46378,1,0,0:0:0:0:
370,287,46753,2,0,L|470:287,1,97.50000371933
413,205,47503,2,0,L|471:122,1,97.50000371933
388,72,48253,1,0,0:0:0:0:
286,63,48628,2,0,P|241:79|213:126,1,97.50000371933
215,120,49378,2,0,P|196:163|153:187,1,97.50000371933
89,174,49940,6,0,L|30:148,2,65
92,239,50503,2,0,L|139:286,1,65
155,347,50878,2,0,L|223:348,1,65
274,312,51253,5,0,0:0:0:0:
399,347,51628,1,4,2:0:0:0:
434,221,52003,1,8,0:0:0:0:
314,172,52378,1,4,2:0:0:0:
346,287,52753,2,8,P|277:286|227:255,1,130,8|4,0:0|2:0,0:0:0:0:
103,281,53503,2,8,L|146:159,1,130,8|4,0:0|2:0,0:0:0:0:
52,68,54253,5,8,0:0:0:0:
181,56,54628,2,8,P|245:67|277:119,1,130
281,247,55378,1,8,0:0:0:0:
154,276,55753,2,0,L|86:161,1,130,0|8,0:0|0:0,0:0:0:0:
203,104,56503,1,8,0:0:0:0:
328,139,56878,1,0,0:0:0:0:
328,282,57253,2,0,L|207:335,1,130,0|4,0:0|2:0,0:0:0:0:
289,213,58003,2,0,L|161:238,1,130,0|4,0:0|2:0,0:0:0:0:
153,108,58753,6,8,P|90:123|46:169,1,130,8|4,0:0|2:0,0:0:0:0:
47,298,59503,2,8,P|97:338|161:340,1,130,8|4,0:0|2:0,0:0:0:0:
242,238,60253,1,8,0:0:0:0:
298,121,60628,2,8,P|362:119|418:150,1,130,4|10,2:0|0:0,0:0:0:0:
365,271,61378,1,4,2:0:0:0:
300,276,61565,2,8,P|184:181|260:53,1,325
390,58,62878,6,8,P|335:85|353:142,1,130
456,221,63628,2,8,P|476:279|425:316,1,130
302,285,64378,1,8,0:0:0:0:
177,248,64753,54,8,L|228:207,1,65
261,148,65128,2,8,L|315:109,1,65
381,92,65503,2,8,L|435:54,1,65
501,40,65878,1,8,0:0:0:0:
455,161,66253,6,8,L|364:254,1,130
254,324,67003,1,8,0:0:0:0:
126,299,67378,2,8,P|81:249|77:189,1,130
92,124,67940,6,0,L|60:66,2,65
152,152,68503,2,0,L|215:139,1,65
276,116,68878,2,0,L|334:84,1,65
376,36,69253,1,0,0:0:0:0:
460,136,69628,21,4,2:0:0:0:
332,168,70003,1,8,0:0:0:0:
424,260,70378,1,4,2:0:0:0:
295,237,70753,5,8,0:0:0:0:
260,292,70940,2,8,L|206:328,3,65,0|0|0|0,0:0|0:0|0:0|0:0,0:0:0:0:
140,332,71690,2,0,L|83:302,1,65
52,244,72065,2,0,L|52:180,1,65
140,84,72628,5,4,2:0:0:0:
208,196,73003,1,8,0:0:0:0:
324,140,73378,1,4,2:0:0:0:
358,269,73753,6,8,L|457:186,1,130,0|8,0:0|0:0,0:0:0:0:
448,120,74315,2,0,L|396:81,1,65
332,70,74690,2,0,L|270:88,1,65
217,121,75065,1,8,0:0:0:0:
199,184,75253,38,8,L|215:252,3,65,0|0|0|0,0:0|0:0|0:0|0:0,0:0:0:0:
116,333,76190,1,8,0:0:0:0:
63,214,76565,1,8,0:0:0:0:
121,97,76940,1,8,0:0:0:0:
250,106,77315,2,0,L|289:91,2,32.5
352,47,77690,1,4,0:0:0:0:
392,239,78253,2,0,L|336:202,1,65
279,232,78628,2,0,L|226:190,1,65
98,190,79190,1,8,0:0:0:0:
40,306,79565,1,8,0:0:0:0:
163,346,79940,1,8,0:0:0:0:
192,287,80128,2,0,L|240:164,1,130
337,250,80878,1,0,0:0:0:0:
412,144,81253,6,8,P|409:84|353:52,1,130,8|4,0:0|2:0,0:0:0:0:
236,110,82003,2,8,L|145:207,1,130,8|4,0:0|2:0,0:0:0:0:
147,205,82753,2,8,P|128:266|165:317,1,130,8|4,0:0|2:0,0:0:0:0:
269,240,83503,2,8,P|330:218|390:238,1,130,8|4,0:0|2:0,0:0:0:0:
333,355,84253,5,8,0:0:0:0:
211,309,84628,1,4,2:0:0:0:
124,211,85003,2,8,P|82:259|81:325,3,130,0|4|0|4,0:0|2:0|0:0|2:0,0:0:0:0:
211,310,86503,1,8,0:0:0:0:
278,198,86878,2,8,B|250:154|250:154|262:134|262:134|230:82,1,130,4|4,2:0|0:0,0:0:0:0:
