osu file format v14

[General]
AudioFilename: audio.mp3
AudioLeadIn: 0
PreviewTime: -1
Countdown: 1
SampleSet: None
StackLeniency: 0.7
Mode: 0
LetterboxInBreaks: 0
WidescreenStoryboard: 0

[Editor]
DistanceSpacing: 1.2
BeatDivisor: 4
GridSize: 8
TimelineZoom: 1

[Metadata]
Title:Hyperdontia
TitleUnicode:Hyperdontia
Artist:V4Flower
ArtistUnicode:V4Flower
Creator:Fystrit
Version:Normal
Source:
Tags:
BeatmapID:1474905
BeatmapSetID:696240

[Difficulty]
HPDrainRate:5
CircleSize:5
OverallDifficulty:5
ApproachRate:5
SliderMultiplier:3.4
SliderTickRate:1

[Events]
//Background and Video events
0,0,"HYPERDONTIA.png",0,0
//Break Periods
2,147145,150867
//Storyboard Layer 0 (Background)
//Storyboard Layer 1 (Fail)
//Storyboard Layer 2 (Pass)
//Storyboard Layer 3 (Foreground)
//Storyboard Sound Samples

[TimingPoints]
16945.2804878049,487.80487804878,4,1,0,100,1,0

[HitObjects]
24,16,16457,5,0,0:0:0:0:
248,184,17920,1,0,0:0:0:0:
496,16,19628,1,0,0:0:0:0:
0,368,21335,1,0,0:0:0:0:
480,360,24506,1,0,0:0:0:0:
256,192,26213,1,0,0:0:0:0:
376,184,27189,1,0,0:0:0:0:
176,128,28042,1,0,0:0:0:0:
216,256,29384,1,0,0:0:0:0:
360,256,29750,1,0,0:0:0:0:
176,256,30237,1,0,0:0:0:0:
328,272,30969,1,0,0:0:0:0:
184,240,32676,1,0,0:0:0:0:
312,240,33042,1,0,0:0:0:0:
296,128,34384,5,0,0:0:0:0:
184,168,35116,1,0,0:0:0:0:
336,224,35969,1,0,0:0:0:0:
224,280,36457,1,0,0:0:0:0:
320,16,36823,1,0,0:0:0:0:
240,272,37555,1,0,0:0:0:0:
104,216,38408,1,0,0:0:0:0:
304,256,39262,1,0,0:0:0:0:
296,160,39628,1,0,0:0:0:0:
160,192,40116,1,0,0:0:0:0:
152,272,40847,1,0,0:0:0:0:
288,288,41701,1,0,0:0:0:0:
184,152,42555,5,0,0:0:0:0:
448,288,42920,1,0,0:0:0:0:
240,64,43286,1,0,0:0:0:0:
72,200,43774,1,0,0:0:0:0:
384,144,44140,1,0,0:0:0:0:
72,160,44506,1,0,0:0:0:0:
432,168,44994,1,0,0:0:0:0:
184,208,46091,1,0,0:0:0:0:
288,168,46579,1,0,0:0:0:0:
80,104,47067,2,0,L|216:96,1,85
112,216,49018,1,0,0:0:0:0:
472,120,49506,1,0,0:0:0:0:
192,104,49872,1,0,0:0:0:0:
224,304,50237,1,0,0:0:0:0:
512,80,50725,1,0,0:0:0:0:
232,120,51091,1,0,0:0:0:0:
0,336,51457,1,0,0:0:0:0:
312,184,51945,1,0,0:0:0:0:
200,176,52798,5,0,0:0:0:0:
496,64,53164,1,0,0:0:0:0:
200,184,53530,1,0,0:0:0:0:
32,88,54018,1,0,0:0:0:0:
176,184,55603,1,0,0:0:0:0:
192,168,56457,5,0,0:0:0:0:
136,160,57189,1,0,0:0:0:0:
224,200,58042,1,0,0:0:0:0:
280,136,58896,1,0,0:0:0:0:
144,128,59628,1,0,0:0:0:0:
264,192,60359,1,0,0:0:0:0:
136,144,61213,1,0,0:0:0:0:
408,112,62067,1,0,0:0:0:0:
176,256,62920,1,0,0:0:0:0:
352,280,63774,1,0,0:0:0:0:
192,104,64506,1,0,0:0:0:0:
288,144,65359,1,0,0:0:0:0:
248,168,65847,1,0,0:0:0:0:
240,192,66213,1,0,0:0:0:0:
240,192,66579,1,0,0:0:0:0:
280,192,66945,1,0,0:0:0:0:
168,120,68652,1,0,0:0:0:0:
296,152,69506,1,0,0:0:0:0:
160,248,70359,1,0,0:0:0:0:
176,192,71091,5,0,0:0:0:0:
304,240,71945,1,0,0:0:0:0:
320,128,72676,1,0,0:0:0:0:
320,128,73042,1,0,0:0:0:0:
320,128,73530,1,0,0:0:0:0:
120,96,74384,1,0,0:0:0:0:
304,104,75237,1,0,0:0:0:0:
280,136,75969,1,0,0:0:0:0:
144,104,76823,5,0,0:0:0:0:
144,288,77555,1,0,0:0:0:0:
272,288,78408,1,0,0:0:0:0:
296,160,79262,1,0,0:0:0:0:
128,176,79872,2,0,P|352:176|344:176,5,170
32,144,82067,2,0,P|288:48|224:160,2,680
176,232,84994,2,0,B|320:128|248:192,13,85
136,176,88286,1,0,0:0:0:0:
256,104,89018,1,0,0:0:0:0:
256,232,89872,1,0,0:0:0:0:
344,144,90725,1,0,0:0:0:0:
304,216,91457,1,0,0:0:0:0:
160,104,91945,1,0,0:0:0:0:
320,344,92311,1,0,0:0:0:0:
336,160,93042,1,0,0:0:0:0:
224,248,93896,1,0,0:0:0:0:
256,200,94872,1,0,0:0:0:0:
40,56,95237,1,0,0:0:0:0:
328,112,96457,1,0,0:0:0:0:
200,248,97189,1,0,0:0:0:0:
320,256,97920,1,0,0:0:0:0:
176,128,98774,1,0,0:0:0:0:
296,144,99628,1,0,0:0:0:0:
96,176,100847,2,0,P|248:176|152:192,1,1020
208,208,103042,2,0,P|288:128|216:200,6,170
144,160,106213,1,0,0:0:0:0:
240,120,106945,1,0,0:0:0:0:
336,240,107798,1,0,0:0:0:0:
208,256,108530,1,0,0:0:0:0:
216,160,109384,1,0,0:0:0:0:
288,128,110237,1,0,0:0:0:0:
128,160,111091,1,0,0:0:0:0:
176,256,111945,5,0,0:0:0:0:
184,184,112676,1,0,0:0:0:0:
296,200,113408,1,0,0:0:0:0:
304,136,114384,1,0,0:0:0:0:
160,152,115116,1,0,0:0:0:0:
248,280,115969,1,0,0:0:0:0:
296,224,116579,5,0,0:0:0:0:
296,224,116701,1,0,0:0:0:0:
208,136,118286,5,0,0:0:0:0:
344,104,119140,1,0,0:0:0:0:
504,88,119994,1,0,0:0:0:0:
480,176,120969,1,0,0:0:0:0:
216,176,121701,1,0,0:0:0:0:
272,40,122555,1,0,0:0:0:0:
160,144,123408,1,0,0:0:0:0:
80,168,124262,1,0,0:0:0:0:
112,216,125603,1,0,0:0:0:0:
424,248,125969,1,0,0:0:0:0:
240,96,126579,1,0,0:0:0:0:
192,216,126945,1,0,0:0:0:0:
232,176,127798,1,0,0:0:0:0:
176,144,128652,1,0,0:0:0:0:
296,160,129506,1,0,0:0:0:0:
344,192,130237,1,0,0:0:0:0:
240,224,131091,1,0,0:0:0:0:
144,176,131945,1,0,0:0:0:0:
280,216,132676,1,0,0:0:0:0:
280,216,133530,1,0,0:0:0:0:
248,208,134384,1,0,0:0:0:0:
144,144,135603,1,0,0:0:0:0:
312,128,136335,1,0,0:0:0:0:
200,240,137189,1,0,0:0:0:0:
224,168,138042,5,0,0:0:0:0:
320,288,138774,1,0,0:0:0:0:
320,160,139628,1,0,0:0:0:0:
168,128,140481,1,0,0:0:0:0:
176,272,141335,1,0,0:0:0:0:
176,272,142189,1,0,0:0:0:0:
176,272,142920,1,0,0:0:0:0:
256,192,143774,12,0,146945,0:0:0:0:
48,168,152067,6,0,L|184:168,9,85
128,192,157189,1,0,0:0:0:0:
232,128,158042,1,0,0:0:0:0:
296,208,158896,1,0,0:0:0:0:
256,248,159628,1,0,0:0:0:0:
40,24,159994,1,0,0:0:0:0:
392,168,160481,1,0,0:0:0:0:
112,328,160847,1,0,0:0:0:0:
208,136,161701,5,0,0:0:0:0:
288,192,162433,1,0,0:0:0:0:
112,104,163408,1,0,0:0:0:0:
296,256,163652,1,0,0:0:0:0:
336,96,164140,1,0,0:0:0:0:
160,328,164506,1,0,0:0:0:0:
264,16,164872,1,0,0:0:0:0:
200,224,165847,1,0,0:0:0:0:
168,184,167067,5,0,0:0:0:0:
168,184,167433,1,0,0:0:0:0:
312,136,168286,1,0,0:0:0:0:
168,120,169872,5,0,0:0:0:0:
256,240,170237,1,0,0:0:0:0:
320,112,170725,1,0,0:0:0:0:
192,136,171457,1,0,0:0:0:0:
320,152,172311,1,0,0:0:0:0:
320,152,172676,1,0,0:0:0:0:
264,144,173164,1,0,0:0:0:0:
200,136,173896,1,0,0:0:0:0:
200,136,174994,1,0,0:0:0:0:
144,120,176335,5,0,0:0:0:0:
144,120,176701,1,0,0:0:0:0:
232,160,177433,1,0,0:0:0:0:
152,128,178164,1,0,0:0:0:0:
256,200,179140,1,0,0:0:0:0:
344,200,179628,1,0,0:0:0:0:
336,160,180116,1,0,0:0:0:0:
160,136,180847,2,0,L|296:136,11,85
240,192,182920,2,0,L|352:168,10,85
184,192,186091,1,0,0:0:0:0:
280,176,187798,1,0,0:0:0:0:
160,112,189384,1,0,0:0:0:0:
440,384,189872,1,0,0:0:0:0:
272,80,190359,1,0,0:0:0:0:
104,280,190725,1,0,0:0:0:0:
160,96,192676,5,0,0:0:0:0:
328,240,193530,1,0,0:0:0:0:
328,136,194384,1,0,0:0:0:0:
192,240,195116,1,0,0:0:0:0:
168,128,195969,1,0,0:0:0:0:
424,360,196335,1,0,0:0:0:0:
336,112,196823,1,0,0:0:0:0:
136,344,197189,1,0,0:0:0:0:
224,216,198042,1,0,0:0:0:0:
208,136,199262,5,0,0:0:0:0:
320,256,199994,1,0,0:0:0:0:
352,120,200847,1,0,0:0:0:0:
224,240,201701,1,0,0:0:0:0:
200,112,202067,1,0,0:0:0:0:
416,328,202433,1,0,0:0:0:0:
368,96,202920,1,0,0:0:0:0:
128,288,203286,1,0,0:0:0:0:
176,64,203774,1,0,0:0:0:0:
304,240,204262,1,0,0:0:0:0:
408,48,204506,1,0,0:0:0:0:
144,312,204994,1,0,0:0:0:0:
144,8,205359,1,0,0:0:0:0:
352,272,205725,1,0,0:0:0:0:
368,112,206213,1,0,0:0:0:0:
128,280,206579,1,0,0:0:0:0:
144,56,206945,1,0,0:0:0:0:
400,344,207433,1,0,0:0:0:0:
336,48,207798,1,0,0:0:0:0:
152,344,208286,1,0,0:0:0:0:
152,72,208652,1,0,0:0:0:0:
368,272,209018,1,0,0:0:0:0:
360,48,209506,1,0,0:0:0:0:
144,248,209872,1,0,0:0:0:0:
176,112,210237,1,0,0:0:0:0:
408,368,210603,1,0,0:0:0:0:
272,192,211457,5,0,0:0:0:0:
144,232,211945,1,0,0:0:0:0:
144,168,212311,1,0,0:0:0:0:
280,208,213042,1,0,0:0:0:0:
160,176,213896,1,0,0:0:0:0:
264,128,214750,1,0,0:0:0:0:
160,128,215481,5,0,0:0:0:0:
440,352,215969,1,0,0:0:0:0:
208,248,216701,5,0,0:0:0:0:
328,176,217676,1,0,0:0:0:0:
272,176,218408,1,0,0:0:0:0:
272,176,219262,1,0,0:0:0:0:
176,144,220116,5,0,0:0:0:0:
328,248,220847,1,0,0:0:0:0:
328,144,222067,5,0,0:0:0:0:
48,328,222433,1,0,0:0:0:0:
160,128,222920,5,0,0:0:0:0:
296,288,223408,1,0,0:0:0:0:
280,224,225359,5,0,0:0:0:0:
240,160,226213,1,0,0:0:0:0:
240,160,226945,1,0,0:0:0:0:
240,160,227798,5,0,0:0:0:0:
256,216,228652,1,0,0:0:0:0:
128,128,229384,1,0,0:0:0:0:
296,144,230237,1,0,0:0:0:0:
240,96,231945,1,0,0:0:0:0:
352,376,232311,1,0,0:0:0:0:
120,136,232676,1,0,0:0:0:0:
296,200,233530,1,0,0:0:0:0:
128,144,234384,1,0,0:0:0:0:
232,168,235116,1,0,0:0:0:0:
232,168,235603,1,0,0:0:0:0:
232,168,235969,1,0,0:0:0:0:
176,176,236823,1,0,0:0:0:0:
176,176,237555,1,0,0:0:0:0:
176,216,238530,5,0,0:0:0:0:
256,176,239262,1,0,0:0:0:0:
240,208,240116,1,0,0:0:0:0:
240,232,240847,1,0,0:0:0:0:
152,72,241213,1,0,0:0:0:0:
280,112,241335,1,0,0:0:0:0:
360,280,241579,1,0,0:0:0:0:
240,248,241701,1,0,0:0:0:0:
224,176,242555,5,0,0:0:0:0:
200,136,242920,1,0,0:0:0:0:
200,168,243408,1,0,0:0:0:0:
200,168,243774,1,0,0:0:0:0:
200,168,243896,1,0,0:0:0:0:
200,168,244384,1,0,0:0:0:0:
264,184,245116,5,0,0:0:0:0:
264,184,245359,1,0,0:0:0:0:
264,184,245725,1,0,0:0:0:0:
296,128,246579,1,0,0:0:0:0:
184,136,247433,1,0,0:0:0:0:
304,168,248164,1,0,0:0:0:0:
304,168,248652,1,0,0:0:0:0:
304,168,249018,1,0,0:0:0:0:
176,144,249872,1,0,0:0:0:0:
272,168,250725,1,0,0:0:0:0:
272,168,251457,1,0,0:0:0:0:
272,168,251945,1,0,0:0:0:0:
272,168,252311,1,0,0:0:0:0:
176,152,253164,1,0,0:0:0:0:
200,160,254018,1,0,0:0:0:0:
280,168,254750,1,0,0:0:0:0:
232,256,255116,1,0,0:0:0:0:
200,128,255481,1,0,0:0:0:0:
448,384,255969,1,0,0:0:0:0:
312,136,256335,1,0,0:0:0:0:
192,264,256823,1,0,0:0:0:0:
184,128,257189,1,0,0:0:0:0:
296,296,257676,1,0,0:0:0:0:
312,16,258042,1,0,0:0:0:0:
200,328,258408,1,0,0:0:0:0:
168,128,258896,1,0,0:0:0:0:
360,352,259262,1,0,0:0:0:0:
280,56,259628,1,0,0:0:0:0:
224,256,260116,1,0,0:0:0:0:
176,144,260481,1,0,0:0:0:0:
384,376,260847,1,0,0:0:0:0:
312,160,261701,5,0,0:0:0:0:
184,272,262067,1,0,0:0:0:0:
168,128,262433,1,0,0:0:0:0:
304,264,262920,1,0,0:0:0:0:
320,144,263408,1,0,0:0:0:0:
184,368,263774,1,0,0:0:0:0:
208,72,264140,1,0,0:0:0:0:
432,304,264506,1,0,0:0:0:0:
336,112,264994,1,0,0:0:0:0:
216,88,265725,5,0,0:0:0:0:
320,208,266213,1,0,0:0:0:0:
336,120,266579,1,0,0:0:0:0:
232,248,267067,1,0,0:0:0:0:
192,120,267433,1,0,0:0:0:0:
424,312,267798,1,0,0:0:0:0:
296,24,268286,1,0,0:0:0:0:
200,144,269018,5,0,0:0:0:0:
320,256,269506,1,0,0:0:0:0:
320,136,269872,1,0,0:0:0:0:
136,88,272798,1,0,0:0:0:0:
304,72,273530,1,0,0:0:0:0:
152,56,274384,5,0,0:0:0:0:
304,208,275237,1,0,0:0:0:0:
136,112,275969,1,0,0:0:0:0:
472,112,276335,1,0,0:0:0:0:
136,256,276823,1,0,0:0:0:0:
424,248,277189,1,0,0:0:0:0:
128,64,278408,5,0,0:0:0:0:
304,184,279262,1,0,0:0:0:0:
192,136,280116,1,0,0:0:0:0:
256,192,284750,12,0,288408,0:0:0:0:
