osu file format v14

[General]
AudioFilename: audio.ogg
AudioLeadIn: 0
PreviewTime: 49572
Countdown: 0
SampleSet: Soft
StackLeniency: 0.7
Mode: 2
LetterboxInBreaks: 0
WidescreenStoryboard: 0

[Editor]
DistanceSpacing: 0.5
BeatDivisor: 8
GridSize: 32
TimelineZoom: 1

[Metadata]
Title:Saikai (TV Size)
TitleUnicode:再会 (TV Size)
Artist:V.W.P
ArtistUnicode:V.W.P
Creator:Secre
Version:Story
Source:マブラヴ オルタネイティヴ
Tags:chickenbible japanese pop jpop j-pop anime Virtual Witch Phenomenon KAF harusaruhi isekaijoucho VWP Ending ED 花譜 理芽 春猿火 ヰ世界情緒 幸祜 Kafu Rime Koko Muv-Luv Alternative 2nd second season
BeatmapID:3840449
BeatmapSetID:1866983

[Difficulty]
HPDrainRate:5
CircleSize:4.2
OverallDifficulty:8.5
ApproachRate:8.5
SliderMultiplier:3.59999990463257
SliderTickRate:4

[Events]
//Background and Video events
0,0,"ayo when a hololive member getting a gundam outfit.jpg",0,0
Video,0,"Muvluvalternatives2-Ed1.m4v"
//Break Periods
//Storyboard Layer 0 (Background)
//Storyboard Layer 1 (Fail)
//Storyboard Layer 2 (Pass)
//Storyboard Layer 3 (Foreground)
//Storyboard Layer 4 (Overlay)
//Storyboard Sound Samples

[TimingPoints]
557,705.882352941176,4,2,1,30,1,0
3371,705.882352941176,4,2,1,30,1,0
5466,705.882352941176,4,2,1,30,1,0
6171,705.882352941176,4,2,1,30,1,0
11808,705.882352941176,4,2,1,40,1,0
15297,705.882352941176,4,2,1,40,1,0
16034,705.882352941176,4,2,1,40,1,0
20963,705.882352941176,4,2,1,40,1,0
21286,705.882352941176,4,2,1,40,1,0
21681,681.818181818181,4,2,1,40,1,0
22212,705.882352941176,4,2,1,40,1,0
23094,705.882352941176,4,2,1,100,1,0
23102,-100,4,2,1,55,0,0
45690,-100,4,2,1,65,0,0
47102,-100,4,2,1,75,0,0
48513,-100,4,2,1,65,0,0
51329,-100,4,2,1,85,0,1
68270,-100,4,2,1,65,0,0
75319,705.882352941176,4,2,1,100,1,0
76542,705.882352941176,4,2,1,100,1,0
76710,729.92700729927,4,2,1,100,1,0
78160,-100,4,2,1,50,0,0
78861,705.882352941176,4,2,1,30,1,0
78866,-100,4,2,1,40,0,0
79571,705.882352941176,4,2,1,30,1,0
79572,-100,4,2,1,30,0,0
80984,-100,4,2,1,20,0,0
81744,909.090909090908,4,2,1,40,1,0

[Colours]
Combo1 : 131,233,241
Combo2 : 250,105,247
Combo3 : 231,5,123
Combo4 : 170,100,217

[HitObjects]
357,134,557,5,2,0:0:0:0:
142,170,3371,1,2,0:0:0:0:
313,120,5466,5,2,0:0:0:0:
174,117,5818,1,0,0:0:0:0:
430,53,6171,6,0,P|424:150|186:215,1,359.999990463257,2|0,0:0|0:0,0:0:0:0:
361,105,7582,1,0,0:0:0:0:
111,116,8288,1,0,0:0:0:0:
380,68,8994,5,2,0:0:0:0:
256,192,9347,12,0,10759,0:0:0:0:
230,166,11112,5,2,0:0:0:0:
389,111,11465,1,2,0:0:0:0:
112,129,11808,5,2,0:0:0:0:
287,112,12160,2,0,L|191:109,1,89.9999976158143
45,182,12513,2,0,P|35:124|125:60,1,179.999995231629,2|0,0:0|0:0,0:0:0:0:
221,55,13043,1,0,0:0:0:0:
388,61,13219,6,0,L|398:248,1,179.999995231629,0|2,0:0|0:0,0:0:0:0:
131,287,13925,2,0,L|319:280,1,179.999995231629
10,171,14631,6,0,L|212:167,1,179.999995231629
192,64,15297,1,0,0:0:0:0:
301,160,15649,1,0,0:0:0:0:
26,162,16034,5,2,0:0:0:0:
301,160,16386,2,0,L|304:340,1,179.999995231629
19,218,17092,2,0,L|138:212,1,89.9999976158143
284,188,17445,6,0,L|101:177,2,179.999995231629
16,216,18504,2,0,L|16:32,1,179.999995231629,0|2,0:0|0:0,0:0:0:0:
311,123,19210,6,0,L|113:112,1,179.999995231629
403,50,19916,2,0,L|496:46,1,89.9999976158143
314,51,20269,6,0,P|225:53|193:172,1,179.999995231629
475,181,20963,1,2,0:0:0:0:
206,86,21286,2,0,L|316:83,1,89.9999976158143,2|0,0:0|0:0,0:0:0:0:
114,234,21681,6,0,L|108:50,1,179.999995231629,2|2,3:2|0:0,0:0:0:0:
307,97,22212,2,0,L|257:96,1,44.9999988079071,0|0,3:2|0:0,0:0:0:0:
113,196,22388,2,0,L|108:103,1,89.9999976158143,10|0,0:0|2:0,0:0:0:0:
369,64,22741,2,0,L|487:63,1,89.9999976158143,0|0,3:2|0:0,0:0:0:0:
170,231,23094,6,0,L|372:230,1,179.999995231629,4|0,2:0|0:0,0:0:0:0:
60,222,23799,2,0,L|54:38,1,179.999995231629,8|0,0:0|0:0,0:0:0:0:
213,24,24329,1,0,0:0:0:0:
369,31,24505,6,0,L|374:165,1,89.9999976158143,0|0,3:2|0:0,0:0:0:0:
213,24,24858,1,0,3:2:0:0:
491,49,25211,2,0,L|281:53,1,179.999995231629,8|0,0:0|0:0,0:0:0:0:
451,123,25741,1,0,0:0:0:0:
175,204,25917,6,0,P|118:142|179:100,1,179.999995231629,0|0,3:2|0:0,0:0:0:0:
452,69,26623,2,0,L|454:181,1,89.9999976158143,8|0,0:0|0:0,0:0:0:0:
286,177,26976,2,0,L|407:177,1,89.9999976158143
134,189,27329,6,0,P|67:191|30:316,1,179.999995231629,0|0,3:2|3:2,0:0:0:0:
322,277,28035,1,8,0:0:0:0:
24,156,28388,2,0,L|124:152,1,89.9999976158143
359,134,28741,6,0,P|423:147|470:283,1,179.999995231629,0|0,3:2|0:0,0:0:0:0:
186,279,29447,1,8,0:0:0:0:
478,240,29799,2,0,L|380:239,1,89.9999976158143
115,160,30152,6,0,L|206:153,2,89.9999976158143,0|0|0,3:2|0:0|3:2,0:0:0:0:
394,64,30858,1,8,0:0:0:0:
494,84,31034,1,0,0:0:0:0:
495,176,31210,1,0,0:0:0:0:
394,190,31387,1,0,0:0:0:0:
153,141,31564,6,0,L|337:130,1,179.999995231629,0|0,3:2|0:0,0:0:0:0:
188,202,32094,1,0,3:2:0:0:
444,138,32270,2,0,L|260:127,1,179.999995231629,8|0,0:0|0:0,0:0:0:0:
409,199,32800,1,0,0:0:0:0:
141,230,32976,6,0,P|92:211|157:134,1,179.999995231629,0|0,3:2|3:2,0:0:0:0:
288,115,33505,1,8,0:0:0:0:
49,116,33682,1,8,0:0:0:0:
202,63,33858,1,0,3:2:0:0:
49,116,34035,2,0,L|44:-13,1,89.9999976158143,0|0,3:2|3:2,0:0:0:0:
351,139,34388,6,0,L|141:147,2,179.999995231629,4|0|8,3:2|0:0|0:0,0:0:0:0:
257,72,35270,1,0,0:0:0:0:
428,50,35447,2,0,L|433:174,1,89.9999976158143
171,226,35799,6,0,L|384:214,1,179.999995231629,0|0,3:2|3:2,0:0:0:0:
65,144,36505,1,8,0:0:0:0:
341,113,36858,2,0,L|232:116,1,89.9999976158143
494,206,37211,6,0,L|495:14,1,179.999995231629,0|0,2:0|0:0,0:0:0:0:
191,84,37917,2,0,L|315:77,1,89.9999976158143,8|0,0:0|0:0,0:0:0:0:
124,177,38270,2,0,L|119:83,1,89.9999976158143
369,111,38623,6,0,L|270:115,1,89.9999976158143,0|0,3:2|0:0,0:0:0:0:
453,180,38976,2,0,L|456:71,1,89.9999976158143,0|0,3:2|0:0,0:0:0:0:
404,66,39241,1,0,0:0:0:0:
212,182,39329,2,0,L|105:179,1,89.9999976158143,8|8,0:0|0:0,0:0:0:0:
299,100,39682,2,0,L|405:99,1,89.9999976158143,0|0,3:2|3:2,0:0:0:0:
85,248,40035,6,0,P|44:221|88:99,1,179.999995231629,4|0,3:2|0:0,0:0:0:0:
368,84,40741,2,0,P|429:98|455:208,1,179.999995231629,0|2,3:2|0:0,0:0:0:0:
183,219,41447,6,0,L|378:213,1,179.999995231629
75,145,42152,1,0,3:2:0:0:
351,142,42505,1,0,0:0:0:0:
75,145,42858,5,2,0:0:0:0:
224,141,43035,2,0,L|124:139,1,89.9999976158143
456,101,43564,2,0,L|460:324,1,179.999995231629,0|2,3:2|0:0,0:0:0:0:
152,256,44270,5,0,3:2:0:0:
456,219,44623,2,0,L|459:114,1,89.9999976158143,0|8,0:0|0:0,0:0:0:0:
205,148,44976,2,0,L|114:149,1,89.9999976158143,8|0,0:0|3:2,0:0:0:0:
279,84,45329,2,0,L|370:83,1,89.9999976158143,0|0,3:2|3:2,0:0:0:0:
315,135,45594,1,0,0:0:0:0:
56,221,45682,6,0,P|4:180|76:104,1,179.999995231629,6|8,3:2|3:2,0:0:0:0:
368,83,46388,1,10,3:2:0:0:
31,74,46741,1,8,0:0:0:0:
454,207,47094,6,0,P|506:166|434:90,1,179.999995231629,10|8,3:2|0:0,0:0:0:0:
133,72,47800,1,2,3:2:0:0:
451,88,48153,1,8,3:2:0:0:
286,138,48329,2,0,L|216:139,1,44.9999988079071,0|0,3:2|0:0,0:0:0:0:
409,224,48505,5,4,3:2:0:0:
500,190,48681,1,0,3:2:0:0:
502,103,48857,1,0,3:2:0:0:
407,67,49034,1,0,3:2:0:0:
353,63,49123,1,0,0:0:0:0:
166,169,49211,2,0,L|70:162,1,89.9999976158143,8|0,3:2|3:2,0:0:0:0:
327,99,49564,2,0,L|452:99,1,89.9999976158143,0|0,3:2|3:2,0:0:0:0:
113,236,49917,6,0,P|61:197|127:52,1,224.999994039536,2|0,0:0|0:0,0:0:0:0:
293,58,50447,2,0,P|343:60|431:194,1,224.999994039536,2|0,0:0|0:0,0:0:0:0:
218,220,50976,2,0,L|121:219,1,89.9999976158143,2|0,0:0|0:0,0:0:0:0:
475,156,51329,6,0,L|261:152,2,179.999995231629,12|2|10,3:2|0:0|0:0,0:0:0:0:
156,209,52388,2,0,L|155:113,1,89.9999976158143,0|0,0:0|3:2,0:0:0:0:
212,88,52652,1,0,0:0:0:0:
367,61,52741,6,0,L|475:58,2,89.9999976158143,0|0|0,3:2|0:0|0:0,0:0:0:0:
212,88,53270,1,0,0:0:0:0:
456,65,53447,2,0,L|461:172,1,89.9999976158143,8|0,0:0|0:0,0:0:0:0:
302,177,53799,1,0,0:0:0:0:
460,154,53976,1,0,0:0:0:0:
164,125,54152,6,0,L|368:124,2,179.999995231629,6|0|8,3:2|3:2|0:0,0:0:0:0:
472,105,55211,2,0,L|475:234,1,89.9999976158143,0|0,0:0|3:2,0:0:0:0:
165,248,55564,6,0,L|385:238,1,179.999995231629,2|0,3:2|0:0,0:0:0:0:
94,159,56094,1,0,0:0:0:0:
343,123,56270,2,0,L|466:120,1,89.9999976158143,8|0,0:0|0:0,0:0:0:0:
144,68,56623,2,0,L|26:63,1,89.9999976158143,0|0,3:2|3:2,0:0:0:0:
345,201,56976,6,0,L|158:201,2,179.999995231629,6|0|8,3:2|0:0|0:0,0:0:0:0:
46,133,58035,2,0,L|42:24,1,89.9999976158143,0|0,3:2|3:2,0:0:0:0:
317,76,58388,6,0,L|425:76,2,89.9999976158143,0|8|0,3:2|0:0|0:0,0:0:0:0:
164,100,58917,1,0,3:2:0:0:
442,75,59094,2,0,L|442:173,1,89.9999976158143,8|0,0:0|0:0,0:0:0:0:
181,193,59447,1,0,0:0:0:0:
338,200,59623,1,0,3:2:0:0:
91,169,59799,6,0,P|35:152|105:98,1,179.999995231629,6|0,3:2|3:2,0:0:0:0:
251,78,60329,1,0,3:2:0:0:
405,75,60505,2,0,L|413:187,1,89.9999976158143,8|0,0:0|3:2,0:0:0:0:
148,206,60858,1,0,3:2:0:0:
321,206,61035,1,8,0:0:0:0:
43,154,61211,6,0,L|243:136,1,179.999995231629,6|8,3:2|0:0,0:0:0:0:
156,80,61682,1,8,0:0:0:0:
222,137,61799,1,8,0:0:0:0:
420,105,61917,1,0,3:2:0:0:
361,103,62035,1,0,3:2:0:0:
420,105,62152,1,0,3:2:0:0:
206,58,62270,1,0,3:2:0:0:
147,56,62388,1,0,3:2:0:0:
206,58,62505,1,0,3:2:0:0:
392,85,62623,6,0,L|201:103,2,179.999995231629,6|0|10,3:2|0:0|0:0,0:0:0:0:
85,195,63682,2,0,L|84:94,1,89.9999976158143,0|0,0:0|3:2,0:0:0:0:
145,74,63947,1,0,0:0:0:0:
292,79,64035,6,0,P|370:86|402:191,1,179.999995231629,0|0,3:2|3:2,0:0:0:0:
244,183,64564,1,0,0:0:0:0:
487,184,64741,2,0,L|486:73,1,89.9999976158143,8|0,0:0|0:0,0:0:0:0:
322,85,65094,1,0,0:0:0:0:
486,94,65270,1,0,0:0:0:0:
143,167,65446,6,0,L|351:162,1,179.999995231629,6|0,3:2|0:0,0:0:0:0:
156,91,65976,1,0,3:2:0:0:
425,165,66152,2,0,L|217:160,1,179.999995231629,8|0,3:2|3:2,0:0:0:0:
412,89,66681,1,8,0:0:0:0:
173,140,66858,5,2,3:2:0:0:
321,133,67035,1,8,0:0:0:0:
173,140,67211,1,8,0:0:0:0:
321,133,67388,2,0,L|260:130,1,44.9999988079071,0|0,3:2|0:0,0:0:0:0:
51,177,67564,2,0,L|45:53,1,89.9999976158143,8|0,0:0|3:2,0:0:0:0:
319,62,67917,2,0,L|440:62,1,89.9999976158143,0|0,3:2|3:2,0:0:0:0:
154,210,68270,6,0,P|101:196|44:71,1,179.999995231629,12|0,0:0|3:2,0:0:0:0:
381,189,68976,2,0,P|434:175|491:50,1,179.999995231629,0|2,3:2|3:2,0:0:0:0:
166,150,69682,6,0,L|354:138,1,179.999995231629,0|0,3:2|3:0,0:0:0:0:
189,221,70211,2,0,L|74:230,2,89.9999976158143,0|2|0,0:0|3:2|0:0,0:0:0:0:
358,185,70741,2,0,L|361:89,1,89.9999976158143,0|0,3:2|0:0,0:0:0:0:
55,72,71094,6,0,L|47:291,1,179.999995231629,6|0,0:0|3:2,0:0:0:0:
457,72,71799,2,0,L|465:291,1,179.999995231629,0|2,3:2|3:2,0:0:0:0:
18,211,72505,6,0,L|207:198,1,179.999995231629,0|0,3:2|3:2,0:0:0:0:
46,134,73035,1,0,0:0:0:0:
203,117,73211,1,8,0:0:0:0:
361,98,73388,1,0,0:0:0:0:
203,117,73564,1,8,0:0:0:0:
361,98,73741,2,0,L|286:99,1,44.9999988079071,0|0,3:2|0:0,0:0:0:0:
63,270,73917,6,0,L|54:56,1,179.999995231629,12|0,0:0|3:2,0:0:0:0:
481,247,74623,2,0,L|490:33,1,179.999995231629,0|2,3:2|3:2,0:0:0:0:
168,148,75319,6,0,L|366:148,1,179.999995231629,0|8,3:2|0:0,0:0:0:0:
180,217,75848,2,0,L|265:209,1,44.9999988079071,0|0,3:2|0:0,0:0:0:0:
416,212,76024,2,0,P|427:178|307:103,1,179.999995231629,2|0,3:2|3:2,0:0:0:0:
209,99,76542,1,0,3:2:0:0:
465,104,76710,6,0,P|471:168|77:103,1,719.999980926514,6|2,0:0|0:0,0:0:0:0:
324,115,78861,1,2,0:0:0:0:
124,138,79571,5,2,0:0:0:0:
256,192,79923,12,0,82198,0:0:0:0:
