osu file format v14

[General]
AudioFilename: audio.ogg
AudioLeadIn: 0
PreviewTime: 49572
Countdown: 0
SampleSet: Soft
StackLeniency: 0.7
Mode: 2
LetterboxInBreaks: 0
WidescreenStoryboard: 1

[Editor]
DistanceSpacing: 0.5
BeatDivisor: 8
GridSize: 32
TimelineZoom: 1

[Metadata]
Title:Saikai (TV Size)
TitleUnicode:再会 (TV Size)
Artist:V.W.P
ArtistUnicode:V.W.P
Creator:Secre
Version:Rain
Source:マブラヴ オルタネイティヴ
Tags:chickenbible japanese pop jpop j-pop anime Virtual Witch Phenomenon KAF harusaruhi isekaijoucho VWP Ending ED 花譜 理芽 春猿火 ヰ世界情緒 幸祜 Kafu Rime Koko Muv-Luv Alternative 2nd second season
BeatmapID:3840685
BeatmapSetID:1866983

[Difficulty]
HPDrainRate:5
CircleSize:3.9
OverallDifficulty:8
ApproachRate:8
SliderMultiplier:3.25999990463257
SliderTickRate:4

[Events]
//Background and Video events
0,0,"ayo when a hololive member getting a gundam outfit.jpg",0,0
Video,0,"Muvluvalternatives2-Ed1.m4v"
//Break Periods
//Storyboard Layer 0 (Background)
//Storyboard Layer 1 (Fail)
//Storyboard Layer 2 (Pass)
//Storyboard Layer 3 (Foreground)
//Storyboard Layer 4 (Overlay)
//Storyboard Sound Samples

[TimingPoints]
557,705.882352941176,4,2,1,30,1,0
3371,705.882352941176,4,2,1,30,1,0
5466,705.882352941176,4,2,1,30,1,0
6171,705.882352941176,4,2,1,30,1,0
11808,705.882352941176,4,2,1,40,1,0
15297,705.882352941176,4,2,1,40,1,0
16034,705.882352941176,4,2,1,40,1,0
20963,705.882352941176,4,2,1,40,1,0
21286,705.882352941176,4,2,1,40,1,0
21681,681.818181818181,4,2,1,40,1,0
22212,705.882352941176,4,2,1,40,1,0
23094,705.882352941176,4,2,1,100,1,0
23102,-100,4,2,1,55,0,0
45690,-100,4,2,1,65,0,0
47102,-100,4,2,1,75,0,0
48513,-100,4,2,1,65,0,0
51329,-100,4,2,1,85,0,1
68270,-100,4,2,1,65,0,0
75319,705.882352941176,4,2,1,100,1,0
76542,705.882352941176,4,2,1,100,1,0
76710,729.92700729927,4,2,1,100,1,0
78160,-100,4,2,1,50,0,0
78861,705.882352941176,4,2,1,30,1,0
78866,-100,4,2,1,40,0,0
79571,705.882352941176,4,2,1,30,1,0
79572,-100,4,2,1,30,0,0
80984,-100,4,2,1,20,0,0
81744,909.090909090908,4,2,1,40,1,0

[Colours]
Combo1 : 131,233,241
Combo2 : 250,105,247
Combo3 : 231,5,123
Combo4 : 170,100,217

[HitObjects]
155,134,557,5,2,0:0:0:0:
370,170,3371,1,2,0:0:0:0:
199,120,5466,5,2,0:0:0:0:
338,117,5818,1,0,0:0:0:0:
82,53,6171,6,0,P|88:150|308:216,1,325.999990463257,2|0,0:0|0:0,0:0:0:0:
151,105,7582,1,0,0:0:0:0:
401,116,8288,1,0,0:0:0:0:
112,62,8994,5,2,0:0:0:0:
256,192,9347,12,0,10759,0:0:0:0:
218,234,11112,5,2,0:0:0:0:
60,180,11465,1,2,0:0:0:0:
336,198,11808,5,2,0:0:0:0:
180,176,12160,1,0,0:0:0:0:
336,198,12513,2,0,L|339:24,1,162.999995231629,2|0,0:0|0:0,0:0:0:0:
259,101,13043,2,0,L|157:100,1,81.4999976158143
437,258,13572,2,0,L|248:259,2,162.999995231629,2|0|0,0:0|0:0|0:0,0:0:0:0:
163,263,14631,6,0,L|164:79,1,162.999995231629
333,54,15297,1,0,0:0:0:0:
94,163,15649,1,0,0:0:0:0:
257,163,16034,6,0,L|76:163,1,162.999995231629,2|0,0:0|0:0,0:0:0:0:
96,218,16739,2,0,L|95:49,1,162.999995231629
177,58,17269,1,0,0:0:0:0:
340,63,17445,6,0,P|409:73|447:185,2,162.999995231629
181,177,18504,1,0,0:0:0:0:
320,153,18857,2,0,L|321:-17,1,162.999995231629,2|0,0:0|0:0,0:0:0:0:
175,102,19563,2,0,L|353:93,1,162.999995231629
256,161,20092,1,0,0:0:0:0:
94,168,20269,6,0,L|83:-5,1,162.999995231629
252,83,20963,1,2,0:0:0:0:
89,75,21286,1,2,0:0:0:0:
169,132,21462,1,0,0:0:0:0:
346,153,21681,6,0,P|401:122|336:76,1,162.999995231629,2|2,3:2|0:0,0:0:0:0:
265,78,22212,1,0,3:2:0:0:
440,92,22388,2,0,L|441:197,1,81.4999976158143,10|0,0:0|2:0,0:0:0:0:
358,213,22741,2,0,L|459:208,1,81.4999976158143,0|0,3:2|0:0,0:0:0:0:
147,302,23094,6,0,P|100:282|158:213,1,162.999995231629,4|0,2:0|0:0,0:0:0:0:
396,222,23799,2,0,L|223:222,1,162.999995231629,8|0,0:0|0:0,0:0:0:0:
314,167,24329,1,0,0:0:0:0:
476,182,24505,6,0,L|482:10,1,162.999995231629,0|0,3:2|3:2,0:0:0:0:
193,68,25211,1,8,0:0:0:0:
333,55,25564,2,0,L|331:172,1,81.4999976158143
62,242,25917,6,0,L|259:235,2,162.999995231629,0|0|8,3:2|0:0|0:0,0:0:0:0:
311,184,26976,2,0,L|316:69,1,81.4999976158143
138,159,27329,6,0,P|88:142|153:82,1,162.999995231629,0|0,3:2|3:2,0:0:0:0:
381,68,28035,1,8,0:0:0:0:
235,122,28388,2,0,L|137:123,1,81.4999976158143
407,207,28741,6,0,P|453:191|397:122,1,162.999995231629,0|0,3:2|0:0,0:0:0:0:
149,137,29447,2,0,L|331:137,1,162.999995231629,8|0,0:0|0:0,0:0:0:0:
52,212,30152,6,0,L|232:212,2,162.999995231629,0|0|8,3:2|3:2|0:0,0:0:0:0:
316,175,31211,2,0,L|316:73,1,81.4999976158143
145,112,31564,6,0,P|98:85|166:18,1,162.999995231629,0|0,3:2|0:0,0:0:0:0:
297,47,32094,1,0,3:2:0:0:
446,53,32270,2,0,L|448:221,1,162.999995231629,8|0,0:0|0:0,0:0:0:0:
363,237,32799,1,0,0:0:0:0:
192,171,32976,6,0,L|90:168,1,81.4999976158143,0|0,3:2|0:0,0:0:0:0:
279,98,33329,2,0,L|394:102,1,81.4999976158143,0|8,3:2|0:0,0:0:0:0:
103,255,33682,1,8,0:0:0:0:
17,236,33858,1,0,3:2:0:0:
18,160,34034,1,0,3:2:0:0:
104,142,34211,1,0,3:2:0:0:
346,203,34388,6,0,L|166:209,2,162.999995231629,4|0|8,3:2|0:0|0:0,0:0:0:0:
78,188,35447,2,0,L|76:85,1,81.4999976158143
249,85,35799,2,0,L|249:253,1,162.999995231629,0|0,3:2|3:2,0:0:0:0:
166,256,36329,1,0,0:0:0:0:
328,88,36505,2,0,L|502:85,1,162.999995231629,8|0,0:0|0:0,0:0:0:0:
409,152,37035,1,0,0:0:0:0:
158,230,37211,6,0,L|331:232,1,162.999995231629,0|0,2:0|0:0,0:0:0:0:
70,146,37917,1,8,0:0:0:0:
224,102,38270,2,0,L|222:208,1,81.4999976158143
46,265,38623,6,0,L|40:72,1,162.999995231629,0|0,3:2|3:2,0:0:0:0:
131,59,39152,1,0,0:0:0:0:
308,84,39329,2,0,L|397:85,1,81.4999976158143,8|8,0:0|0:0,0:0:0:0:
207,190,39682,2,0,L|96:190,1,81.4999976158143,0|0,3:2|3:2,0:0:0:0:
365,128,40035,6,0,P|459:152|477:232,2,162.999995231629,4|0|0,3:2|0:0|3:2,0:0:0:0:
203,140,41094,1,2,0:0:0:0:
478,142,41447,6,0,L|301:142,2,162.999995231629,0|0|0,0:0|0:0|3:2,0:0:0:0:
478,142,42505,1,0,0:0:0:0:
218,88,42858,6,0,P|129:93|98:174,1,162.999995231629,2|0,0:0|0:0,0:0:0:0:
265,172,43564,2,0,L|466:164,1,162.999995231629,0|2,3:2|0:0,0:0:0:0:
144,254,44270,6,0,L|144:79,1,162.999995231629,0|0,3:2|0:0,0:0:0:0:
227,43,44799,1,8,0:0:0:0:
399,46,44976,1,8,0:0:0:0:
488,65,45152,1,0,3:2:0:0:
486,150,45328,1,0,3:2:0:0:
401,161,45505,1,0,3:2:0:0:
141,179,45682,6,0,P|81:185|41:285,1,162.999995231629,6|8,3:2|3:2,0:0:0:0:
340,157,46388,2,0,P|391:161|428:268,1,162.999995231629,10|8,3:2|0:0,0:0:0:0:
124,275,47094,6,0,L|116:76,1,162.999995231629,10|8,3:2|0:0,0:0:0:0:
422,275,47799,2,0,L|430:76,1,162.999995231629,2|8,3:2|3:2,0:0:0:0:
338,89,48329,1,0,3:2:0:0:
92,199,48505,5,4,3:2:0:0:
15,169,48681,1,0,3:2:0:0:
14,93,48857,1,0,3:2:0:0:
93,65,49034,1,0,3:2:0:0:
335,68,49211,2,0,L|438:70,1,81.4999976158143,8|0,3:2|3:2,0:0:0:0:
247,171,49564,2,0,L|157:166,1,81.4999976158143,0|0,3:2|3:2,0:0:0:0:
406,217,49917,6,0,P|449:205|400:125,1,162.999995231629,2|0,0:0|0:0,0:0:0:0:
245,189,50447,2,0,P|201:167|256:87,1,162.999995231629,2|0,0:0|0:0,0:0:0:0:
406,79,50976,2,0,L|491:79,1,81.4999976158143,2|0,0:0|0:0,0:0:0:0:
218,236,51329,6,0,L|35:233,2,162.999995231629,12|2|10,3:2|0:0|0:0,0:0:0:0:
493,252,52388,2,0,L|496:138,1,81.4999976158143,0|0,0:0|3:2,0:0:0:0:
232,128,52741,6,0,P|170:130|123:236,1,162.999995231629,0|0,3:2|0:0,0:0:0:0:
289,218,53270,2,0,L|381:220,2,81.4999976158143,0|8|0,0:0|0:0|0:0,0:0:0:0:
120,180,53799,2,0,L|117:91,1,81.4999976158143
366,86,54152,6,0,L|200:90,2,162.999995231629,6|0|8,3:2|3:2|0:0,0:0:0:0:
103,221,55211,2,0,L|100:119,1,81.4999976158143,0|0,0:0|3:2,0:0:0:0:
358,114,55564,6,0,P|414:127|363:189,1,162.999995231629,2|0,3:2|0:0,0:0:0:0:
195,219,56094,2,0,L|106:222,2,81.4999976158143,0|8|0,0:0|0:0|0:0,0:0:0:0:
366,207,56623,2,0,L|371:105,1,81.4999976158143,0|0,3:2|3:2,0:0:0:0:
117,130,56976,6,0,L|279:129,2,162.999995231629,6|0|8,3:2|0:0|0:0,0:0:0:0:
365,85,58035,2,0,L|447:84,1,81.4999976158143,0|0,3:2|3:2,0:0:0:0:
192,128,58388,6,0,L|94:130,2,81.4999976158143,0|8|0,3:2|0:0|0:0,0:0:0:0:
360,133,58917,2,0,L|449:137,2,81.4999976158143,0|8|0,3:2|0:0|0:0,0:0:0:0:
186,87,59447,2,0,L|91:89,1,81.4999976158143,0|0,0:0|3:2,0:0:0:0:
369,179,59799,6,0,P|416:162|356:99,1,162.999995231629,6|0,3:2|3:2,0:0:0:0:
281,107,60329,1,0,3:2:0:0:
447,96,60505,2,0,L|452:195,1,81.4999976158143,8|0,0:0|3:2,0:0:0:0:
280,206,60858,2,0,L|380:206,1,81.4999976158143,0|8,3:2|0:0,0:0:0:0:
97,230,61211,6,0,P|52:220|111:157,1,162.999995231629,6|8,3:2|0:0,0:0:0:0:
150,144,61682,1,8,0:0:0:0:
205,145,61799,1,8,0:0:0:0:
79,118,61917,2,0,L|11:121,2,54.3333317438762,0|0|0,3:2|3:2|3:2,0:0:0:0:
205,78,62270,2,0,L|271:75,2,54.3333317438762,0|0|0,3:2|3:2|3:2,0:0:0:0:
27,249,62623,6,0,L|22:77,1,162.999995231629,6|0,3:2|0:0,0:0:0:0:
347,75,63329,1,10,0:0:0:0:
56,77,63682,2,0,L|145:73,1,81.4999976158143,0|0,0:0|3:2,0:0:0:0:
391,152,64035,6,0,P|441:225|384:250,1,162.999995231629,0|0,3:2|3:2,0:0:0:0:
212,169,64564,2,0,L|306:168,2,81.4999976158143,0|8|0,0:0|0:0|0:0,0:0:0:0:
390,119,65094,2,0,L|483:120,1,81.4999976158143
229,78,65447,6,0,P|140:97|119:201,1,162.999995231629,6|0,3:2|0:0,0:0:0:0:
262,180,65976,1,0,3:2:0:0:
422,185,66152,2,0,L|423:76,1,81.4999976158143,8|0,3:2|0:0,0:0:0:0:
341,106,66505,2,0,L|445:102,1,81.4999976158143,0|8,3:2|0:0,0:0:0:0:
157,71,66858,5,2,3:2:0:0:
78,81,67034,1,8,0:0:0:0:
76,155,67210,1,8,0:0:0:0:
155,167,67388,1,0,3:2:0:0:
404,84,67564,2,0,L|499:85,1,81.4999976158143,8|0,0:0|3:2,0:0:0:0:
201,93,67917,2,0,L|88:94,1,81.4999976158143,0|0,3:2|3:2,0:0:0:0:
374,44,68270,6,0,P|456:68|470:152,1,162.999995231629,12|0,0:0|3:2,0:0:0:0:
174,62,68976,2,0,P|92:86|78:170,1,162.999995231629,0|2,3:2|3:2,0:0:0:0:
381,192,69682,6,0,L|384:7,1,162.999995231629,0|0,3:2|3:0,0:0:0:0:
218,51,70211,2,0,L|134:55,2,81.4999976158143,0|2|0,0:0|3:2|0:0,0:0:0:0:
386,52,70741,2,0,L|478:52,1,81.4999976158143,0|0,3:2|0:0,0:0:0:0:
195,73,71094,6,0,P|111:84|95:178,1,162.999995231629,6|0,0:0|3:2,0:0:0:0:
363,80,71799,2,0,P|447:91|463:185,1,162.999995231629,0|2,3:2|3:2,0:0:0:0:
197,212,72505,6,0,L|369:211,1,162.999995231629,0|0,3:2|3:2,0:0:0:0:
197,133,73035,2,0,L|196:41,1,81.4999976158143,0|8,0:0|0:0,0:0:0:0:
278,34,73388,1,0,0:0:0:0:
115,65,73564,2,0,L|12:65,1,81.4999976158143,8|0,0:0|3:2,0:0:0:0:
324,81,73917,6,0,L|510:84,1,162.999995231629,12|0,0:0|3:2,0:0:0:0:
188,81,74623,2,0,L|2:84,1,162.999995231629,0|2,3:2|3:2,0:0:0:0:
331,73,75319,6,0,L|330:250,1,162.999995231629,0|8,3:2|0:0,0:0:0:0:
185,252,75848,1,0,3:2:0:0:
38,59,76024,2,0,L|33:240,1,162.999995231629,2|0,3:2|3:2,0:0:0:0:
125,226,76542,1,0,3:2:0:0:
377,222,76710,6,0,P|384:132|83:262,1,651.999980926514,6|2,0:0|0:0,0:0:0:0:
311,189,78861,1,2,0:0:0:0:
123,109,79566,5,2,0:0:0:0:
256,192,79923,12,0,82198,0:0:0:0:
