osu file format v14

[General]
AudioFilename: audio.ogg
AudioLeadIn: 0
PreviewTime: 49572
Countdown: 0
SampleSet: Soft
StackLeniency: 0.7
Mode: 2
LetterboxInBreaks: 0
WidescreenStoryboard: 1

[Editor]
DistanceSpacing: 0.5
BeatDivisor: 8
GridSize: 32
TimelineZoom: 1

[Metadata]
Title:Saikai (TV Size)
TitleUnicode:再会 (TV Size)
Artist:V.W.P
ArtistUnicode:V.W.P
Creator:Secre
Version:Platter
Source:マブラヴ オルタネイティヴ
Tags:chickenbible japanese pop jpop j-pop anime Virtual Witch Phenomenon KAF harusaruhi isekaijoucho VWP Ending ED 花譜 理芽 春猿火 ヰ世界情緒 幸祜 Kafu Rime Koko Muv-Luv Alternative 2nd second season
BeatmapID:3841353
BeatmapSetID:1866983

[Difficulty]
HPDrainRate:4
CircleSize:3.6
OverallDifficulty:7
ApproachRate:7
SliderMultiplier:3.15999990463257
SliderTickRate:2

[Events]
//Background and Video events
0,0,"ayo when a hololive member getting a gundam outfit.jpg",0,0
Video,0,"Muvluvalternatives2-Ed1.m4v"
//Break Periods
//Storyboard Layer 0 (Background)
//Storyboard Layer 1 (Fail)
//Storyboard Layer 2 (Pass)
//Storyboard Layer 3 (Foreground)
//Storyboard Layer 4 (Overlay)
//Storyboard Sound Samples

[TimingPoints]
557,705.882352941176,4,2,1,30,1,0
3371,705.882352941176,4,2,1,30,1,0
5466,705.882352941176,4,2,1,30,1,0
6171,705.882352941176,4,2,1,30,1,0
11808,705.882352941176,4,2,1,40,1,0
15297,705.882352941176,4,2,1,40,1,0
16034,705.882352941176,4,2,1,40,1,0
20963,705.882352941176,4,2,1,40,1,0
21286,705.882352941176,4,2,1,40,1,0
21681,681.818181818181,4,2,1,40,1,0
22212,705.882352941176,4,2,1,40,1,0
23094,705.882352941176,4,2,1,100,1,0
23102,-100,4,2,1,55,0,0
45690,-100,4,2,1,65,0,0
47102,-100,4,2,1,75,0,0
48513,-100,4,2,1,65,0,0
51329,-100,4,2,1,85,0,1
68270,-100,4,2,1,65,0,0
75319,705.882352941176,4,2,1,100,1,0
76542,705.882352941176,4,2,1,100,1,0
76710,729.92700729927,4,2,1,100,1,0
78160,-100,4,2,1,50,0,0
78861,705.882352941176,4,2,1,30,1,0
78866,-100,4,2,1,40,0,0
79571,705.882352941176,4,2,1,30,1,0
79572,-100,4,2,1,30,0,0
80984,-100,4,2,1,20,0,0
81744,909.090909090908,4,2,1,40,1,0

[Colours]
Combo1 : 131,233,241
Combo2 : 250,105,247
Combo3 : 231,5,123
Combo4 : 170,100,217

[HitObjects]
357,134,557,5,2,0:0:0:0:
142,170,3371,1,2,0:0:0:0:
313,120,5466,5,2,0:0:0:0:
174,117,5818,1,0,0:0:0:0:
430,53,6171,6,0,P|424:150|225:226,1,315.999990463257,2|0,0:0|0:0,0:0:0:0:
361,105,7582,1,0,0:0:0:0:
111,116,8288,5,0,0:0:0:0:
256,192,8994,12,0,10758,0:0:0:0:
294,234,11112,5,2,0:0:0:0:
452,180,11465,1,2,0:0:0:0:
176,198,11808,5,2,0:0:0:0:
332,176,12160,1,0,0:0:0:0:
176,198,12513,2,0,L|176:28,1,157.999995231628,2|0,0:0|0:0,0:0:0:0:
253,101,13043,2,0,L|347:100,1,78.9999976158142
75,258,13572,2,0,L|252:258,2,157.999995231628,2|0|0,0:0|0:0|0:0,0:0:0:0:
349,263,14631,6,0,L|346:81,1,157.999995231628
179,54,15297,1,0,0:0:0:0:
418,163,15649,1,0,0:0:0:0:
258,219,16034,2,0,L|428:217,1,157.999995231629,2|0,0:0|0:0,0:0:0:0:
416,218,16739,2,0,L|416:56,1,157.999995231628
340,57,17269,1,0,0:0:0:0:
180,62,17445,6,0,P|111:72|77:178,2,157.999995231628
331,177,18504,1,0,0:0:0:0:
192,153,18857,2,0,L|191:-12,1,157.999995231628,2|0,0:0|0:0,0:0:0:0:
336,102,19563,2,0,L|168:94,1,157.999995231628
256,161,20093,1,0,0:0:0:0:
418,168,20269,6,0,L|424:2,1,157.999995231628
260,82,20963,1,0,0:0:0:0:
417,72,21286,1,2,0:0:0:0:
335,134,21462,1,0,0:0:0:0:
166,153,21681,6,0,P|111:122|174:78,1,157.999995231628,2|2,3:2|0:0,0:0:0:0:
247,78,22212,1,0,3:2:0:0:
409,126,22388,1,10,0:0:0:0:
492,115,22564,1,0,2:0:0:0:
493,42,22741,1,0,3:2:0:0:
409,24,22917,1,0,0:0:0:0:
166,150,23094,6,0,P|77:182|91:280,2,157.999995231629,4|0|8,2:0|0:0|0:0,0:0:0:0:
311,161,24152,2,0,L|313:57,1,78.9999976158143
149,75,24505,6,0,L|147:248,1,157.999995231629,0|0,3:2|3:2,0:0:0:0:
406,243,25211,1,8,0:0:0:0:
258,187,25564,2,0,L|255:94,1,78.9999976158143
417,127,25917,6,0,P|466:61|399:26,1,157.999995231629,0|0,3:2|0:0,0:0:0:0:
177,136,26623,1,8,0:0:0:0:
325,114,26976,2,0,L|324:209,1,78.9999976158143
163,221,27329,6,0,L|4:216,1,157.999995231629,0|0,3:2|3:2,0:0:0:0:
248,134,28035,1,8,0:0:0:0:
103,118,28388,2,0,L|99:30,1,78.9999976158143
268,42,28741,6,0,L|456:42,3,157.999995231629,0|0|8|0,3:2|0:0|0:0|0:0,0:0:0:0:
176,201,30152,6,0,L|18:212,1,157.999995231629,0|0,3:2|3:2,0:0:0:0:
266,96,30858,1,8,0:0:0:0:
345,100,31034,1,0,0:0:0:0:
344,174,31210,1,0,0:0:0:0:
268,189,31387,1,0,0:0:0:0:
105,221,31564,6,0,L|106:23,1,157.999995231629,0|0,3:2|0:0,0:0:0:0:
191,42,32094,1,0,3:2:0:0:
360,41,32270,2,0,P|441:68|455:167,1,157.999995231629,8|0,0:0|0:0,0:0:0:0:
384,152,32799,1,0,0:0:0:0:
227,167,32976,6,0,L|43:167,1,157.999995231629,0|0,3:2|3:2,0:0:0:0:
141,102,33505,1,8,0:0:0:0:
305,93,33682,2,0,L|419:92,1,78.9999976158143,8|0,0:0|3:2,0:0:0:0:
227,167,34035,2,0,L|126:167,1,78.9999976158143,0|0,3:2|3:2,0:0:0:0:
388,211,34388,6,0,P|475:233|483:332,2,157.999995231629,4|0|8,3:2|0:0|0:0,0:0:0:0:
236,204,35447,2,0,L|231:109,1,78.9999976158143
394,118,35799,6,0,P|443:53|360:45,1,157.999995231629,0|0,3:2|3:2,0:0:0:0:
147,134,36505,1,8,0:0:0:0:
300,101,36858,2,0,L|301:192,1,78.9999976158143
142,243,37211,6,0,P|56:255|50:323,2,157.999995231629,0|0|8,2:0|0:0|0:0,0:0:0:0:
291,219,38270,2,0,L|291:129,1,78.9999976158143
118,152,38623,5,0,3:2:0:0:
47,135,38799,1,0,0:0:0:0:
50,62,38975,1,0,3:2:0:0:
122,52,39152,1,0,0:0:0:0:
284,73,39329,2,0,L|368:72,1,78.9999976158143,8|8,0:0|0:0,0:0:0:0:
204,155,39682,2,0,L|101:157,1,78.9999976158143,0|0,3:2|3:2,0:0:0:0:
367,98,40035,6,0,P|454:131|468:209,1,157.999995231629,4|0,3:2|0:0,0:0:0:0:
185,102,40741,2,0,P|98:135|84:213,1,157.999995231629,0|2,3:2|0:0,0:0:0:0:
234,219,41447,6,0,L|73:222,1,157.999995231629
364,66,42152,2,0,L|366:280,1,157.999995231629,0|0,3:2|0:0,0:0:0:0:
87,268,42858,6,0,L|80:86,1,157.999995231629,2|0,0:0|0:0,0:0:0:0:
352,69,43564,2,0,P|401:135|317:135,1,157.999995231629,0|2,3:2|0:0,0:0:0:0:
272,165,44094,1,0,0:0:0:0:
111,240,44270,6,0,L|105:53,1,157.999995231629,0|0,3:2|0:0,0:0:0:0:
181,49,44799,1,8,0:0:0:0:
352,47,44976,1,8,0:0:0:0:
423,66,45152,1,0,3:2:0:0:
426,140,45328,1,0,3:2:0:0:
356,165,45505,1,0,3:2:0:0:
112,200,45682,6,0,P|31:162|21:56,1,157.999995231629,6|8,3:2|3:2,0:0:0:0:
279,231,46388,2,0,P|360:193|370:87,1,157.999995231629,10|8,3:2|0:0,0:0:0:0:
90,192,47094,6,0,L|83:-28,1,157.999995231629,10|8,3:2|0:0,0:0:0:0:
372,239,47799,2,0,L|379:19,1,157.999995231629,2|8,3:2|3:2,0:0:0:0:
294,72,48329,1,0,3:2:0:0:
55,191,48505,5,4,3:2:0:0:
45,114,48681,1,0,3:2:0:0:
95,56,48857,1,0,3:2:0:0:
172,54,49034,1,0,3:2:0:0:
417,63,49211,1,8,3:2:0:0:
418,139,49387,1,0,3:2:0:0:
363,194,49563,1,0,3:2:0:0:
286,192,49740,1,0,3:2:0:0:
44,128,49917,6,0,P|49:214|133:236,1,157.999995231629,2|0,0:0|0:0,0:0:0:0:
261,240,50447,2,0,P|343:267|360:365,1,157.999995231629,2|0,0:0|0:0,0:0:0:0:
215,336,50976,2,0,L|107:332,1,78.9999976158143,2|0,0:0|0:0,0:0:0:0:
379,260,51329,6,0,P|466:297|482:374,2,157.999995231629,12|2|10,3:2|0:0|0:0,0:0:0:0:
224,150,52388,2,0,L|140:155,1,78.9999976158143,0|0,0:0|3:2,0:0:0:0:
307,87,52741,6,0,L|477:82,1,157.999995231629,0|0,3:2|0:0,0:0:0:0:
380,154,53270,2,0,L|296:158,2,78.9999976158143,0|8|0,0:0|0:0|0:0,0:0:0:0:
461,151,53799,2,0,L|463:57,1,78.9999976158143
287,87,54152,6,0,L|122:93,2,157.999995231629,6|0|8,3:2|3:2|0:0,0:0:0:0:
40,187,55211,2,0,L|34:91,1,78.9999976158143,0|0,0:0|3:2,0:0:0:0:
279,76,55564,6,0,P|358:108|374:204,1,157.999995231629,2|0,3:2|0:0,0:0:0:0:
215,201,56094,2,0,L|116:206,2,78.9999976158143,0|8|0,0:0|0:0|0:0,0:0:0:0:
295,155,56623,2,0,L|298:61,1,78.9999976158143,0|0,3:2|3:2,0:0:0:0:
57,161,56976,6,0,L|252:146,2,157.999995231629,6|0|8,3:2|0:0|0:0,0:0:0:0:
285,101,58035,2,0,L|381:94,1,78.9999976158143,0|0,3:2|3:2,0:0:0:0:
197,84,58388,6,0,P|121:113|120:199,1,157.999995231629,0|0,3:2|0:0,0:0:0:0:
188,193,58917,2,0,L|276:191,2,78.9999976158143,0|8|0,3:2|0:0|0:0,0:0:0:0:
31,161,59447,2,0,L|26:74,1,78.9999976158143,0|0,0:0|3:2,0:0:0:0:
277,72,59799,6,0,L|478:61,1,157.999995231629,6|0,3:2|3:2,0:0:0:0:
353,120,60329,1,0,3:2:0:0:
183,164,60505,2,0,L|180:75,1,78.9999976158143,8|0,0:0|3:2,0:0:0:0:
347,57,60858,2,0,L|438:55,1,78.9999976158143,0|8,3:2|0:0,0:0:0:0:
187,81,61211,6,0,L|14:94,1,157.999995231629,6|8,3:2|0:0,0:0:0:0:
86,153,61682,1,8,0:0:0:0:
140,155,61799,1,8,0:0:0:0:
86,153,61917,1,0,3:2:0:0:
38,133,62035,1,0,3:2:0:0:
8,92,62152,1,0,3:2:0:0:
38,133,62270,1,0,3:2:0:0:
86,153,62388,1,0,3:2:0:0:
384,90,62623,6,0,P|491:138|488:219,2,157.999995231629,6|0|10,3:2|0:0|0:0,0:0:0:0:
134,142,63682,2,0,L|132:50,1,78.9999976158143,0|0,0:0|3:2,0:0:0:0:
293,55,64035,6,0,L|464:57,1,157.999995231629,0|0,3:2|3:2,0:0:0:0:
293,55,64564,2,0,P|207:74|209:156,1,157.999995231629
276,148,65094,2,0,L|371:148,1,78.9999976158143
114,232,65447,6,0,P|64:173|139:147,1,157.999995231629,6|0,3:2|0:0,0:0:0:0:
202,129,65976,1,0,3:2:0:0:
378,157,66152,1,8,3:2:0:0:
453,126,66328,1,0,0:0:0:0:
452,51,66504,1,0,3:2:0:0:
377,25,66681,1,8,0:0:0:0:
221,114,66858,6,0,L|132:120,1,78.9999976158143,2|8,3:2|0:0,0:0:0:0:
221,114,67211,2,0,L|325:111,1,78.9999976158143,8|0,0:0|3:2,0:0:0:0:
143,238,67564,1,8,0:0:0:0:
71,220,67740,1,0,3:2:0:0:
69,146,67916,1,0,3:2:0:0:
140,125,68093,1,0,3:2:0:0:
399,98,68270,6,0,P|475:154|481:255,2,157.999995231629,12|0|0,0:0|3:2|3:2,0:0:0:0:
241,117,69329,1,2,3:2:0:0:
481,123,69682,6,0,L|488:316,1,157.999995231629,0|0,3:2|3:0,0:0:0:0:
328,293,70211,2,0,L|132:302,1,157.999995231629
256,231,70741,2,0,L|352:224,1,78.9999976158143,0|0,3:2|0:0,0:0:0:0:
93,98,71094,6,0,P|17:154|19:254,2,157.999995231629,6|0|0,0:0|3:2|3:2,0:0:0:0:
265,117,72153,1,2,3:2:0:0:
18,121,72506,6,0,L|18:315,1,157.999995231629,0|0,3:2|3:2,0:0:0:0:
182,291,73035,2,0,L|378:300,1,157.999995231629
256,229,73565,2,0,L|160:222,1,78.9999976158143,8|0,0:0|3:2,0:0:0:0:
417,105,73917,6,0,L|421:281,1,157.999995231629,12|0,0:0|3:2,0:0:0:0:
260,272,74623,2,0,L|435:271,1,157.999995231629,0|2,3:2|3:2,0:0:0:0:
120,127,75319,6,0,L|116:303,1,157.999995231629,0|8,3:2|0:0,0:0:0:0:
199,291,75848,1,0,3:2:0:0:
365,277,76024,2,0,L|368:88,1,157.999995231629,2|0,3:2|3:2,0:0:0:0:
288,112,76542,1,0,3:2:0:0:
41,116,76710,6,0,P|27:202|378:162,1,631.999980926514,6|2,0:0|0:0,0:0:0:0:
173,186,78861,1,2,0:0:0:0:
405,111,79566,5,2,0:0:0:0:
256,192,79923,12,0,82198,0:0:0:0:
