osu file format v14

[General]
AudioFilename: audio.mp3
AudioLeadIn: 0
PreviewTime: 42533
Countdown: 0
SampleSet: Soft
StackLeniency: 0.3
Mode: 0
LetterboxInBreaks: 0
WidescreenStoryboard: 1

[Editor]
DistanceSpacing: 1.5
BeatDivisor: 7
GridSize: 16
TimelineZoom: 2

[Metadata]
Title:Reincarnation (TV Size)
TitleUnicode:輪廻 (TV Size)
Artist:V.W.P
ArtistUnicode:V.W.P
Creator:kyomii-
Version:KoldNoodl's Hard
Source:マブラヴ オルタネイティヴ
Tags:kuki1537 midorijeon koldnoodl rvmathew muv luv muv-luv alternative op opening jpop j-pop j pop japanese iori kanzaki 花譜 kaf 理芽 rim 春猿火 harusaruhi ヰ世界情緒 isekaijoucho 幸祜 koko マブラヴ kamitsubaki studio rinne virtual witch phenomenon anime
BeatmapID:3578942
BeatmapSetID:1675997

[Difficulty]
HPDrainRate:4
CircleSize:4
OverallDifficulty:6
ApproachRate:8
SliderMultiplier:1.4
SliderTickRate:1

[Events]
//Background and Video events
0,0,"bg.png",0,0
//Break Periods
//Storyboard Layer 0 (Background)
//Storyboard Layer 1 (Fail)
//Storyboard Layer 2 (Pass)
//Storyboard Layer 3 (Foreground)
//Storyboard Layer 4 (Overlay)
//Storyboard Sound Samples

[TimingPoints]
195,322.58064516129,4,2,16,55,1,0
517,-100,4,2,1,55,0,0
1485,322.58064516129,4,2,1,55,1,0
1807,-100,4,2,6,55,0,0
1888,-100,4,2,2,55,0,0
2130,-100,4,2,6,55,0,0
2211,-100,4,2,2,55,0,0
2453,-100,4,2,6,55,0,0
2534,-100,4,2,2,55,0,0
2775,-100,4,2,6,55,0,0
2856,-100,4,2,2,55,0,0
3098,-100,4,2,6,55,0,0
3179,-100,4,2,2,55,0,0
3420,-100,4,2,6,55,0,0
3501,-100,4,2,2,55,0,0
3743,-100,4,2,6,55,0,0
3824,-100,4,2,2,55,0,0
4065,-100,4,2,6,55,0,0
4146,-100,4,2,2,55,0,0
4388,-100,4,2,6,55,0,0
4469,-100,4,2,2,55,0,0
4711,-100,4,2,6,55,0,0
4792,-100,4,2,2,55,0,0
5033,-100,4,2,6,55,0,0
5114,-100,4,2,2,55,0,0
5356,-100,4,2,6,55,0,0
5437,-100,4,2,2,55,0,0
5678,-100,4,2,6,55,0,0
5759,-100,4,2,2,55,0,0
6001,-100,4,2,6,55,0,0
6082,-100,4,2,2,55,0,0
6324,-100,4,2,6,55,0,0
6405,-100,4,2,2,55,0,0
6969,-100,4,2,6,55,0,0
7050,-100,4,2,2,55,0,0
7291,-100,4,2,6,55,0,0
7372,-100,4,2,2,55,0,0
7614,-100,4,2,6,55,0,0
7695,-100,4,2,2,55,0,0
7936,-100,4,2,6,55,0,0
8017,-100,4,2,2,55,0,0
8259,-100,4,2,6,55,0,0
8340,-100,4,2,2,55,0,0
8582,-100,4,2,6,55,0,0
8663,-100,4,2,2,55,0,0
8904,-100,4,2,6,55,0,0
8985,-100,4,2,2,55,0,0
9227,-100,4,2,6,55,0,0
9308,-100,4,2,2,55,0,0
9549,-100,4,2,6,55,0,0
9630,-100,4,2,2,55,0,0
9872,-100,4,2,6,55,0,0
9953,-100,4,2,2,55,0,0
10194,-100,4,2,6,55,0,0
10275,-100,4,2,2,55,0,0
10517,-100,4,2,3,55,0,0
10840,-100,4,2,5,55,0,0
11646,-125,4,2,5,55,0,0
11807,-125,4,2,2,55,0,0
21969,-125,4,2,3,55,0,0
22130,-125,4,2,2,55,0,0
22453,-125,4,2,8,55,0,0
22533,-125,4,2,2,55,0,0
22775,-125,4,2,8,55,0,0
22855,-125,4,2,2,55,0,0
23098,-125,4,2,8,55,0,0
23178,-125,4,2,2,55,0,0
23420,-125,4,2,8,55,0,0
23500,-125,4,2,2,55,0,0
23743,-125,4,2,8,55,0,0
23823,-125,4,2,2,55,0,0
24065,-125,4,2,8,55,0,0
24145,-125,4,2,2,55,0,0
24388,-125,4,2,8,55,0,0
24468,-125,4,2,2,55,0,0
24711,-125,4,2,8,55,0,0
24791,-125,4,2,2,55,0,0
25033,-125,4,2,8,55,0,0
25113,-125,4,2,2,55,0,0
25356,-125,4,2,8,55,0,0
25436,-125,4,2,2,55,0,0
25678,-125,4,2,8,55,0,0
25758,-125,4,2,2,55,0,0
26001,-125,4,2,8,55,0,0
26081,-125,4,2,2,55,0,0
26324,-125,4,2,8,55,0,0
26404,-125,4,2,2,55,0,0
26646,-125,4,2,8,55,0,0
26726,-125,4,2,2,55,0,0
26969,-125,4,2,8,55,0,0
27049,-125,4,2,2,55,0,0
27614,-125,4,2,8,55,0,0
27694,-125,4,2,2,55,0,0
27936,-125,4,2,8,55,0,0
28016,-125,4,2,2,55,0,0
28259,-125,4,2,8,55,0,0
28339,-125,4,2,2,55,0,0
28582,-125,4,2,8,55,0,0
28662,-125,4,2,2,55,0,0
28904,-125,4,2,8,55,0,0
28984,-125,4,2,2,55,0,0
29227,-125,4,2,8,55,0,0
29307,-125,4,2,2,55,0,0
29549,-125,4,2,8,55,0,0
29629,-125,4,2,2,55,0,0
29872,-125,4,2,8,55,0,0
29952,-125,4,2,2,55,0,0
30194,-125,4,2,8,55,0,0
30274,-125,4,2,2,55,0,0
30517,-125,4,2,8,55,0,0
30597,-125,4,2,2,55,0,0
30840,-125,4,2,8,55,0,0
30920,-125,4,2,2,55,0,0
31162,-125,4,2,8,55,0,0
31242,-125,4,2,2,55,0,0
31485,-125,4,2,6,55,0,0
31565,-125,4,2,2,55,0,0
31807,-125,4,2,6,55,0,0
31887,-125,4,2,2,55,0,0
32130,-125,4,2,6,55,0,0
32210,-125,4,2,2,55,0,0
32291,-125,4,2,1,55,0,0
32453,-125,4,2,2,55,0,0
32775,-125,4,2,10,55,0,0
32855,-125,4,2,2,55,0,0
33098,-125,4,2,10,55,0,0
33178,-125,4,2,2,55,0,0
33420,-125,4,2,10,55,0,0
33500,-125,4,2,2,55,0,0
33743,-125,4,2,10,55,0,0
33823,-125,4,2,2,55,0,0
34065,-125,4,2,10,55,0,0
34145,-125,4,2,2,55,0,0
34388,-125,4,2,11,55,0,0
34468,-125,4,2,2,55,0,0
34711,-125,4,2,10,55,0,0
34791,-125,4,2,2,55,0,0
35033,-125,4,2,10,55,0,0
35113,-125,4,2,2,55,0,0
35355,-125,4,2,10,55,0,0
35435,-125,4,2,2,55,0,0
35678,-125,4,2,10,55,0,0
35758,-125,4,2,2,55,0,0
36001,-125,4,2,10,55,0,0
36081,-125,4,2,2,55,0,0
36324,-125,4,2,11,55,0,0
36404,-125,4,2,2,55,0,0
36646,-125,4,2,10,55,0,0
36726,-125,4,2,2,55,0,0
36969,-125,4,2,11,55,0,0
37049,-125,4,2,2,55,0,0
37292,-125,4,2,10,55,0,0
37372,-125,4,2,2,55,0,0
37614,-125,4,2,10,55,0,0
37694,-125,4,2,2,55,0,0
37936,-125,4,2,10,55,0,0
38016,-125,4,2,2,55,0,0
38259,-125,4,2,10,55,0,0
38339,-125,4,2,2,55,0,0
38582,-125,4,2,10,55,0,0
38662,-125,4,2,2,55,0,0
38904,-125,4,2,11,55,0,0
38984,-125,4,2,2,55,0,0
39226,-125,4,2,10,55,0,0
39306,-125,4,2,2,55,0,0
39549,-125,4,2,10,55,0,0
39629,-125,4,2,2,55,0,0
39872,-125,4,2,10,55,0,0
39952,-125,4,2,2,55,0,0
40194,-111.111111111111,4,2,2,55,0,0
40517,-111.111111111111,4,2,16,55,0,0
40598,-111.111111111111,4,2,2,55,0,0
40840,-111.111111111111,4,2,16,55,0,0
40921,-111.111111111111,4,2,2,55,0,0
41324,-111.111111111111,4,2,16,55,0,0
41405,-111.111111111111,4,2,2,55,0,0
41485,-111.111111111111,4,2,16,55,0,0
41566,-111.111111111111,4,2,2,55,0,0
41807,-111.111111111111,4,2,16,55,0,0
41888,-111.111111111111,4,2,2,55,0,0
42130,-111.111111111111,4,2,16,55,0,0
42211,-111.111111111111,4,2,2,55,0,0
42775,-100,4,2,1,55,0,0
43098,-100,4,2,6,55,0,0
43178,-100,4,2,2,55,0,0
43420,-100,4,2,6,55,0,0
43500,-100,4,2,2,55,0,0
43743,-100,4,2,6,55,0,0
43823,-100,4,2,2,55,0,0
44065,-100,4,2,7,55,0,0
44145,-100,4,2,2,55,0,0
44388,-100,4,2,6,55,0,0
44468,-100,4,2,2,55,0,0
44711,-100,4,2,6,55,0,0
44791,-100,4,2,2,55,0,0
45033,-100,4,2,6,55,0,0
45113,-100,4,2,2,55,0,0
45356,-100,4,2,6,55,0,0
45436,-100,4,2,2,55,0,0
45679,-100,4,2,6,55,0,0
45759,-100,4,2,2,55,0,0
46002,-100,4,2,6,55,0,0
46082,-100,4,2,2,55,0,0
46324,-100,4,2,6,55,0,0
46404,-100,4,2,2,55,0,0
46646,-100,4,2,6,55,0,0
46726,-100,4,2,2,55,0,0
46969,-100,4,2,6,55,0,0
47049,-100,4,2,2,55,0,0
47292,-100,4,2,6,55,0,0
47372,-100,4,2,2,55,0,0
47614,-100,4,2,6,55,0,0
47694,-100,4,2,2,55,0,0
47936,-100,4,2,6,55,0,0
48016,-100,4,2,2,55,0,0
48259,-100,4,2,6,55,0,0
48339,-100,4,2,2,55,0,0
48582,-100,4,2,6,55,0,0
48662,-100,4,2,2,55,0,0
48904,-100,4,2,6,55,0,0
48984,-100,4,2,2,55,0,0
49227,-100,4,2,6,55,0,0
49307,-100,4,2,2,55,0,0
49550,-100,4,2,6,55,0,0
49630,-100,4,2,2,55,0,0
49873,-100,4,2,6,55,0,0
49953,-100,4,2,2,55,0,0
50195,-100,4,2,6,55,0,0
50275,-100,4,2,2,55,0,0
50517,-100,4,2,6,55,0,0
50597,-100,4,2,2,55,0,0
50840,-100,4,2,6,55,0,0
50920,-100,4,2,2,55,0,0
51163,-100,4,2,6,55,0,0
51243,-100,4,2,2,55,0,0
51485,-100,4,2,6,55,0,0
51565,-100,4,2,2,55,0,0
51807,-100,4,2,7,55,0,0
51887,-100,4,2,2,55,0,0
52130,-100,4,2,6,55,0,0
52210,-100,4,2,2,55,0,0
52453,-100,4,2,6,55,0,0
52533,-100,4,2,2,55,0,0
52775,-100,4,2,6,55,0,0
52855,-100,4,2,2,55,0,0
53098,-111.111111111111,4,2,2,55,0,0
53420,-111.111111111111,4,2,10,55,0,0
53501,-111.111111111111,4,2,2,55,0,0
53743,-111.111111111111,4,2,10,55,0,0
53824,-111.111111111111,4,2,2,55,0,0
54065,-111.111111111111,4,2,10,55,0,0
54146,-111.111111111111,4,2,2,55,0,0
54388,-111.111111111111,4,2,10,55,0,0
54469,-111.111111111111,4,2,2,55,0,0
54711,-111.111111111111,4,2,10,55,0,0
54792,-111.111111111111,4,2,2,55,0,0
55033,-111.111111111111,4,2,10,55,0,0
55114,-111.111111111111,4,2,2,55,0,0
55356,-111.111111111111,4,2,10,55,0,0
55437,-111.111111111111,4,2,2,55,0,0
55678,-111.111111111111,4,2,10,55,0,0
55759,-111.111111111111,4,2,2,55,0,0
56001,-111.111111111111,4,2,10,55,0,0
56082,-111.111111111111,4,2,2,55,0,0
56323,-111.111111111111,4,2,11,55,0,0
56404,-111.111111111111,4,2,2,55,0,0
56646,-111.111111111111,4,2,10,55,0,0
56727,-111.111111111111,4,2,2,55,0,0
56969,-111.111111111111,4,2,10,55,0,0
57050,-111.111111111111,4,2,2,55,0,0
57292,-111.111111111111,4,2,10,55,0,0
57373,-111.111111111111,4,2,2,55,0,0
57614,-111.111111111111,4,2,10,55,0,0
57695,-111.111111111111,4,2,2,55,0,0
57937,-111.111111111111,4,2,10,55,0,0
58018,-111.111111111111,4,2,2,55,0,0
58259,-111.111111111111,4,2,10,55,0,0
58340,-111.111111111111,4,2,2,55,0,0
58582,-111.111111111111,4,2,10,55,0,0
58663,-111.111111111111,4,2,2,55,0,0
58904,-111.111111111111,4,2,10,55,0,0
58985,-111.111111111111,4,2,2,55,0,0
59227,-111.111111111111,4,2,10,55,0,0
59308,-111.111111111111,4,2,2,55,0,0
59549,-111.111111111111,4,2,10,55,0,0
59630,-111.111111111111,4,2,2,55,0,0
59872,-111.111111111111,4,2,10,55,0,0
59953,-111.111111111111,4,2,2,55,0,0
60194,-111.111111111111,4,2,11,55,0,0
60275,-111.111111111111,4,2,2,55,0,0
60517,-111.111111111111,4,2,10,55,0,0
60598,-111.111111111111,4,2,2,55,0,0
60840,-111.111111111111,4,2,10,55,0,0
60921,-111.111111111111,4,2,2,55,0,0
61001,-100,4,2,2,55,0,0
61163,-100,4,2,10,55,0,0
61244,-100,4,2,2,55,0,0
61485,-100,4,2,10,55,0,0
61566,-100,4,2,2,55,0,0
61808,-100,4,2,10,55,0,0
61889,-100,4,2,2,55,0,0
63420,-100,4,2,1,55,0,0
63582,-100,4,2,2,55,0,0
63743,-100,4,2,3,55,0,0
64065,-100,4,2,6,55,0,0
64146,-100,4,2,2,55,0,0
64388,-100,4,2,6,55,0,0
64469,-100,4,2,2,55,0,0
64711,-100,4,2,6,55,0,0
64792,-100,4,2,2,55,0,0
65033,-100,4,2,6,55,0,0
65114,-100,4,2,2,55,0,0
65356,-100,4,2,6,55,0,0
65437,-100,4,2,2,55,0,0
65678,-100,4,2,6,55,0,0
65759,-100,4,2,2,55,0,0
66001,-100,4,2,6,55,0,0
66082,-100,4,2,2,55,0,0
66324,-100,4,2,6,55,0,0
66405,-100,4,2,2,55,0,0
66646,-100,4,2,6,55,0,0
66727,-100,4,2,2,55,0,0
66969,-100,4,2,6,55,0,0
67050,-100,4,2,2,55,0,0
67291,-100,4,2,6,55,0,0
67372,-100,4,2,2,55,0,0
67614,-100,4,2,5,55,0,0
68582,-100,4,2,2,55,0,0
68904,-100,4,2,6,55,0,0
68985,-100,4,2,2,55,0,0
69227,-100,4,2,6,55,0,0
69308,-100,4,2,2,55,0,0
69549,-100,4,2,6,55,0,0
69630,-100,4,2,2,55,0,0
69872,-100,4,2,6,55,0,0
69953,-100,4,2,2,55,0,0
70194,-100,4,2,6,55,0,0
70275,-100,4,2,2,55,0,0
70517,-100,4,2,6,55,0,0
70598,-100,4,2,2,55,0,0
70840,-100,4,2,6,55,0,0
70921,-100,4,2,2,55,0,0
71162,-100,4,2,6,55,0,0
71243,-100,4,2,2,55,0,0
71485,-100,4,2,6,55,0,0
71566,-100,4,2,2,55,0,0
71807,-100,4,2,6,55,0,0
71888,-100,4,2,2,55,0,0
72130,-100,4,2,6,55,0,0
72211,-100,4,2,2,55,0,0
72453,-100,4,2,6,55,0,0
72534,-100,4,2,2,55,0,0
72775,-100,4,2,5,55,0,0
73743,-100,4,2,1,55,0,0
74065,-100,4,2,15,55,0,0
74146,-100,4,2,2,55,0,0
74388,-100,4,2,15,55,0,0
74469,-100,4,2,2,55,0,0
74711,-100,4,2,15,55,0,0
74792,-100,4,2,2,55,0,0
75033,-100,4,2,15,55,0,0
75114,-100,4,2,2,55,0,0
75356,-100,4,2,15,55,0,0
75437,-100,4,2,2,55,0,0
75678,-100,4,2,15,55,0,0
75759,-100,4,2,2,55,0,0
76001,-100,4,2,15,55,0,0
76082,-100,4,2,2,55,0,0
76324,-100,4,2,15,55,0,0
76405,-100,4,2,2,55,0,0
76646,-100,4,2,15,55,0,0
76727,-100,4,2,2,55,0,0
76969,-100,4,2,15,55,0,0
77050,-100,4,2,2,55,0,0
77291,-100,4,2,15,55,0,0
77372,-100,4,2,2,55,0,0
77614,-100,4,2,15,55,0,0
77695,-100,4,2,2,55,0,0
77936,-100,4,2,15,55,0,0
78017,-100,4,2,2,55,0,0
78259,-100,4,2,15,55,0,0
78340,-100,4,2,2,55,0,0
78582,-100,4,2,15,55,0,0
78663,-100,4,2,2,55,0,0
78904,-100,4,2,15,55,0,0
78985,-100,4,2,2,55,0,0
79227,-100,4,2,15,55,0,0
79308,-100,4,2,2,55,0,0
79549,-100,4,2,15,55,0,0
79630,-100,4,2,2,55,0,0
79872,-100,4,2,15,55,0,0
79953,-100,4,2,2,55,0,0
80194,-100,4,2,15,55,0,0
80275,-100,4,2,2,55,0,0
80517,-100,4,2,15,55,0,0
80598,-100,4,2,2,55,0,0
80840,-100,4,2,15,55,0,0
80921,-100,4,2,2,55,0,0
81162,-100,4,2,15,55,0,0
81243,-100,4,2,2,55,0,0
81485,-100,4,2,15,55,0,0
81566,-100,4,2,2,55,0,0
81807,-100,4,2,15,55,0,0
81888,-100,4,2,2,55,0,0
82130,-100,4,2,15,55,0,0
82211,-100,4,2,2,55,0,0
82453,-100,4,2,15,55,0,0
82534,-100,4,2,2,55,0,0
82775,-100,4,2,15,55,0,0
82856,-100,4,2,2,55,0,0
83098,-100,4,2,16,55,0,0
83178,-100,4,2,2,55,0,0
83420,-100,4,2,16,55,0,0
83500,-100,4,2,2,55,0,0
83743,-100,4,2,16,55,0,0
83823,-100,4,2,2,55,0,0

[Colours]
Combo1 : 116,173,190
Combo2 : 255,125,129
Combo3 : 145,254,133
Combo4 : 102,205,255
Combo5 : 224,160,73

[HitObjects]
42,48,195,5,10,0:2:0:0:
95,115,356,1,10,0:2:0:0:
95,115,1485,6,0,P|151:96|230:86,1,140,14|8,0:1|0:2,0:0:0:0:
304,41,1969,1,2,0:2:0:0:
361,106,2130,2,0,P|349:145|344:192,1,70,8|8,0:1|0:1,0:0:0:0:
401,245,2453,2,0,P|439:232|486:226,1,70,8|0,0:2|0:0,0:0:0:0:
403,346,2775,6,0,P|365:315|276:325,1,140,10|8,0:1|0:2,0:0:0:0:
208,274,3259,1,2,0:2:0:0:
146,344,3420,2,0,P|137:310|125:277,1,70,8|8,0:1|0:1,0:0:0:0:
58,229,3743,2,0,P|66:195|78:162,1,70,8|0,0:2|0:0,0:0:0:0:
29,84,4065,5,10,0:1:0:0:
29,84,4227,1,8,0:1:0:0:
106,46,4388,1,8,0:2:0:0:
158,114,4549,2,0,P|199:100|293:81,1,140,2|8,0:2|0:1,0:0:0:0:
365,26,5033,2,0,P|376:58|382:93,1,70,8|0,0:2|0:0,0:0:0:0:
451,168,5356,6,0,P|408:177|371:197,1,70,10|8,0:1|0:1,0:0:0:0:
335,262,5678,2,0,L|256:244,1,70,10|8,0:2|0:1,0:0:0:0:
185,273,6001,1,10,0:2:0:0:
129,207,6162,1,8,0:1:0:0:
62,261,6324,2,0,P|79:312|84:350,1,70,10|8,0:2|0:1,0:0:0:0:
167,384,6646,6,0,P|205:354|296:352,1,140,14|8,0:1|0:2,0:0:0:0:
355,288,7130,1,2,0:2:0:0:
422,353,7291,2,0,P|430:313|445:270,1,70,8|8,0:1|0:1,0:0:0:0:
508,221,7614,2,0,P|499:178|479:131,1,70,8|0,0:2|0:0,0:0:0:0:
426,89,7936,5,10,0:1:0:0:
426,89,8098,1,8,0:1:0:0:
373,161,8259,2,0,P|336:149|282:140,1,70,8|2,0:2|0:2,0:0:0:0:
239,82,8581,1,8,0:1:0:0:
239,82,8743,1,8,0:1:0:0:
179,143,8904,2,0,P|196:181|201:217,1,70,8|0,0:2|0:0,0:0:0:0:
143,280,9227,6,0,P|106:269|60:268,1,70,10|8,0:1|0:1,0:0:0:0:
14,207,9549,1,8,0:2:0:0:
76,147,9711,2,0,P|86:98|44:15,1,140,2|8,0:2|0:1,0:0:0:0:
119,82,10194,2,0,P|152:67|192:59,1,70,8|0,0:2|0:0,0:0:0:0:
244,5,10517,1,14,0:1:0:0:
244,5,10678,1,8,0:1:0:0:
317,52,10840,2,0,P|308:91|301:127,1,70,14|8,0:2|0:1,0:0:0:0:
277,129,11082,1,8,0:1:0:0:
277,129,11162,2,0,P|228:117|214:116,3,35,14|8|8|8,0:2|0:1|0:1|0:1,0:0:0:0:
207,130,11485,1,14,0:2:0:0:
256,209,11646,5,8,0:1:0:0:
256,209,11727,1,8,0:1:0:0:
256,209,11807,2,0,P|270:253|281:325,1,112,14|8,0:1|0:2,0:0:0:0:
342,370,12291,1,8,0:1:0:0:
342,370,12453,1,8,0:1:0:0:
461,294,12775,5,10,0:2:0:0:
461,294,12936,2,0,P|469:238|485:185,1,112,10|8,0:1|0:1,0:0:0:0:
445,117,13420,1,10,0:2:0:0:
445,117,13582,2,0,P|391:110|346:172,1,112,10|8,0:1|0:1,0:0:0:0:
381,220,14065,1,10,0:2:0:0:
236,276,14388,6,0,P|252:329|262:384,2,112,10|10|10,0:1|0:2|0:1,0:0:0:0:
121,213,15355,1,10,0:2:0:0:
121,213,15517,2,0,P|52:217|11:177,1,112,8|8,0:1|0:1,0:0:0:0:
83,140,16001,2,0,P|91:99|96:70,1,56,8|8,0:2|0:1,0:0:0:0:
159,35,16324,1,8,0:1:0:0:
159,35,16485,1,8,0:1:0:0:
220,95,16646,2,0,P|257:83|294:78,1,56,10|0,0:2|0:0,0:0:0:0:
342,35,16969,6,0,P|323:74|323:158,2,112,14|10|10,0:1|0:2|0:1,0:0:0:0:
449,125,17936,1,10,0:2:0:0:
449,125,18098,2,0,P|435:169|421:256,1,112,8|8,0:1|0:1,0:0:0:0:
378,300,18582,2,0,P|343:286|304:278,1,56,10|8,0:2|0:1,0:0:0:0:
236,255,18904,2,0,P|249:308|250:331,1,56,10|8,0:1|0:1,0:0:0:0:
310,363,19227,1,10,0:2:0:0:
145,285,19549,6,0,P|153:230|175:150,1,112,10|10,0:1|0:2,0:0:0:0:
131,107,20033,1,8,0:1:0:0:
131,107,20194,1,8,0:1:0:0:
249,24,20517,1,8,0:2:0:0:
312,74,20678,5,10,0:1:0:0:
312,74,20840,2,0,P|346:62|377:59,1,56,2|10,0:2|0:1,0:0:0:0:
386,136,21162,2,0,P|358:140|332:150,1,56,10|10,0:2|0:1,0:0:0:0:
290,218,21485,2,0,P|308:281|315:342,1,112,2|10,0:2|0:3,0:0:0:0:
255,378,21969,1,10,0:3:0:0:
255,378,22130,1,12,0:1:0:0:
187,321,22291,5,2,0:2:0:0:
109,358,22453,2,0,P|101:317|149:249,1,112,10|8,0:2|0:1,0:0:0:0:
134,172,22936,2,0,P|171:190|201:194,1,56,8|8,0:1|0:2,0:0:0:0:
259,155,23259,1,2,0:2:0:0:
321,219,23420,5,10,0:1:0:0:
321,219,23582,2,0,P|311:258|310:289,1,56,2|8,0:2|0:2,0:0:0:0:
361,340,23904,1,2,0:2:0:0:
433,297,24065,1,10,0:1:0:0:
433,297,24227,2,0,P|436:269|444:242,1,56,10|8,0:1|0:2,0:0:0:0:
509,184,24550,1,10,0:1:0:0:
456,112,24711,6,0,P|406:102|335:76,1,112,8|10,0:1|0:2,0:0:0:0:
306,14,25194,1,0,0:0:0:0:
234,48,25356,2,0,P|221:82|218:116,1,56,8|8,0:1|0:1,0:0:0:0:
168,168,25678,2,0,P|214:181|237:194,1,56,10|2,0:2|0:2,0:0:0:0:
300,160,26001,5,10,0:1:0:0:
355,227,26162,2,0,P|364:277|317:339,1,112,2|2,0:2|0:2,0:0:0:0:
261,292,26646,1,10,0:1:0:0:
210,369,26807,2,0,P|169:357|136:349,1,56,10|8,0:1|0:2,0:0:0:0:
72,378,27130,5,10,0:1:0:0:
72,378,27291,2,0,P|71:322|122:269,1,112,14|8,0:1|0:2,0:0:0:0:
164,219,27775,1,0,0:0:0:0:
104,163,27936,2,0,P|98:123|86:88,1,56,8|8,0:1|0:1,0:0:0:0:
63,24,28259,2,0,P|106:34|137:35,1,56,10|0,0:2|0:0,0:0:0:0:
188,98,28582,6,0,P|216:73|298:74,1,112,10|10,0:1|0:2,0:0:0:0:
358,22,29065,1,0,0:0:0:0:
416,85,29227,2,0,P|411:122|402:146,1,56,10|8,0:1|0:1,0:0:0:0:
326,168,29549,2,0,P|331:205|340:229,1,56,10|0,0:2|0:0,0:0:0:0:
345,307,29872,6,0,P|303:325|241:280,1,112,10|10,0:1|0:2,0:0:0:0:
166,315,30356,1,0,0:0:0:0:
166,315,30517,2,0,P|173:263|194:191,1,112,10|10,0:1|0:2,0:0:0:0:
129,68,31162,6,0,P|91:79|62:86,1,56,10|0,0:1|0:0,0:0:0:0:
20,150,31485,2,0,P|47:157|73:164,1,56,8|0,0:2|0:0,0:0:0:0:
123,234,31807,1,10,0:1:0:0:
198,180,31969,1,8,0:1:0:0:
252,254,32130,1,10,0:2:0:0:
252,254,32291,1,4,0:3:0:0:
324,205,32453,6,0,P|339:267|319:314,1,112,14|8,0:1|0:2,0:0:0:0:
375,371,32936,2,0,P|416:357|493:343,1,112,2|8,0:2|0:1,0:0:0:0:
503,270,33420,2,0,P|491:238|483:202,1,56,10|8,0:2|0:1,0:0:0:0:
512,146,33743,1,2,0:3:0:0:
402,56,34065,2,0,P|361:73|281:92,1,112,10|2,0:2|0:3,0:0:0:0:
226,44,34549,1,8,0:1:0:0:
226,44,34711,2,0,P|216:77|212:119,1,56,10|0,0:2|0:0,0:0:0:0:
155,159,35033,5,8,0:1:0:0:
155,159,35194,1,8,0:1:0:0:
86,108,35356,2,0,P|52:119|7:122,1,56,10|0,0:2|0:0,0:0:0:0:
4,196,35678,1,8,0:1:0:0:
4,196,35840,2,0,P|15:235|16:267,1,56,10|8,0:1|0:2,0:0:0:0:
71,309,36162,1,8,0:1:0:0:
71,309,36324,2,0,P|105:298|150:295,1,56,2|8,0:3|0:1,0:0:0:0:
177,236,36646,1,10,0:2:0:0:
246,288,36807,5,2,0:2:0:0:
246,288,36969,2,0,P|236:324|233:355,1,56,2|8,0:3|0:1,0:0:0:0:
304,382,37291,1,10,0:2:0:0:
364,326,37453,2,0,P|396:337|431:344,1,56,2|8,0:2|0:1,0:0:0:0:
487,300,37775,1,10,0:1:0:0:
487,300,37936,2,0,P|486:262|475:224,1,56,10|2,0:2|0:2,0:0:0:0:
496,154,38259,2,0,P|453:167|426:169,1,56,10|8,0:1|0:1,0:0:0:0:
376,232,38582,2,0,P|343:218|303:213,1,56,10|8,0:2|0:1,0:0:0:0:
256,148,38904,6,0,P|230:197|237:252,2,112,2|8|2,0:3|0:2|0:3,0:0:0:0:
332,109,39711,1,10,0:1:0:0:
332,109,39872,1,10,0:2:0:0:
256,58,40033,1,2,0:2:0:0:
181,104,40194,6,0,P|154:96|97:85,1,62.9999980773926,14|8,0:1|0:1,0:0:0:0:
51,139,40517,1,10,0:2:0:0:
51,139,40678,1,10,0:1:0:0:
108,208,40840,2,0,P|120:251|124:283,1,62.9999980773926,10|8,0:2|0:1,0:0:0:0:
181,329,41162,1,10,0:1:0:0:
234,263,41323,1,8,0:2:0:0:
300,316,41485,6,0,P|339:323|382:338,1,62.9999980773926,10|8,0:2|0:1,0:0:0:0:
434,290,41807,2,0,P|426:250|421:210,1,62.9999980773926,10|8,0:2|0:1,0:0:0:0:
356,172,42130,2,0,P|365:146|370:128,3,31.4999990386963,10|8|8|8,0:2|0:2|0:2|0:2,0:0:0:0:
397,119,42453,2,0,P|391:104|386:89,3,31.4999990386963,8|8|10|8,0:2|0:2|0:2|0:2,0:0:0:0:
352,55,42775,6,0,P|301:73|263:79,1,70,14|10,0:1|0:1,0:0:0:0:
236,137,43098,2,0,P|192:122|160:117,1,70,10|2,0:2|0:2,0:0:0:0:
104,65,43421,1,10,0:1:0:0:
104,65,43582,1,10,0:1:0:0:
36,116,43743,2,0,P|50:161|56:211,1,70,10|10,0:2|0:1,0:0:0:0:
17,266,44065,6,0,P|61:227|143:235,1,140,2|10,0:3|0:2,0:0:0:0:
192,302,44549,2,0,P|234:288|335:274,1,140,2|8,0:2|0:1,0:0:0:0:
390,225,45033,2,0,P|378:186|376:152,1,70,8|2,0:2|0:2,0:0:0:0:
320,95,45356,5,10,0:1:0:0:
320,95,45517,1,10,0:1:0:0:
376,30,45678,2,0,P|417:42|452:46,1,70,10|2,0:2|0:2,0:0:0:0:
511,104,46001,2,0,P|494:143|485:192,1,70,10|10,0:1|0:1,0:0:0:0:
512,251,46324,1,10,0:2:0:0:
512,251,46485,1,2,0:2:0:0:
435,294,46646,6,0,P|392:273|354:275,1,70,10|10,0:1|0:1,0:0:0:0:
299,225,46969,1,10,0:2:0:0:
257,314,47130,2,0,P|187:319|123:254,1,140,10|8,0:1|0:1,0:0:0:0:
166,202,47614,1,8,0:2:0:0:
101,155,47775,5,2,0:2:0:0:
101,155,47936,1,10,0:1:0:0:
154,89,48098,2,0,P|206:103|295:116,1,140,10|2,0:1|0:2,0:0:0:0:
346,189,48582,1,10,0:1:0:0:
346,189,48743,1,10,0:1:0:0:
276,240,48904,2,0,P|264:275|260:325,1,70,10|10,0:2|0:1,0:0:0:0:
332,373,49227,6,0,P|396:376|449:314,1,140,2|10,0:3|0:2,0:0:0:0:
512,264,49711,2,0,P|503:206|478:120,1,140,2|8,0:2|0:1,0:0:0:0:
417,90,50194,1,8,0:2:0:0:
365,161,50356,1,2,0:2:0:0:
298,90,50517,6,0,P|258:109|216:116,1,70,10|10,0:1|0:1,0:0:0:0:
181,184,50840,2,0,P|139:167|88:164,1,70,10|2,0:2|0:2,0:0:0:0:
49,97,51162,1,8,0:1:0:0:
4,169,51324,1,8,0:1:0:0:
75,232,51485,2,0,P|88:283|89:325,1,70,10|10,0:2|0:1,0:0:0:0:
160,364,51807,6,0,P|222:345|318:328,1,140,2|10,0:3|0:2,0:0:0:0:
373,375,52291,1,10,0:1:0:0:
431,312,52453,2,0,P|428:259|409:226,1,70,8|8,0:2|0:1,0:0:0:0:
354,189,52775,2,0,P|316:213|272:221,1,70,8|10,0:2|0:1,0:0:0:0:
272,210,53017,1,10,0:1:0:0:
272,210,53098,6,0,P|278:151|302:71,2,125.999996154785,14|10|10,0:1|0:2|0:1,0:0:0:0:
219,284,53904,1,8,0:1:0:0:
140,241,54065,2,0,P|77:245|40:182,1,125.999996154785,10|8,0:2|0:1,0:0:0:0:
91,139,54549,1,8,0:1:0:0:
32,75,54710,5,10,0:2:0:0:
32,75,54872,2,0,P|94:64|175:47,1,125.999996154785,10|8,0:1|0:1,0:0:0:0:
224,91,55356,2,0,P|213:136|211:169,1,62.9999980773926,8|8,0:2|0:1,0:0:0:0:
189,241,55678,6,0,P|235:225|274:226,1,62.9999980773926,10|8,0:1|0:1,0:0:0:0:
306,168,56001,2,0,P|352:183|391:182,1,62.9999980773926,10|8,0:2|0:1,0:0:0:0:
435,137,56324,1,2,0:3:0:0:
435,137,56485,1,8,0:1:0:0:
483,199,56646,2,0,P|470:232|464:272,1,62.9999980773926,10|8,0:2|0:1,0:0:0:0:
480,348,56969,6,0,P|446:337|406:333,1,62.9999980773926,10|8,0:1|0:1,0:0:0:0:
362,270,57291,1,8,0:2:0:0:
299,327,57453,2,0,P|256:353|178:347,1,125.999996154785,8|8,0:1|0:1,0:0:0:0:
107,364,57936,2,0,P|111:326|124:292,1,62.9999980773926,10|0,0:2|0:0,0:0:0:0:
190,269,58259,5,10,0:1:0:0:
190,269,58420,1,8,0:1:0:0:
133,208,58582,2,0,P|90:217|55:228,1,62.9999980773926,8|0,0:2|0:0,0:0:0:0:
22,151,58904,1,10,0:1:0:0:
22,151,59065,1,8,0:1:0:0:
78,90,59227,2,0,P|121:99|156:110,1,62.9999980773926,8|0,0:2|0:0,0:0:0:0:
209,65,59549,5,10,0:1:0:0:
209,65,59711,1,8,0:1:0:0:
269,122,59872,2,0,P|259:162|254:198,1,62.9999980773926,10|8,0:2|0:1,0:0:0:0:
193,229,60194,2,0,P|203:269|209:305,1,62.9999980773926,2|8,0:3|0:1,0:0:0:0:
271,348,60517,2,0,P|308:331|408:322,1,125.999996154785,10|10,0:2|0:1,0:0:0:0:
462,374,61001,1,8,0:1:0:0:
492,280,61162,6,0,P|488:224|463:191,1,70,10|8,0:2|0:1,0:0:0:0:
397,143,61485,2,0,P|350:165|314:172,1,70,10|8,0:2|0:1,0:0:0:0:
255,228,61807,1,8,0:2:0:0:
192,164,61969,1,8,0:1:0:0:
110,229,62130,6,0,P|101:171|86:135,1,70,12|8,0:1|0:2,0:0:0:0:
90,151,62372,1,8,0:2:0:0:
90,151,62453,2,0,P|97:116|104:97,3,35,8|8|8|8,0:2|0:2|0:2|0:2,0:0:0:0:
87,85,62775,2,0,P|116:75|138:64,3,35,10|8|8|8,0:2|0:2|0:2|0:2,0:0:0:0:
141,50,63098,2,0,P|167:58|193:61,3,35,8|8|8|8,0:2|0:2|0:2|0:2,0:0:0:0:
215,39,63420,6,0,P|231:97|243:161,1,105,10|4,0:3|0:3,0:0:0:0:
258,159,63743,6,0,P|311:136|405:120,1,140,14|8,0:1|0:1,0:0:0:0:
460,179,64227,1,8,0:1:0:0:
417,257,64388,2,0,P|376:243|320:237,1,70,8|0,0:2|0:0,0:0:0:0:
281,298,64711,5,10,0:1:0:0:
281,298,64872,1,8,0:1:0:0:
211,230,65033,2,0,P|198:265|195:303,1,70,8|2,0:2|0:2,0:0:0:0:
131,360,65356,1,8,0:1:0:0:
131,360,65517,1,8,0:1:0:0:
64,299,65678,2,0,P|55:253|35:220,1,70,8|0,0:2|0:0,0:0:0:0:
13,141,66001,6,0,P|58:154|91:156,1,70,10|8,0:1|0:1,0:0:0:0:
143,103,66324,1,8,0:2:0:0:
197,182,66485,2,0,P|238:157|342:140,1,140,2|8,0:2|0:1,0:0:0:0:
423,100,66969,2,0,P|412:142|408:177,1,70,8|0,0:2|0:0,0:0:0:0:
348,231,67291,5,10,0:1:0:0:
348,231,67453,1,8,0:1:0:0:
419,305,67614,1,14,0:2:0:0:
419,305,67775,1,8,0:1:0:0:
336,370,67936,2,0,P|279:352|244:346,1,70,14|8,0:2|0:1,0:0:0:0:
177,379,68259,2,0,P|177:339|200:302,1,70,14|8,0:2|0:1,0:0:0:0:
259,263,68582,6,0,P|250:215|233:118,1,140,14|10,0:1|0:2,0:0:0:0:
167,64,69065,1,0,0:0:0:0:
109,127,69227,2,0,P|66:115|33:111,1,70,10|8,0:1|0:1,0:0:0:0:
2,196,69549,2,0,P|19:233|30:277,1,70,10|0,0:2|0:0,0:0:0:0:
10,349,69872,5,10,0:1:0:0:
10,349,70033,1,8,0:1:0:0:
101,297,70194,2,0,P|156:310|196:317,1,70,8|0,0:2|0:0,0:0:0:0:
242,262,70517,1,10,0:1:0:0:
242,262,70678,1,8,0:1:0:0:
311,336,70840,2,0,P|319:296|344:260,1,70,8|0,0:2|0:0,0:0:0:0:
425,227,71162,6,0,P|415:177|397:82,1,140,10|8,0:1|0:2,0:0:0:0:
329,30,71646,1,2,0:2:0:0:
329,30,71807,2,0,P|283:50|248:55,1,70,8|8,0:1|0:1,0:0:0:0:
171,27,72130,2,0,P|190:81|196:117,1,70,10|0,0:2|0:0,0:0:0:0:
268,152,72453,5,10,0:1:0:0:
268,152,72614,1,8,0:1:0:0:
211,217,72775,2,0,P|165:207|128:200,1,70,14|8,0:2|0:1,0:0:0:0:
124,287,73098,2,0,P|158:293|192:301,1,70,14|8,0:2|0:1,0:0:0:0:
254,363,73420,1,14,0:2:0:0:
325,308,73582,1,8,0:1:0:0:
397,377,73743,6,0,P|422:326|401:243,1,140,14|8,0:1|0:2,0:0:0:0:
341,178,74227,1,10,0:1:0:0:
269,247,74388,2,0,P|210:231|120:217,1,140,10|10,0:2|0:1,0:0:0:0:
44,243,74872,2,0,P|55:198|64:158,1,70,10|8,0:2|0:1,0:0:0:0:
28,98,75194,1,10,0:2:0:0:
94,45,75356,2,0,P|126:57|171:66,1,70,10|8,0:1|0:1,0:0:0:0:
254,36,75678,2,0,P|237:84|233:126,1,70,10|8,0:2|0:1,0:0:0:0:
298,179,76001,2,0,P|313:129|320:84,1,70,10|8,0:1|0:1,0:0:0:0:
394,60,76324,5,10,0:1:0:0:
394,60,76485,1,10,0:1:0:0:
456,120,76646,2,0,P|442:158|438:193,1,70,8|10,0:2|0:1,0:0:0:0:
498,262,76969,2,0,P|442:265|350:297,1,140,10|10,0:2|0:1,0:0:0:0:
309,375,77453,2,0,P|274:327|287:236,1,140,10|10,0:2|0:2,0:0:0:0:
350,198,77936,1,10,0:1:0:0:
350,198,78098,1,8,0:1:0:0:
261,149,78259,2,0,P|210:168|178:173,1,70,10|8,0:2|0:1,0:0:0:0:
139,233,78582,2,0,P|101:215|60:213,1,70,8|8,0:1|0:1,0:0:0:0:
14,154,78904,6,0,P|20:112|38:76,1,70,10|10,0:1|0:1,0:0:0:0:
93,25,79227,1,8,0:2:0:0:
145,97,79388,1,10,0:1:0:0:
217,42,79549,2,0,P|269:54|308:57,1,70,10|8,0:2|0:1,0:0:0:0:
387,27,79872,1,10,0:1:0:0:
341,108,80033,2,0,P|325:159|310:248,1,140,10|10,0:2|0:2,0:0:0:0:
241,296,80517,2,0,P|198:281|166:280,1,70,10|8,0:1|0:1,0:0:0:0:
105,337,80840,1,10,0:2:0:0:
105,337,81001,1,8,0:1:0:0:
44,268,81162,2,0,P|47:231|73:192,1,70,8|8,0:1|0:1,0:0:0:0:
58,118,81485,6,0,P|97:135|141:140,1,70,10|8,0:1|0:1,0:0:0:0:
196,98,81807,1,10,0:2:0:0:
250,164,81969,1,8,0:1:0:0:
314,107,82130,2,0,P|310:68|297:33,1,70,10|8,0:2|0:1,0:0:0:0:
373,0,82453,2,0,P|416:18|453:23,1,70,10|8,0:2|0:1,0:0:0:0:
490,100,82775,2,0,P|477:142|470:198,1,70,8|8,0:1|0:1,0:0:0:0:
403,217,83098,2,0,P|416:259|423:315,1,70,10|8,0:2|0:1,0:0:0:0:
355,353,83420,1,10,0:2:0:0:
298,284,83582,1,8,0:1:0:0:
225,338,83743,2,0,P|179:323|140:317,1,70,10|8,0:2|0:1,0:0:0:0:
256,192,84065,12,0,86484,0:0:0:0:
