osu file format v14

[General]
AudioFilename: audio.mp3
AudioLeadIn: 0
PreviewTime: 42533
Countdown: 0
SampleSet: Soft
StackLeniency: 0.3
Mode: 0
LetterboxInBreaks: 0
WidescreenStoryboard: 1

[Editor]
Bookmarks: 73743
DistanceSpacing: 1
BeatDivisor: 4
GridSize: 16
TimelineZoom: 1.699999

[Metadata]
Title:Reincarnation (TV Size)
TitleUnicode:輪廻 (TV Size)
Artist:V.W.P
ArtistUnicode:V.W.P
Creator:kyomii-
Version:Mathew's Normal
Source:マブラヴ オルタネイティヴ
Tags:kuki1537 midorijeon koldnoodl rvmathew muv luv muv-luv alternative op opening jpop j-pop j pop japanese iori kanzaki 花譜 kaf 理芽 rim 春猿火 harusaruhi ヰ世界情緒 isekaijoucho 幸祜 koko マブラヴ kamitsubaki studio rinne virtual witch phenomenon anime
BeatmapID:3452007
BeatmapSetID:1675997

[Difficulty]
HPDrainRate:3
CircleSize:3
OverallDifficulty:4
ApproachRate:5
SliderMultiplier:0.999999999999999
SliderTickRate:1

[Events]
//Background and Video events
0,0,"bg.png",0,0
//Break Periods
//Storyboard Layer 0 (Background)
//Storyboard Layer 1 (Fail)
//Storyboard Layer 2 (Pass)
//Storyboard Layer 3 (Foreground)
//Storyboard Layer 4 (Overlay)
//Storyboard Sound Samples

[TimingPoints]
195,322.58064516129,4,2,16,55,1,0
517,-100,4,2,1,55,0,0
1162,-100,4,2,1,55,0,0
1485,322.58064516129,4,2,1,55,1,0
1485,-100,4,2,1,65,0,0
1807,-100,4,2,6,65,0,0
1888,-100,4,2,2,65,0,0
2130,-100,4,2,6,65,0,0
2211,-100,4,2,2,65,0,0
2453,-100,4,2,6,65,0,0
2534,-100,4,2,2,65,0,0
2775,-100,4,2,6,65,0,0
2856,-100,4,2,2,65,0,0
3098,-100,4,2,6,65,0,0
3179,-100,4,2,2,65,0,0
3420,-100,4,2,6,65,0,0
3501,-100,4,2,2,65,0,0
3743,-100,4,2,6,65,0,0
3824,-100,4,2,2,65,0,0
4065,-100,4,2,6,65,0,0
4146,-100,4,2,2,65,0,0
4388,-100,4,2,6,65,0,0
4469,-100,4,2,2,65,0,0
4711,-100,4,2,6,65,0,0
4792,-100,4,2,2,65,0,0
5033,-100,4,2,6,65,0,0
5114,-100,4,2,2,65,0,0
5356,-100,4,2,6,65,0,0
5437,-100,4,2,2,65,0,0
5678,-100,4,2,6,65,0,0
5759,-100,4,2,2,65,0,0
6001,-100,4,2,6,65,0,0
6082,-100,4,2,2,65,0,0
6324,-100,4,2,6,65,0,0
6405,-100,4,2,2,65,0,0
6969,-100,4,2,6,65,0,0
7050,-100,4,2,2,65,0,0
7291,-100,4,2,6,65,0,0
7372,-100,4,2,2,65,0,0
7614,-100,4,2,6,65,0,0
7695,-100,4,2,2,65,0,0
7936,-100,4,2,6,65,0,0
8017,-100,4,2,2,65,0,0
8259,-100,4,2,6,65,0,0
8340,-100,4,2,2,65,0,0
8582,-100,4,2,6,65,0,0
8663,-100,4,2,2,65,0,0
8904,-100,4,2,6,65,0,0
8985,-100,4,2,2,65,0,0
9227,-100,4,2,6,65,0,0
9308,-100,4,2,2,65,0,0
9549,-100,4,2,6,65,0,0
9630,-100,4,2,2,65,0,0
9872,-100,4,2,6,65,0,0
9953,-100,4,2,2,65,0,0
10194,-100,4,2,6,65,0,0
10275,-100,4,2,2,65,0,0
10517,-100,4,2,3,65,0,0
10840,-100,4,2,5,65,0,0
11162,-100,4,2,5,65,0,0
11807,-100,4,2,2,40,0,0
20840,-100,4,2,2,40,0,0
21969,-100,4,2,3,55,0,0
22130,-100,4,2,2,55,0,0
22453,-100,4,2,8,55,0,0
22533,-100,4,2,2,55,0,0
22775,-100,4,2,8,55,0,0
22855,-100,4,2,2,55,0,0
23098,-100,4,2,8,55,0,0
23178,-100,4,2,2,55,0,0
23420,-100,4,2,8,55,0,0
23500,-100,4,2,2,55,0,0
23743,-100,4,2,8,55,0,0
23823,-100,4,2,2,55,0,0
24065,-100,4,2,8,55,0,0
24145,-100,4,2,2,55,0,0
24388,-100,4,2,8,55,0,0
24468,-100,4,2,2,55,0,0
24711,-100,4,2,8,55,0,0
24791,-100,4,2,2,55,0,0
25033,-100,4,2,8,55,0,0
25113,-100,4,2,2,55,0,0
25356,-100,4,2,8,55,0,0
25436,-100,4,2,2,55,0,0
25678,-100,4,2,8,55,0,0
25758,-100,4,2,2,55,0,0
26001,-100,4,2,8,55,0,0
26081,-100,4,2,2,55,0,0
26324,-100,4,2,8,55,0,0
26404,-100,4,2,2,55,0,0
26646,-100,4,2,8,55,0,0
26726,-100,4,2,2,55,0,0
26969,-100,4,2,8,55,0,0
27049,-100,4,2,2,55,0,0
27614,-100,4,2,8,55,0,0
27694,-100,4,2,2,55,0,0
27936,-100,4,2,8,55,0,0
28016,-100,4,2,2,55,0,0
28259,-100,4,2,8,55,0,0
28339,-100,4,2,2,55,0,0
28582,-100,4,2,8,55,0,0
28662,-100,4,2,2,55,0,0
28904,-100,4,2,8,55,0,0
28984,-100,4,2,2,55,0,0
29227,-100,4,2,8,55,0,0
29307,-100,4,2,2,55,0,0
29549,-100,4,2,8,55,0,0
29629,-100,4,2,2,55,0,0
29872,-100,4,2,8,55,0,0
29952,-100,4,2,2,55,0,0
30194,-100,4,2,8,55,0,0
30274,-100,4,2,2,55,0,0
30517,-100,4,2,8,55,0,0
30597,-100,4,2,2,55,0,0
30840,-100,4,2,8,55,0,0
30920,-100,4,2,2,55,0,0
31162,-100,4,2,8,55,0,0
31242,-100,4,2,2,55,0,0
31485,-100,4,2,6,55,0,0
31565,-100,4,2,2,55,0,0
31807,-100,4,2,6,55,0,0
31887,-100,4,2,2,55,0,0
32130,-100,4,2,6,55,0,0
32210,-100,4,2,2,55,0,0
32291,-100,4,2,1,55,0,0
32453,-100,4,2,2,40,0,0
32775,-100,4,2,10,40,0,0
32855,-100,4,2,2,40,0,0
33098,-100,4,2,10,40,0,0
33178,-100,4,2,2,40,0,0
33420,-100,4,2,10,40,0,0
33500,-100,4,2,2,40,0,0
33743,-100,4,2,10,40,0,0
33823,-100,4,2,2,40,0,0
34065,-100,4,2,10,40,0,0
34145,-100,4,2,2,40,0,0
34388,-100,4,2,11,40,0,0
34468,-100,4,2,2,40,0,0
34711,-100,4,2,10,40,0,0
34791,-100,4,2,2,40,0,0
35033,-100,4,2,10,40,0,0
35113,-100,4,2,2,40,0,0
35355,-100,4,2,10,40,0,0
35435,-100,4,2,2,40,0,0
35678,-100,4,2,10,40,0,0
35758,-100,4,2,2,40,0,0
36001,-100,4,2,10,40,0,0
36081,-100,4,2,2,40,0,0
36324,-100,4,2,11,40,0,0
36404,-100,4,2,2,40,0,0
36646,-100,4,2,10,40,0,0
36726,-100,4,2,2,40,0,0
36969,-100,4,2,11,40,0,0
37049,-100,4,2,2,40,0,0
37292,-100,4,2,10,40,0,0
37372,-100,4,2,2,40,0,0
37614,-100,4,2,10,40,0,0
37694,-100,4,2,2,40,0,0
37936,-100,4,2,10,40,0,0
38016,-100,4,2,2,40,0,0
38259,-100,4,2,10,40,0,0
38339,-100,4,2,2,40,0,0
38582,-100,4,2,10,40,0,0
38662,-100,4,2,2,40,0,0
38904,-100,4,2,11,40,0,0
38984,-100,4,2,2,40,0,0
39226,-100,4,2,10,40,0,0
39306,-100,4,2,2,40,0,0
39549,-100,4,2,10,40,0,0
39629,-100,4,2,2,40,0,0
39872,-100,4,2,10,40,0,0
39952,-100,4,2,2,40,0,0
40194,-100,4,2,2,65,0,0
40517,-100,4,2,16,65,0,0
40598,-100,4,2,2,65,0,0
40840,-100,4,2,16,65,0,0
40921,-100,4,2,2,65,0,0
41324,-100,4,2,16,65,0,0
41405,-100,4,2,2,65,0,0
41485,-100,4,2,16,65,0,0
41566,-100,4,2,2,65,0,0
41807,-100,4,2,16,65,0,0
41888,-100,4,2,2,65,0,0
42130,-100,4,2,16,65,0,0
42211,-100,4,2,2,65,0,0
42291,-100,4,2,2,55,0,0
42453,-100,4,2,2,60,0,0
42614,-100,4,2,2,65,0,0
42775,-100,4,2,1,70,0,1
43098,-100,4,2,6,70,0,1
43178,-100,4,2,2,70,0,1
43420,-100,4,2,6,70,0,1
43500,-100,4,2,2,70,0,1
43743,-100,4,2,6,70,0,1
43823,-100,4,2,2,70,0,1
44065,-100,4,2,7,70,0,1
44145,-100,4,2,2,70,0,1
44388,-100,4,2,6,70,0,1
44468,-100,4,2,2,70,0,1
44711,-100,4,2,6,70,0,1
44791,-100,4,2,2,70,0,1
45033,-100,4,2,6,70,0,1
45113,-100,4,2,2,70,0,1
45356,-100,4,2,6,70,0,1
45436,-100,4,2,2,70,0,1
45679,-100,4,2,6,70,0,1
45759,-100,4,2,2,70,0,1
46002,-100,4,2,6,70,0,1
46082,-100,4,2,2,70,0,1
46324,-100,4,2,6,70,0,1
46404,-100,4,2,2,70,0,1
46646,-100,4,2,6,70,0,1
46726,-100,4,2,2,70,0,1
46969,-100,4,2,6,70,0,1
47049,-100,4,2,2,70,0,1
47292,-100,4,2,6,70,0,1
47372,-100,4,2,2,70,0,1
47614,-100,4,2,6,70,0,1
47694,-100,4,2,2,70,0,1
47936,-100,4,2,6,70,0,1
48016,-100,4,2,2,70,0,1
48259,-100,4,2,6,70,0,1
48339,-100,4,2,2,70,0,1
48582,-100,4,2,6,70,0,1
48662,-100,4,2,2,70,0,1
48904,-100,4,2,6,70,0,1
48984,-100,4,2,2,70,0,1
49227,-100,4,2,6,70,0,1
49307,-100,4,2,2,70,0,1
49550,-100,4,2,6,70,0,1
49630,-100,4,2,2,70,0,1
49873,-100,4,2,6,70,0,1
49953,-100,4,2,2,70,0,1
50195,-100,4,2,6,70,0,1
50275,-100,4,2,2,70,0,1
50517,-100,4,2,6,70,0,1
50597,-100,4,2,2,70,0,1
50840,-100,4,2,6,70,0,1
50920,-100,4,2,2,70,0,1
51163,-100,4,2,6,70,0,1
51243,-100,4,2,2,70,0,1
51485,-100,4,2,6,70,0,1
51565,-100,4,2,2,70,0,1
51807,-100,4,2,7,70,0,1
51887,-100,4,2,2,70,0,1
52130,-100,4,2,6,70,0,1
52210,-100,4,2,2,70,0,1
52453,-100,4,2,6,70,0,1
52533,-100,4,2,2,70,0,1
52775,-100,4,2,6,70,0,1
52855,-100,4,2,2,70,0,1
53420,-100,4,2,10,70,0,1
53501,-100,4,2,2,70,0,1
53743,-100,4,2,10,70,0,1
53824,-100,4,2,2,70,0,1
54065,-100,4,2,10,70,0,1
54146,-100,4,2,2,70,0,1
54388,-100,4,2,10,70,0,1
54469,-100,4,2,2,70,0,1
54711,-100,4,2,10,70,0,1
54792,-100,4,2,2,70,0,1
55033,-100,4,2,10,70,0,1
55114,-100,4,2,2,70,0,1
55356,-100,4,2,10,70,0,1
55437,-100,4,2,2,70,0,1
55678,-100,4,2,10,70,0,1
55759,-100,4,2,2,70,0,1
56001,-100,4,2,10,70,0,1
56082,-100,4,2,2,70,0,1
56323,-100,4,2,11,70,0,1
56404,-100,4,2,2,70,0,1
56646,-100,4,2,10,70,0,1
56727,-100,4,2,2,70,0,1
56969,-100,4,2,10,70,0,1
57050,-100,4,2,2,70,0,1
57292,-100,4,2,10,70,0,1
57373,-100,4,2,2,70,0,1
57614,-100,4,2,10,70,0,1
57695,-100,4,2,2,70,0,1
57937,-100,4,2,10,70,0,1
58018,-100,4,2,2,70,0,1
58259,-100,4,2,10,70,0,1
58340,-100,4,2,2,70,0,1
58582,-100,4,2,10,70,0,1
58663,-100,4,2,2,70,0,1
58904,-100,4,2,10,70,0,1
58985,-100,4,2,2,70,0,1
59227,-100,4,2,10,70,0,1
59308,-100,4,2,2,70,0,1
59549,-100,4,2,10,70,0,1
59630,-100,4,2,2,70,0,1
59872,-100,4,2,10,70,0,1
59953,-100,4,2,2,70,0,1
60194,-100,4,2,11,70,0,1
60275,-100,4,2,2,70,0,1
60517,-100,4,2,10,70,0,1
60598,-100,4,2,2,70,0,1
60840,-100,4,2,10,70,0,1
60921,-100,4,2,2,70,0,1
61163,-100,4,2,10,70,0,1
61244,-100,4,2,2,70,0,1
61485,-100,4,2,10,70,0,1
61566,-100,4,2,2,70,0,1
61808,-100,4,2,10,70,0,1
61889,-100,4,2,2,70,0,1
62291,-100,4,2,2,45,0,1
62453,-100,4,2,2,50,0,1
62614,-100,4,2,2,55,0,1
62775,-100,4,2,2,60,0,1
62936,-100,4,2,2,65,0,1
63098,-100,4,2,2,70,0,1
63259,-100,4,2,2,75,0,1
63420,-100,4,2,1,80,0,0
63501,-100,4,2,1,75,0,0
63582,-100,4,2,2,70,0,0
63662,-100,4,2,2,65,0,0
63743,-100,4,2,3,75,0,0
63904,-100,4,2,3,65,0,1
64065,-100,4,2,6,65,0,1
64146,-100,4,2,2,65,0,1
64388,-100,4,2,6,65,0,1
64469,-100,4,2,2,65,0,1
64711,-100,4,2,6,65,0,1
64792,-100,4,2,2,65,0,1
65033,-100,4,2,6,65,0,1
65114,-100,4,2,2,65,0,1
65356,-100,4,2,6,65,0,1
65437,-100,4,2,2,65,0,1
65678,-100,4,2,6,65,0,1
65759,-100,4,2,2,65,0,1
66001,-100,4,2,6,65,0,1
66082,-100,4,2,2,65,0,1
66324,-100,4,2,6,65,0,1
66405,-100,4,2,2,65,0,1
66646,-100,4,2,6,65,0,1
66727,-100,4,2,2,65,0,1
66969,-100,4,2,6,65,0,1
67050,-100,4,2,2,65,0,1
67291,-100,4,2,6,65,0,1
67372,-100,4,2,2,65,0,1
67614,-100,4,2,5,65,0,1
68582,-100,4,2,2,65,0,1
68904,-100,4,2,6,65,0,1
68985,-100,4,2,2,65,0,1
69227,-100,4,2,6,65,0,1
69308,-100,4,2,2,65,0,1
69549,-100,4,2,6,65,0,1
69630,-100,4,2,2,65,0,1
69872,-100,4,2,6,65,0,1
69953,-100,4,2,2,65,0,1
70194,-100,4,2,6,65,0,1
70275,-100,4,2,2,65,0,1
70517,-100,4,2,6,65,0,1
70598,-100,4,2,2,65,0,1
70840,-100,4,2,6,65,0,1
70921,-100,4,2,2,65,0,1
71162,-100,4,2,6,65,0,1
71243,-100,4,2,2,65,0,1
71485,-100,4,2,6,65,0,1
71566,-100,4,2,2,65,0,1
71807,-100,4,2,6,65,0,1
71888,-100,4,2,2,65,0,1
72130,-100,4,2,6,65,0,1
72211,-100,4,2,2,65,0,1
72453,-100,4,2,6,65,0,1
72534,-100,4,2,2,65,0,1
72775,-100,4,2,5,65,0,1
73743,-100,4,2,1,65,0,0
74065,-100,4,2,15,65,0,0
74146,-100,4,2,2,65,0,0
74388,-100,4,2,15,65,0,0
74469,-100,4,2,2,65,0,0
74711,-100,4,2,15,65,0,0
74792,-100,4,2,2,65,0,0
75033,-100,4,2,15,65,0,0
75114,-100,4,2,2,65,0,0
75356,-100,4,2,15,65,0,0
75437,-100,4,2,2,65,0,0
75678,-100,4,2,15,65,0,0
75759,-100,4,2,2,65,0,0
76001,-100,4,2,15,65,0,0
76082,-100,4,2,2,65,0,0
76324,-100,4,2,15,65,0,0
76405,-100,4,2,2,65,0,0
76646,-100,4,2,15,65,0,0
76727,-100,4,2,2,65,0,0
76969,-100,4,2,15,65,0,0
77050,-100,4,2,2,65,0,0
77291,-100,4,2,15,65,0,0
77372,-100,4,2,2,65,0,0
77614,-100,4,2,15,65,0,0
77695,-100,4,2,2,65,0,0
77936,-100,4,2,15,65,0,0
78017,-100,4,2,2,65,0,0
78259,-100,4,2,15,65,0,0
78340,-100,4,2,2,65,0,0
78582,-100,4,2,15,65,0,0
78663,-100,4,2,2,65,0,0
78904,-100,4,2,15,65,0,0
78985,-100,4,2,2,65,0,0
79227,-100,4,2,15,65,0,0
79308,-100,4,2,2,65,0,0
79549,-100,4,2,15,65,0,0
79630,-100,4,2,2,65,0,0
79872,-100,4,2,15,65,0,0
79953,-100,4,2,2,65,0,0
80194,-100,4,2,15,65,0,0
80275,-100,4,2,2,65,0,0
80517,-100,4,2,15,65,0,0
80598,-100,4,2,2,65,0,0
80840,-100,4,2,15,65,0,0
80921,-100,4,2,2,65,0,0
81162,-100,4,2,15,65,0,0
81243,-100,4,2,2,65,0,0
81485,-100,4,2,15,65,0,0
81566,-100,4,2,2,65,0,0
81807,-100,4,2,15,65,0,0
81888,-100,4,2,2,65,0,0
82130,-100,4,2,15,65,0,0
82211,-100,4,2,2,65,0,0
82453,-100,4,2,15,65,0,0
82534,-100,4,2,2,65,0,0
82775,-100,4,2,15,65,0,0
82856,-100,4,2,2,65,0,0
83098,-100,4,2,16,65,0,0
83178,-100,4,2,2,65,0,0
83420,-100,4,2,16,65,0,0
83500,-100,4,2,2,65,0,0
83743,-100,4,2,16,65,0,0
83823,-100,4,2,2,65,0,0
84065,-100,4,2,2,45,0,0
86485,-100,4,2,2,5,0,0

[Colours]
Combo1 : 116,173,190
Combo2 : 255,125,129
Combo3 : 145,254,133
Combo4 : 102,205,255
Combo5 : 224,160,73

[HitObjects]
467,22,1485,6,0,P|480:63|474:137,1,99.9999999999999,14|8,0:1|0:2,0:0:0:0:
437,147,1968,2,0,P|415:243|433:291,1,150,2|8,0:2|0:2,0:0:0:0:
347,343,2775,2,0,P|306:356|232:350,1,99.9999999999999,10|8,0:1|0:2,0:0:0:0:
222,313,3259,2,0,P|126:291|78:309,1,150,2|8,0:2|0:2,0:0:0:0:
19,228,4065,6,0,L|0:127,1,99.9999999999999,10|8,0:1|0:2,0:0:0:0:
48,146,4549,2,0,P|144:158|193:125,1,150,2|8,0:2|0:2,0:0:0:0:
256,60,5355,1,10,0:1:0:0:
301,148,5678,1,10,0:2:0:0:
231,219,6001,1,10,0:2:0:0:
284,303,6323,1,10,0:2:0:0:
359,238,6646,6,0,P|410:238|450:211,1,99.9999999999999,14|8,0:1|0:2,0:0:0:0:
482,173,7130,2,0,P|504:77|486:29,1,150,2|8,0:2|0:2,0:0:0:0:
391,60,7936,2,0,P|350:47|276:53,1,99.9999999999999,10|8,0:1|0:2,0:0:0:0:
248,69,8420,2,0,P|153:46|103:58,1,150,2|8,0:2|0:2,0:0:0:0:
27,122,9226,6,0,P|48:174|39:224,1,99.9999999999999,10|8,0:1|0:2,0:0:0:0:
22,262,9710,2,0,P|90:332|155:332,1,150,2|8,0:2|0:2,0:0:0:0:
229,295,10517,1,14,0:1:0:0:
171,213,10839,1,14,0:2:0:0:
265,179,11162,1,14,0:2:0:0:
207,97,11484,1,14,0:2:0:0:
305,79,11807,6,0,P|350:118|367:156,1,99.9999999999999,14|8,0:1|0:2,0:0:0:0:
342,198,12291,2,0,L|337:253,1,50,8|8,0:1|0:1,0:0:0:0:
406,329,12775,1,10,0:2:0:0:
406,329,12936,2,0,P|452:307|491:267,1,99.9999999999999,10|8,0:1|0:1,0:0:0:0:
480,228,13420,1,10,0:2:0:0:
480,228,13581,2,0,P|495:134|464:78,1,150,10|10,0:1|0:2,0:0:0:0:
392,28,14388,6,0,L|281:28,1,99.9999999999999,10|10,0:1|0:2,0:0:0:0:
257,64,14872,1,8,0:1:0:0:
257,64,15033,2,0,P|225:107|225:166,1,99.9999999999999,10|10,0:1|0:2,0:0:0:0:
282,231,15678,1,2,0:2:0:0:
238,320,16001,2,0,L|265:368,2,50,8|8|8,0:2|0:1|0:1,0:0:0:0:
142,289,16646,1,10,0:2:0:0:
122,191,16968,5,14,0:1:0:0:
100,93,17291,2,0,P|55:72|28:30,2,99.9999999999999,10|10|10,0:2|0:1|0:2,0:0:0:0:
141,64,18097,2,0,L|261:64,1,99.9999999999999,8|8,0:1|0:1,0:0:0:0:
282,93,18581,2,0,P|327:72|354:30,2,99.9999999999999,10|10|10,0:2|0:1|0:2,0:0:0:0:
199,150,19549,5,10,0:1:0:0:
220,247,19872,2,0,L|289:261,1,50,10|8,0:2|0:1,0:0:0:0:
318,265,20194,2,0,P|367:268|409:243,1,99.9999999999999,8|8,0:1|0:2,0:0:0:0:
432,145,20839,2,0,P|435:120|432:95,1,50,2|10,0:2|0:1,0:0:0:0:
401,55,21162,2,0,P|376:52|351:54,1,50,10|10,0:2|0:1,0:0:0:0:
312,85,21484,2,0,P|262:91|216:73,1,99.9999999999999,2|10,0:2|0:3,0:0:0:0:
121,103,22130,6,0,P|61:83|17:98,2,99.9999999999999,12|10|8,0:1|0:2|0:1,0:0:0:0:
155,139,22936,1,8,0:1:0:0:
93,218,23259,1,2,0:2:0:0:
93,218,23420,2,0,P|74:264|88:314,1,99.9999999999999,10|8,0:1|0:2,0:0:0:0:
118,356,23904,1,2,0:2:0:0:
118,356,24065,2,0,L|220:342,1,99.9999999999999,10|8,0:1|0:2,0:0:0:0:
310,305,24710,6,0,L|382:318,1,50,8|0,0:1|0:0,0:0:0:0:
400,285,25033,2,0,P|414:237|404:189,1,99.9999999999999,10|8,0:2|0:1,0:0:0:0:
374,156,25517,1,8,0:1:0:0:
374,156,25678,1,10,0:2:0:0:
358,57,26001,2,0,P|405:42|459:57,1,99.9999999999999,10|8,0:1|0:2,0:0:0:0:
495,90,26484,1,2,0:2:0:0:
495,90,26646,2,0,P|514:135|505:199,1,99.9999999999999,10|8,0:1|0:2,0:0:0:0:
466,274,27291,6,0,P|502:318|490:373,1,99.9999999999999,14|8,0:1|0:2,0:0:0:0:
454,375,27775,1,0,0:0:0:0:
454,375,27936,2,0,L|338:368,1,99.9999999999999,8|10,0:1|0:2,0:0:0:0:
281,300,28581,2,0,L|179:312,1,99.9999999999999,10|10,0:1|0:2,0:0:0:0:
136,323,29065,1,0,0:0:0:0:
136,323,29226,2,0,P|118:275|73:246,1,99.9999999999999,10|10,0:1|0:2,0:0:0:0:
55,150,29872,6,0,P|82:113|134:106,1,99.9999999999999,10|10,0:1|0:2,0:0:0:0:
215,163,30517,2,0,P|256:128|266:74,1,99.9999999999999,10|10,0:1|0:2,0:0:0:0:
257,40,31001,1,0,0:0:0:0:
257,40,31162,2,0,P|303:58|359:48,1,99.9999999999999,10|8,0:1|0:2,0:0:0:0:
446,17,31807,2,0,P|476:56|471:120,1,99.9999999999999,10|10,0:1|0:2,0:0:0:0:
452,150,32291,1,4,0:3:0:0:
452,150,32452,6,0,P|436:194|446:251,1,99.9999999999999,14|8,0:1|0:2,0:0:0:0:
460,344,33097,2,0,P|440:338|408:341,1,50,8|8,0:1|0:1,0:0:0:0:
362,353,33420,2,0,L|310:349,1,50,10|8,0:2|0:1,0:0:0:0:
281,309,33743,2,0,P|229:317|178:294,2,99.9999999999999,2|10|2,0:3|0:2|0:3,0:0:0:0:
361,249,34710,1,10,0:2:0:0:
389,152,35033,6,0,L|377:95,1,50,8|8,0:1|0:1,0:0:0:0:
342,67,35355,2,0,P|292:64|249:95,1,99.9999999999999,10|8,0:2|0:1,0:0:0:0:
226,134,35839,2,0,P|253:174|249:224,1,99.9999999999999,10|8,0:1|0:1,0:0:0:0:
230,270,36323,1,2,0:3:0:0:
155,336,36646,2,0,L|93:336,1,50,10|2,0:2|0:2,0:0:0:0:
57,319,36968,2,0,P|40:271|62:212,1,99.9999999999999,2|10,0:3|0:2,0:0:0:0:
81,184,37452,6,0,P|88:142|65:83,1,99.9999999999999,2|10,0:2|0:1,0:0:0:0:
45,45,37936,1,10,0:2:0:0:
143,25,38259,2,0,P|208:42|254:32,1,99.9999999999999,10|10,0:1|0:2,0:0:0:0:
287,23,38743,1,8,0:1:0:0:
287,23,38904,2,0,L|397:28,1,99.9999999999999,2|8,0:3|0:2,0:0:0:0:
436,31,39388,1,0,0:0:0:0:
388,118,39710,2,0,L|437:120,2,50,10|10|2,0:1|0:2|0:2,0:0:0:0:
337,115,40194,5,14,0:1:0:0:
239,90,40517,2,0,L|244:146,1,50,10|10,0:2|0:1,0:0:0:0:
216,181,40839,2,0,P|243:226|245:278,1,99.9999999999999,10|10,0:2|0:1,0:0:0:0:
231,322,41323,1,8,0:2:0:0:
231,322,41484,2,0,P|187:298|136:303,2,99.9999999999999,10|10|10,0:2|0:2|0:2,0:0:0:0:
317,373,42452,1,8,0:2:0:0:
390,305,42775,6,0,L|380:255,1,50,14|10,0:1|0:1,0:0:0:0:
409,203,43097,2,0,L|399:153,1,50,10|2,0:2|0:2,0:0:0:0:
427,101,43420,2,0,P|413:53|360:22,1,99.9999999999999,10|10,0:1|0:2,0:0:0:0:
274,93,44065,2,0,L|163:79,1,99.9999999999999,2|10,0:3|0:2,0:0:0:0:
139,32,44549,2,0,P|61:32|2:81,1,150,2|8,0:2|0:2,0:0:0:0:
85,166,45355,6,0,P|90:191|87:217,1,50,10|10,0:1|0:1,0:0:0:0:
35,244,45678,2,0,P|32:268|37:293,1,50,10|2,0:2|0:2,0:0:0:0:
62,348,46001,2,0,P|110:361|170:332,1,99.9999999999999,10|10,0:1|0:2,0:0:0:0:
263,291,46646,2,0,L|252:238,1,50,10|10,0:1|0:1,0:0:0:0:
207,213,46968,1,10,0:2:0:0:
207,213,47130,2,0,P|190:118|217:75,1,150,10|8,0:1|0:2,0:0:0:0:
312,3,47936,6,0,L|367:7,1,50,10|10,0:1|0:1,0:0:0:0:
416,33,48259,2,0,L|471:37,1,50,8|2,0:2|0:2,0:0:0:0:
500,86,48581,2,0,P|505:117|502:145,1,50,10|10,0:1|0:1,0:0:0:0:
459,175,48904,1,10,0:2:0:0:
495,289,49226,2,0,P|493:336|460:377,1,99.9999999999999,2|10,0:3|0:2,0:0:0:0:
409,361,49710,1,2,0:2:0:0:
409,361,49872,2,0,L|296:354,1,99.9999999999999,8|8,0:1|0:2,0:0:0:0:
194,319,50517,6,0,P|166:325|133:322,1,50,10|10,0:1|0:1,0:0:0:0:
90,298,50839,2,0,P|85:268|87:237,1,50,10|2,0:2|0:2,0:0:0:0:
98,190,51162,2,0,L|37:193,2,50,8|8|10,0:1|0:1|0:2,0:0:0:0:
121,72,51807,2,0,P|176:52|221:60,1,99.9999999999999,2|10,0:3|0:2,0:0:0:0:
268,87,52291,2,0,L|323:83,1,50,10|8,0:1|0:2,0:0:0:0:
438,76,52775,1,8,0:2:0:0:
391,186,53097,6,0,P|418:226|414:288,1,99.9999999999999,14|10,0:1|0:2,0:0:0:0:
397,335,53581,1,0,0:0:0:0:
397,335,53743,2,0,P|351:350|295:336,1,99.9999999999999,10|10,0:1|0:2,0:0:0:0:
189,301,54388,2,0,P|143:316|90:298,1,99.9999999999999,8|10,0:1|0:2,0:0:0:0:
84,248,54872,1,10,0:1:0:0:
84,248,55033,2,0,L|93:128,1,99.9999999999999,2|8,0:3|0:2,0:0:0:0:
145,118,55517,1,8,0:1:0:0:
145,118,55678,6,0,P|139:82|168:2,1,99.9999999999999,10|10,0:1|0:2,0:0:0:0:
261,76,56323,2,0,P|266:125|251:172,1,99.9999999999999,2|10,0:3|0:2,0:0:0:0:
213,220,56807,1,8,0:1:0:0:
213,220,56968,2,0,P|149:209|102:218,2,99.9999999999999,10|8|2,0:1|0:2|0:3,0:0:0:0:
256,332,57936,1,10,0:2:0:0:
372,301,58259,6,0,P|396:304|421:300,1,50,10|8,0:1|0:1,0:0:0:0:
476,275,58581,2,0,P|485:223|467:166,1,99.9999999999999,8|10,0:2|0:1,0:0:0:0:
363,131,59226,2,0,P|338:127|313:131,1,50,8|0,0:2|0:0,0:0:0:0:
259,157,59549,2,0,P|250:209|268:266,1,99.9999999999999,10|10,0:1|0:2,0:0:0:0:
285,315,60033,1,8,0:1:0:0:
285,315,60194,2,0,L|178:307,1,99.9999999999999,2|10,0:3|0:2,0:0:0:0:
115,209,60839,6,0,P|116:157|93:113,1,99.9999999999999,10|10,0:1|0:2,0:0:0:0:
129,67,61323,1,8,0:1:0:0:
129,67,61484,2,0,P|173:88|222:87,1,99.9999999999999,10|8,0:2|0:2,0:0:0:0:
280,61,61968,1,8,0:1:0:0:
280,61,62130,1,12,0:1:0:0:
392,19,62452,1,8,0:2:0:0:
477,102,62775,1,10,0:2:0:0:
364,143,63097,1,8,0:2:0:0:
340,260,63420,6,0,P|403:257|459:325,2,150,10|2|8,0:3|0:2|0:2,0:0:0:0:
272,359,64710,2,0,L|206:354,1,50,10|8,0:1|0:1,0:0:0:0:
174,328,65033,1,8,0:2:0:0:
174,328,65194,2,0,P|127:345|78:342,1,99.9999999999999,2|8,0:2|0:1,0:0:0:0:
22,318,65678,1,8,0:2:0:0:
97,224,66001,6,0,L|86:155,1,50,10|8,0:1|0:1,0:0:0:0:
52,134,66323,1,8,0:2:0:0:
52,134,66484,2,0,P|39:87|65:39,1,99.9999999999999,2|8,0:2|0:1,0:0:0:0:
110,8,66968,1,8,0:2:0:0:
220,54,67291,2,0,L|285:50,1,50,10|8,0:1|0:1,0:0:0:0:
313,93,67614,2,0,L|378:97,1,50,14|8,0:2|0:1,0:0:0:0:
409,59,67936,2,0,L|474:55,1,50,14|8,0:2|0:1,0:0:0:0:
512,84,68259,1,14,0:2:0:0:
449,184,68581,6,0,P|477:229|466:289,1,99.9999999999999,14|10,0:1|0:2,0:0:0:0:
438,323,69065,1,0,0:0:0:0:
438,323,69227,2,0,L|338:318,1,99.9999999999999,10|10,0:1|0:2,0:0:0:0:
298,205,69872,2,0,L|239:203,2,50,10|8|8,0:1|0:1|0:2,0:0:0:0:
354,184,70355,1,0,0:0:0:0:
354,184,70517,2,0,P|402:197|450:183,1,99.9999999999999,10|8,0:1|0:2,0:0:0:0:
474,66,71162,6,0,L|494:19,2,50,10|8|8,0:1|0:1|0:2,0:0:0:0:
414,75,71646,2,0,L|314:86,1,99.9999999999999,2|8,0:2|0:1,0:0:0:0:
274,41,72130,1,10,0:2:0:0:
195,131,72452,1,10,0:1:0:0:
80,93,72775,2,0,P|72:119|76:156,1,50,14|8,0:2|0:1,0:0:0:0:
33,186,73097,2,0,P|38:215|29:249,1,50,14|8,0:2|0:1,0:0:0:0:
1,285,73420,1,14,0:2:0:0:
116,309,73743,6,0,P|166:298|215:322,1,99.9999999999999,14|8,0:1|0:2,0:0:0:0:
255,348,74226,1,10,0:1:0:0:
255,348,74388,2,0,P|300:366|348:355,1,99.9999999999999,10|10,0:2|0:1,0:0:0:0:
392,331,74872,1,10,0:2:0:0:
468,266,75194,1,10,0:2:0:0:
468,266,75355,2,0,L|457:146,1,99.9999999999999,10|10,0:1|0:2,0:0:0:0:
451,66,76001,1,10,0:1:0:0:
360,38,76323,5,10,0:1:0:0:
360,38,76484,2,0,P|311:61|255:49,1,99.9999999999999,10|10,0:1|0:1,0:0:0:0:
220,35,76968,1,10,0:2:0:0:
160,116,77291,1,10,0:1:0:0:
160,116,77452,2,0,L|55:108,1,99.9999999999999,10|10,0:2|0:2,0:0:0:0:
27,146,77936,2,0,P|30:197|65:241,2,99.9999999999999,10|10|8,0:1|0:2|0:1,0:0:0:0:
71,58,78904,5,10,0:1:0:0:
71,58,79065,2,0,L|170:65,1,99.9999999999999,10|10,0:1|0:1,0:0:0:0:
210,95,79549,2,0,P|237:143|227:204,1,99.9999999999999,10|10,0:2|0:1,0:0:0:0:
214,232,80033,2,0,P|273:240|306:270,1,99.9999999999999,10|10,0:2|0:2,0:0:0:0:
337,301,80517,1,10,0:1:0:0:
435,281,80839,1,10,0:2:0:0:
466,186,81162,1,8,0:1:0:0:
368,206,81484,5,10,0:1:0:0:
337,301,81807,2,0,L|287:311,1,50,10|8,0:2|0:1,0:0:0:0:
239,325,82130,2,0,L|189:335,1,50,10|8,0:2|0:1,0:0:0:0:
140,345,82452,1,10,0:2:0:0:
71,272,82775,2,0,P|60:221|70:173,1,99.9999999999999,10|10,0:1|0:2,0:0:0:0:
112,84,83420,2,0,P|164:84|208:105,1,99.9999999999999,10|10,0:2|0:2,0:0:0:0:
256,192,84065,5,2,0:2:0:0:
256,192,84226,12,0,86484,0:0:0:0:
