osu file format v14

[General]
AudioFilename: audio.mp3
AudioLeadIn: 0
PreviewTime: -1
Countdown: 1
SampleSet: Soft
StackLeniency: 0.2
Mode: 0
LetterboxInBreaks: 0
WidescreenStoryboard: 1

[Editor]
DistanceSpacing: 0.8
BeatDivisor: 4
GridSize: 16
TimelineZoom: 1

[Metadata]
Title:DARKNESS
TitleUnicode:DARKNESS
Artist:V.K.
ArtistUnicode:V.K.
Creator:diamant66
Version:HARD Level 8 without doubles
Source:cytus
Tags:cytus
BeatmapID:1419933
BeatmapSetID:671587

[Difficulty]
HPDrainRate:5
CircleSize:2
OverallDifficulty:2
ApproachRate:8
SliderMultiplier:1.4
SliderTickRate:1

[Events]
//Background and Video events
0,0,"maxresdefault (1).jpg",0,0
//Break Periods
//Storyboard Layer 0 (Background)
//Storyboard Layer 1 (Fail)
//Storyboard Layer 2 (Pass)
//Storyboard Layer 3 (Foreground)
//Storyboard Sound Samples

[TimingPoints]
1393,313.807531380753,4,1,0,100,1,0
1393,-100,4,2,0,5,0,0

[Colours]
Combo1 : 135,251,96
Combo2 : 235,106,180
Combo3 : 135,251,96
Combo4 : 235,106,180
SliderBorder : 255,255,255
SliderTrackOverride : 0,0,0

[HitObjects]
429,345,1393,5,0,0:0:0:0:
82,146,1706,1,0,0:0:0:0:
256,48,2020,5,0,0:0:0:0:
360,256,2334,1,0,0:0:0:0:
47,336,2648,5,0,0:0:0:0:
151,331,3903,21,0,0:0:0:0:
362,128,4217,1,0,0:0:0:0:
256,52,4531,5,0,0:0:0:0:
429,276,4844,1,0,0:0:0:0:
256,181,5943,22,0,L|256:353,1,140
394,345,6413,5,0,0:0:0:0:
116,142,6727,1,0,0:0:0:0:
256,35,7041,5,0,0:0:0:0:
463,254,7355,1,0,0:0:0:0:
152,328,7669,5,0,0:0:0:0:
428,337,8924,21,0,0:0:0:0:
82,127,9238,1,0,0:0:0:0:
256,52,9551,5,0,0:0:0:0:
151,274,9865,1,0,0:0:0:0:
430,147,10414,5,0,0:0:0:0:
86,44,10571,1,0,0:0:0:0:
258,44,10807,5,0,0:0:0:0:
82,345,11434,5,0,0:0:0:0:
83,137,11748,1,0,0:0:0:0:
256,40,12062,5,0,0:0:0:0:
151,248,12376,1,0,0:0:0:0:
359,359,12533,1,0,0:0:0:0:
51,227,12846,5,0,0:0:0:0:
463,122,13003,1,0,0:0:0:0:
49,30,13160,1,0,0:0:0:0:
258,44,13317,5,0,0:0:0:0:
429,347,13945,5,0,0:0:0:0:
431,139,14259,1,0,0:0:0:0:
256,39,14572,5,0,0:0:0:0:
153,248,14886,1,0,0:0:0:0:
359,353,15043,1,0,0:0:0:0:
49,233,15357,5,0,0:0:0:0:
464,122,15514,1,0,0:0:0:0:
47,22,15671,1,0,0:0:0:0:
256,42,15828,5,0,0:0:0:0:
256,343,16455,5,0,0:0:0:0:
118,214,16769,1,0,0:0:0:0:
397,38,16926,1,0,0:0:0:0:
52,40,17083,5,0,0:0:0:0:
49,147,17240,1,0,0:0:0:0:
50,256,17397,1,0,0:0:0:0:
465,345,17710,5,0,0:0:0:0:
463,243,17867,1,0,0:0:0:0:
463,138,18024,1,0,0:0:0:0:
255,43,18338,5,0,0:0:0:0:
256,293,18652,1,0,0:0:0:0:
256,341,18966,6,0,L|256:31,1,280
258,143,20535,5,0,0:0:0:0:
326,345,21476,5,0,0:0:0:0:
499,243,21633,1,0,0:0:0:0:
324,140,21790,1,0,0:0:0:0:
394,34,21947,1,0,0:0:0:0:
116,42,22104,5,0,0:0:0:0:
188,141,22261,1,0,0:0:0:0:
11,244,22418,1,0,0:0:0:0:
185,345,22575,1,0,0:0:0:0:
356,343,22731,5,0,0:0:0:0:
429,239,22888,1,0,0:0:0:0:
360,137,23045,1,0,0:0:0:0:
497,35,23202,1,0,0:0:0:0:
49,34,23359,5,0,0:0:0:0:
153,137,23516,1,0,0:0:0:0:
83,235,23673,1,0,0:0:0:0:
151,343,23830,1,0,0:0:0:0:
498,342,23987,5,0,0:0:0:0:
499,241,24144,1,0,0:0:0:0:
497,135,24300,1,0,0:0:0:0:
498,39,24457,1,0,0:0:0:0:
326,42,24614,5,0,0:0:0:0:
326,139,24771,1,0,0:0:0:0:
325,243,24928,1,0,0:0:0:0:
325,342,25085,1,0,0:0:0:0:
13,344,25242,5,0,0:0:0:0:
14,235,25399,1,0,0:0:0:0:
14,137,25556,1,0,0:0:0:0:
13,32,25713,1,0,0:0:0:0:
187,43,25869,5,0,0:0:0:0:
187,139,26026,1,0,0:0:0:0:
186,241,26183,1,0,0:0:0:0:
188,341,26340,1,0,0:0:0:0:
430,338,26497,5,0,0:0:0:0:
426,231,26654,1,0,0:0:0:0:
431,133,26811,1,0,0:0:0:0:
85,47,27125,5,0,0:0:0:0:
82,261,27439,1,0,0:0:0:0:
187,339,27752,5,0,0:0:0:0:
256,239,27909,1,0,0:0:0:0:
497,137,28066,1,0,0:0:0:0:
429,33,28223,1,0,0:0:0:0:
327,43,28380,6,0,L|328:281,1,210
499,343,29008,5,0,0:0:0:0:
189,237,29164,1,0,0:0:0:0:
498,135,29321,1,0,0:0:0:0:
186,32,29478,1,0,0:0:0:0:
361,38,29635,5,0,0:0:0:0:
12,147,29792,1,0,0:0:0:0:
361,247,29949,1,0,0:0:0:0:
16,347,30106,1,0,0:0:0:0:
502,343,30263,5,0,0:0:0:0:
186,246,30420,1,0,0:0:0:0:
188,147,30577,1,0,0:0:0:0:
187,49,30733,1,0,0:0:0:0:
360,39,30890,5,0,0:0:0:0:
50,144,31047,1,0,0:0:0:0:
48,250,31204,1,0,0:0:0:0:
48,347,31361,1,0,0:0:0:0:
253,319,31518,5,0,0:0:0:0:
395,127,31831,1,0,0:0:0:0:
152,9,31988,1,0,0:0:0:0:
493,254,32459,5,0,0:0:0:0:
496,343,32616,1,0,0:0:0:0:
13,343,32773,5,0,0:0:0:0:
12,241,32930,1,0,0:0:0:0:
361,23,33322,5,0,0:0:0:0:
290,125,33479,1,0,0:0:0:0:
220,222,33636,1,0,0:0:0:0:
151,327,33793,1,0,0:0:0:0:
498,352,33950,5,0,0:0:0:0:
496,252,34107,1,0,0:0:0:0:
497,151,34264,1,0,0:0:0:0:
497,54,34421,1,0,0:0:0:0:
152,26,34578,5,0,0:0:0:0:
255,122,34735,1,0,0:0:0:0:
359,210,34891,1,0,0:0:0:0:
14,346,35283,5,0,0:0:0:0:
15,243,35440,1,0,0:0:0:0:
14,137,35597,1,0,0:0:0:0:
393,47,35911,6,0,L|393:274,1,210
115,253,36382,1,0,0:0:0:0:
498,344,36538,5,0,0:0:0:0:
498,248,36695,1,0,0:0:0:0:
498,145,36852,1,0,0:0:0:0:
256,43,37166,5,0,0:0:0:0:
117,250,37480,1,0,0:0:0:0:
396,348,37637,1,0,0:0:0:0:
50,333,37794,5,0,0:0:0:0:
464,234,37951,1,0,0:0:0:0:
46,129,38108,1,0,0:0:0:0:
255,46,38421,5,0,0:0:0:0:
361,340,39049,5,0,0:0:0:0:
360,244,39206,1,0,0:0:0:0:
358,148,39363,1,0,0:0:0:0:
154,48,39677,5,0,0:0:0:0:
151,253,39990,1,0,0:0:0:0:
464,356,40147,1,0,0:0:0:0:
14,346,40304,5,0,0:0:0:0:
361,241,40461,1,0,0:0:0:0:
14,136,40618,1,0,0:0:0:0:
256,47,40932,5,0,0:0:0:0:
496,339,41559,5,0,0:0:0:0:
496,245,41716,1,0,0:0:0:0:
497,146,41873,1,0,0:0:0:0:
258,41,42187,5,0,0:0:0:0:
186,249,42501,1,0,0:0:0:0:
326,346,42658,1,0,0:0:0:0:
49,334,42815,5,0,0:0:0:0:
464,239,42972,1,0,0:0:0:0:
47,135,43128,1,0,0:0:0:0:
256,45,43442,5,0,0:0:0:0:
362,342,44070,6,0,L|362:177,1,140
156,136,44541,1,0,0:0:0:0:
429,45,44697,1,0,0:0:0:0:
81,251,45011,5,0,0:0:0:0:
427,357,45168,1,0,0:0:0:0:
187,345,45325,5,0,0:0:0:0:
324,129,45639,1,0,0:0:0:0:
86,42,45953,1,0,0:0:0:0:
254,338,46581,21,0,0:0:0:0:
256,134,46895,1,0,0:0:0:0:
429,43,47208,5,0,0:0:0:0:
221,356,47679,5,0,0:0:0:0:
291,225,47993,1,0,0:0:0:0:
116,43,48464,5,0,0:0:0:0:
256,341,49091,5,0,0:0:0:0:
186,155,49353,1,0,0:0:0:0:
326,21,49614,1,0,0:0:0:0:
116,117,50660,21,0,0:0:0:0:
465,40,50974,6,0,L|465:351,1,280
256,343,51601,1,0,0:0:0:0:
256,136,51915,5,0,0:0:0:0:
395,42,52229,5,0,0:0:0:0:
190,249,52700,1,0,2:0:0:0:
326,338,52856,5,0,0:0:0:0:
83,42,53484,5,0,0:0:0:0:
325,343,54112,5,0,0:0:0:0:
326,137,54426,1,0,0:0:0:0:
186,39,54739,5,0,0:0:0:0:
186,248,55053,1,0,0:0:0:0:
84,347,55367,6,0,L|84:47,1,280
325,335,56622,21,0,0:0:0:0:
186,240,56779,1,0,0:0:0:0:
325,142,56936,1,0,0:0:0:0:
324,38,57093,1,0,0:0:0:0:
83,44,57250,5,0,0:0:0:0:
428,151,57407,1,0,0:0:0:0:
81,247,57564,1,0,0:0:0:0:
83,347,57721,1,0,0:0:0:0:
324,338,57877,5,0,0:0:0:0:
256,237,58034,1,0,0:0:0:0:
186,129,58191,1,0,0:0:0:0:
429,41,58505,5,0,0:0:0:0:
256,338,59133,5,0,0:0:0:0:
151,124,59446,1,0,0:0:0:0:
360,7,59603,1,0,0:0:0:0:
14,40,59760,5,0,0:0:0:0:
12,147,59917,1,0,0:0:0:0:
13,248,60074,1,0,0:0:0:0:
13,353,60231,1,0,0:0:0:0:
256,35,60859,5,0,0:0:0:0:
499,159,61172,5,0,0:0:0:0:
497,258,61329,1,0,0:0:0:0:
256,142,61957,5,0,0:0:0:0:
256,32,62114,1,0,0:0:0:0:
83,37,62271,5,0,0:0:0:0:
80,146,62428,1,0,0:0:0:0:
82,250,62585,1,0,0:0:0:0:
83,348,62741,1,0,0:0:0:0:
393,47,63526,21,0,0:0:0:0:
393,155,63683,1,0,0:0:0:0:
394,257,63840,1,0,0:0:0:0:
394,359,63997,1,0,0:0:0:0:
394,39,64781,21,0,0:0:0:0:
115,145,64938,1,0,0:0:0:0:
396,246,65095,1,0,0:0:0:0:
115,346,65252,1,0,0:0:0:0:
329,346,66665,5,0,0:0:0:0:
187,241,66822,1,0,0:0:0:0:
325,142,66979,1,0,0:0:0:0:
326,31,67136,1,0,0:0:0:0:
84,38,67293,5,0,0:0:0:0:
428,248,67606,1,0,0:0:0:0:
82,345,67763,1,0,0:0:0:0:
324,335,67920,5,0,0:0:0:0:
324,228,68077,1,0,0:0:0:0:
186,119,68234,1,0,0:0:0:0:
361,340,69174,21,0,0:0:0:0:
151,232,69331,1,0,0:0:0:0:
360,123,69488,1,0,0:0:0:0:
360,20,69645,1,0,0:0:0:0:
256,39,69802,5,0,0:0:0:0:
82,257,70116,1,0,0:0:0:0:
428,353,70273,1,0,0:0:0:0:
255,344,70430,5,0,0:0:0:0:
326,339,71686,21,0,0:0:0:0:
186,243,71843,1,0,0:0:0:0:
325,142,72000,1,0,0:0:0:0:
326,32,72157,1,0,0:0:0:0:
82,44,72314,5,0,0:0:0:0:
427,255,72627,1,0,0:0:0:0:
83,350,72784,1,0,0:0:0:0:
326,334,72941,5,0,0:0:0:0:
187,240,73098,1,0,0:0:0:0:
186,143,73255,1,0,0:0:0:0:
257,48,73569,5,0,0:0:0:0:
256,327,74195,6,0,L|257:40,1,280
256,39,74823,5,0,0:0:0:0:
151,255,75137,1,0,0:0:0:0:
360,352,75294,1,0,0:0:0:0:
256,343,75451,5,0,0:0:0:0:
360,346,76707,21,0,0:0:0:0:
152,139,77021,1,0,0:0:0:0:
359,21,77178,1,0,0:0:0:0:
256,249,77648,5,0,0:0:0:0:
431,228,78119,5,0,0:0:0:0:
84,134,78276,1,0,0:0:0:0:
360,42,78590,6,0,L|360:209,1,140
151,253,79060,1,0,0:0:0:0:
429,348,79217,5,0,0:0:0:0:
82,242,79374,1,0,0:0:0:0:
427,139,79531,1,0,0:0:0:0:
81,32,79688,1,0,0:0:0:0:
254,247,80159,5,0,0:0:0:0:
359,342,80473,5,0,0:0:0:0:
151,233,80629,1,0,0:0:0:0:
254,20,80943,1,0,0:0:0:0:
48,41,81100,5,0,0:0:0:0:
47,251,81413,1,0,0:0:0:0:
324,341,81727,5,0,0:0:0:0:
255,235,81884,1,0,0:0:0:0:
187,138,82041,1,0,0:0:0:0:
255,33,82198,1,0,0:0:0:0:
463,164,82512,5,0,0:0:0:0:
463,248,82669,1,0,0:0:0:0:
49,345,82983,5,0,0:0:0:0:
49,242,83139,1,0,0:0:0:0:
49,138,83296,1,0,0:0:0:0:
47,33,83453,1,0,0:0:0:0:
497,34,83610,5,0,0:0:0:0:
428,133,83767,1,0,0:0:0:0:
220,235,83924,1,0,0:0:0:0:
325,343,84081,1,0,0:0:0:0:
49,342,84238,5,0,0:0:0:0:
0,238,84395,1,0,0:0:0:0:
49,134,84552,1,0,0:0:0:0:
117,22,84708,1,0,0:0:0:0:
463,38,84865,5,0,0:0:0:0:
324,137,85022,1,0,0:0:0:0:
393,245,85179,1,0,0:0:0:0:
464,352,85336,1,0,0:0:0:0:
187,344,85493,5,0,0:0:0:0:
118,239,85650,1,0,0:0:0:0:
48,134,85807,1,0,0:0:0:0:
117,31,85964,1,0,0:0:0:0:
394,42,86121,5,0,0:0:0:0:
464,144,86278,1,0,0:0:0:0:
394,245,86434,1,0,0:0:0:0:
324,347,86591,1,0,0:0:0:0:
83,342,86748,5,0,0:0:0:0:
82,241,86905,1,0,0:0:0:0:
82,140,87062,1,0,0:0:0:0:
82,34,87219,1,0,0:0:0:0:
498,37,87376,5,0,0:0:0:0:
220,254,87690,1,0,0:0:0:0:
1,340,88003,5,0,0:0:0:0:
13,240,88160,1,0,0:0:0:0:
325,134,88317,1,0,0:0:0:0:
325,27,88474,1,0,0:0:0:0:
511,48,88631,5,0,0:0:0:0:
492,151,88788,1,0,0:0:0:0:
223,246,88945,1,0,0:0:0:0:
220,351,89102,1,0,0:0:0:0:
16,342,89259,5,0,0:0:0:0:
12,241,89416,1,0,0:0:0:0:
12,136,89573,1,0,0:0:0:0:
14,33,89729,1,0,0:0:0:0:
186,39,89886,5,0,0:0:0:0:
498,115,90043,1,0,0:0:0:0:
186,253,90200,1,0,0:0:0:0:
497,326,90357,1,0,0:0:0:0:
325,345,90514,5,0,0:0:0:0:
48,242,90671,1,0,0:0:0:0:
394,144,90828,1,0,0:0:0:0:
116,46,90985,1,0,0:0:0:0:
511,50,91142,5,0,0:0:0:0:
186,148,91298,1,0,0:0:0:0:
463,245,91455,1,0,0:0:0:0:
119,340,91612,1,0,0:0:0:0:
14,343,91769,5,0,0:0:0:0:
12,138,92083,1,0,0:0:0:0:
14,34,92240,1,0,0:0:0:0:
498,45,92397,5,0,0:0:0:0:
496,149,92554,1,0,0:0:0:0:
497,249,92711,1,0,0:0:0:0:
498,346,92867,1,0,0:0:0:0:
359,339,93024,5,0,0:0:0:0:
187,238,93181,1,0,0:0:0:0:
358,133,93338,1,0,0:0:0:0:
116,26,93495,1,0,0:0:0:0:
465,48,93652,5,0,0:0:0:0:
48,148,93809,1,0,0:0:0:0:
461,253,93966,1,0,0:0:0:0:
117,355,94123,1,0,0:0:0:0:
255,343,94280,5,0,0:0:0:0:
118,133,94593,1,0,0:0:0:0:
396,18,94750,1,0,0:0:0:0:
254,38,94907,5,0,0:0:0:0:
47,253,95221,1,0,0:0:0:0:
462,354,95378,1,0,0:0:0:0:
256,345,95535,5,0,0:0:0:0:
359,137,95849,1,0,0:0:0:0:
48,47,96162,5,0,0:0:0:0:
498,250,96476,1,0,0:0:0:0:
396,343,96790,5,0,0:0:0:0:
118,238,96947,1,0,0:0:0:0:
117,138,97104,1,0,0:0:0:0:
395,36,97261,1,0,0:0:0:0:
497,43,97418,5,0,0:0:0:0:
13,156,97575,1,0,0:0:0:0:
14,252,97732,1,0,0:0:0:0:
499,347,97888,1,0,0:0:0:0:
257,335,98045,5,0,0:0:0:0:
187,283,98124,1,0,0:0:0:0:
118,233,98202,1,0,0:0:0:0:
186,188,98281,1,0,0:0:0:0:
257,138,98359,1,0,0:0:0:0:
186,92,98438,1,0,0:0:0:0:
119,52,98516,1,0,0:0:0:0:
186,16,98594,1,0,0:0:0:0:
323,45,98673,5,0,0:0:0:0:
395,98,98751,1,0,0:0:0:0:
465,148,98830,1,0,0:0:0:0:
394,199,98908,1,0,0:0:0:0:
326,249,98987,1,0,0:0:0:0:
396,304,99065,1,0,0:0:0:0:
463,354,99144,1,0,0:0:0:0:
14,343,99301,5,0,0:0:0:0:
221,132,99614,1,0,0:0:0:0:
221,3,99771,1,0,0:0:0:0:
509,47,99928,5,0,0:0:0:0:
324,244,100242,1,0,0:0:0:0:
324,356,100399,1,0,0:0:0:0:
151,345,100556,5,0,0:0:0:0:
85,293,100634,1,0,0:0:0:0:
14,245,100713,1,0,0:0:0:0:
81,195,100791,1,0,0:0:0:0:
152,150,100870,1,0,0:0:0:0:
84,96,100948,1,0,0:0:0:0:
16,52,101026,1,0,0:0:0:0:
496,47,101183,5,0,0:0:0:0:
430,100,101262,1,0,0:0:0:0:
361,157,101340,1,0,0:0:0:0:
429,210,101419,1,0,0:0:0:0:
498,255,101497,1,0,0:0:0:0:
431,303,101576,1,0,0:0:0:0:
361,349,101654,1,0,0:0:0:0:
186,344,101811,5,0,0:0:0:0:
15,241,101968,1,0,0:0:0:0:
188,141,102125,1,0,0:0:0:0:
15,34,102282,1,0,0:0:0:0:
325,44,102439,5,0,0:0:0:0:
497,149,102596,1,0,0:0:0:0:
324,246,102752,1,0,0:0:0:0:
497,348,102909,1,0,0:0:0:0:
0,317,103066,5,0,0:0:0:0:
50,285,103145,1,0,0:0:0:0:
119,237,103223,1,0,0:0:0:0:
186,185,103302,1,0,0:0:0:0:
258,137,103380,1,0,0:0:0:0:
326,82,103458,1,0,0:0:0:0:
397,33,103537,1,0,0:0:0:0:
511,56,103694,5,0,0:0:0:0:
464,98,103772,1,0,0:0:0:0:
395,151,103851,1,0,0:0:0:0:
325,202,103929,1,0,0:0:0:0:
256,253,104008,1,0,0:0:0:0:
188,305,104086,1,0,0:0:0:0:
120,359,104165,1,0,0:0:0:0:
15,344,104321,5,0,0:0:0:0:
14,287,104400,1,0,0:0:0:0:
14,237,104478,1,0,0:0:0:0:
15,183,104557,1,0,0:0:0:0:
13,133,104635,1,0,0:0:0:0:
15,84,104714,1,0,0:0:0:0:
16,37,104792,1,0,0:0:0:0:
498,36,104949,5,0,0:0:0:0:
499,91,105028,1,0,0:0:0:0:
500,142,105106,1,0,0:0:0:0:
500,200,105184,1,0,0:0:0:0:
499,246,105263,1,0,0:0:0:0:
501,306,105341,1,0,0:0:0:0:
502,354,105420,1,0,0:0:0:0:
257,340,105577,5,0,0:0:0:0:
161,44,106204,5,0,0:0:0:0:
348,44,106283,1,0,0:0:0:0:
48,344,106754,5,0,0:0:0:0:
463,343,106832,1,0,0:0:0:0:
