osu file format v14

[General]
AudioFilename: audio.mp3
AudioLeadIn: 0
PreviewTime: -1
Countdown: 1
SampleSet: Soft
StackLeniency: 0.2
Mode: 0
LetterboxInBreaks: 0
WidescreenStoryboard: 1

[Editor]
DistanceSpacing: 0.8
BeatDivisor: 4
GridSize: 16
TimelineZoom: 0.6999996

[Metadata]
Title:DARKNESS
TitleUnicode:DARKNESS
Artist:V.K.
ArtistUnicode:V.K.
Creator:diamant66
Version:Easy Level 5 without doubles
Source:cytus
Tags:cytus
BeatmapID:1425151
BeatmapSetID:671587

[Difficulty]
HPDrainRate:4
CircleSize:2
OverallDifficulty:2
ApproachRate:8
SliderMultiplier:1.4
SliderTickRate:1

[Events]
//Background and Video events
0,0,"maxresdefault (1).jpg",0,0
//Break Periods
//Storyboard Layer 0 (Background)
//Storyboard Layer 1 (Fail)
//Storyboard Layer 2 (Pass)
//Storyboard Layer 3 (Foreground)
//Storyboard Sound Samples

[TimingPoints]
1393,313.807531380753,4,1,0,100,1,0
1393,-100,4,2,0,5,0,0

[Colours]
Combo1 : 135,251,96
Combo2 : 235,106,180
Combo3 : 135,251,96
Combo4 : 235,106,180
SliderBorder : 255,255,255
SliderTrackOverride : 0,0,0

[HitObjects]
256,334,1393,5,0,0:0:0:0:
463,248,2334,5,0,0:0:0:0:
51,322,2648,5,0,0:0:0:0:
256,316,3903,21,0,0:0:0:0:
253,271,4805,6,0,L|298:271,1,35
257,331,6413,5,0,0:0:0:0:
463,249,7355,5,0,0:0:0:0:
47,319,7669,5,0,0:0:0:0:
255,328,8924,21,0,0:0:0:0:
247,270,9787,6,0,L|281:270,1,35
82,335,11434,5,0,0:0:0:0:
426,139,11748,1,0,0:0:0:0:
256,49,12062,5,0,0:0:0:0:
255,50,13317,21,0,0:0:0:0:
426,334,13945,5,0,0:0:0:0:
84,140,14259,1,0,0:0:0:0:
255,47,14572,5,0,0:0:0:0:
255,50,15828,21,0,0:0:0:0:
49,47,17083,21,0,0:0:0:0:
461,336,17710,5,0,0:0:0:0:
255,50,18338,5,0,0:0:0:0:
258,339,18966,6,0,L|256:53,1,280
255,143,20535,5,0,0:0:0:0:
323,334,21476,5,0,0:0:0:0:
188,47,22104,5,0,0:0:0:0:
393,332,22731,5,0,0:0:0:0:
152,42,23359,5,0,0:0:0:0:
495,332,23987,5,0,0:0:0:0:
13,49,24614,5,0,0:0:0:0:
393,333,25242,5,0,0:0:0:0:
151,47,25869,5,0,0:0:0:0:
253,326,26497,5,0,0:0:0:0:
186,329,27752,21,0,0:0:0:0:
496,136,28066,1,0,0:0:0:0:
324,47,28380,6,0,L|324:287,1,210
494,328,29008,5,0,0:0:0:0:
14,47,29635,5,0,0:0:0:0:
427,332,30263,5,0,0:0:0:0:
83,46,30890,5,0,0:0:0:0:
256,311,31518,5,0,0:0:0:0:
495,246,32459,5,0,0:0:0:0:
13,328,32773,5,0,0:0:0:0:
357,32,33323,5,0,0:0:0:0:
153,219,33637,1,0,0:0:0:0:
495,344,33950,5,0,0:0:0:0:
495,153,34264,1,0,0:0:0:0:
15,40,34578,5,0,0:0:0:0:
15,207,34892,1,0,0:0:0:0:
257,334,35206,5,0,0:0:0:0:
254,137,35520,1,0,0:0:0:0:
361,52,35833,5,0,0:0:0:0:
151,248,36147,1,0,0:0:0:0:
20,336,36539,6,0,L|75:336,1,35
254,52,37167,5,0,0:0:0:0:
254,52,38422,21,0,0:0:0:0:
162,334,39049,6,0,L|217:334,1,35
254,52,39677,5,0,0:0:0:0:
254,52,40932,21,0,0:0:0:0:
20,336,41560,6,0,L|75:336,1,35
255,49,42187,5,0,0:0:0:0:
256,52,43443,21,0,0:0:0:0:
162,335,44070,6,0,L|217:335,1,35
256,51,44698,5,0,0:0:0:0:
84,51,45953,21,0,0:0:0:0:
256,331,46581,5,0,0:0:0:0:
255,136,46895,1,0,0:0:0:0:
82,56,47208,6,0,L|125:56,1,35
345,56,48464,22,0,L|402:56,1,35
255,333,49091,5,0,0:0:0:0:
186,155,49353,1,0,0:0:0:0:
321,26,49614,1,0,0:0:0:0:
81,121,50660,21,0,0:0:0:0:
461,47,50974,6,0,L|461:329,1,280
345,56,52229,22,0,L|402:56,1,35
82,56,53485,2,0,L|125:56,1,35
325,333,54112,5,0,0:0:0:0:
188,45,54740,5,0,0:0:0:0:
428,339,55367,6,0,L|428:58,1,280
255,332,56623,21,0,0:0:0:0:
83,49,57250,5,0,0:0:0:0:
256,328,57878,5,0,0:0:0:0:
427,52,58505,5,0,0:0:0:0:
254,331,59133,5,0,0:0:0:0:
13,52,59761,5,0,0:0:0:0:
255,44,60702,5,0,0:0:0:0:
497,160,61173,5,0,0:0:0:0:
15,253,61330,1,0,0:0:0:0:
254,144,61957,5,0,0:0:0:0:
81,48,62271,5,0,0:0:0:0:
81,245,62585,1,0,0:0:0:0:
391,49,63526,21,0,0:0:0:0:
391,243,63840,1,0,0:0:0:0:
117,48,64782,21,0,0:0:0:0:
395,235,65095,1,0,0:0:0:0:
256,332,66664,5,0,0:0:0:0:
82,47,67292,6,0,L|123:47,1,35
326,325,67920,5,0,0:0:0:0:
186,124,68234,1,0,0:0:0:0:
255,329,69175,21,0,0:0:0:0:
427,45,69803,5,0,0:0:0:0:
85,248,70116,1,0,0:0:0:0:
255,330,70430,5,0,0:0:0:0:
257,327,71685,21,0,0:0:0:0:
429,53,72313,6,0,L|384:53,1,35
325,327,72941,5,0,0:0:0:0:
187,142,73254,1,0,0:0:0:0:
84,324,74196,22,0,L|84:43,1,280
255,329,75451,21,0,0:0:0:0:
360,333,76706,21,0,0:0:0:0:
154,31,77177,1,0,0:0:0:0:
255,240,77648,5,0,0:0:0:0:
83,222,78118,5,0,0:0:0:0:
356,49,78589,5,0,0:0:0:0:
428,335,79217,5,0,0:0:0:0:
81,41,79687,1,0,0:0:0:0:
257,243,80158,5,0,0:0:0:0:
152,228,80629,5,0,0:0:0:0:
460,49,81100,5,0,0:0:0:0:
49,245,81413,1,0,0:0:0:0:
254,329,81727,5,0,0:0:0:0:
45,240,82669,5,0,0:0:0:0:
256,235,83139,5,0,0:0:0:0:
359,41,83610,5,0,0:0:0:0:
152,230,83924,1,0,0:0:0:0:
49,329,84238,5,0,0:0:0:0:
463,45,84865,5,0,0:0:0:0:
256,332,85493,5,0,0:0:0:0:
256,38,85964,5,0,0:0:0:0:
364,240,86434,2,0,L|335:240,1,17.5
48,332,86748,5,0,0:0:0:0:
46,143,87062,1,0,0:0:0:0:
461,51,87376,5,0,0:0:0:0:
461,248,87690,1,0,0:0:0:0:
153,327,88003,5,0,0:0:0:0:
150,134,88317,1,0,0:0:0:0:
325,55,88631,5,0,0:0:0:0:
324,245,88945,1,0,0:0:0:0:
13,328,89259,5,0,0:0:0:0:
13,137,89572,1,0,0:0:0:0:
495,55,89886,5,0,0:0:0:0:
495,249,90200,1,0,0:0:0:0:
14,333,90514,5,0,0:0:0:0:
394,147,90828,1,0,0:0:0:0:
218,55,91141,5,0,0:0:0:0:
458,242,91455,1,0,0:0:0:0:
14,331,91769,5,0,0:0:0:0:
13,140,92083,1,0,0:0:0:0:
497,52,92397,5,0,0:0:0:0:
496,243,92710,1,0,0:0:0:0:
187,326,93024,5,0,0:0:0:0:
291,136,93338,1,0,0:0:0:0:
14,52,93652,5,0,0:0:0:0:
461,248,93966,1,0,0:0:0:0:
255,329,94280,5,0,0:0:0:0:
51,52,94907,5,0,0:0:0:0:
258,333,95535,5,0,0:0:0:0:
150,139,95849,2,0,L|194:139,1,35
461,55,96162,6,0,L|414:55,1,35
14,243,96476,2,0,L|51:243,1,35
151,334,96790,5,0,0:0:0:0:
151,141,97104,1,0,0:0:0:0:
357,48,97418,5,0,0:0:0:0:
358,246,97731,1,0,0:0:0:0:
50,321,98045,6,0,L|50:79,1,227.5
461,52,98673,6,0,L|461:292,1,227.5
49,331,99300,5,0,0:0:0:0:
463,51,99928,5,0,0:0:0:0:
256,335,100556,6,0,L|256:95,1,227.5
116,54,101183,6,0,L|116:295,1,227.5
221,329,101811,5,0,0:0:0:0:
13,144,102125,1,0,0:0:0:0:
289,52,102439,5,0,0:0:0:0:
494,240,102752,1,0,0:0:0:0:
116,321,103066,6,0,L|116:83,1,227.5
391,53,103694,6,0,L|391:294,1,227.5
15,331,104321,5,0,0:0:0:0:
15,284,104400,2,0,L|15:240,1,35
15,193,104557,2,0,L|15:155,1,35
15,99,104714,2,0,L|15:61,1,35
495,43,104949,5,0,0:0:0:0:
497,95,105027,2,0,L|497:131,1,35
495,194,105184,2,0,L|495:236,1,35
497,287,105341,2,0,L|497:328,1,35
255,328,105577,5,0,0:0:0:0:
121,60,106204,6,0,L|165:60,1,35
48,330,106753,5,0,0:0:0:0:
462,331,106832,1,0,0:0:0:0:
