osu file format v14

[General]
AudioFilename: audio.mp3
AudioLeadIn: 0
PreviewTime: 264030
Countdown: 0
SampleSet: Soft
StackLeniency: 1
Mode: 0
LetterboxInBreaks: 0
WidescreenStoryboard: 0

[Editor]
Bookmarks: 12502,33511,50879,83089,98247,115300,117256,138664,151997,165330,178664,196445,198327,229864,264030,284976,300472,313805,323249,327138,346553,364360,368805
DistanceSpacing: 5
BeatDivisor: 4
GridSize: 4
TimelineZoom: 1

[Metadata]
Title:Melody of Elves
TitleUnicode:Melody of Elves
Artist:V.K
ArtistUnicode:V.K
Creator:gamescreator
Version:True Melody
Source:Deemo
Tags:
BeatmapID:976599
BeatmapSetID:455643

[Difficulty]
HPDrainRate:6
CircleSize:5.5
OverallDifficulty:7
ApproachRate:8
SliderMultiplier:0.6
SliderTickRate:1

[Events]
//Background and Video events
0,0,"traveling_elves.jpg",0,0
//Break Periods
//Storyboard Layer 0 (Background)
//Storyboard Layer 1 (Fail)
//Storyboard Layer 2 (Pass)
//Storyboard Layer 3 (Foreground)
//Storyboard Layer 4 (Overlay)
//Storyboard Sound Samples

[TimingPoints]
1293,631.578947368421,3,2,1,20,1,0
12502,631.578947368421,3,2,1,20,1,0
14238,631.578947368421,3,2,1,20,1,0
20395,631.578947368421,3,2,1,20,1,0
29079,631.578947368421,3,2,1,20,1,0
33503,631.578947368421,3,2,1,20,1,0
50879,631.578947368421,3,2,1,20,1,0
69747,-50,3,2,1,20,0,0
70773,-100,3,2,1,20,0,0
83089,-66.6666666666667,4,2,1,20,0,0
113405,-100,4,2,1,20,0,0
115300,652.173913043478,3,2,1,20,1,0
117256,631.578947368421,3,2,1,20,1,0
138664,555.555555555556,3,2,1,20,1,0
196441,594.059405940594,3,2,1,20,1,0
196441,-200,3,2,1,20,0,0
197035,618.556701030928,3,2,1,20,1,0
197653,674.157303370787,3,2,1,20,1,0
198327,526.315789473684,3,2,1,20,1,0
198327,-100,3,2,1,20,0,0
229864,631.578947368421,3,2,1,20,1,0
262074,652.173913043478,3,2,1,20,1,0
264030,631.578947368421,3,2,1,20,1,0
264030,-66.6666666666667,3,2,1,20,0,0
281082,-100,3,2,1,20,0,0
284976,631.578947368421,3,2,1,20,1,0
300472,555.555555555556,3,2,1,20,1,0
313805,-66.6666666666667,3,2,1,20,0,0
323249,-66.6666666666667,3,2,1,50,0,0
325472,-66.6666666666667,3,2,1,20,0,0
327138,-100,3,2,1,20,0,0
338249,-200,3,2,1,20,0,0
338805,-100,3,2,1,20,0,0
344916,-200,3,2,1,20,0,0
346305,-100,3,2,1,20,0,0

[Colours]
Combo1 : 0,128,192
Combo2 : 128,255,0
Combo3 : 0,255,255
Combo4 : 255,255,128

[HitObjects]
104,36,12502,38,0,P|136:84|192:124,1,120
328,172,14238,2,0,P|296:220|240:260,1,120
90,311,16132,6,0,B|72:400|217:355|169:258|119:209,1,240
444,116,20395,38,0,P|458:160|435:203,1,90
396,159,21658,2,0,P|382:203|405:246,1,90
439,291,22921,2,0,P|474:248|435:195,1,120
300,168,24500,2,0,P|236:176|176:160,1,120
116,200,26079,2,0,P|152:280|264:280,1,210
408,76,29079,6,0,B|344:340|288:76,1,300
460,44,33503,21,0,0:0:0:0:
388,208,33819,1,0,0:0:0:0:
224,136,34135,2,2,L|260:136,1,30
432,108,34766,1,0,0:0:0:0:
76,44,35398,37,0,0:0:0:0:
204,172,35714,1,0,0:0:0:0:
348,68,36029,2,2,L|312:80,1,30
144,128,36661,1,0,0:0:0:0:
88,324,37293,5,0,0:0:0:0:
184,172,37608,1,0,0:0:0:0:
352,240,37924,1,2,0:0:0:0:
184,172,38240,1,0,0:0:0:0:
352,240,38556,2,2,L|376:212,1,30
452,56,39187,37,0,0:0:0:0:
280,108,39503,1,0,0:0:0:0:
452,56,39819,2,2,L|488:56,1,30
336,188,40450,1,0,0:0:0:0:
336,188,41082,5,0,0:0:0:0:
164,240,41398,1,0,0:0:0:0:
280,104,41714,2,2,L|272:140,1,30
233,309,42345,1,0,0:0:0:0:
400,320,42661,1,2,0:0:0:0:
496,196,42977,37,0,0:0:0:0:
440,44,43293,1,0,0:0:0:0:
260,68,43608,2,2,L|296:80,1,30
464,112,44240,1,0,0:0:0:0:
488,284,44871,5,0,0:0:0:0:
328,368,45187,1,0,0:0:0:0:
232,216,45503,2,2,L|260:192,1,30
400,88,46135,1,0,0:0:0:0:
336,256,46450,1,2,0:0:0:0:
208,128,46766,37,0,0:0:0:0:
220,136,47082,1,0,0:0:0:0:
232,144,47398,1,2,0:0:0:0:
244,152,47714,1,0,0:0:0:0:
256,160,48029,1,0,0:0:0:0:
268,172,48345,1,2,0:0:0:0:
280,184,48661,6,0,P|276:292|320:296,1,180
304,238,50879,37,0,0:0:0:0:
468,316,51194,1,0,0:0:0:0:
368,168,51510,2,2,L|384:196,1,30
423,367,52142,1,0,0:0:0:0:
104,240,52773,5,0,0:0:0:0:
196,84,53089,1,0,0:0:0:0:
327,206,53405,2,2,L|296:224,1,30
139,294,54036,1,0,0:0:0:0:
104,176,54668,37,0,0:0:0:0:
180,344,54984,1,0,0:0:0:0:
24,252,55300,1,2,0:0:0:0:
204,232,55615,1,0,0:0:0:0:
76,356,55931,2,2,L|108:344,1,30
284,320,56563,5,0,0:0:0:0:
416,196,56879,1,0,0:0:0:0:
356,364,57194,2,2,L|348:328,1,30
320,156,57826,1,0,0:0:0:0:
60,20,58457,37,0,0:0:0:0:
236,52,58773,1,0,0:0:0:0:
80,144,59089,2,2,L|96:176,1,30
192,324,59721,1,0,0:0:0:0:
372,300,60036,1,2,0:0:0:0:
192,320,60352,5,0,0:0:0:0:
248,148,60668,1,0,0:0:0:0:
68,172,60984,2,2,L|100:192,1,30
268,228,61615,1,0,0:0:0:0:
508,72,62247,37,0,0:0:0:0:
336,20,62563,1,0,0:0:0:0:
348,200,62879,2,2,P|380:192|404:168,1,60
351,141,63826,1,0,0:0:0:0:
176,92,64142,5,0,0:0:0:0:
224,264,64457,1,0,0:0:0:0:
396,208,64773,2,2,L|360:200,1,30
190,162,65405,1,0,0:0:0:0:
44,64,65879,37,0,0:0:0:0:
44,76,65957,1,0,0:0:0:0:
40,92,66036,2,2,P|28:120|36:152,1,60
92,320,66984,1,0,0:0:0:0:
268,356,67300,1,0,0:0:0:0:
392,296,67615,1,2,0:0:0:0:
339,196,67931,6,0,P|311:173|275:172,1,60
290,227,68879,1,0,0:0:0:0:
385,74,69194,1,2,0:0:0:0:
484,264,69747,38,0,L|481:275,2,7.5
324,348,70142,1,0,0:0:0:0:
148,308,70457,1,0,0:0:0:0:
324,348,70773,1,0,0:0:0:0:
484,264,71089,2,2,L|496:228,1,30
456,60,71721,6,0,P|424:48|388:52,1,60
416,104,72668,1,0,0:0:0:0:
280,224,72984,1,2,0:0:0:0:
36,40,73615,37,0,0:0:0:0:
80,216,73931,1,0,0:0:0:0:
244,144,74247,1,2,0:0:0:0:
84,64,74563,1,0,0:0:0:0:
152,232,74879,1,0,0:0:0:0:
324,180,75194,1,2,0:0:0:0:
228,28,75510,5,0,0:0:0:0:
260,204,75826,1,0,0:0:0:0:
408,104,76142,1,2,0:0:0:0:
232,128,76457,1,0,0:0:0:0:
144,284,76773,1,0,0:0:0:0:
320,328,77089,1,2,0:0:0:0:
144,284,77405,37,0,0:0:0:0:
256,140,77721,1,0,0:0:0:0:
96,220,78036,1,2,0:0:0:0:
276,220,78352,1,0,0:0:0:0:
108,152,78668,1,0,0:0:0:0:
240,272,78984,1,2,0:0:0:0:
333,325,79221,5,0,0:0:0:0:
333,325,79300,2,2,P|363:320|387:300,1,60
338,267,80247,1,0,0:0:0:0:
257,182,80563,1,0,0:0:0:0:
138,148,80879,1,2,0:0:0:0:
64,32,81194,37,0,0:0:0:0:
82,43,81300,2,2,B|107:64|153:57|190:72,1,110
425,53,83089,38,0,L|425:92,1,22.5000008583069
367,89,83405,2,2,L|367:128,1,22.5000008583069
310,145,83721,2,0,L|310:123,1,22.5000008583069
252,181,84036,2,2,L|252:159,1,22.5000008583069
195,214,84352,2,0,L|195:253,1,22.5000008583069
137,250,84668,2,2,L|137:289,1,22.5000008583069
137,356,84984,38,0,L|137:333,1,22.5000008583069
195,320,85300,2,2,L|195:297,1,22.5000008583069
252,242,85616,2,0,L|252:264,1,22.5000008583069
310,206,85931,2,2,L|310:228,1,22.5000008583069
367,195,86247,2,0,L|367:172,1,22.5000008583069
425,159,86563,2,2,L|425:136,1,22.5000008583069
426,57,86879,6,0,L|403:57,1,22.5000008583069
360,108,87194,2,2,L|345:92,1,22.5000008583069
281,129,87510,2,0,L|280:106,1,22.5000008583069
219,107,87826,2,2,L|218:130,1,22.5000008583069
154,93,88142,2,0,L|139:109,1,22.5000008583069
96,58,88457,2,2,L|73:58,1,22.5000008583069
72,160,88773,38,0,L|95:160,1,22.5000008583069
138,109,89089,2,2,L|153:125,1,22.5000008583069
217,88,89405,2,0,L|218:111,1,22.5000008583069
279,110,89721,2,2,L|280:87,1,22.5000008583069
344,124,90036,2,0,L|359:108,1,22.5000008583069
402,159,90352,2,2,L|425:159,1,22.5000008583069
372,219,90668,6,0,L|338:220,1,22.5000008583069
326,283,90984,2,2,L|295:283,1,22.5000008583069
257,229,91300,2,0,L|223:230,1,22.5000008583069
211,293,91616,2,2,L|180:293,1,22.5000008583069
147,242,91931,2,0,L|113:243,1,22.5000008583069
101,306,92247,2,2,L|70:306,1,22.5000008583069
101,178,92563,38,0,L|135:179,1,22.5000008583069
147,242,92879,2,2,L|178:242,1,22.5000008583069
216,188,93195,2,0,L|250:189,1,22.5000008583069
262,252,93511,2,2,L|293:252,1,22.5000008583069
326,201,93826,2,0,L|360:202,1,22.5000008583069
372,265,94142,2,2,L|403:265,1,22.5000008583069
422,343,94457,5,0,0:0:0:0:
205,326,94773,1,0,0:0:0:0:
156,292,95089,2,2,P|192:268|236:276,1,90.0000034332277
128,216,96036,1,2,0:0:0:0:
292,288,96352,1,0,0:0:0:0:
364,180,96668,1,0,0:0:0:0:
215,145,96984,2,2,P|176:161|134:143,1,90.0000034332277
176,104,97773,1,0,0:0:0:0:
264,80,97931,1,0,0:0:0:0:
352,104,98089,1,2,0:0:0:0:
420,164,98247,38,0,L|428:196,1,22.5000008583069
89,225,98563,2,2,L|84:204,1,22.5000008583069
412,249,98878,2,0,L|402:281,1,22.5000008583069
94,138,99194,2,2,L|101:116,1,22.5000008583069
362,320,99510,2,0,L|338:342,1,22.5000008583069
143,64,99826,2,2,L|159:49,1,22.5000008583069
256,328,100142,6,0,L|256:296,1,22.5000008583069
256,56,100457,2,2,L|256:88,1,22.5000008583069
159,288,100773,2,0,L|182:265,1,22.5000008583069
352,95,101089,2,2,L|329:118,1,22.5000008583069
120,192,101405,2,0,L|151:192,1,22.5000008583069
392,191,101721,2,2,L|360:192,1,22.5000008583069
159,95,102036,38,0,L|160:72,1,22.5000008583069
212,288,102352,2,2,L|212:311,1,22.5000008583069
248,96,102668,2,0,L|248:72,1,22.5000008583069
300,289,102984,2,2,L|300:312,1,22.5000008583069
344,96,103300,2,0,L|344:72,1,22.5000008583069
396,289,103616,2,2,L|396:312,1,22.5000008583069
344,96,103931,5,0,0:0:0:0:
224,160,104247,1,0,0:0:0:0:
426,94,104563,2,2,P|386:110|342:94,1,90.0000034332277
384,51,105826,38,0,L|384:83,1,22.5000008583069
359,136,106142,2,2,L|359:167,1,22.5000008583069
302,195,106457,2,0,L|302:226,1,22.5000008583069
236,233,106773,2,2,L|236:264,1,22.5000008583069
168,252,107089,2,0,L|168:283,1,22.5000008583069
102,257,107405,2,2,L|102:288,1,22.5000008583069
168,252,107721,6,0,L|168:220,1,22.5000008583069
193,167,108036,2,2,L|193:136,1,22.5000008583069
250,108,108352,2,0,L|250:77,1,22.5000008583069
316,70,108668,2,2,L|316:39,1,22.5000008583069
384,51,108984,2,0,L|384:20,1,22.5000008583069
450,46,109300,2,2,L|450:15,1,22.5000008583069
450,46,109615,37,0,0:0:0:0:
293,99,109931,1,0,0:0:0:0:
450,46,110247,2,2,P|458:102|430:146,1,90.0000034332277
402,83,111194,1,0,0:0:0:0:
360,232,111510,1,0,0:0:0:0:
240,172,111826,1,0,0:0:0:0:
300,292,112142,1,2,0:0:0:0:
400,44,112773,1,0,0:0:0:0:
128,40,113405,6,0,P|112:128|92:160,1,120
424,308,115300,38,2,L|396:280,1,30
178,217,115952,38,2,L|199:238,1,30
399,179,116604,5,0,0:0:0:0:
322,351,116930,1,0,0:0:0:0:
460,180,117256,38,0,P|452:152|424:124,1,60
400,180,118203,1,0,0:0:0:0:
228,224,118519,1,2,0:0:0:0:
332,76,118834,1,0,0:0:0:0:
360,252,119150,2,0,P|328:260|304:288,1,60
357,310,120098,37,0,0:0:0:0:
196,232,120413,1,2,0:0:0:0:
228,380,120729,1,0,0:0:0:0:
356,252,121045,6,0,P|336:220|336:188,1,60
393,205,121992,1,0,0:0:0:0:
312,44,122308,1,2,0:0:0:0:
468,132,122624,1,0,0:0:0:0:
404,300,122940,2,0,B|344:288|328:340|328:340|296:324,1,120
384,356,124834,37,0,0:0:0:0:
208,316,125150,1,0,0:0:0:0:
352,208,125466,2,2,P|340:240|308:260,1,60
292,204,126413,1,0,0:0:0:0:
120,252,126729,5,0,0:0:0:0:
180,80,127045,1,0,0:0:0:0:
120,248,127361,1,2,0:0:0:0:
288,316,127677,2,0,L|296:320,4,7.5
224,148,128308,1,0,0:0:0:0:
350,31,128624,38,0,P|366:63|396:80,1,60
408,22,129571,1,0,0:0:0:0:
504,148,129887,1,2,0:0:0:0:
396,304,130361,1,0,0:0:0:0:
384,312,130440,1,0,0:0:0:0:
372,316,130519,1,2,0:0:0:0:
148,232,131150,1,0,0:0:0:0:
308,52,131782,1,0,0:0:0:0:
456,176,132334,5,0,0:0:0:0:
467,188,132413,2,2,B|479:220|475:251,1,60
360,276,133361,1,0,0:0:0:0:
240,292,133677,1,0,0:0:0:0:
76,220,134150,1,0,0:0:0:0:
68,208,134229,1,0,0:0:0:0:
64,192,134308,2,2,P|60:164|64:128,1,60
64,136,135256,37,0,0:0:0:0:
228,60,135571,1,0,0:0:0:0:
52,20,135887,1,0,0:0:0:0:
172,156,136203,1,2,0:0:0:0:
368,356,136834,6,0,L|368:344,16,7.5
202,51,138664,6,0,L|167:54,1,30
98,63,139219,2,0,L|120:87,1,30
100,144,139775,2,2,P|88:184|108:236,1,90
148,184,140886,1,0,0:0:0:0:
447,258,141441,2,0,P|413:266|381:255,1,60
418,207,142275,1,2,0:0:0:0:
160,28,142830,1,0,0:0:0:0:
160,28,143108,6,0,P|164:60|180:96,1,60
352,64,143941,1,0,0:0:0:0:
408,136,144219,1,2,0:0:0:0:
440,220,144497,1,0,0:0:0:0:
392,296,144775,1,0,0:0:0:0:
212,292,145330,38,0,P|176:288|152:268,1,60
200,232,146441,2,2,P|172:216|112:216,1,90
144,272,147552,1,0,0:0:0:0:
312,208,148108,2,0,P|296:180|260:164,1,60
252,220,148941,1,0,0:0:0:0:
172,168,149219,1,2,0:0:0:0:
120,92,149497,1,0,0:0:0:0:
208,72,149775,2,0,B|248:28|248:28|272:92|352:84,1,180
316,24,151997,6,0,P|344:20|376:32,1,60
336,80,153108,2,2,P|296:92|248:68,1,90
296,32,154497,1,2,0:0:0:0:
380,60,154775,2,0,P|400:88|404:120,1,60
228,156,155886,1,0,0:0:0:0:
228,156,156441,38,2,P|232:216|178:251,1,120
179,190,157830,1,0,0:0:0:0:
356,156,158108,1,0,0:0:0:0:
464,48,158664,2,2,P|440:72|408:84,1,60
416,82,159497,5,0,0:0:0:0:
240,52,159775,1,0,0:0:0:0:
68,240,160330,2,2,P|80:216|120:196,1,60
124,256,161164,1,0,0:0:0:0:
180,272,161441,2,2,P|168:296|128:316,1,60
40,104,162552,1,0,0:0:0:0:
212,48,162830,1,0,0:0:0:0:
352,160,163108,38,0,L|352:220,1,60
188,296,163941,2,2,L|188:288,12,7.5
388,104,165330,38,0,P|360:120|340:100,1,60
320,164,166441,2,2,P|348:180|408:164,1,90
364,124,167552,1,0,0:0:0:0:
144,76,168108,2,0,P|152:124|192:144,1,90
200,88,169497,1,2,0:0:0:0:
77,269,169775,2,0,P|110:279|143:270,1,60
135,275,170468,5,0,0:0:0:0:
151,229,170608,1,0,0:0:0:0:
168,180,170747,1,0,0:0:0:0:
188,132,170886,1,2,0:0:0:0:
220,92,171025,1,2,0:0:0:0:
264,64,171163,1,0,0:0:0:0:
312,44,171302,1,0,0:0:0:0:
364,40,171441,1,2,0:0:0:0:
464,224,171997,6,0,P|448:248|408:260,1,60
404,204,173108,2,2,P|364:144|320:152,1,120
348,200,174775,2,0,P|312:208|288:192,1,60
252,116,175608,1,0,0:0:0:0:
164,128,175886,1,2,0:0:0:0:
88,176,176164,1,0,0:0:0:0:
148,244,176441,2,0,P|204:324|265:288,1,180
209,259,178664,38,0,L|240:200,1,60
291,184,179775,2,2,P|256:150|215:152,1,90
238,206,181164,1,2,0:0:0:0:
312,248,181441,1,0,0:0:0:0:
412,100,181997,1,0,0:0:0:0:
236,64,182552,1,0,0:0:0:0:
192,144,182830,1,0,0:0:0:0:
248,216,183108,2,2,P|280:276|352:256,1,150
305,222,184775,5,0,0:0:0:0:
460,136,185330,1,2,0:0:0:0:
260,36,186164,1,0,0:0:0:0:
300,116,186441,1,0,0:0:0:0:
128,60,186997,1,2,0:0:0:0:
308,36,187552,1,0,0:0:0:0:
456,140,188108,38,2,P|428:200|368:204,1,120
396,148,189775,2,0,P|340:162|319:216,1,120
380,208,191441,5,0,0:0:0:0:
220,288,191997,1,2,0:0:0:0:
16,112,192830,1,0,0:0:0:0:
100,76,193108,1,0,0:0:0:0:
272,132,193664,1,2,0:0:0:0:
136,252,194219,1,0,0:0:0:0:
136,252,194775,38,2,L|252:192,1,120
200,152,196441,2,0,B|256:124,1,60
252,128,198327,6,0,L|284:120,1,30
340,224,198853,2,2,L|372:216,1,30
384,96,199379,2,0,L|412:88,1,30
468,196,199905,1,2,0:0:0:0:
236,256,200432,1,2,0:0:0:0:
104,56,200958,2,0,L|132:80,2,30
104,56,201748,37,0,0:0:0:0:
248,96,202011,1,0,0:0:0:0:
256,224,202274,1,2,0:0:0:0:
400,260,202537,1,0,0:0:0:0:
356,116,202800,1,0,0:0:0:0:
356,116,203063,1,0,0:0:0:0:
264,268,203590,1,2,0:0:0:0:
452,120,204116,2,0,L|420:148,2,30
452,120,204905,5,0,0:0:0:0:
336,88,205169,1,0,0:0:0:0:
240,160,205432,1,2,0:0:0:0:
124,132,205695,1,0,0:0:0:0:
16,184,205958,2,2,L|4:216,1,30
200,356,206748,1,0,0:0:0:0:
428,276,207274,1,0,0:0:0:0:
416,36,207800,38,2,L|400:64,2,30
176,60,208853,2,2,L|176:92,1,30
176,60,209379,1,0,0:0:0:0:
176,60,209905,1,0,0:0:0:0:
296,48,210169,6,0,L|312:88,1,30
424,104,210695,2,0,L|440:144,1,30
472,248,211221,1,2,0:0:0:0:
392,336,211484,1,0,0:0:0:0:
284,284,211748,2,2,L|320:272,2,30
284,284,212537,1,0,0:0:0:0:
208,60,213063,1,0,0:0:0:0:
20,208,213590,2,2,L|48:192,2,30
20,208,214379,37,0,0:0:0:0:
140,192,214642,1,0,0:0:0:0:
260,208,214905,1,2,0:0:0:0:
376,176,215169,1,0,0:0:0:0:
484,120,215432,1,2,0:0:0:0:
376,36,215695,2,2,P|344:36|308:52,1,60
456,244,216748,2,0,L|428:216,2,30
456,244,217537,5,0,0:0:0:0:
344,288,217800,1,0,0:0:0:0:
232,244,218063,2,2,L|216:212,1,30
116,156,218590,2,2,L|129:182,1,30
228,244,219379,1,0,0:0:0:0:
444,140,219905,2,2,L|408:124,1,30
360,112,220432,38,0,P|244:153|368:176,1,330
457,310,223590,2,0,B|448:298|448:298|436:306|436:306|429:291|429:291|418:299|418:299|415:285|415:285|403:293|403:293|400:279|400:279|388:287|388:287|385:273|385:273|373:282|373:282|370:268|370:268|358:276|358:276|355:262,1,180
185,190,226748,22,2,B|218:190|218:190|250:168|256:-120|262:168|293:190|293:190|332:190,1,330
340,264,229864,6,0,L|337:241,1,15
269,189,230179,2,2,L|270:203,1,15
209,273,230495,2,0,L|206:250,1,15
138,198,230811,2,2,L|139:212,1,15
80,280,231127,2,0,L|77:257,1,15
9,205,231442,2,2,L|10:219,1,15
8,312,231758,38,0,L|20:296,1,15
108,312,232074,2,2,L|120:296,1,15
52,240,232390,2,0,L|64:224,1,15
152,240,232706,2,2,L|164:224,1,15
96,164,233021,2,0,L|108:148,1,15
196,164,233337,2,2,L|208:148,1,15
248,72,233653,6,0,L|268:92,1,15
348,84,233969,2,2,L|328:104,1,15
296,176,234285,2,0,L|285:165,1,15
279,74,234600,2,2,L|293:98,1,15
372,111,234916,2,0,L|348:125,1,15
298,186,235232,2,2,L|291:173,1,15
309,84,235548,38,0,L|316:111,1,15
389,144,235864,2,2,L|362:151,1,15
298,198,236179,2,0,L|294:183,1,15
335,101,236495,2,2,L|335:129,1,15
397,180,236811,2,0,L|369:180,1,15
295,208,237127,2,2,L|295:193,1,15
296,104,237442,6,0,L|280:104,1,15
192,104,237758,2,2,L|180:120,1,15
120,184,238074,2,0,L|120:208,1,15
209,199,238390,2,2,L|209:184,1,15
272,116,238706,2,0,L|281:104,1,15
370,104,239021,2,2,L|385:104,1,15
440,176,239337,38,0,L|416:180,1,15
360,244,239653,2,2,L|336:248,1,15
272,192,239969,2,0,L|248:196,1,15
192,260,240285,2,2,L|168:264,1,15
104,212,240600,2,0,L|80:216,1,15
24,280,240916,2,2,L|0:284,1,15
92,316,241232,5,0,0:0:0:0:
260,252,241548,1,0,0:0:0:0:
364,104,241864,2,2,P|324:76|276:80,1,90
308,132,243127,2,0,L|288:164,1,30
116,196,243758,2,2,B|132:180|140:144|140:144|172:112,1,90
254,37,245021,38,0,L|277:38,1,15
268,346,245337,2,2,L|254:347,1,15
135,93,245653,2,0,L|151:76,1,15
382,281,245969,2,2,L|373:293,1,15
103,220,246285,2,0,L|100:198,1,15
405,152,246601,2,2,L|408:167,1,15
180,327,246916,6,0,L|160:314,1,15
391,267,247232,2,2,L|378:287,1,15
331,56,247548,2,0,L|351:69,1,15
120,116,247864,2,2,L|133:96,1,15
180,327,248179,2,0,L|160:314,1,15
391,267,248495,2,2,L|378:287,1,15
331,56,248811,38,0,L|351:69,1,15
180,327,249127,2,2,L|160:314,1,15
180,56,249442,2,0,L|160:69,1,15
331,327,249758,2,2,L|351:314,1,15
167,319,250074,2,0,L|180:327,1,15
344,64,250390,2,2,L|331:56,1,15
416,169,250706,5,0,0:0:0:0:
383,114,251021,1,0,0:0:0:0:
344,64,251337,2,2,P|384:52|436:80,1,90
383,119,252600,38,0,L|383:139,1,15
402,192,252916,2,2,L|392:209,1,15
382,265,253232,2,0,L|365:275,1,15
329,319,253548,2,2,L|309:319,1,15
255,338,253864,2,0,L|238:328,1,15
182,318,254179,2,2,L|172:301,1,15
129,265,254495,6,0,L|129:245,1,15
109,191,254811,2,2,L|119:174,1,15
129,118,255127,2,0,L|146:108,1,15
183,65,255443,2,2,L|203:65,1,15
256,45,255759,2,0,L|273:55,1,15
329,65,256074,2,2,L|339:82,1,15
396,120,256390,37,0,0:0:0:0:
224,68,256706,1,0,0:0:0:0:
100,196,257021,2,2,P|116:240|160:260,1,90
160,200,258285,2,0,L|200:188,1,30
344,280,258916,2,2,P|308:280|276:296,1,60
32,32,260179,2,0,B|60:48|60:48|140:52|140:124,1,150
76,112,262074,6,2,L|76:148,1,30
152,192,262726,38,0,L|116:192,1,30
76,268,263378,6,0,L|76:232,1,30
7,178,264030,22,2,B|27:171|27:171|57:187|103:169,1,90.0000034332277
294,269,264977,1,2,0:0:0:0:
142,102,265293,1,0,0:0:0:0:
163,326,265608,1,0,0:0:0:0:
242,115,265924,2,2,B|258:119|258:119|294:103|331:123,1,90.0000034332277
444,320,267187,1,2,0:0:0:0:
251,203,267503,1,2,0:0:0:0:
128,139,267819,38,0,L|175:135,1,45.0000017166138
144,164,268451,2,2,L|194:160,1,45.0000017166138
160,188,269082,2,0,L|210:183,1,45.0000017166138
176,212,269714,2,2,B|252:200|252:200|299:159|356:191,1,180.000006866455
306,235,271608,5,0,0:0:0:0:
510,140,271924,1,0,0:0:0:0:
414,342,272240,2,2,B|412:316|412:316|441:292|443:257,1,90.0000034332277
370,47,273187,1,2,0:0:0:0:
145,67,273503,2,0,L|177:105,1,45.0000017166138
442,207,274135,1,2,0:0:0:0:
341,331,274451,2,0,L|349:335,6,7.5
260,264,275082,1,2,0:0:0:0:
260,264,275398,38,0,P|215:250|199:198,1,90.0000034332277
256,204,276345,1,0,0:0:0:0:
93,49,276661,1,2,0:0:0:0:
483,66,277293,2,0,B|469:115|434:142,1,90.0000034332277
162,178,278556,1,2,0:0:0:0:
104,172,279187,2,0,P|143:120|205:138,1,135.000005149841
162,178,280451,1,2,0:0:0:0:
488,336,281082,22,0,B|432:280|376:376|320:332,1,180
108,52,283608,6,0,L|108:64,16,7.5
284,88,284976,6,0,L|316:112,1,30
468,284,285607,1,2,0:0:0:0:
112,236,286239,1,2,0:0:0:0:
444,92,286870,2,0,L|412:104,1,30
64,180,287818,1,0,0:0:0:0:
212,284,288133,2,2,P|232:308|272:312,1,60
264,256,289081,1,0,0:0:0:0:
428,180,289397,1,0,0:0:0:0:
332,28,289712,2,2,L|316:56,1,30
144,108,290344,1,2,0:0:0:0:
24,240,290660,5,0,0:0:0:0:
200,284,290976,2,0,L|228:264,1,30
316,260,291449,1,0,0:0:0:0:
332,212,291607,1,0,0:0:0:0:
316,160,291765,1,2,0:0:0:0:
280,120,291923,1,0,0:0:0:0:
236,92,292081,1,0,0:0:0:0:
184,80,292239,1,2,0:0:0:0:
132,84,292397,1,0,0:0:0:0:
84,108,292554,37,0,0:0:0:0:
48,148,292712,1,2,0:0:0:0:
20,192,292870,1,0,0:0:0:0:
8,244,293028,1,0,0:0:0:0:
24,296,293186,2,2,P|40:324|76:336,1,60
79,281,294449,1,2,0:0:0:0:
144,112,294765,2,0,L|176:104,1,30
328,242,295712,1,0,0:0:0:0:
472,72,296344,6,2,P|428:80|404:68,1,60
440,24,297291,1,2,0:0:0:0:
280,108,297607,1,0,0:0:0:0:
452,160,297923,1,0,0:0:0:0:
340,20,298239,1,2,0:0:0:0:
120,180,298712,38,0,L|120:168,16,7.5
176,68,300472,22,0,P|188:92|224:112,1,60
252,156,301583,2,2,P|212:168|164:144,1,90
212,108,302972,1,0,0:0:0:0:
388,76,303249,2,0,P|384:108|360:132,1,60
332,82,304360,1,2,0:0:0:0:
332,82,304916,6,0,B|297:88|297:88|279:111|305:173,1,120
123,164,306305,1,0,0:0:0:0:
303,168,306583,1,0,0:0:0:0:
363,198,307138,2,2,P|339:222|307:234,1,60
171,123,307972,37,0,0:0:0:0:
212,298,308249,1,0,0:0:0:0:
111,110,308805,2,2,P|123:86|163:66,1,60
170,124,309638,1,0,0:0:0:0:
228,139,309916,2,2,P|216:163|176:183,1,60
17,20,311027,1,0,0:0:0:0:
192,59,311305,1,0,0:0:0:0:
192,59,311583,6,2,L|192:119,1,60
192,300,312416,2,0,L|192:292,12,7.5
456,56,313805,6,0,B|436:60|436:60|444:120|396:128,1,90.0000034332277
376,76,314916,2,0,P|380:172|444:172,1,180.000006866455
420,120,316583,2,2,B|400:120|400:120|356:180|300:156,1,135.000005149841
332,100,317972,1,2,0:0:0:0:
332,100,318249,2,0,B|316:124|316:124|300:144|324:180|304:200,1,90.0000034332277
311,183,319083,5,0,0:0:0:0:
284,140,319222,1,0,0:0:0:0:
244,108,319360,1,2,0:0:0:0:
196,96,319499,1,2,0:0:0:0:
148,104,319638,1,0,0:0:0:0:
104,124,319777,1,0,0:0:0:0:
72,160,319916,1,2,0:0:0:0:
72,160,320472,38,0,B|88:172|88:172|132:160|152:192,1,90.0000034332277
104,232,321583,2,2,P|68:280|124:244,1,180.000006866455
183,235,323249,5,0,0:0:0:0:
450,177,323527,1,0,0:0:0:0:
184,233,324083,37,0,0:0:0:0:
304,100,324360,1,2,0:0:0:0:
128,140,324638,1,0,0:0:0:0:
296,208,324916,1,0,0:0:0:0:
296,208,325472,6,0,L|312:208,16,11.2500004291535
464,40,327138,6,0,P|428:36|400:56,1,60
440,96,328249,2,2,B|424:108|424:108|424:156|384:156,1,90
385,155,329638,1,2,0:0:0:0:
208,180,329916,2,0,P|240:188|272:168,1,60
263,177,331027,1,0,0:0:0:0:
372,320,331305,1,0,0:0:0:0:
372,320,331583,2,2,P|316:348|268:320,1,120
320,284,332972,5,0,0:0:0:0:
148,236,333249,1,0,0:0:0:0:
148,236,333805,2,2,P|175:242|212:227,1,60
175,180,334638,37,0,0:0:0:0:
340,136,334916,1,0,0:0:0:0:
340,136,335472,2,2,P|324:140|280:124,1,60
290,66,336583,6,0,P|228:97|240:167,1,150
281,124,338249,38,0,L|306:140,1,30
278,206,339360,1,2,0:0:0:0:
278,206,339916,6,0,P|256:221|220:224,1,60
232,164,341305,1,0,0:0:0:0:
404,108,341583,1,0,0:0:0:0:
404,108,342138,2,2,B|404:124|404:124|424:144|424:172,1,60
423,162,343249,2,2,P|388:216|336:208,1,120
365,160,345055,5,0,0:0:0:0:
359,155,345124,1,0,0:0:0:0:
354,148,345194,2,0,P|336:122|312:107,1,60
312,107,346583,5,0,0:0:0:0:
132,92,346860,1,2,0:0:0:0:
284,188,347138,5,0,0:0:0:0:
104,172,347416,1,2,0:0:0:0:
56,344,347694,5,0,0:0:0:0:
236,360,347972,1,2,0:0:0:0:
84,264,348249,5,0,0:0:0:0:
264,280,348527,1,2,0:0:0:0:
132,160,348805,5,0,0:0:0:0:
164,336,349083,1,2,0:0:0:0:
332,272,349360,5,0,0:0:0:0:
300,96,349638,1,2,0:0:0:0:
152,196,349916,5,0,0:0:0:0:
184,20,350194,1,2,0:0:0:0:
352,84,350472,5,0,0:0:0:0:
320,260,350749,1,2,0:0:0:0:
148,316,351027,5,0,0:0:0:0:
320,376,351305,1,2,0:0:0:0:
384,208,351583,5,0,0:0:0:0:
212,268,351860,1,2,0:0:0:0:
148,100,352138,5,0,0:0:0:0:
320,40,352416,1,2,0:0:0:0:
384,208,352694,5,0,0:0:0:0:
212,148,352972,1,2,0:0:0:0:
152,316,353249,5,0,0:0:0:0:
256,168,353527,1,2,0:0:0:0:
356,316,353805,1,0,0:0:0:0:
256,168,354083,2,2,L|256:240,1,60
256,228,354916,1,2,0:0:0:0:
256,48,355194,1,0,0:0:0:0:
368,192,355472,5,0,0:0:0:0:
256,332,355749,1,2,0:0:0:0:
140,192,356027,1,0,0:0:0:0:
256,52,356305,1,2,0:0:0:0:
361,230,356583,5,0,0:0:0:0:
208,323,356860,1,2,0:0:0:0:
146,152,357138,1,0,0:0:0:0:
303,60,357416,1,2,0:0:0:0:
341,263,357694,5,0,0:0:0:0:
166,299,357972,1,2,0:0:0:0:
167,117,358249,1,0,0:0:0:0:
345,84,358527,1,2,0:0:0:0:
312,288,358805,5,0,0:0:0:0:
134,262,359083,1,2,0:0:0:0:
198,91,359360,1,0,0:0:0:0:
377,121,359638,1,2,0:0:0:0:
377,121,359916,5,0,0:0:0:0:
198,91,360194,1,2,0:0:0:0:
134,262,360472,1,0,0:0:0:0:
312,288,360749,1,2,0:0:0:0:
345,84,361027,5,0,0:0:0:0:
167,117,361305,1,2,0:0:0:0:
166,299,361583,1,0,0:0:0:0:
341,263,361860,1,2,0:0:0:0:
303,60,362138,5,0,0:0:0:0:
146,152,362416,1,2,0:0:0:0:
208,323,362694,1,0,0:0:0:0:
361,230,362972,1,2,0:0:0:0:
256,52,363249,5,0,0:0:0:0:
140,192,363527,1,2,0:0:0:0:
256,332,363805,1,0,0:0:0:0:
368,192,364083,1,2,0:0:0:0:
368,192,364360,6,0,B|268:208|303:69|384:54|499:118|517:247|399:291|329:278|283:246|256:191,1,480
