osu file format v14

[General]
AudioFilename: soundcloud-113616493_12_Hua-Sui-Yue.mp3
AudioLeadIn: 0
PreviewTime: -1
Countdown: 1
SampleSet: Normal
StackLeniency: 0.7
Mode: 0
LetterboxInBreaks: 1
WidescreenStoryboard: 0

[Editor]
DistanceSpacing: 1.3
BeatDivisor: 4
GridSize: 4
TimelineZoom: 1

[Metadata]
Title:Hua-Sui-Yue
TitleUnicode:Hua-Sui-Yue
Artist:V.K
ArtistUnicode:V.K
Creator:Lolzy
Version:Insane
Source:Deemo
Tags:V.K
BeatmapID:505375
BeatmapSetID:215148

[Difficulty]
HPDrainRate:6
CircleSize:5
OverallDifficulty:7
ApproachRate:9
SliderMultiplier:1.4
SliderTickRate:1

[Events]
//Background and Video events
//Break Periods
//Storyboard Layer 0 (Background)
//Storyboard Layer 1 (Fail)
//Storyboard Layer 2 (Pass)
//Storyboard Layer 3 (Foreground)
//Storyboard Sound Samples

[TimingPoints]
0,405.405405405405,4,1,0,100,1,0

[HitObjects]
108,96,810,5,0,0:0:0:0:
108,216,1216,2,0,B|192:212|176:216|236:152|236:152,1,140
328,68,2432,5,0,0:0:0:0:
348,188,2837,2,0,B|276:192|308:188|252:112|228:128,1,140
264,308,4054,5,0,0:0:0:0:
292,232,4459,2,0,B|232:152|224:164|180:180,1,140
128,136,5270,1,0,0:0:0:0:
168,72,5675,1,0,0:0:0:0:
240,48,6081,1,0,0:0:0:0:
368,216,6486,5,0,0:0:0:0:
264,284,6689,1,0,0:0:0:0:
168,284,6891,1,0,0:0:0:0:
256,204,7297,2,0,P|216:136|268:104,1,140
236,72,8108,5,0,0:0:0:0:
128,284,8918,5,0,0:0:0:0:
348,296,9324,2,0,B|300:256|360:212|272:176,1,140
392,140,10540,2,0,B|284:140|272:184|240:120,1,140
100,160,11351,1,0,0:0:0:0:
356,352,11959,5,0,0:0:0:0:
320,340,12060,1,0,0:0:0:0:
284,320,12162,1,0,0:0:0:0:
360,172,12767,5,0,0:0:0:0:
332,184,12871,1,0,0:0:0:0:
300,196,12971,1,0,0:0:0:0:
168,48,13783,5,0,0:0:0:0:
360,100,14189,1,0,0:0:0:0:
176,232,14594,1,0,0:0:0:0:
352,196,14999,1,0,0:0:0:0:
264,156,15405,2,0,B|184:112|148:116|180:48,1,140
400,328,16216,5,0,0:0:0:0:
176,276,16621,2,0,B|296:220|240:248|208:184,1,140
268,128,17432,5,0,0:0:0:0:
76,224,17837,1,0,0:0:0:0:
336,296,18243,1,0,0:0:0:0:
248,228,18648,2,0,P|168:320|148:328,1,140
196,52,19459,1,0,0:0:0:0:
396,120,20270,5,0,0:0:0:0:
300,116,21081,1,0,0:0:0:0:
188,140,21486,1,0,0:0:0:0:
192,280,21689,5,0,0:0:0:0:
192,280,21790,1,0,0:0:0:0:
192,280,21891,1,0,0:0:0:0:
360,244,22702,5,0,0:0:0:0:
340,136,23108,1,0,0:0:0:0:
216,132,23513,1,0,0:0:0:0:
176,268,23918,1,0,0:0:0:0:
100,192,24223,1,0,0:0:0:0:
100,192,24324,1,0,0:0:0:0:
84,120,24729,6,0,P|200:76|216:76,1,140
400,296,25540,1,0,0:0:0:0:
184,316,25945,1,0,0:0:0:0:
124,176,26351,1,0,0:0:0:0:
312,136,26655,1,0,0:0:0:0:
312,136,26756,1,0,0:0:0:0:
404,312,27567,5,0,0:0:0:0:
284,304,27972,2,0,P|192:296|192:268,1,140
204,164,28682,1,0,0:0:0:0:
204,164,28783,1,0,0:0:0:0:
312,120,29189,5,0,0:0:0:0:
448,184,29594,1,0,0:0:0:0:
336,308,29898,1,0,0:0:0:0:
336,308,29999,1,0,0:0:0:0:
148,124,30405,5,0,0:0:0:0:
232,88,30608,1,0,0:0:0:0:
336,96,30810,1,0,0:0:0:0:
428,144,31013,1,0,0:0:0:0:
456,240,31216,1,0,0:0:0:0:
256,280,31418,2,0,L|176:272,1,70
160,96,32432,5,0,0:0:0:0:
212,216,33243,2,0,P|284:196|352:224,1,140
356,288,34054,1,0,0:0:0:0:
168,296,34459,1,0,0:0:0:0:
100,124,34763,1,0,0:0:0:0:
100,124,34864,1,0,0:0:0:0:
336,160,35675,5,0,0:0:0:0:
252,244,36081,2,0,P|160:288|136:248,1,140
100,152,36891,1,0,0:0:0:0:
320,92,37195,1,0,0:0:0:0:
320,92,37297,1,0,0:0:0:0:
352,224,37702,2,0,P|272:284|236:284,1,140
96,148,38513,5,0,0:0:0:0:
168,80,38716,1,0,0:0:0:0:
264,52,38918,1,0,0:0:0:0:
260,196,39324,1,0,0:0:0:0:
144,296,39729,2,0,L|200:296,4,35,0|0|0|0|0,0:0|0:0|0:0|0:0|0:0,0:0:0:0:
40,180,40540,5,0,0:0:0:0:
92,120,40743,1,0,0:0:0:0:
168,88,40945,1,0,0:0:0:0:
248,80,41148,1,0,0:0:0:0:
172,236,41351,1,0,0:0:0:0:
336,236,41756,5,0,0:0:0:0:
416,144,42060,1,0,0:0:0:0:
416,144,42162,1,0,0:0:0:0:
248,80,42567,1,0,0:0:0:0:
120,112,42972,1,0,0:0:0:0:
332,296,43378,5,0,0:0:0:0:
128,332,43783,1,0,0:0:0:0:
124,192,43986,1,0,0:0:0:0:
256,256,44189,1,0,0:0:0:0:
224,104,44391,1,0,0:0:0:0:
384,228,44594,1,0,0:0:0:0:
344,52,44797,1,0,0:0:0:0:
456,128,44999,1,0,0:0:0:0:
228,192,45405,5,0,0:0:0:0:
100,168,45810,2,0,L|216:88,1,140
396,304,46418,5,0,0:0:0:0:
240,264,46621,1,0,0:0:0:0:
392,176,46824,1,0,0:0:0:0:
300,336,47027,1,0,0:0:0:0:
248,160,47229,5,0,0:0:0:0:
88,232,47432,1,0,0:0:0:0:
112,100,47635,1,0,0:0:0:0:
192,204,47837,1,0,0:0:0:0:
36,196,48040,1,0,0:0:0:0:
176,88,48243,1,0,0:0:0:0:
380,104,48445,1,0,0:0:0:0:
184,272,48648,1,0,0:0:0:0:
352,256,49054,6,0,L|492:216,1,140
300,148,49864,1,0,0:0:0:0:
168,288,50270,2,0,P|128:224|188:216,1,140
364,116,50878,1,0,0:0:0:0:
404,192,51081,1,0,0:0:0:0:
164,172,51283,1,0,0:0:0:0:
200,240,51486,1,0,0:0:0:0:
356,216,51689,1,0,0:0:0:0:
320,140,51891,1,0,0:0:0:0:
116,184,52094,1,0,0:0:0:0:
144,252,52297,1,0,0:0:0:0:
404,152,52702,1,0,0:0:0:0:
264,296,53006,5,0,0:0:0:0:
264,296,53108,1,0,0:0:0:0:
216,112,53918,5,0,0:0:0:0:
348,68,54121,1,0,0:0:0:0:
360,240,54324,1,0,0:0:0:0:
216,216,54527,1,0,0:0:0:0:
296,156,54729,1,0,0:0:0:0:
348,288,55033,1,0,0:0:0:0:
348,288,55135,1,0,0:0:0:0:
188,320,55540,5,0,0:0:0:0:
132,248,55945,2,0,P|128:176|88:196,1,140
72,148,56554,1,0,0:0:0:0:
96,280,56756,1,0,0:0:0:0:
284,104,57162,1,0,0:0:0:0:
316,272,57567,6,0,L|256:232,1,70
192,188,57972,1,0,0:0:0:0:
344,136,58175,1,0,0:0:0:0:
400,272,58378,1,0,0:0:0:0:
180,288,58581,1,0,0:0:0:0:
192,108,58783,2,0,B|288:80|252:92|320:28|300:48|376:72,1,140
292,300,59594,5,0,0:0:0:0:
348,204,59797,1,0,0:0:0:0:
192,192,59999,1,0,0:0:0:0:
92,144,60405,2,0,B|168:104|208:96|212:144,1,140
380,160,61621,5,0,0:0:0:0:
220,288,62027,1,0,0:0:0:0:
408,240,62432,1,0,0:0:0:0:
96,236,62837,2,0,P|152:192|152:208,1,140
196,212,63445,1,0,0:0:0:0:
256,260,63648,1,0,0:0:0:0:
320,300,63851,1,0,0:0:0:0:
384,344,64054,1,0,0:0:0:0:
336,80,64459,5,2,0:0:0:0:
80,104,64864,2,0,P|104:124|152:120,3,70,0|0|0|0,0:0|0:0|0:0|0:0,0:0:0:0:
184,208,65675,1,0,0:0:0:0:
244,248,66081,1,0,0:0:0:0:
92,152,66486,2,0,B|116:148|104:116|160:104,1,70
232,104,66891,1,0,0:0:0:0:
344,112,67094,1,0,0:0:0:0:
384,224,67297,2,0,B|320:272|328:264,2,70,0|0|0,0:0|0:0|0:0,0:0:0:0:
220,244,68108,5,0,0:0:0:0:
120,164,68513,1,0,0:0:0:0:
272,112,68918,1,0,0:0:0:0:
300,188,69324,1,0,0:0:0:0:
192,288,69729,1,0,0:0:0:0:
156,116,69932,1,0,0:0:0:0:
224,184,70135,1,0,0:0:0:0:
96,212,70337,1,0,0:0:0:0:
160,200,70540,2,0,P|204:136|272:136,1,140
300,260,71351,5,0,0:0:0:0:
360,152,71756,1,0,0:0:0:0:
252,200,72162,2,0,P|172:128|112:176,1,140
120,244,72972,1,0,0:0:0:0:
240,296,73175,1,0,0:0:0:0:
272,84,73378,1,0,0:0:0:0:
124,128,73581,1,0,0:0:0:0:
336,216,73783,1,0,0:0:0:0:
132,224,74594,5,0,0:0:0:0:
360,108,74999,1,0,0:0:0:0:
320,296,75405,1,0,0:0:0:0:
172,100,76013,1,0,0:0:0:0:
256,128,76216,1,0,0:0:0:0:
388,100,76520,1,0,0:0:0:0:
396,236,76824,1,0,0:0:0:0:
312,268,77027,1,0,0:0:0:0:
132,272,77432,1,0,0:0:0:0:
264,180,77837,2,0,P|192:164|208:96,1,140
376,100,78648,5,0,0:0:0:0:
196,84,79054,1,0,0:0:0:0:
196,84,79256,1,0,0:0:0:0:
348,184,79662,1,0,0:0:0:0:
76,208,80270,1,0,0:0:0:0:
224,152,81081,5,0,0:0:0:0:
256,192,81891,12,0,84324,0:0:0:0:
364,144,84729,5,0,0:0:0:0:
340,276,85135,1,0,0:0:0:0:
232,272,85540,1,0,0:0:0:0:
232,272,85743,1,0,0:0:0:0:
176,152,86148,1,0,0:0:0:0:
288,112,86554,6,0,L|344:160,2,70,0|0|0,0:0|0:0|0:0,0:0:0:0:
364,232,87567,1,0,0:0:0:0:
256,296,87972,2,0,B|208:240|228:264|240:240|268:216|248:176|224:176,1,140
200,172,88783,1,0,0:0:0:0:
200,172,88986,1,0,0:0:0:0:
376,116,89391,1,0,0:0:0:0:
368,264,89797,1,0,0:0:0:0:
260,116,90202,1,0,0:0:0:0:
92,188,90608,2,2,L|168:136,1,70
