osu file format v14

[General]
AudioFilename: Hyperdimension Neptunia Victory II Music- More soul! .mp3
AudioLeadIn: 0
PreviewTime: -1
Countdown: 1
SampleSet: None
StackLeniency: 0.7
Mode: 2
LetterboxInBreaks: 0
CountdownOffset: 2
WidescreenStoryboard: 1

[Editor]
Bookmarks: 9671,38590,49117,49148,54595,66270,70698,78401,81401,82359,84806,89995,118175,126814,127671,138218,138682,156049,159968,180022,181779,187617,201752,221320,223374,230833,231914,232995
DistanceSpacing: 0.7
BeatDivisor: 6
GridSize: 4
TimelineZoom: 1.5

[Metadata]
Title:More Soul! Continue
TitleUnicode:More Soul! コンティニュー
Artist:Uzume (cv: Mariko Honda)
ArtistUnicode:Uzume (cv: Mariko Honda)
Creator:Sevchaenkov
Version:Normal+
Source:新次元ゲイムネプテューヌ VII
Tags:新次元ゲイムネプテューヌVII 新次元ゲイムネプテューヌ More soul! Continue MoreSoul!Continue More Soul!コンティニュー
BeatmapID:904831
BeatmapSetID:417933

[Difficulty]
HPDrainRate:7.2
CircleSize:5.2
OverallDifficulty:7.5
ApproachRate:7.5
SliderMultiplier:1.4
SliderTickRate:1

[Events]
//Background and Video events
0,0,"新次元ゲイム ネプテューヌVⅡ_UZUME.jpg",0,0
//Break Periods
2,100195,103927
2,160763,165197
//Storyboard Layer 0 (Background)
//Storyboard Layer 1 (Fail)
//Storyboard Layer 2 (Pass)
//Storyboard Layer 3 (Foreground)
//Storyboard Sound Samples

[TimingPoints]
103.837837837838,162.162162162162,4,2,0,100,1,0

[HitObjects]
88,108,9914,5,0,0:0:0:0:
116,120,10698,1,0,0:0:0:0:
248,120,11022,1,0,0:0:0:0:
184,120,11320,1,0,0:0:0:0:
400,136,12347,1,0,0:0:0:0:
120,136,13049,5,0,0:0:0:0:
252,136,13374,1,0,0:0:0:0:
56,136,13698,1,0,0:0:0:0:
44,256,14725,1,0,0:0:0:0:
216,252,15455,1,0,0:0:0:0:
40,112,15806,5,0,0:0:0:0:
208,96,16103,1,0,0:0:0:0:
48,112,17130,1,0,0:0:0:0:
248,112,17914,1,0,0:0:0:0:
108,112,18211,1,0,0:0:0:0:
332,116,18482,5,0,0:0:0:0:
476,316,19563,1,0,0:0:0:0:
352,316,20266,1,0,0:0:0:0:
488,320,20617,1,0,0:0:0:0:
328,224,20914,1,0,0:0:0:0:
488,120,21995,5,0,0:0:0:0:
472,116,22644,1,0,0:0:0:0:
332,120,22941,1,0,0:0:0:0:
344,120,23293,1,0,0:0:0:0:
468,132,24374,1,0,0:0:0:0:
332,136,25022,5,0,0:0:0:0:
212,136,25374,1,0,0:0:0:0:
312,136,25725,1,0,0:0:0:0:
200,136,26698,1,0,0:0:0:0:
268,136,27320,1,0,0:0:0:0:
360,136,27968,5,0,0:0:0:0:
356,196,28130,1,0,0:0:0:0:
356,236,28293,1,0,0:0:0:0:
360,136,28455,1,0,0:0:0:0:
360,136,28563,2,0,L|108:276,1,280
256,192,29157,12,0,38293,0:0:0:0:
84,108,38617,5,0,0:0:0:0:
84,108,38671,1,0,0:0:0:0:
84,108,38725,1,0,0:0:0:0:
84,108,38779,1,0,0:0:0:0:
84,108,38860,5,0,0:0:0:0:
84,108,38914,1,0,0:0:0:0:
84,108,38968,1,0,0:0:0:0:
84,108,39022,1,0,0:0:0:0:
84,108,39076,5,0,0:0:0:0:
84,108,39157,1,0,0:0:0:0:
84,108,39211,1,0,0:0:0:0:
84,108,39265,1,0,0:0:0:0:
84,108,39319,5,0,0:0:0:0:
84,108,39400,1,0,0:0:0:0:
84,108,39454,1,0,0:0:0:0:
84,108,39509,1,0,0:0:0:0:
84,108,39590,1,0,0:0:0:0:
84,108,39644,5,0,0:0:0:0:
104,56,39941,6,0,L|108:336,1,280
200,344,40509,2,0,L|192:40,1,303.333333333333
272,36,41103,2,0,L|280:352,1,303.333333333333
376,340,41725,1,0,0:0:0:0:
280,340,41995,1,0,0:0:0:0:
288,336,42184,1,0,0:0:0:0:
376,348,42374,5,0,0:0:0:0:
296,280,42617,1,0,0:0:0:0:
384,272,42941,1,0,0:0:0:0:
280,260,43238,1,0,0:0:0:0:
208,260,43536,1,0,0:0:0:0:
136,260,43833,5,0,0:0:0:0:
72,260,44130,1,0,0:0:0:0:
68,304,44482,1,0,0:0:0:0:
144,312,44752,1,0,0:0:0:0:
72,260,45076,1,0,0:0:0:0:
144,264,45347,5,0,0:0:0:0:
212,260,45644,1,0,0:0:0:0:
184,264,45941,1,0,0:0:0:0:
188,256,46238,1,0,0:0:0:0:
188,256,46536,1,0,0:0:0:0:
280,264,46806,5,0,0:0:0:0:
328,208,47130,1,0,0:0:0:0:
392,260,47428,1,0,0:0:0:0:
436,260,47725,1,0,0:0:0:0:
464,256,48049,1,0,0:0:0:0:
328,160,48347,5,0,0:0:0:0:
328,184,48401,1,0,0:0:0:0:
328,220,48455,1,0,0:0:0:0:
328,240,48509,1,0,0:0:0:0:
328,256,48536,1,0,0:0:0:0:
340,204,48563,1,0,0:0:0:0:
328,160,48617,5,0,0:0:0:0:
328,184,48671,1,0,0:0:0:0:
328,220,48725,1,0,0:0:0:0:
328,240,48779,1,0,0:0:0:0:
328,256,48806,1,0,0:0:0:0:
340,204,48833,1,0,0:0:0:0:
328,160,48887,5,0,0:0:0:0:
328,184,48941,1,0,0:0:0:0:
328,220,48995,1,0,0:0:0:0:
328,240,49049,1,0,0:0:0:0:
328,256,49076,1,0,0:0:0:0:
340,204,49103,1,0,0:0:0:0:
300,196,49563,1,0,0:0:0:0:
268,192,49887,5,0,0:0:0:0:
288,132,50130,1,0,0:0:0:0:
224,216,50265,1,0,0:0:0:0:
216,168,50455,1,0,0:0:0:0:
232,120,50725,1,0,0:0:0:0:
204,132,51049,1,0,0:0:0:0:
164,164,51347,5,0,0:0:0:0:
132,200,51617,1,0,0:0:0:0:
96,240,51779,1,0,0:0:0:0:
100,280,51941,1,0,0:0:0:0:
160,264,52265,1,0,0:0:0:0:
200,240,52536,5,0,0:0:0:0:
304,236,52806,1,0,0:0:0:0:
268,276,52968,1,0,0:0:0:0:
308,296,53238,1,0,0:0:0:0:
280,240,53374,1,0,0:0:0:0:
292,244,53536,5,0,0:0:0:0:
296,244,53698,1,0,0:0:0:0:
320,240,54022,1,0,0:0:0:0:
364,236,54347,1,0,0:0:0:0:
416,248,54509,1,0,0:0:0:0:
440,232,54644,1,0,0:0:0:0:
392,244,54941,5,0,0:0:0:0:
460,236,55238,1,0,0:0:0:0:
480,168,55536,1,0,0:0:0:0:
424,192,55833,1,0,0:0:0:0:
368,204,56130,1,0,0:0:0:0:
312,208,56455,5,0,0:0:0:0:
328,152,56752,1,0,0:0:0:0:
300,160,57049,1,0,0:0:0:0:
328,152,57347,1,0,0:0:0:0:
268,168,57644,1,0,0:0:0:0:
148,148,57914,5,0,0:0:0:0:
148,140,57968,1,0,0:0:0:0:
148,140,58103,1,0,0:0:0:0:
148,140,58211,1,0,0:0:0:0:
148,140,58347,1,0,0:0:0:0:
156,140,58509,5,0,0:0:0:0:
156,140,58671,1,0,0:0:0:0:
156,140,58806,1,0,0:0:0:0:
296,156,59130,1,0,0:0:0:0:
400,148,59455,5,0,0:0:0:0:
348,164,59590,1,0,0:0:0:0:
364,128,59752,1,0,0:0:0:0:
368,92,59914,1,0,0:0:0:0:
312,144,60049,1,0,0:0:0:0:
328,92,60320,1,0,0:0:0:0:
304,124,60617,1,0,0:0:0:0:
264,156,60914,5,0,0:0:0:0:
320,156,61238,1,0,0:0:0:0:
320,32,61509,2,0,L|320:360,1,326.666666666667
328,152,62049,1,0,0:0:0:0:
472,152,62455,5,0,0:0:0:0:
352,260,62752,1,0,0:0:0:0:
448,264,62914,1,0,0:0:0:0:
448,328,63293,1,0,0:0:0:0:
336,336,63617,1,0,0:0:0:0:
252,328,63968,5,0,0:0:0:0:
252,328,64184,2,0,L|376:184,1,186.666666666667
400,176,64563,1,0,0:0:0:0:
288,168,64725,1,0,0:0:0:0:
320,172,64833,1,0,0:0:0:0:
256,188,65157,1,0,0:0:0:0:
72,236,65482,5,0,0:0:0:0:
40,236,65752,1,0,0:0:0:0:
40,272,66049,1,0,0:0:0:0:
72,272,66347,1,0,0:0:0:0:
104,280,66617,1,0,0:0:0:0:
140,272,66941,5,0,0:0:0:0:
304,280,67238,1,0,0:0:0:0:
140,272,67536,1,0,0:0:0:0:
300,276,67806,1,0,0:0:0:0:
356,296,68130,1,0,0:0:0:0:
312,280,68428,5,0,0:0:0:0:
408,288,68671,2,0,L|232:64,2,280
416,280,69644,1,0,0:0:0:0:
360,276,69887,1,0,0:0:0:0:
336,276,70076,1,0,0:0:0:0:
392,280,70265,1,0,2:0:0:0:
436,292,70509,1,0,0:0:0:0:
132,48,70860,6,0,L|144:360,1,303.333333333333
128,208,71455,1,0,0:0:0:0:
152,200,71590,1,0,0:0:0:0:
280,220,71914,1,0,0:0:0:0:
308,220,72076,1,0,0:0:0:0:
364,224,72238,5,0,0:0:0:0:
416,228,72509,1,0,0:0:0:0:
304,220,73157,1,0,0:0:0:0:
248,216,73482,1,0,0:0:0:0:
152,220,73806,1,0,0:0:0:0:
180,220,73914,5,0,0:0:0:0:
140,220,74265,1,0,0:0:0:0:
184,224,74401,1,0,0:0:0:0:
112,224,74536,1,0,0:0:0:0:
72,224,74887,1,0,0:0:0:0:
44,204,75590,5,0,0:0:0:0:
64,168,75887,1,0,0:0:0:0:
112,160,76211,1,0,0:0:0:0:
152,160,76482,1,0,0:0:0:0:
184,160,76833,1,0,0:0:0:0:
232,160,77103,5,0,0:0:0:0:
280,164,77428,1,0,0:0:0:0:
292,168,77563,1,0,0:0:0:0:
348,168,78049,1,0,0:0:0:0:
392,168,78320,1,0,0:0:0:0:
176,128,78509,5,0,0:0:0:0:
176,128,78644,1,0,0:0:0:0:
176,128,78779,1,0,0:0:0:0:
176,128,78914,1,0,0:0:0:0:
176,128,79049,1,0,0:0:0:0:
236,128,79184,5,0,0:0:0:0:
236,128,79320,1,0,0:0:0:0:
236,128,79455,1,0,0:0:0:0:
236,128,79590,1,0,0:0:0:0:
236,128,79725,1,0,0:0:0:0:
288,128,79860,5,0,0:0:0:0:
288,128,79995,1,0,0:0:0:0:
288,128,80103,1,0,0:0:0:0:
288,128,80238,1,0,0:0:0:0:
288,128,80373,1,0,0:0:0:0:
248,144,80509,5,0,0:0:0:0:
204,160,80725,1,0,0:0:0:0:
232,156,80995,1,0,0:0:0:0:
244,156,81157,1,0,0:0:0:0:
324,184,81536,5,0,0:0:0:0:
216,180,81617,1,0,0:0:0:0:
216,180,81752,1,0,0:0:0:0:
264,180,82103,1,0,0:0:0:0:
340,184,82833,1,0,0:0:0:0:
396,200,83103,5,0,0:0:0:0:
396,220,83428,1,0,0:0:0:0:
320,348,83536,1,0,0:0:0:0:
320,356,83887,2,0,L|216:16,1,350
217,21,84536,1,0,0:0:0:0:
200,228,85238,5,0,0:0:0:0:
172,224,85536,1,0,0:0:0:0:
148,224,85833,1,0,0:0:0:0:
128,224,86157,1,0,0:0:0:0:
112,224,86428,1,0,0:0:0:0:
84,228,86725,5,0,0:0:0:0:
64,228,87022,1,0,0:0:0:0:
104,212,87157,1,0,0:0:0:0:
72,244,87320,1,0,0:0:0:0:
100,248,87617,1,0,0:0:0:0:
72,0,87752,2,0,L|72:60,43,46.6666666666667
268,240,90374,5,0,0:0:0:0:
288,240,90590,1,0,0:0:0:0:
300,240,90995,1,0,0:0:0:0:
220,196,91157,1,0,0:0:0:0:
220,196,91320,5,0,0:0:0:0:
268,224,91482,1,0,0:0:0:0:
344,232,91833,1,0,0:0:0:0:
352,232,92103,1,0,0:0:0:0:
368,232,92401,1,0,0:0:0:0:
288,228,92725,5,0,0:0:0:0:
264,232,92887,1,0,0:0:0:0:
256,232,93022,1,0,0:0:0:0:
236,232,93157,1,0,0:0:0:0:
220,232,93320,1,0,0:0:0:0:
208,232,93455,5,0,0:0:0:0:
192,232,93563,1,0,0:0:0:0:
184,232,93698,1,0,0:0:0:0:
176,232,93806,1,0,0:0:0:0:
124,232,93968,1,0,0:0:0:0:
88,228,94184,5,0,0:0:0:0:
64,232,94347,1,0,0:0:0:0:
44,232,94536,1,0,0:0:0:0:
32,232,94806,1,0,0:0:0:0:
256,192,95130,12,0,99995,0:0:0:0:
76,48,104752,6,0,B|88:340|128:164|288:80|64:48|200:184,1,373.333333333333
196,180,105671,1,0,0:0:0:0:
304,140,105995,1,0,0:0:0:0:
196,180,106752,1,0,0:0:0:0:
348,180,106968,1,0,0:0:0:0:
72,112,107860,5,0,0:0:0:0:
112,112,107941,1,0,0:0:0:0:
148,116,108049,1,0,0:0:0:0:
196,168,108374,1,0,0:0:0:0:
88,168,109103,1,0,0:0:0:0:
80,168,109347,5,0,0:0:0:0:
200,160,109617,1,0,0:0:0:0:
160,168,110752,1,0,0:0:0:0:
264,156,111022,1,0,0:0:0:0:
308,164,111320,1,0,0:0:0:0:
320,164,111617,5,0,0:0:0:0:
416,164,111887,1,0,0:0:0:0:
364,160,112184,1,0,0:0:0:0:
308,164,112482,1,0,0:0:0:0:
264,168,112779,1,0,0:0:0:0:
216,176,113076,5,0,0:0:0:0:
164,176,113401,1,0,0:0:0:0:
184,176,113752,1,0,0:0:0:0:
280,180,114049,1,0,0:0:0:0:
204,104,114347,1,0,0:0:0:0:
240,104,114590,5,0,0:0:0:0:
244,108,114644,1,0,0:0:0:0:
228,100,114779,1,0,0:0:0:0:
272,104,114941,1,0,0:0:0:0:
212,100,115076,1,0,0:0:0:0:
64,24,115238,5,0,0:0:0:0:
64,76,115536,2,0,L|140:356,2,280
100,100,116401,1,0,0:0:0:0:
104,96,116725,1,0,0:0:0:0:
264,96,117049,1,0,0:0:0:0:
216,92,117347,5,0,0:0:0:0:
48,104,117617,1,0,0:0:0:0:
104,96,117779,1,0,0:0:0:0:
64,104,117968,1,0,0:0:0:0:
200,152,118265,1,0,0:0:0:0:
160,156,118563,5,0,0:0:0:0:
244,140,118833,1,0,0:0:0:0:
232,84,119130,1,0,0:0:0:0:
180,88,119455,1,0,0:0:0:0:
232,172,119725,1,0,0:0:0:0:
104,152,120022,5,0,0:0:0:0:
292,160,120293,1,0,0:0:0:0:
112,152,120617,1,0,0:0:0:0:
176,216,120914,1,0,0:0:0:0:
212,248,121238,1,0,0:0:0:0:
248,88,121509,5,0,0:0:0:0:
168,92,121833,1,0,0:0:0:0:
136,104,122130,1,0,0:0:0:0:
108,120,122428,1,0,0:0:0:0:
144,148,122752,1,0,0:0:0:0:
344,100,123022,5,0,0:0:0:0:
376,96,123347,1,0,0:0:0:0:
404,96,123644,1,0,0:0:0:0:
424,100,123914,1,0,0:0:0:0:
328,100,124211,1,0,0:0:0:0:
264,88,124482,5,0,0:0:0:0:
220,88,124536,1,0,0:0:0:0:
244,88,124590,1,0,0:0:0:0:
232,88,124644,1,0,0:0:0:0:
244,88,124698,1,0,0:0:0:0:
228,84,124725,5,0,0:0:0:0:
252,88,124752,1,0,0:0:0:0:
224,88,124779,1,0,0:0:0:0:
244,92,124806,1,0,0:0:0:0:
252,88,124833,1,0,0:0:0:0:
220,88,124860,5,0,0:0:0:0:
244,88,124887,1,0,0:0:0:0:
228,84,124914,1,0,0:0:0:0:
252,88,124941,1,0,0:0:0:0:
224,88,124968,1,0,0:0:0:0:
228,84,124995,5,0,0:0:0:0:
252,88,125022,1,0,0:0:0:0:
224,88,125049,1,0,0:0:0:0:
228,84,125076,1,0,0:0:0:0:
252,88,125103,1,0,0:0:0:0:
224,88,125130,5,0,0:0:0:0:
336,88,125401,1,0,0:0:0:0:
260,88,125536,1,0,0:0:0:0:
224,88,125941,1,0,0:0:0:0:
152,60,126076,5,0,0:0:0:0:
184,24,126374,6,0,P|180:376|180:376,1,350
180,373,126860,2,0,L|180:224,1,140
176,220,127265,1,0,0:0:0:0:
176,164,127509,1,0,0:0:0:0:
168,104,127968,1,0,0:0:0:0:
172,100,128184,6,0,L|240:104,3,46.6666666666667
64,100,128941,5,0,0:0:0:0:
128,104,129049,1,0,0:0:0:0:
228,96,129617,1,0,0:0:0:0:
248,96,129968,1,0,0:0:0:0:
312,96,130293,1,0,0:0:0:0:
356,104,130401,5,0,0:0:0:0:
432,104,130725,1,0,0:0:0:0:
372,32,130860,5,0,0:0:0:0:
464,16,131238,2,0,L|368:416,1,396.666666666667
256,244,132049,1,0,0:0:0:0:
240,164,132238,1,0,0:0:0:0:
188,200,132644,1,0,0:0:0:0:
288,140,132968,5,0,0:0:0:0:
336,100,133211,1,0,0:0:0:0:
404,168,133509,1,0,0:0:0:0:
288,176,133806,1,0,0:0:0:0:
264,188,134184,1,0,0:0:0:0:
264,104,134401,5,0,0:0:0:0:
336,100,134725,1,0,0:0:0:0:
204,152,134914,1,0,0:0:0:0:
336,100,135184,1,0,0:0:0:0:
336,100,135644,1,0,0:0:0:0:
336,100,135968,5,0,0:0:0:0:
272,108,136157,1,0,0:0:0:0:
184,136,136347,1,0,0:0:0:0:
184,136,136563,1,0,0:0:0:0:
184,136,136941,1,0,0:0:0:0:
184,136,137103,5,0,0:0:0:0:
180,224,137211,1,0,0:0:0:0:
100,224,137428,1,0,0:0:0:0:
176,88,137563,1,0,0:0:0:0:
112,148,137833,1,0,0:0:0:0:
112,148,137968,5,0,0:0:0:0:
108,160,138130,1,0,0:0:0:0:
180,152,138238,1,0,0:0:0:0:
240,144,138509,1,0,0:0:0:0:
168,124,139211,1,0,0:0:0:0:
228,124,139536,5,0,0:0:0:0:
84,128,139806,1,0,0:0:0:0:
84,276,139995,1,0,0:0:0:0:
140,192,140293,1,0,0:0:0:0:
204,104,140455,1,0,0:0:0:0:
236,108,140590,5,0,0:0:0:0:
320,108,140887,1,0,0:0:0:0:
104,120,141671,1,0,0:0:0:0:
200,104,141941,1,0,0:0:0:0:
124,108,142238,1,0,0:0:0:0:
64,132,142482,5,0,0:0:0:0:
152,196,142806,1,0,0:0:0:0:
248,96,143076,1,0,0:0:0:0:
212,128,143428,1,0,0:0:0:0:
168,128,143536,1,0,0:0:0:0:
176,192,143995,5,0,0:0:0:0:
212,184,144320,1,0,0:0:0:0:
256,180,144482,1,0,0:0:0:0:
300,176,144617,1,0,0:0:0:0:
344,176,144752,1,0,0:0:0:0:
380,168,144887,5,0,0:0:0:0:
408,164,145022,1,0,0:0:0:0:
440,156,145157,1,0,0:0:0:0:
444,168,145292,1,0,0:0:0:0:
468,164,145428,1,0,0:0:0:0:
496,172,145563,5,0,0:0:0:0:
468,176,145698,1,0,0:0:0:0:
432,164,145833,1,0,0:0:0:0:
424,176,145968,1,0,0:0:0:0:
408,176,146103,1,0,0:0:0:0:
360,180,146238,5,0,0:0:0:0:
328,192,146374,1,0,0:0:0:0:
288,184,146508,1,0,0:0:0:0:
260,180,146725,1,0,0:0:0:0:
232,180,146995,1,0,0:0:0:0:
348,124,147157,5,0,0:0:0:0:
220,144,147455,1,0,0:0:0:0:
276,120,147590,5,0,0:0:0:0:
228,100,147725,1,0,0:0:0:0:
240,220,147941,1,0,0:0:0:0:
160,116,148806,1,0,0:0:0:0:
152,112,149049,1,0,0:0:0:0:
256,132,149401,5,0,0:0:0:0:
220,160,149563,1,0,0:0:0:0:
176,220,149887,1,0,0:0:0:0:
128,52,150238,1,0,0:0:0:0:
152,112,150509,1,0,0:0:0:0:
100,104,151184,5,0,0:0:0:0:
220,176,151509,1,0,0:0:0:0:
84,280,151806,1,0,0:0:0:0:
192,116,152130,1,0,0:0:0:0:
100,160,152455,1,0,0:0:0:0:
244,192,152752,5,0,0:0:0:0:
252,240,152914,1,0,0:0:0:0:
244,132,153049,1,0,0:0:0:0:
176,152,153320,1,0,0:0:0:0:
60,176,153644,1,0,0:0:0:0:
184,152,153941,5,0,0:0:0:0:
184,140,153968,1,0,0:0:0:0:
184,140,153995,1,0,0:0:0:0:
184,140,154049,1,0,0:0:0:0:
184,140,154076,1,0,0:0:0:0:
184,140,154130,5,0,0:0:0:0:
184,140,154184,1,0,0:0:0:0:
184,140,154211,1,0,0:0:0:0:
184,140,154238,1,0,0:0:0:0:
184,144,154265,1,0,0:0:0:0:
184,144,154293,5,0,0:0:0:0:
184,144,154347,1,0,0:0:0:0:
184,144,154374,1,0,0:0:0:0:
184,144,154401,1,0,0:0:0:0:
184,144,154428,1,0,0:0:0:0:
184,144,154455,5,0,0:0:0:0:
184,144,154482,1,0,0:0:0:0:
184,144,154536,1,0,0:0:0:0:
184,144,154563,1,0,0:0:0:0:
184,144,154590,1,0,0:0:0:0:
184,144,154617,5,0,0:0:0:0:
184,144,154644,1,0,0:0:0:0:
188,144,154725,1,0,0:0:0:0:
188,144,154752,1,0,0:0:0:0:
188,144,154806,1,0,0:0:0:0:
188,144,154833,5,0,0:0:0:0:
188,144,154860,1,0,0:0:0:0:
188,144,154887,1,0,0:0:0:0:
188,144,154941,1,0,0:0:0:0:
192,144,154968,1,0,0:0:0:0:
192,144,154995,5,0,0:0:0:0:
192,144,155022,1,0,0:0:0:0:
192,144,155076,1,0,0:0:0:0:
192,148,155103,1,0,0:0:0:0:
192,148,155130,1,0,0:0:0:0:
192,148,155157,5,0,0:0:0:0:
192,148,155184,1,0,0:0:0:0:
192,148,155238,1,0,0:0:0:0:
192,148,155265,1,0,0:0:0:0:
192,148,155293,1,0,0:0:0:0:
192,148,155347,5,0,0:0:0:0:
192,148,155428,1,0,0:0:0:0:
192,148,155455,1,0,0:0:0:0:
192,148,155482,1,0,0:0:0:0:
192,148,155509,1,0,0:0:0:0:
192,148,155563,5,0,0:0:0:0:
196,148,155590,1,0,0:0:0:0:
196,148,155617,1,0,0:0:0:0:
196,148,155644,1,0,0:0:0:0:
196,148,155698,1,0,0:0:0:0:
196,148,155725,5,0,0:0:0:0:
196,148,155752,1,0,0:0:0:0:
196,148,155779,1,0,0:0:0:0:
196,148,155833,1,0,0:0:0:0:
196,148,155860,1,0,0:0:0:0:
196,148,155887,5,0,0:0:0:0:
196,148,155941,1,0,0:0:0:0:
196,148,156022,1,0,0:0:0:0:
312,124,156374,1,0,0:0:0:0:
336,120,156617,1,0,0:0:0:0:
276,120,156995,5,0,0:0:0:0:
260,120,157157,1,0,0:0:0:0:
244,120,157320,1,0,0:0:0:0:
120,144,157482,1,0,0:0:0:0:
120,128,158752,5,0,0:0:0:0:
132,128,158806,1,0,0:0:0:0:
120,128,158833,1,0,0:0:0:0:
136,128,158833,1,0,0:0:0:0:
132,128,158887,1,0,0:0:0:0:
136,128,158914,5,0,0:0:0:0:
120,128,158968,1,0,0:0:0:0:
132,128,159022,1,0,0:0:0:0:
136,128,159049,1,0,0:0:0:0:
120,128,159103,5,0,0:0:0:0:
132,128,159157,1,0,0:0:0:0:
136,128,159184,5,0,0:0:0:0:
120,128,159184,1,0,0:0:0:0:
132,128,159238,1,0,0:0:0:0:
136,128,159265,1,0,0:0:0:0:
120,128,159319,1,0,0:0:0:0:
132,128,159373,5,0,0:0:0:0:
136,128,159400,1,0,0:0:0:0:
120,128,159455,5,0,0:0:0:0:
132,128,159509,1,0,0:0:0:0:
120,128,159536,1,0,0:0:0:0:
136,128,159536,1,0,0:0:0:0:
132,128,159590,1,0,0:0:0:0:
136,128,159617,5,0,0:0:0:0:
120,128,159671,1,0,0:0:0:0:
132,128,159725,1,0,0:0:0:0:
136,128,159752,1,0,0:0:0:0:
156,128,159995,1,0,0:0:0:0:
164,128,160185,5,0,0:0:0:0:
152,136,160374,1,0,0:0:0:0:
200,176,160563,1,0,0:0:0:0:
256,192,166022,12,0,170563,0:0:0:0:
80,36,170806,6,0,L|80:84,77,46.6666666666667
492,28,175482,6,0,L|424:32,82,46.6666666666667
408,116,180374,5,0,0:0:0:0:
392,116,180401,1,0,0:0:0:0:
392,116,180428,1,0,0:0:0:0:
408,116,180455,1,0,0:0:0:0:
412,120,180482,1,0,0:0:0:0:
408,116,180509,5,0,0:0:0:0:
392,116,180536,1,0,0:0:0:0:
392,116,180563,1,0,0:0:0:0:
408,116,180590,1,0,0:0:0:0:
412,120,180617,1,0,0:0:0:0:
408,116,180644,5,0,0:0:0:0:
392,116,180671,1,0,0:0:0:0:
392,116,180698,1,0,0:0:0:0:
408,116,180725,1,0,0:0:0:0:
412,120,180752,1,0,0:0:0:0:
408,116,180806,5,0,0:0:0:0:
392,116,180833,1,0,0:0:0:0:
392,116,180860,1,0,0:0:0:0:
408,116,180887,1,0,0:0:0:0:
412,120,180914,1,0,0:0:0:0:
408,116,180968,5,0,0:0:0:0:
392,116,180995,1,0,0:0:0:0:
408,116,181022,5,0,0:0:0:0:
392,116,181049,1,0,0:0:0:0:
392,116,181076,1,0,0:0:0:0:
408,116,181103,1,0,0:0:0:0:
412,120,181130,1,0,0:0:0:0:
408,116,181157,5,0,0:0:0:0:
392,116,181184,1,0,0:0:0:0:
392,116,181211,1,0,0:0:0:0:
408,116,181238,1,0,0:0:0:0:
412,120,181265,1,0,0:0:0:0:
408,116,181320,5,0,0:0:0:0:
392,116,181347,1,0,0:0:0:0:
392,116,181374,1,0,0:0:0:0:
408,116,181401,1,0,0:0:0:0:
412,120,181428,1,0,0:0:0:0:
148,100,181671,5,0,0:0:0:0:
240,184,181968,1,0,0:0:0:0:
128,176,182293,1,0,0:0:0:0:
104,68,182590,1,0,0:0:0:0:
168,144,182914,1,0,0:0:0:0:
224,100,183238,5,0,0:0:0:0:
108,92,183536,1,0,0:0:0:0:
240,164,183833,1,0,0:0:0:0:
112,176,184103,1,0,0:0:0:0:
264,104,184374,1,0,0:0:0:0:
268,104,184644,5,0,0:0:0:0:
160,88,184941,1,0,0:0:0:0:
164,176,185184,1,0,0:0:0:0:
280,44,185455,1,0,0:0:0:0:
240,64,185590,1,0,0:0:0:0:
232,100,185725,5,0,0:0:0:0:
176,96,185860,1,0,0:0:0:0:
180,140,186022,1,0,0:0:0:0:
220,136,186157,1,0,0:0:0:0:
204,120,186347,1,0,0:0:0:0:
232,100,186482,5,0,0:0:0:0:
248,96,186617,1,0,0:0:0:0:
204,96,186752,1,0,0:0:0:0:
224,68,186914,1,0,0:0:0:0:
224,120,187049,1,0,0:0:0:0:
232,100,187238,5,0,0:0:0:0:
232,100,187373,1,0,0:0:0:0:
232,100,187508,1,0,0:0:0:0:
184,172,187590,5,0,0:0:0:0:
168,172,187617,1,0,0:0:0:0:
168,172,187644,1,0,0:0:0:0:
184,172,187671,1,0,0:0:0:0:
188,176,187698,1,0,0:0:0:0:
184,172,187752,5,0,0:0:0:0:
168,172,187779,1,0,0:0:0:0:
168,172,187806,1,0,0:0:0:0:
184,172,187833,1,0,0:0:0:0:
188,176,187860,1,0,0:0:0:0:
184,172,187914,5,0,0:0:0:0:
168,172,187941,1,0,0:0:0:0:
168,172,187968,1,0,0:0:0:0:
184,172,187995,1,0,0:0:0:0:
188,176,188022,1,0,0:0:0:0:
184,172,188076,5,0,0:0:0:0:
168,172,188103,1,0,0:0:0:0:
168,172,188130,1,0,0:0:0:0:
184,172,188157,1,0,0:0:0:0:
188,176,188184,1,0,0:0:0:0:
184,172,188239,5,0,0:0:0:0:
168,172,188266,1,0,0:0:0:0:
168,172,188293,1,0,0:0:0:0:
184,172,188320,1,0,0:0:0:0:
188,176,188347,1,0,0:0:0:0:
188,176,188401,5,0,0:0:0:0:
172,176,188428,1,0,0:0:0:0:
172,176,188455,1,0,0:0:0:0:
188,176,188482,1,0,0:0:0:0:
192,180,188509,1,0,0:0:0:0:
188,176,188563,5,0,0:0:0:0:
172,176,188590,1,0,0:0:0:0:
172,176,188617,1,0,0:0:0:0:
188,176,188644,1,0,0:0:0:0:
192,180,188671,1,0,0:0:0:0:
256,192,189293,12,0,196779,0:0:0:0:
16,72,197157,5,0,0:0:0:0:
20,68,197320,1,0,0:0:0:0:
92,168,197644,1,0,0:0:0:0:
120,172,197806,1,0,0:0:0:0:
224,96,198049,1,0,0:0:0:0:
264,96,198184,5,0,0:0:0:0:
40,72,198509,1,0,0:0:0:0:
72,72,198671,1,0,0:0:0:0:
236,224,198941,1,0,0:0:0:0:
264,224,199103,1,0,0:0:0:0:
280,224,199238,5,0,0:0:0:0:
236,256,199509,1,0,0:0:0:0:
256,256,199644,1,0,0:0:0:0:
256,312,199698,5,0,0:0:0:0:
240,312,199725,1,0,0:0:0:0:
240,312,199752,1,0,0:0:0:0:
256,312,199779,1,0,0:0:0:0:
260,316,199806,1,0,0:0:0:0:
256,312,199860,5,0,0:0:0:0:
240,312,199887,1,0,0:0:0:0:
240,312,199914,1,0,0:0:0:0:
256,312,199941,1,0,0:0:0:0:
260,316,199968,1,0,0:0:0:0:
256,312,200022,5,0,0:0:0:0:
240,312,200049,1,0,0:0:0:0:
240,312,200076,1,0,0:0:0:0:
256,312,200103,1,0,0:0:0:0:
260,316,200130,1,0,0:0:0:0:
256,312,200184,5,0,0:0:0:0:
240,312,200211,1,0,0:0:0:0:
240,312,200238,1,0,0:0:0:0:
256,312,200265,1,0,0:0:0:0:
260,316,200292,1,0,0:0:0:0:
256,312,200347,5,0,0:0:0:0:
240,312,200374,1,0,0:0:0:0:
240,312,200401,1,0,0:0:0:0:
256,312,200428,1,0,0:0:0:0:
260,316,200455,1,0,0:0:0:0:
256,312,200509,5,0,0:0:0:0:
240,312,200536,1,0,0:0:0:0:
240,312,200563,1,0,0:0:0:0:
256,312,200590,1,0,0:0:0:0:
260,316,200617,1,0,0:0:0:0:
256,312,200671,5,0,0:0:0:0:
240,312,200698,1,0,0:0:0:0:
240,312,200725,1,0,0:0:0:0:
256,312,200752,1,0,0:0:0:0:
260,316,200779,1,0,0:0:0:0:
492,84,201725,5,0,0:0:0:0:
500,76,201941,1,0,0:0:0:0:
492,84,201968,1,0,0:0:0:0:
424,84,202184,1,0,0:0:0:0:
408,84,202347,1,0,0:0:0:0:
44,92,202698,5,0,0:0:0:0:
48,96,202833,1,0,0:0:0:0:
48,96,202995,1,0,0:0:0:0:
52,96,203293,1,0,0:0:0:0:
116,104,203995,1,0,0:0:0:0:
128,100,204265,5,0,0:0:0:0:
200,152,204590,1,0,0:0:0:0:
224,120,204779,1,0,0:0:0:0:
244,80,205130,1,0,0:0:0:0:
228,120,205238,1,0,0:0:0:0:
288,136,205374,5,0,0:0:0:0:
288,96,205698,1,0,0:0:0:0:
352,84,206428,1,0,0:0:0:0:
296,176,206671,1,0,0:0:0:0:
332,128,207022,1,0,0:0:0:0:
128,120,207293,5,0,0:0:0:0:
48,136,207617,1,0,0:0:0:0:
196,96,207914,1,0,0:0:0:0:
96,124,208238,1,0,0:0:0:0:
168,108,208374,1,0,0:0:0:0:
128,120,208536,1,0,0:0:0:0:
208,120,208860,5,0,0:0:0:0:
232,116,209130,1,0,0:0:0:0:
120,112,209725,1,0,0:0:0:0:
140,112,210455,1,0,0:0:0:0:
144,112,210617,5,0,0:0:0:0:
152,112,210779,1,0,0:0:0:0:
156,112,210941,1,0,0:0:0:0:
160,112,211049,1,0,0:0:0:0:
164,112,211184,1,0,0:0:0:0:
376,120,211590,5,0,0:0:0:0:
304,148,211806,1,0,0:0:0:0:
408,192,211941,1,0,0:0:0:0:
320,80,212238,1,0,0:0:0:0:
344,120,212374,1,0,0:0:0:0:
288,136,212536,5,0,0:0:0:0:
360,144,212860,1,0,0:0:0:0:
208,140,213563,1,0,0:0:0:0:
296,200,213914,1,0,0:0:0:0:
296,144,214211,1,0,0:0:0:0:
320,112,214374,5,0,0:0:0:0:
204,108,214698,1,0,0:0:0:0:
336,112,215022,1,0,0:0:0:0:
236,176,215293,1,0,0:0:0:0:
272,52,216022,1,0,0:0:0:0:
136,104,216320,5,0,0:0:0:0:
108,124,216617,1,0,0:0:0:0:
140,144,216914,1,0,0:0:0:0:
176,140,217211,1,0,0:0:0:0:
204,132,217509,1,0,0:0:0:0:
228,120,217806,5,0,0:0:0:0:
276,172,217968,1,0,0:0:0:0:
264,116,218157,1,0,0:0:0:0:
320,116,218428,1,0,0:0:0:0:
248,96,218752,1,0,0:0:0:0:
64,16,219184,6,0,L|64:360,1,326.666666666667
64,342,219590,2,0,L|64:8,1,326.666666666667
80,112,220076,5,0,0:0:0:0:
116,120,220536,1,0,0:0:0:0:
148,108,220833,1,0,0:0:0:0:
144,152,221103,1,0,0:0:0:0:
268,112,221779,5,0,0:0:0:0:
204,112,221968,1,0,0:0:0:0:
264,108,222157,1,0,0:0:0:0:
272,156,223509,1,0,0:0:0:0:
136,160,223833,1,0,0:0:0:0:
160,156,223968,5,0,0:0:0:0:
136,160,224211,1,0,0:0:0:0:
256,148,224401,1,0,0:0:0:0:
248,152,224509,1,0,0:0:0:0:
268,152,224887,1,0,0:0:0:0:
224,112,225590,5,0,0:0:0:0:
272,104,225914,1,0,0:0:0:0:
312,108,226211,1,0,0:0:0:0:
336,108,226374,1,0,0:0:0:0:
360,112,226698,1,0,0:0:0:0:
356,112,226860,5,0,0:0:0:0:
360,116,226968,1,0,0:0:0:0:
388,124,227320,1,0,0:0:0:0:
160,116,227995,1,0,0:0:0:0:
108,116,228347,1,0,0:0:0:0:
80,120,228617,5,0,0:0:0:0:
76,140,228914,1,0,0:0:0:0:
112,152,229238,1,0,0:0:0:0:
32,160,229590,1,0,0:0:0:0:
144,64,229806,1,0,0:0:0:0:
168,140,230157,5,0,0:0:0:0:
188,132,230455,1,0,0:0:0:0:
236,128,230779,1,0,0:0:0:0:
236,128,230914,1,0,0:0:0:0:
236,128,231049,1,0,0:0:0:0:
172,132,231184,5,0,0:0:0:0:
172,132,231320,1,0,0:0:0:0:
172,132,231455,1,0,0:0:0:0:
172,132,231590,1,0,0:0:0:0:
136,128,231725,1,0,0:0:0:0:
112,132,231860,5,0,0:0:0:0:
112,132,231995,1,0,0:0:0:0:
112,132,232130,1,0,0:0:0:0:
112,132,232293,1,0,0:0:0:0:
112,132,232428,1,0,0:0:0:0:
72,136,232563,5,2,0:0:0:0:
72,136,232698,1,0,0:0:0:0:
72,136,232833,1,0,0:0:0:0:
116,128,232968,1,0,0:0:0:0:
144,112,233374,1,0,0:0:0:0:
116,128,233509,5,0,0:0:0:0:
192,72,233887,1,0,0:0:0:0:
128,100,234049,1,0,0:0:0:0:
148,104,234211,1,0,0:0:0:0:
156,124,234509,1,0,0:0:0:0:
108,120,235157,1,0,0:0:0:0:
80,120,235536,5,0,0:0:0:0:
68,128,235806,1,0,0:0:0:0:
68,128,235968,1,0,0:0:0:0:
68,136,236320,1,0,0:0:0:0:
72,144,236617,1,0,0:0:0:0:
48,16,236914,6,0,B|88:360|180:208|184:44|88:356|76:348,1,396.666666666667
160,124,237671,5,0,0:0:0:0:
204,124,237941,1,0,0:0:0:0:
232,124,238211,1,0,0:0:0:0:
152,172,238509,1,0,0:0:0:0:
208,184,238806,1,0,0:0:0:0:
324,128,239130,5,0,0:0:0:0:
216,132,239320,1,0,0:0:0:0:
236,136,239482,1,0,0:0:0:0:
364,80,239779,1,0,0:0:0:0:
304,68,240103,1,0,0:0:0:0:
48,28,240320,6,0,B|48:332|144:248|48:24|252:316|40:320|192:56|204:312,2,396.666666666667
156,164,241752,5,0,0:0:0:0:
96,156,242184,1,0,0:0:0:0:
76,152,242482,1,0,0:0:0:0:
40,132,242725,1,0,0:0:0:0:
40,132,243022,1,0,0:0:0:0:
96,100,243265,5,0,0:0:0:0:
128,100,243536,1,0,0:0:0:0:
144,104,243725,1,0,0:0:0:0:
164,104,243887,1,0,0:0:0:0:
208,112,244536,1,0,0:0:0:0:
132,292,245157,5,0,0:0:0:0:
116,292,245184,1,0,0:0:0:0:
116,292,245211,1,0,0:0:0:0:
132,292,245238,1,0,0:0:0:0:
136,296,245265,1,0,0:0:0:0:
132,292,245293,5,0,0:0:0:0:
116,292,245320,1,0,0:0:0:0:
116,292,245347,1,0,0:0:0:0:
132,292,245374,1,0,0:0:0:0:
136,296,245401,1,0,0:0:0:0:
132,292,245428,5,0,0:0:0:0:
116,292,245455,1,0,0:0:0:0:
116,292,245482,1,0,0:0:0:0:
132,292,245509,1,0,0:0:0:0:
136,296,245536,1,0,0:0:0:0:
132,292,245563,5,0,0:0:0:0:
116,292,245590,1,0,0:0:0:0:
116,292,245617,1,0,0:0:0:0:
132,292,245644,1,0,0:0:0:0:
136,296,245671,1,0,0:0:0:0:
132,292,245698,5,0,0:0:0:0:
116,292,245725,1,0,0:0:0:0:
116,292,245752,1,0,0:0:0:0:
132,292,245779,1,0,0:0:0:0:
136,296,245806,1,0,0:0:0:0:
132,292,245833,5,0,0:0:0:0:
116,292,245860,1,0,0:0:0:0:
116,292,245887,1,0,0:0:0:0:
132,292,245914,1,0,0:0:0:0:
136,296,245941,1,0,0:0:0:0:
376,112,246320,5,0,0:0:0:0:
392,116,246482,1,0,0:0:0:0:
400,124,246644,1,0,0:0:0:0:
408,136,246806,1,0,0:0:0:0:
336,168,246914,1,0,0:0:0:0:
280,212,247184,6,0,L|244:168,2,46.6666666666667
256,192,247671,12,0,252320,0:0:0:0:
