osu file format v14

[General]
AudioFilename: audio.mp3
AudioLeadIn: 0
PreviewTime: 52272
Countdown: 0
SampleSet: Soft
StackLeniency: 0.3
Mode: 0
LetterboxInBreaks: 0
EpilepsyWarning: 1
WidescreenStoryboard: 1

[Editor]
Bookmarks: 936,33295,44082,61610,69700,93969,99362
DistanceSpacing: 1.4
BeatDivisor: 4
GridSize: 4
TimelineZoom: 1.7

[Metadata]
Title:S(mile)ING!
TitleUnicode:S(mile)ING!
Artist:Uzuki Shimamura (CV: Ayaka Ohashi)
ArtistUnicode:島村卯月 (CV: 大橋彩香)
Creator:Setz
Version:INS@NE
Source:アイドルマスター シンデレラガールズ
Tags:idolmaster Starlight Stage im@s ANIMATION PROJECT 00 ST@RTER BEST smileing deresute THE IDOLM@STER CINDERELLA GIRLS Vanillas A Mystery japanese pop スタライトステージ smiling
BeatmapID:2712614
BeatmapSetID:1308477

[Difficulty]
HPDrainRate:7
CircleSize:4
OverallDifficulty:8
ApproachRate:9
SliderMultiplier:1.6
SliderTickRate:1

[Events]
//Background and Video events
0,0,"background.jpg",0,0
//Break Periods
2,95955,99800
//Storyboard Layer 0 (Background)
//Storyboard Layer 1 (Fail)
//Storyboard Layer 2 (Pass)
//Storyboard Layer 3 (Foreground)
//Storyboard Layer 4 (Overlay)
//Storyboard Sound Samples

[TimingPoints]
2722,337.078651685393,4,2,2,30,1,0
2722,-125,4,2,2,30,0,0
12834,-125,4,2,2,40,0,0
13508,-105.263157894737,4,2,2,50,0,0
35081,-133.333333333333,4,2,2,50,0,0
45530,-105.263157894737,4,2,2,60,0,0
52609,-95.2380952380952,4,2,2,70,0,1
62721,-95.2380952380952,4,2,2,65,0,1
63311,-95.2380952380952,4,2,2,65,0,0
63396,-95.2380952380952,4,2,2,70,0,1
71486,-105.263157894737,4,2,2,70,0,0
87665,-125,4,2,2,50,0,0
92721,-166.666666666667,4,2,2,60,0,0
94238,-111.111111111111,4,2,2,50,0,0
94913,-111.111111111111,4,2,2,60,0,0
95755,-105.263157894737,4,2,2,70,0,0
100811,-100,4,2,2,70,0,0
101148,-95.2380952380952,4,2,2,80,0,1
106457,-95.2380952380952,4,2,2,80,0,0
106542,-95.2380952380952,4,2,2,80,0,1
114547,-95.2380952380952,4,2,2,80,0,0
114632,-95.2380952380952,4,2,2,90,0,1
122721,-95.2380952380952,4,2,2,90,0,0

[Colours]
Combo1 : 255,172,89
Combo2 : 255,170,193
Combo3 : 83,199,255
Combo4 : 255,85,85
Combo5 : 157,157,255
SliderBorder : 255,255,255

[HitObjects]
274,218,2722,6,0,P|302:209|340:204,2,64,6|0|2,1:2|0:0|0:0,0:0:0:0:
209,270,3227,1,0,0:0:0:0:
129,235,3396,2,0,B|112:203|112:203|136:106,1,128,2|0,0:0|0:0,0:0:0:0:
279,96,3901,2,0,B|296:128|296:128|272:225,2,128,2|2|2,0:0|0:0|0:0,0:0:0:0:
264,106,4913,5,2,0:0:0:0:
447,167,5081,1,2,0:0:0:0:
352,329,5418,6,0,L|346:260,1,64,2|0,1:2|0:0,0:0:0:0:
254,181,5755,2,0,L|260:256,1,64,2|0,0:0|0:0,0:0:0:0:
311,113,6092,2,0,P|252:92|194:115,1,128,2|0,0:0|0:0,0:0:0:0:
80,173,6598,2,0,P|47:171|10:165,1,64,2|0,0:0|0:0,0:0:0:0:
195,238,6935,2,0,P|228:240|265:246,1,64,2|0,0:0|0:0,0:0:0:0:
96,293,7272,1,2,0:0:0:0:
119,305,7609,5,2,0:0:0:0:
160,111,7778,1,2,0:0:0:0:
390,222,8115,6,0,B|382:191|382:191|333:191|275:184,1,128,2|2,1:2|0:0,0:0:0:0:
195,238,8620,1,0,0:0:0:0:
281,108,8789,2,0,P|313:112|349:114,1,64,2|0,0:0|0:0,0:0:0:0:
451,149,9126,1,2,0:0:0:0:
374,308,9295,2,0,B|400:277|400:277|381:191,2,128,2|2|2,0:0|0:0|0:0,0:0:0:0:
405,318,10306,5,2,0:0:0:0:
249,199,10474,1,2,0:0:0:0:
260,355,10643,5,0,1:0:0:0:
260,355,10727,1,0,1:0:0:0:
260,355,10811,1,2,1:2:0:0:
338,255,10980,1,2,0:0:0:0:
342,377,11148,1,2,0:0:0:0:
249,199,11317,1,2,0:0:0:0:
432,324,11486,2,0,B|462:298|462:298|473:193,1,128,2|0,0:0|0:0,0:0:0:0:
315,128,11991,5,2,0:0:0:0:
315,128,12075,1,2,0:0:0:0:
315,128,12160,1,2,0:0:0:0:
445,83,12328,1,2,0:0:0:0:
270,40,12497,1,2,0:0:0:0:
310,212,12665,1,2,0:0:0:0:
364,33,12834,1,2,0:0:0:0:
380,261,13002,1,2,0:0:0:0:
190,122,13171,1,10,0:2:0:0:
445,83,13339,1,10,0:0:0:0:
359,330,13508,6,0,P|383:256|331:193,1,151.999995941162,6|10,1:2|0:0,0:0:0:0:
213,133,14014,1,8,0:0:0:0:
340,39,14182,2,0,P|348:76|353:119,1,75.9999979705811,2|0,0:0|1:2,0:0:0:0:
282,267,14519,2,0,P|274:230|269:187,1,75.9999979705811,10|0,0:0|1:2,0:0:0:0:
348,89,14856,5,2,1:2:0:0:
242,75,15025,1,0,0:0:0:0:
360,184,15193,1,10,0:0:0:0:
264,230,15362,1,8,0:0:0:0:
94,184,15530,2,0,P|131:193|169:197,1,75.9999979705811,2|0,1:2|1:2,0:0:0:0:
169,99,15868,1,10,0:0:0:0:
203,273,16036,1,2,0:0:0:0:
360,184,16205,6,0,L|345:104,1,75.9999979705811,2|2,1:2|0:0,0:0:0:0:
238,48,16542,1,10,0:0:0:0:
423,6,16710,1,10,0:0:0:0:
360,184,16879,1,2,0:0:0:0:
331,67,17047,1,0,1:2:0:0:
298,238,17216,1,8,0:0:0:0:
508,115,17384,6,0,P|474:102|433:102,1,75.9999979705811,0|2,1:2|1:2,0:0:0:0:
268,143,17721,1,2,0:0:0:0:
398,242,17890,1,10,0:0:0:0:
393,16,18059,2,0,B|364:-2|364:-2|335:112,1,151.999995941162,10|0,0:0|1:2,0:0:0:0:
220,42,18564,2,0,P|181:36|140:34,1,75.9999979705811,10|0,0:0|1:2,0:0:0:0:
67,92,18817,1,0,1:2:0:0:
67,92,18901,6,0,B|113:109|113:109|166:109|221:119,1,151.999995941162,2|10,1:2|0:0,0:0:0:0:
313,189,19407,1,8,0:0:0:0:
406,65,19575,2,0,L|416:140,1,75.9999979705811,2|0,0:0|1:2,0:0:0:0:
282,283,19913,2,0,P|316:269|369:266,1,75.9999979705811,10|0,0:0|0:0,0:0:0:0:
499,330,20250,5,2,1:2:0:0:
416,212,20418,1,0,0:0:0:0:
381,360,20587,1,10,0:0:0:0:
389,140,20755,2,0,P|426:136|464:153,1,75.9999979705811,10|0,0:0|1:2,0:0:0:0:
365,277,21092,1,2,0:0:0:0:
271,183,21261,2,0,L|262:100,1,75.9999979705811,10|0,0:0|0:0,0:0:0:0:
456,13,21598,6,0,B|478:25|478:25|495:154,1,151.999995941162,2|8,1:2|0:0,0:0:0:0:
409,258,22104,1,10,0:0:0:0:
278,139,22272,2,0,L|266:220,1,75.9999979705811,0|0,0:0|1:2,0:0:0:0:
307,316,22609,1,10,0:0:0:0:
176,240,22778,6,0,P|137:232|98:229,1,75.9999979705811,10|0,1:2|0:0,0:0:0:0:
182,355,23115,1,2,1:2:0:0:
159,142,23283,1,8,0:0:0:0:
313,275,23452,2,0,P|352:283|391:286,1,75.9999979705811,10|0,1:2|0:0,0:0:0:0:
512,252,23789,1,2,1:2:0:0:
347,169,23957,1,10,0:0:0:0:
480,19,24126,1,2,1:2:0:0:
480,19,24210,1,2,1:2:0:0:
480,19,24295,6,0,L|462:179,1,151.999995941162,2|10,1:2|0:0,0:0:0:0:
351,273,24800,1,8,0:0:0:0:
267,152,24969,2,0,P|232:143|176:141,1,75.9999979705811,2|0,0:0|1:2,0:0:0:0:
16,197,25306,2,0,P|51:206|107:208,1,75.9999979705811,10|0,0:0|0:0,0:0:0:0:
238,170,25643,5,2,1:2:0:0:
139,123,25811,1,0,0:0:0:0:
154,271,25980,1,10,0:0:0:0:
209,92,26148,1,8,0:0:0:0:
310,200,26317,2,0,P|310:238|297:292,1,75.9999979705811,2|0,0:0|1:2,0:0:0:0:
188,339,26654,1,10,0:0:0:0:
168,197,26823,1,2,0:0:0:0:
62,372,26991,6,0,P|62:334|75:280,1,75.9999979705811,2|0,1:2|0:0,0:0:0:0:
198,263,27328,1,10,0:0:0:0:
68,190,27497,1,10,0:0:0:0:
193,72,27665,2,0,P|193:110|180:164,1,75.9999979705811,2|0,0:0|1:2,0:0:0:0:
68,190,28002,1,10,0:0:0:0:
268,114,28171,6,0,P|307:114|357:120,1,75.9999979705811,2|0,1:2|0:0,0:0:0:0:
506,178,28508,1,2,1:2:0:0:
392,203,28677,1,10,0:0:0:0:
446,44,28845,2,0,L|454:132,1,75.9999979705811,10|2,0:0|1:2,0:0:0:0:
376,305,29182,1,2,1:2:0:0:
346,124,29351,1,10,0:0:0:0:
295,280,29519,1,2,0:0:0:0:
476,243,29688,6,0,P|410:202|319:235,1,151.999995941162,2|8,1:2|0:0,0:0:0:0:
281,359,30193,1,8,0:0:0:0:
417,171,30362,1,2,0:0:0:0:
376,305,30530,1,2,1:2:0:0:
266,150,30699,2,0,L|279:59,1,75.9999979705811,10|0,0:0|0:0,0:0:0:0:
357,234,31036,5,2,1:2:0:0:
357,234,31205,1,2,1:2:0:0:
201,190,31373,1,10,0:0:0:0:
381,98,31542,2,0,P|424:92|468:111,1,75.9999979705811,8|2,0:0|0:0,0:0:0:0:
287,187,31879,1,0,1:2:0:0:
189,38,32047,2,0,L|175:115,1,75.9999979705811,10|0,0:0|0:0,0:0:0:0:
36,241,32384,6,0,P|73:225|116:221,1,75.9999979705811,2|0,1:2|0:0,0:0:0:0:
236,268,32721,1,10,0:0:0:0:
246,112,32890,1,8,0:0:0:0:
167,293,33059,1,2,0:0:0:0:
286,186,33227,2,0,P|324:180|365:183,1,75.9999979705811,2|8,1:2|0:0,0:0:0:0:
512,236,33564,1,2,1:2:0:0:
471,69,33733,6,0,B|447:48|447:48|432:173,1,151.999995941162,2|10,1:2|0:0,0:0:0:0:
461,291,34238,1,8,0:0:0:0:
334,163,34407,1,2,0:0:0:0:
279,344,34575,1,0,1:2:0:0:
211,147,34744,1,10,0:0:0:0:
176,162,34828,1,8,0:0:0:0:
137,160,34913,1,8,0:0:0:0:
104,140,34997,1,8,0:0:0:0:
81,114,35081,6,0,L|49:235,1,120.000004577637,6|0,1:2|0:0,0:0:0:0:
138,280,35587,1,2,1:2:0:0:
138,280,35755,2,0,P|170:274|214:273,1,60.0000022888184,2|0,1:2|0:0,0:0:0:0:
386,332,36092,2,0,P|354:338|310:339,1,60.0000022888184,10|2,0:0|0:0,0:0:0:0:
327,244,36429,6,0,B|314:208|314:208|335:115,1,120.000004577637,2|2,0:0|0:0,0:0:0:0:
313,32,36935,1,2,1:2:0:0:
313,32,37104,2,0,P|287:27|253:25,1,60.0000022888184,2|0,1:2|0:0,0:0:0:0:
170,73,37441,1,10,0:0:0:0:
224,151,37609,1,2,0:0:0:0:
141,270,37778,6,0,P|186:235|251:242,1,120.000004577637,2|0,0:0|0:0,0:0:0:0:
342,264,38283,1,2,1:2:0:0:
342,264,38452,2,0,L|322:191,1,60.0000022888184,2|0,1:2|0:0,0:0:0:0:
264,28,38789,2,0,L|253:91,1,60.0000022888184,10|0,0:0|0:0,0:0:0:0:
205,165,39126,6,0,P|145:186|91:177,1,120.000004577637,2|2,0:0|0:0,0:0:0:0:
63,89,39632,1,2,1:2:0:0:
63,89,39800,2,0,P|96:79|141:77,1,60.0000022888184,2|0,1:2|0:0,0:0:0:0:
213,50,40137,2,0,P|246:60|291:62,1,60.0000022888184,10|0,0:0|0:0,0:0:0:0:
399,39,40474,6,0,P|372:94|399:157,1,120.000004577637,2|2,0:0|0:0,0:0:0:0:
393,246,40980,1,0,1:2:0:0:
393,246,41148,2,0,P|362:253|330:252,1,60.0000022888184,0|0,1:2|0:0,0:0:0:0:
143,228,41486,2,0,P|190:204|269:225,1,120.000004577637,10|0,0:0|1:2,0:0:0:0:
462,354,42160,6,0,L|475:289,1,60.0000022888184,2|0,1:2|1:2,0:0:0:0:
392,207,42497,2,0,L|379:272,1,60.0000022888184,2|0,1:2|0:0,0:0:0:0:
257,325,42834,2,0,L|270:260,1,60.0000022888184,10|0,0:0|0:0,0:0:0:0:
223,137,43171,6,0,P|276:162|334:150,1,120.000004577637,2|2,1:2|0:0,0:0:0:0:
416,101,43677,1,0,1:2:0:0:
343,38,43845,2,0,L|280:25,1,60.0000022888184,2|0,1:2|0:0,0:0:0:0:
146,31,44182,1,10,0:0:0:0:
223,137,44351,1,0,0:0:0:0:
97,99,44519,5,2,1:2:0:0:
300,79,44688,1,0,1:2:0:0:
134,190,44856,5,10,0:0:0:0:
308,162,45025,1,0,1:2:0:0:
164,268,45193,5,2,1:2:0:0:
315,243,45362,1,0,1:2:0:0:
180,356,45530,5,8,0:0:0:0:
142,364,45615,1,8,0:0:0:0:
106,351,45699,1,8,0:0:0:0:
76,326,45783,1,8,0:0:0:0:
55,293,45868,6,0,L|76:139,1,151.999995941162,6|8,1:2|0:0,0:0:0:0:
219,214,46373,1,8,0:0:0:0:
159,54,46542,2,0,P|153:91|152:129,1,75.9999979705811,2|0,0:0|1:2,0:0:0:0:
234,298,46879,2,0,P|239:260|240:222,1,75.9999979705811,10|0,0:0|0:0,0:0:0:0:
336,62,47216,6,0,P|396:20|477:42,1,151.999995941162,2|10,1:2|0:0,0:0:0:0:
426,265,47721,2,0,L|414:113,1,151.999995941162,10|0,0:0|1:2,0:0:0:0:
308,47,48227,1,10,0:0:0:0:
500,131,48396,1,2,0:0:0:0:
296,258,48564,5,10,1:2:0:0:
267,278,48901,2,0,L|255:186,1,75.9999979705811,6|0,1:2|0:0,0:0:0:0:
223,61,49238,1,2,0:0:0:0:
158,175,49407,1,2,0:0:0:0:
329,114,49575,2,0,P|367:105|414:102,1,75.9999979705811,2|0,0:0|0:0,0:0:0:0:
424,336,49913,5,10,1:2:0:0:
223,61,50250,1,14,1:2:0:0:
198,77,50924,6,0,L|181:0,2,75.9999979705811,6|2|0,1:2|1:2|1:2,0:0:0:0:
293,192,51429,1,2,1:2:0:0:
132,143,51598,1,10,0:0:0:0:
352,84,51766,1,10,0:0:0:0:
262,293,51935,1,10,0:0:0:0:
198,77,52104,1,2,1:2:0:0:
421,224,52272,1,10,0:0:0:0:
424,261,52356,1,8,0:0:0:0:
430,298,52441,1,10,0:0:0:0:
436,335,52525,1,8,0:0:0:0:
444,375,52609,6,0,L|478:198,1,167.999994873047,6|10,1:2|0:0,0:0:0:0:
352,84,53115,1,10,0:0:0:0:
254,248,53283,2,0,P|242:208|241:165,1,83.9999974365235,2|0,0:0|1:2,0:0:0:0:
389,105,53620,1,10,0:0:0:0:
316,312,53789,1,0,1:2:0:0:
316,312,53873,1,0,1:2:0:0:
316,312,53957,6,0,P|275:332|224:331,1,83.9999974365235,2|0,1:2|0:0,0:0:0:0:
134,229,54295,1,10,0:0:0:0:
83,369,54463,1,8,0:0:0:0:
254,248,54632,2,0,L|246:162,1,83.9999974365235,2|0,0:0|1:2,0:0:0:0:
161,308,54969,1,10,0:0:0:0:
337,191,55137,1,2,1:2:0:0:
337,191,55221,1,2,1:2:0:0:
337,191,55306,6,0,B|477:213|477:213|457:239,1,167.999994873047,6|8,1:2|0:0,0:0:0:0:
364,312,55811,1,10,0:0:0:0:
431,123,55980,2,0,P|436:80|425:42,1,83.9999974365235,2|0,0:0|1:2,0:0:0:0:
260,150,56317,1,10,0:0:0:0:
333,22,56486,1,0,0:0:0:0:
419,198,56654,6,0,L|403:282,1,83.9999974365235,2|0,1:2|0:0,0:0:0:0:
209,363,56991,2,0,P|251:351|309:362,1,83.9999974365235,10|8,0:0|0:0,0:0:0:0:
192,215,57328,1,2,0:0:0:0:
327,263,57497,1,0,1:2:0:0:
103,339,57665,2,0,L|82:254,1,83.9999974365235,10|0,0:0|0:0,0:0:0:0:
294,104,58002,6,0,P|231:153|138:135,1,167.999994873047,6|10,1:2|0:0,0:0:0:0:
36,88,58508,1,8,0:0:0:0:
201,42,58677,1,0,1:2:0:0:
154,227,58845,1,2,1:2:0:0:
129,113,59014,1,10,0:0:0:0:
314,163,59182,1,0,1:2:0:0:
314,163,59266,1,0,1:2:0:0:
314,163,59351,6,0,P|270:146|223:153,1,83.9999974365235,2|2,1:2|0:0,0:0:0:0:
88,182,59688,1,10,0:0:0:0:
23,301,59856,2,0,B|61:167|61:167|87:181,1,167.999994873047,10|0,0:0|1:2,0:0:0:0:
219,260,60362,1,10,0:0:0:0:
183,71,60530,1,8,0:0:0:0:
183,71,60615,1,8,0:0:0:0:
183,71,60699,6,0,L|166:160,1,83.9999974365235,6|0,1:2|0:0,0:0:0:0:
304,325,61036,2,0,L|294:236,1,83.9999974365235,10|0,0:0|0:0,0:0:0:0:
380,67,61373,1,2,1:2:0:0:
430,205,61542,1,2,1:2:0:0:
233,169,61710,2,0,B|91:156|91:156|98:196,1,167.999994873047,14|0,0:0|1:2,0:0:0:0:
144,283,62216,5,8,0:0:0:0:
188,85,62384,2,0,L|278:93,1,83.9999974365235,2|8,1:2|0:0,0:0:0:0:
416,163,62721,1,2,1:2:0:0:
433,201,62806,1,0,1:2:0:0:
433,242,62890,1,0,1:2:0:0:
410,277,62974,1,0,1:2:0:0:
379,306,63059,2,0,L|388:354,1,41.9999987182618,2|0,1:2|1:2,0:0:0:0:
237,337,63227,1,8,0:0:0:0:
198,321,63311,1,8,0:0:0:0:
178,283,63396,6,0,B|195:153|195:153|150:186,1,167.999994873047,6|10,1:2|0:0,0:0:0:0:
7,277,63901,1,10,0:0:0:0:
96,98,64070,2,0,L|82:198,1,83.9999974365235,2|0,0:0|1:2,0:0:0:0:
154,305,64407,1,10,0:0:0:0:
269,163,64575,1,0,1:2:0:0:
269,163,64660,1,0,1:2:0:0:
269,163,64744,6,0,P|311:156|364:180,1,83.9999974365235,2|0,1:2|0:0,0:0:0:0:
476,225,65081,1,10,0:0:0:0:
300,266,65250,1,8,0:0:0:0:
459,377,65418,2,0,L|446:293,1,83.9999974365235,2|0,0:0|1:2,0:0:0:0:
382,124,65755,1,10,0:0:0:0:
246,321,65924,1,2,1:2:0:0:
246,321,66008,1,2,1:2:0:0:
246,321,66092,6,0,P|308:343|376:272,1,167.999994873047,6|8,1:2|0:0,0:0:0:0:
248,212,66598,1,10,0:0:0:0:
391,73,66766,2,0,L|416:177,1,83.9999974365235,2|0,0:0|1:2,0:0:0:0:
269,96,67104,1,10,0:0:0:0:
381,240,67272,1,0,1:2:0:0:
381,240,67356,1,0,1:2:0:0:
381,240,67441,6,0,P|426:244|477:219,1,83.9999974365235,2|0,1:2|0:0,0:0:0:0:
269,96,67778,2,0,P|224:92|173:117,1,83.9999974365235,10|8,0:0|0:0,0:0:0:0:
163,275,68115,1,2,0:0:0:0:
63,166,68283,1,0,1:2:0:0:
264,205,68452,2,0,P|305:206|365:211,1,83.9999974365235,10|0,0:0|1:2,0:0:0:0:
422,241,68705,1,0,1:2:0:0:
422,241,68789,6,0,B|386:288|386:288|338:280|262:279,1,167.999994873047,6|10,1:2|0:0,0:0:0:0:
277,279,69295,1,8,0:0:0:0:
343,99,69463,2,0,L|351:190,1,83.9999974365235,2|0,1:2|0:0,0:0:0:0:
257,339,69800,2,0,L|245:241,1,83.9999974365235,10|0,0:2|0:0,0:0:0:0:
57,173,70137,6,0,P|126:122|211:141,1,167.999994873047,6|10,1:2|0:0,0:0:0:0:
202,135,70643,1,0,0:0:0:0:
160,313,70811,2,0,L|149:230,1,83.9999974365235,14|0,1:2|0:0,0:0:0:0:
375,141,71148,2,0,L|363:57,1,83.9999974365235,14|0,1:2|0:0,0:0:0:0:
512,329,71486,6,0,P|441:351|376:306,1,151.999995941162,6|10,1:2|0:0,0:0:0:0:
255,241,71991,2,0,P|217:233|180:234,1,75.9999979705811,8|0,0:0|0:0,0:0:0:0:
261,358,72328,1,2,1:2:0:0:
328,212,72497,1,10,0:0:0:0:
254,377,72665,1,2,1:2:0:0:
119,176,72834,6,0,B|124:256,1,75.9999979705811,2|2,1:2|1:2,0:0:0:0:
284,218,73171,1,10,0:0:0:0:
80,110,73339,2,0,B|40:148|40:148|46:245,1,151.999995941162,10|2,0:0|1:2,0:0:0:0:
169,350,73845,1,8,0:0:0:0:
246,166,74014,1,2,1:2:0:0:
246,166,74098,1,2,1:2:0:0:
246,166,74182,5,6,1:2:0:0:
289,315,74351,1,2,0:0:0:0:
176,254,74519,1,10,0:0:0:0:
384,202,74688,2,0,P|430:263|401:341,1,151.999995941162,10|2,0:0|1:2,0:0:0:0:
263,229,75193,1,10,0:0:0:0:
360,384,75362,1,2,1:2:0:0:
460,168,75530,6,0,L|441:88,1,75.9999979705811,2|2,1:2|0:0,0:0:0:0:
363,262,75868,1,8,0:0:0:0:
363,262,76036,2,0,P|296:288|233:246,1,151.999995941162,10|2,0:0|1:2,0:0:0:0:
360,384,76542,1,10,0:0:0:0:
292,124,76710,1,2,1:2:0:0:
363,262,76879,5,2,1:2:0:0:
214,262,77047,1,2,0:0:0:0:
400,189,77216,1,10,0:0:0:0:
164,164,77384,2,0,P|125:172|88:176,1,75.9999979705811,10|0,0:0|0:0,0:0:0:0:
260,11,77721,2,0,L|253:98,1,75.9999979705811,2|8,1:2|0:0,0:0:0:0:
299,228,78059,1,2,0:0:0:0:
87,360,78227,6,0,P|162:306|229:334,1,151.999995941162,2|10,1:2|0:0,0:0:0:0:
346,371,78733,1,10,0:0:0:0:
298,190,78901,2,0,L|276:283,1,75.9999979705811,0|2,0:0|1:2,0:0:0:0:
460,327,79238,1,10,0:0:0:0:
346,371,79407,1,2,1:2:0:0:
416,182,79575,6,0,B|398:66|398:66|360:92,1,151.999995941162,2|10,1:2|0:0,0:0:0:0:
254,161,80081,2,0,P|213:162|174:148,1,75.9999979705811,10|2,0:0|0:0,0:0:0:0:
84,75,80418,1,2,0:0:0:0:
108,212,80587,2,0,L|91:296,1,75.9999979705811,10|2,0:0|0:0,0:0:0:0:
254,161,80924,5,6,1:2:0:0:
108,212,81092,1,2,1:2:0:0:
207,321,81261,1,10,0:0:0:0:
174,96,81429,1,2,1:2:0:0:
333,278,81598,5,14,0:0:0:0:
190,219,81766,1,2,1:2:0:0:
334,124,81935,1,10,0:0:0:0:
280,330,82104,1,2,1:2:0:0:
200,104,82272,6,0,B|174:95|174:95|191:220,1,151.999995941162,6|8,1:2|0:0,0:0:0:0:
280,330,82778,2,0,P|341:351|405:292,1,151.999995941162,10|0,0:0|1:2,0:0:0:0:
457,175,83283,2,0,L|477:256,1,75.9999979705811,10|0,0:0|0:0,0:0:0:0:
280,330,83620,6,0,B|259:215|259:215|232:239,1,151.999995941162,2|8,1:2|0:0,0:0:0:0:
124,303,84126,2,0,P|87:304|49:295,1,75.9999979705811,10|0,0:0|0:0,0:0:0:0:
246,351,84463,1,2,1:2:0:0:
386,244,84632,2,0,L|371:156,1,75.9999979705811,10|2,0:0|0:0,0:0:0:0:
135,48,84969,6,0,P|209:32|271:73,1,151.999995941162,6|8,1:2|0:0,0:0:0:0:
82,161,85474,1,8,0:0:0:0:
191,126,85643,1,2,0:0:0:0:
345,223,85811,1,2,1:2:0:0:
280,146,85980,1,10,0:0:0:0:
412,104,86148,1,2,1:2:0:0:
194,287,86317,6,0,P|163:219|198:152,1,151.999995941162,2|10,1:2|0:0,0:0:0:0:
322,66,86823,2,0,P|363:63|420:47,1,75.9999979705811,10|0,0:0|0:0,0:0:0:0:
283,217,87160,1,0,1:2:0:0:
111,39,87328,1,10,0:0:0:0:
106,61,87413,1,10,0:0:0:0:
101,83,87497,1,10,0:0:0:0:
95,105,87581,1,10,0:0:0:0:
92,124,87665,6,0,P|159:116|205:153,1,128,6|10,1:2|0:0,0:0:0:0:
283,217,88171,1,8,0:0:0:0:
369,162,88339,2,0,P|404:162|450:153,1,64,2|0,0:0|1:2,0:0:0:0:
493,74,88677,1,10,0:0:0:0:
428,233,88845,6,0,P|432:265|431:316,1,64,2|0,0:0|1:2,0:0:0:0:
344,349,89182,1,2,1:2:0:0:
432,296,89351,1,10,0:0:0:0:
301,258,89519,2,0,P|269:252|238:249,1,64,10|0,0:0|1:2,0:0:0:0:
141,284,89856,1,2,1:2:0:0:
247,141,90025,1,10,0:0:0:0:
219,122,90362,6,0,L|240:262,1,128,6|10,1:2|0:0,0:0:0:0:
202,345,90868,1,10,0:0:0:0:
294,301,91036,2,0,P|328:296|377:296,1,64,2|0,0:0|1:2,0:0:0:0:
466,339,91373,1,10,0:0:0:0:
222,65,91710,6,0,P|250:128|209:172,1,128,2|0,1:2|0:0,0:0:0:0:
129,221,92216,1,10,0:0:0:0:
343,215,92721,6,0,P|448:288|346:334,1,287.999991210938,6|2,1:2|0:0,0:0:0:0:
270,287,93901,1,2,0:0:0:0:
200,337,94070,1,0,0:0:0:0:
114,305,94238,1,2,0:0:0:0:
193,87,94407,5,6,0:0:0:0:
269,196,94575,1,2,0:0:0:0:
90,159,94744,1,2,0:0:0:0:
295,110,94913,1,2,0:0:0:0:
204,307,95081,1,2,0:0:0:0:
75,65,95250,1,2,0:0:0:0:
385,20,95418,1,0,1:2:0:0:
389,56,95502,1,0,1:2:0:0:
393,92,95587,1,0,1:2:0:0:
398,128,95671,1,0,1:2:0:0:
403,166,95755,5,6,1:2:0:0:
155,14,100811,5,8,0:0:0:0:
126,42,100896,1,8,0:0:0:0:
111,79,100980,1,8,0:0:0:0:
124,116,101064,1,8,0:0:0:0:
161,136,101148,6,0,P|210:199|192:292,1,167.999994873047,6|10,1:2|0:0,0:0:0:0:
77,384,101654,1,8,0:0:0:0:
99,229,101823,1,0,1:2:0:0:
284,276,101991,1,2,1:2:0:0:
170,301,102160,1,10,0:0:0:0:
220,116,102328,1,0,1:2:0:0:
220,116,102412,1,0,1:2:0:0:
220,116,102497,6,0,P|203:160|210:207,1,83.9999974365235,2|2,1:2|0:0,0:0:0:0:
241,345,102834,1,10,0:0:0:0:
429,252,103002,2,0,P|354:229|277:288,1,167.999994873047,10|0,0:0|1:2,0:0:0:0:
154,374,103508,1,10,0:0:0:0:
216,240,103676,1,0,0:0:0:0:
115,95,103845,6,0,L|100:189,1,83.9999974365235,6|0,1:2|0:0,0:0:0:0:
293,23,104182,2,0,L|280:114,1,83.9999974365235,10|0,0:0|0:0,0:0:0:0:
216,240,104519,1,2,1:2:0:0:
373,145,104688,1,2,1:2:0:0:
152,194,104856,2,0,P|208:160|291:224,1,167.999994873047,14|0,0:0|1:2,0:0:0:0:
348,318,105362,5,8,0:0:0:0:
224,118,105530,2,0,L|216:201,1,83.9999974365235,2|8,1:2|0:0,0:0:0:0:
399,265,105868,1,8,0:0:0:0:
399,265,105952,1,8,0:0:0:0:
399,265,106036,1,8,0:0:0:0:
253,319,106205,1,8,0:0:0:0:
213,332,106289,1,8,0:0:0:0:
172,341,106373,2,0,L|130:334,1,41.9999987182618,8|8,0:0|0:0,0:0:0:0:
50,270,106542,6,0,B|29:243|29:243|168:266,1,167.999994873047,6|10,1:2|0:0,0:0:0:0:
313,358,107047,1,10,0:0:0:0:
269,184,107216,2,0,L|251:266,1,83.9999974365235,2|0,0:0|1:2,0:0:0:0:
347,340,107553,1,10,0:0:0:0:
161,264,107721,1,0,1:2:0:0:
161,264,107806,1,0,1:2:0:0:
161,264,107890,6,0,L|184:168,1,83.9999974365235,2|0,1:2|0:0,0:0:0:0:
223,57,108227,1,10,0:0:0:0:
264,233,108396,1,8,0:0:0:0:
375,74,108564,2,0,L|291:87,1,83.9999974365235,2|0,0:0|1:2,0:0:0:0:
122,151,108901,1,10,0:0:0:0:
319,287,109070,1,2,1:2:0:0:
319,287,109154,1,2,1:2:0:0:
319,287,109238,6,0,P|341:225|270:157,1,167.999994873047,6|8,1:2|0:0,0:0:0:0:
217,264,109744,1,10,0:0:0:0:
71,142,109912,2,0,L|175:117,1,83.9999974365235,2|0,0:0|1:2,0:0:0:0:
94,264,110250,1,10,0:0:0:0:
238,152,110418,1,0,1:2:0:0:
238,152,110502,1,0,1:2:0:0:
238,152,110587,6,0,P|242:107|217:56,1,83.9999974365235,2|0,1:2|0:0,0:0:0:0:
94,264,110924,2,0,P|90:309|115:360,1,83.9999974365235,10|8,0:0|0:0,0:0:0:0:
217,264,111261,1,2,0:0:0:0:
59,318,111429,1,0,1:2:0:0:
147,116,111598,2,0,L|138:199,1,83.9999974365235,10|0,0:0|1:2,0:0:0:0:
136,285,111851,1,0,1:2:0:0:
136,285,111935,6,0,P|184:342|278:321,1,167.999994873047,6|10,1:2|0:0,0:0:0:0:
226,181,112441,1,8,0:0:0:0:
378,65,112609,2,0,L|371:149,1,83.9999974365235,6|0,1:2|0:0,0:0:0:0:
217,264,112946,2,0,L|226:172,1,83.9999974365235,10|0,0:2|0:0,0:0:0:0:
19,57,113283,6,0,P|94:40|167:90,1,167.999994873047,6|10,1:2|0:0,0:0:0:0:
141,239,113789,1,0,0:0:0:0:
300,0,113957,2,0,L|287:83,1,83.9999974365235,14|0,1:2|0:0,0:0:0:0:
59,339,114295,2,0,L|71:255,1,83.9999974365235,14|0,1:2|0:0,0:0:0:0:
337,138,114632,6,0,B|320:268|320:268|365:235,1,167.999994873047,6|10,1:2|0:0,0:0:0:0:
472,124,115138,1,10,0:0:0:0:
436,296,115306,2,0,L|423:192,1,83.9999974365235,2|0,0:0|1:2,0:0:0:0:
382,68,115643,1,10,0:0:0:0:
273,218,115811,1,0,1:2:0:0:
273,218,115896,1,0,1:2:0:0:
273,218,115980,6,0,P|231:225|178:201,1,83.9999974365235,2|0,1:2|0:0,0:0:0:0:
66,156,116318,1,10,0:0:0:0:
242,115,116486,1,8,0:0:0:0:
83,4,116654,2,0,L|96:88,1,83.9999974365235,2|0,0:0|1:2,0:0:0:0:
206,227,116991,1,10,0:0:0:0:
66,156,117160,1,2,1:2:0:0:
296,60,117328,6,0,P|234:38|166:109,1,167.999994873047,6|8,1:2|0:0,0:0:0:0:
322,156,117834,1,10,0:0:0:0:
151,308,118002,2,0,L|126:204,1,83.9999974365235,2|0,0:0|1:2,0:0:0:0:
0,315,118340,1,10,0:0:0:0:
80,150,118508,1,0,1:2:0:0:
80,150,118592,1,0,1:2:0:0:
80,150,118677,6,0,P|119:136|161:141,1,83.9999974365235,2|0,1:2|0:0,0:0:0:0:
275,337,119014,2,0,L|254:249,1,83.9999974365235,10|8,0:0|0:0,0:0:0:0:
340,110,119351,1,2,0:0:0:0:
435,277,119519,1,0,1:2:0:0:
278,176,119688,2,0,P|237:175|177:170,1,83.9999974365235,10|0,0:0|0:0,0:0:0:0:
388,31,120025,5,6,1:2:0:0:
200,96,120193,1,0,0:0:0:0:
374,196,120362,2,0,P|422:182|474:189,1,83.9999974365235,10|0,0:0|0:0,0:0:0:0:
119,76,120699,2,0,L|111:167,1,83.9999974365235,2|0,1:2|0:0,0:0:0:0:
278,308,121036,2,0,L|290:210,1,83.9999974365235,10|0,0:2|0:0,0:0:0:0:
481,123,121373,6,0,P|412:72|327:91,1,167.999994873047,6|10,1:2|0:0,0:0:0:0:
336,85,121879,1,0,0:0:0:0:
378,263,122047,2,0,L|389:180,1,83.9999974365235,14|0,1:2|0:0,0:0:0:0:
141,20,122384,2,0,L|129:104,1,83.9999974365235,14|0,1:2|0:0,0:0:0:0:
217,330,122722,1,6,1:2:0:0:
320,59,123059,5,14,1:2:0:0:
