osu file format v14

[General]
AudioFilename: audio.mp3
AudioLeadIn: 0
PreviewTime: 48294
Countdown: 0
SampleSet: Soft
StackLeniency: 0.7
Mode: 0
LetterboxInBreaks: 0
WidescreenStoryboard: 0

[Editor]
Bookmarks: 38385
DistanceSpacing: 1.1
BeatDivisor: 4
GridSize: 4
TimelineZoom: 2

[Metadata]
Title:Kira! Mankai Smile (Cut Ver.)
TitleUnicode:キラッ!満開スマイル (Cut Ver.)
Artist:Uzuki Shimamura (CV: Ayaka Ohashi)
ArtistUnicode:島村卯月 (CV: 大橋彩香)
Creator:Setz
Version:INS@NE
Source:シンデレラガールズ劇場
Tags:スターライトステージ starlight stage jpop pop japanese アイドルマスター シンデレラガールズ deresute Little Stars! Gekijou Cingeki Gears- Lanturn cinderella girls im@as imas idolmaster idolm@ster
BeatmapID:3339923
BeatmapSetID:1636539

[Difficulty]
HPDrainRate:7
CircleSize:4
OverallDifficulty:8.5
ApproachRate:9
SliderMultiplier:1.6
SliderTickRate:2

[Events]
//Background and Video events
0,0,"BG.jpeg",0,0
//Break Periods
//Storyboard Layer 0 (Background)
//Storyboard Layer 1 (Fail)
//Storyboard Layer 2 (Pass)
//Storyboard Layer 3 (Foreground)
//Storyboard Layer 4 (Overlay)
//Storyboard Sound Samples

[TimingPoints]
-342,363.636363636364,4,2,2,70,1,0
1112,-83.3333333333333,4,2,2,70,0,0
1658,-100,4,2,2,70,0,0
4021,-125,4,2,2,70,0,0
5294,-153.846153846154,4,2,2,70,0,0
5839,-100,4,2,2,70,0,0
6930,-83.3333333333333,4,2,2,70,0,0
7658,-100,4,2,2,70,0,0
9839,-76.9230769230769,4,2,2,70,0,0
11294,-100,4,2,2,70,0,0
11658,-100,4,2,2,5,0,0
12385,-100,4,2,2,70,0,0
12748,-111.111111111111,4,2,2,70,0,0
21476,-166.666666666667,4,2,2,70,0,0
21748,-111.111111111111,4,2,2,5,0,0
21839,-58.8235294117647,4,2,2,70,0,0
22112,-58.8235294117647,4,2,2,5,0,0
22203,-166.666666666667,4,2,2,70,0,0
22476,-166.666666666667,4,2,2,5,0,0
22567,-58.8235294117647,4,2,2,70,0,0
22839,-58.8235294117647,4,2,2,5,0,0
22930,-125,4,2,2,70,0,0
23021,-125,4,2,2,5,0,0
23112,-142.857142857143,4,2,2,70,0,0
23385,-142.857142857143,4,2,2,5,0,0
23476,-166.666666666667,4,2,2,70,0,0
23839,-111.111111111111,4,2,2,70,0,0
27567,-111.111111111111,4,2,2,5,0,0
27658,-111.111111111111,4,2,2,70,0,0
36021,-133.333333333333,4,2,2,70,0,0
39930,-133.333333333333,4,2,2,5,0,0
40021,-133.333333333333,4,2,2,70,0,0
43294,-117.647058823529,4,2,2,70,0,0
44748,-105.263157894737,4,2,2,70,0,0
46203,-105.263157894737,4,2,2,45,0,0
46930,-105.263157894737,4,2,2,55,0,0
47658,-105.263157894737,4,2,2,70,0,0
49112,-90.9090909090909,4,2,2,80,0,1
50021,-58.8235294117647,4,2,2,80,0,1
50294,-58.8235294117647,4,2,2,5,0,1
50385,-90.9090909090909,4,2,2,80,0,1
50476,-90.9090909090909,4,2,2,80,0,1
55839,-58.8235294117647,4,2,2,80,0,1
56112,-58.8235294117647,4,2,2,5,0,1
56203,-90.9090909090909,4,2,2,80,0,1
56294,-90.9090909090909,4,2,2,80,0,1
66476,-90.9090909090909,4,2,2,80,0,0
66567,-90.9090909090909,4,2,2,80,0,1
67476,-58.8235294117647,4,2,2,80,0,1
67748,-58.8235294117647,4,2,2,5,0,1
67839,-90.9090909090909,4,2,2,80,0,1
67930,-90.9090909090909,4,2,2,80,0,1
73294,-58.8235294117647,4,2,2,80,0,1
73567,-58.8235294117647,4,2,2,5,0,1
73658,-90.9090909090909,4,2,2,80,0,1
73748,-90.9090909090909,4,2,2,80,0,1
76748,-90.9090909090909,4,2,2,40,0,1
77476,-90.9090909090909,4,2,2,50,0,1
78203,-100,4,2,2,80,0,1
81112,-76.9230769230769,4,2,2,80,0,1
81294,-76.9230769230769,4,2,2,5,0,1
81385,-66.6666666666667,4,2,2,80,0,1
81567,-66.6666666666667,4,2,2,5,0,1
81658,-58.8235294117647,4,2,2,80,0,1
81839,-58.8235294117647,4,2,2,5,0,1
81930,-52.6315789473684,4,2,2,80,0,1
82112,-52.6315789473684,4,2,2,5,0,1
82567,-90.9090909090909,4,2,2,80,0,1
83112,-90.9090909090909,4,2,2,70,0,0
84021,-83.3333333333333,4,2,2,70,0,0
84748,-100,4,2,2,70,0,0
86930,-117.647058823529,4,2,2,70,0,0
87476,-100,4,2,2,70,0,0
88203,-133.333333333333,4,2,2,70,0,0
88748,-100,4,2,2,70,0,0
89839,-83.3333333333333,4,2,2,70,0,0
90385,-100,4,2,2,70,0,0
92748,-76.9230769230769,4,2,2,70,0,0
93476,-100,4,2,2,70,0,0
94567,-100,4,2,2,70,0,0
95658,-83.3333333333333,4,2,2,70,0,0
96748,-66.6666666666667,4,2,2,70,0,0
97021,-71.4285714285714,4,2,2,5,0,0
97112,-100,4,2,2,70,0,0
98365,-100,4,2,2,40,0,0

[Colours]
Combo1 : 255,172,89
Combo2 : 255,170,193
Combo3 : 83,199,255
Combo4 : 255,85,85
Combo5 : 157,157,255
SliderBorder : 255,255,255

[HitObjects]
250,291,566,5,2,0:0:0:0:
229,137,748,1,2,0:0:0:0:
316,241,930,1,2,0:0:0:0:
168,270,1112,6,0,P|220:210|320:247,1,191.999994140625,6|10,1:2|0:0,0:0:0:0:
367,343,1658,1,0,0:0:0:0:
402,255,1839,2,0,L|452:244,1,40,2|2,1:2|0:0,0:0:0:0:
301,165,2021,2,0,P|261:173|222:179,1,80,2|8,0:0|0:0,0:0:0:0:
44,111,2385,6,0,P|125:103|204:99,1,160,2|2,0:0|0:0,0:0:0:0:
293,145,2930,1,8,0:0:0:0:
250,34,3112,1,0,1:2:0:0:
250,34,3203,1,0,1:2:0:0:
250,34,3294,1,0,1:2:0:0:
204,184,3476,1,2,0:0:0:0:
329,54,3658,1,10,0:0:0:0:
312,151,3839,1,2,0:0:0:0:
173,90,4021,6,0,P|138:88|104:70,1,64,2|0,1:2|0:0,0:0:0:0:
204,184,4385,2,0,P|207:220|219:263,1,64,10|0,0:0|0:0,0:0:0:0:
348,326,4748,1,2,1:2:0:0:
359,329,4839,1,2,0:0:0:0:
370,332,4930,1,2,0:0:0:0:
253,345,5112,1,10,0:0:0:0:
246,223,5294,6,0,P|292:242|313:196,1,103.999995239258,2|0,0:0|0:0,0:0:0:0:
259,127,5839,1,8,0:0:0:0:
389,18,6021,1,0,0:0:0:0:
380,129,6203,1,0,1:2:0:0:
383,140,6294,1,0,1:2:0:0:
386,151,6385,1,2,0:0:0:0:
299,56,6567,1,10,0:0:0:0:
241,221,6748,1,2,0:0:0:0:
171,12,6930,6,0,B|133:61|163:104|163:104|116:151|139:216,1,191.999994140625,2|10,1:2|0:0,0:0:0:0:
215,313,7476,1,0,0:0:0:0:
117,269,7658,2,0,P|98:274|78:280,1,40,2|2,1:2|0:0,0:0:0:0:
224,183,7839,2,0,B|264:179|264:179|328:203,1,80,2|8,0:0|0:0,0:0:0:0:
473,245,8203,6,0,P|401:228|377:304,1,160,2|2,0:0|0:0,0:0:0:0:
300,377,8748,1,8,0:0:0:0:
270,251,8930,1,0,1:2:0:0:
270,251,9021,1,0,1:2:0:0:
270,251,9112,1,0,1:2:0:0:
204,338,9294,1,2,0:0:0:0:
376,250,9476,1,10,0:0:0:0:
173,154,9658,1,2,0:0:0:0:
302,19,9839,6,0,P|294:62|273:130,1,103.999995239258,2|0,1:2|0:0,0:0:0:0:
154,288,10203,2,0,B|179:291|202:266|202:266|228:288|260:273,1,103.999995239258,10|0,0:0|0:0,0:0:0:0:
358,149,10567,1,2,1:2:0:0:
361,138,10658,1,2,0:0:0:0:
364,127,10749,1,2,0:0:0:0:
430,270,10930,1,10,0:0:0:0:
232,160,11112,1,2,0:0:0:0:
417,28,11294,5,0,1:2:0:0:
305,258,11476,2,0,B|301:300|301:300|316:341,1,80,0|0,1:2|0:0,0:0:0:0:
64,163,12385,5,4,0:3:0:0:
45,184,12748,6,0,P|83:177|125:173,1,71.9999978027344,2|0,1:2|1:2,0:0:0:0:
165,195,13021,1,0,1:2:0:0:
165,195,13112,1,10,0:0:0:0:
304,130,13294,2,0,P|276:126|234:110,1,71.9999978027344,2|0,0:0|1:2,0:0:0:0:
344,24,13658,1,2,0:0:0:0:
215,34,13839,1,8,0:0:0:0:
304,130,14021,1,2,0:0:0:0:
165,195,14203,6,0,B|178:229|178:229|181:270,1,71.9999978027344,2|2,1:2|1:2,0:0:0:0:
162,311,14476,1,0,1:2:0:0:
162,311,14567,1,8,0:0:0:0:
278,211,14748,2,0,P|315:217|356:220,1,71.9999978027344,2|0,0:0|1:2,0:0:0:0:
438,169,15112,1,2,0:0:0:0:
355,311,15294,1,10,0:0:0:0:
337,108,15476,1,2,0:0:0:0:
169,253,15658,6,0,P|200:188|258:220,1,143.999995605469,2|10,1:2|0:0,0:0:0:0:
224,337,16203,1,2,0:0:0:0:
192,165,16385,2,0,L|206:118,1,35.9999989013672,2|0,1:2|1:2,0:0:0:0:
283,18,16567,1,2,1:2:0:0:
380,158,16748,1,10,0:0:0:0:
288,115,16930,1,2,0:0:0:0:
231,243,17112,6,0,P|238:280|243:331,1,71.9999978027344,0|0,1:2|1:2,0:0:0:0:
212,352,17385,1,0,1:2:0:0:
213,351,17476,1,8,0:0:0:0:
177,193,17658,2,0,P|208:171|264:178,1,71.9999978027344,0|0,1:2|1:2,0:0:0:0:
330,224,18021,1,0,0:0:0:0:
255,68,18203,1,8,0:0:0:0:
235,282,18385,1,0,0:0:0:0:
360,133,18567,6,0,B|399:139|399:139|428:162,1,71.9999978027344,0|0,1:2|1:2,0:0:0:0:
365,207,18839,1,0,1:2:0:0:
365,207,18930,2,0,L|292:196,1,71.9999978027344,10|0,0:0|0:0,0:0:0:0:
198,69,19294,1,2,1:2:0:0:
220,168,19476,1,0,0:0:0:0:
67,140,19658,2,0,P|109:131|136:122,1,71.9999978027344,10|0,0:0|0:0,0:0:0:0:
270,10,20021,6,0,L|289:91,1,71.9999978027344,2|2,1:2|1:2,0:0:0:0:
311,122,20294,1,0,1:2:0:0:
311,122,20385,1,8,0:0:0:0:
172,226,20567,2,0,P|195:200|247:208,1,71.9999978027344,2|0,0:0|1:2,0:0:0:0:
321,244,20930,1,2,0:0:0:0:
186,308,21112,1,10,0:0:0:0:
137,149,21294,1,2,0:0:0:0:
281,66,21476,6,0,L|260:148,1,71.9999978027344,2|0,1:2|0:0,0:0:0:0:
257,226,21839,6,0,B|320:230|338:176|338:176|354:231|423:227,1,204.000003890991,14|0,0:0|0:0,0:0:0:0:
512,157,22203,6,0,L|419:140,1,71.9999978027344,2|0,1:2|0:0,0:0:0:0:
353,94,22567,6,0,B|328:93|300:76|300:76|294:36|294:36|328:9|328:9|351:23|389:27,1,204.000003890991,14|0,0:0|0:0,0:0:0:0:
433,112,22930,6,0,L|442:149,1,32,2|0,1:2|0:0,0:0:0:0:
387,211,23112,6,0,B|363:210|347:221|347:221|318:218|295:230,1,83.9999974365235,2|0,0:0|0:0,0:0:0:0:
248,271,23476,6,0,P|223:266|197:262,1,47.9999985351563,2|0,0:0|1:2,0:0:0:0:
127,301,23839,5,0,0:0:0:0:
165,174,24021,1,8,0:0:0:0:
213,358,24203,1,0,0:0:0:0:
314,167,24385,6,0,P|282:189|247:175,1,71.9999978027344,2|0,1:2|1:2,0:0:0:0:
232,144,24658,1,0,1:2:0:0:
232,144,24748,1,10,0:0:0:0:
344,254,24930,2,0,P|378:258|423:267,1,71.9999978027344,2|0,0:0|1:2,0:0:0:0:
487,189,25294,1,2,0:0:0:0:
393,151,25476,1,10,0:0:0:0:
377,326,25658,1,2,0:0:0:0:
491,166,25839,5,2,1:2:0:0:
342,50,26021,2,0,L|334:92,1,35.9999989013672,2|0,1:2|1:2,0:0:0:0:
307,211,26203,1,10,0:0:0:0:
441,276,26385,2,0,B|458:274|479:278|479:278|497:270|515:269,1,71.9999978027344,2|0,0:0|1:2,0:0:0:0:
420,190,26748,1,2,0:0:0:0:
470,355,26930,1,10,0:0:0:0:
328,366,27112,1,2,0:0:0:0:
295,174,27294,6,0,P|354:172|385:132,1,107.999996704102,2|0,1:2|0:0,0:0:0:0:
314,102,27658,2,0,P|278:94|243:89,1,71.9999978027344,10|0,0:0|0:0,0:0:0:0:
130,166,28021,1,2,1:2:0:0:
166,27,28203,2,0,P|169:64|173:107,1,71.9999978027344,2|8,0:0|0:0,0:0:0:0:
261,49,28567,1,2,0:0:0:0:
173,185,28748,6,0,B|135:198|135:198|104:190,1,71.9999978027344,0|0,1:2|1:2,0:0:0:0:
70,164,29021,1,0,1:2:0:0:
70,164,29112,1,8,0:0:0:0:
238,117,29294,2,0,P|268:121|313:132,1,71.9999978027344,0|0,1:2|1:2,0:0:0:0:
173,185,29658,1,0,0:0:0:0:
224,29,29839,1,8,0:0:0:0:
245,238,30021,1,0,0:0:0:0:
78,115,30203,6,0,P|118:105|168:107,1,71.9999978027344,0|0,1:2|1:2,0:0:0:0:
224,138,30476,1,0,1:2:0:0:
224,138,30567,2,0,B|256:143|256:143|281:130|319:133,1,71.9999978027344,10|0,0:0|0:0,0:0:0:0:
225,247,30930,1,2,1:2:0:0:
331,211,31112,1,0,0:0:0:0:
191,85,31294,2,0,L|179:174,1,71.9999978027344,10|0,0:0|0:0,0:0:0:0:
238,339,31658,6,0,L|250:250,1,71.9999978027344,2|2,1:2|1:2,0:0:0:0:
282,235,31930,1,0,1:2:0:0:
282,235,32021,1,8,0:0:0:0:
148,132,32203,2,0,P|183:126|226:121,1,71.9999978027344,2|0,0:0|1:2,0:0:0:0:
301,73,32567,1,2,0:0:0:0:
351,217,32748,1,8,0:0:0:0:
189,246,32930,1,2,0:0:0:0:
220,49,33112,6,0,P|231:119|245:194,1,143.999995605469,2|10,1:2|0:0,0:0:0:0:
371,273,33658,1,0,0:0:0:0:
262,263,33839,1,2,1:2:0:0:
332,98,34021,1,2,0:0:0:0:
315,189,34203,1,10,0:0:0:0:
225,119,34385,1,2,0:0:0:0:
354,42,34567,6,0,P|361:77|372:118,1,71.9999978027344,2|0,1:2|1:2,0:0:0:0:
408,146,34839,1,0,1:2:0:0:
408,146,34930,1,8,0:0:0:0:
282,256,35112,2,0,P|305:238|357:244,1,71.9999978027344,0|0,1:2|1:2,0:0:0:0:
443,170,35476,5,2,0:0:0:0:
261,116,35658,1,10,0:0:0:0:
420,0,35839,1,2,0:0:0:0:
346,238,36021,6,0,P|339:179|333:102,1,120.000004577637,4|10,0:0|0:0,0:0:0:0:
304,32,36567,2,0,P|270:28|236:21,1,60.0000022888184,2|2,1:2|1:2,0:0:0:0:
262,142,36930,1,2,0:0:0:0:
167,88,37112,1,8,0:0:0:0:
304,32,37294,1,2,0:0:0:0:
359,157,37476,6,0,L|373:237,1,60.0000022888184,2|2,1:2|0:0,0:0:0:0:
423,288,37839,1,10,0:0:0:0:
299,249,38021,2,0,B|280:243|255:242|255:242|230:225,1,60.0000022888184,2|0,1:2|1:2,0:0:0:0:
149,177,38385,5,2,0:0:0:0:
201,321,38567,1,10,0:0:0:0:
232,124,38748,1,2,0:0:0:0:
151,256,38930,6,0,P|121:261|93:272,1,60.0000022888184,0|0,1:2|0:0,0:0:0:0:
56,134,39294,2,0,L|33:205,1,60.0000022888184,10|0,0:0|1:2,0:0:0:0:
18,305,39658,2,0,B|41:358|41:358|65:344|97:350,1,90.0000034332277,2|0,1:2|0:0,0:0:0:0:
147,319,40021,2,0,P|173:324|209:329,1,60.0000022888184,10|0,0:0|0:0,0:0:0:0:
124,156,40385,5,2,1:2:0:0:
109,242,40567,1,2,0:0:0:0:
280,218,40748,1,10,0:0:0:0:
197,194,40930,2,0,L|212:126,1,60.0000022888184,2|0,1:2|1:2,0:0:0:0:
342,2,41294,5,2,0:0:0:0:
152,56,41475,1,10,0:0:0:0:
303,119,41657,1,2,0:0:0:0:
246,12,41839,6,0,P|236:65|225:136,1,120.000004577637,2|10,1:2|0:0,0:0:0:0:
285,225,42385,2,0,B|309:237|309:237|326:230|346:231,1,60.0000022888184,2|0,1:2|1:2,0:0:0:0:
398,165,42748,1,2,0:0:0:0:
375,295,42930,1,10,0:0:0:0:
499,264,43112,1,2,0:0:0:0:
345,361,43294,6,0,P|337:291|326:226,1,136.000002593994,2|10,1:2|0:0,0:0:0:0:
258,64,43839,2,0,P|252:99|242:138,1,68.0000012969971,2|0,1:2|1:2,0:0:0:0:
138,181,44203,1,2,0:0:0:0:
146,43,44385,1,10,0:0:0:0:
244,130,44567,1,2,0:0:0:0:
63,107,44748,6,0,P|103:173|41:233,1,151.999995941162,2|10,1:2|0:0,0:0:0:0:
43,324,45294,1,2,1:2:0:0:
157,261,45476,2,0,B|181:250|197:258|197:258|231:238,1,75.9999979705811,2|0,1:2|0:0,0:0:0:0:
171,368,45839,1,10,0:0:0:0:
287,322,46021,1,2,0:0:0:0:
181,169,46203,5,10,1:2:0:0:
179,136,46293,1,8,0:2:0:0:
190,106,46384,1,10,0:2:0:0:
212,82,46475,1,8,0:2:0:0:
242,68,46566,1,8,0:2:0:0:
274,67,46657,1,8,0:2:0:0:
305,79,46748,1,10,0:2:0:0:
328,101,46839,1,8,0:2:0:0:
340,125,46930,5,8,0:3:0:0:
357,119,47020,1,8,0:3:0:0:
375,116,47111,1,8,0:3:0:0:
393,116,47202,1,8,0:3:0:0:
411,118,47293,1,8,0:3:0:0:
429,123,47384,1,8,0:3:0:0:
446,131,47476,2,8,P|479:127|501:128,1,37.9999989852906,8|8,0:3|0:3,0:3:0:0:
338,235,47658,5,8,0:0:0:0:
416,6,47839,1,8,0:0:0:0:
458,291,48021,1,8,0:0:0:0:
342,63,48385,6,0,P|340:101|331:141,1,75.9999979705811,2|2,0:0|0:0,0:0:0:0:
279,282,48748,2,0,P|277:244|268:204,1,75.9999979705811,2|2,0:0|0:0,0:0:0:0:
100,40,49112,6,0,P|124:117|208:92,1,176.000005371094,4|8,1:2|0:0,0:0:0:0:
376,59,49658,2,0,B|340:39|340:39|319:53|294:48,1,88.000002685547,2|0,0:0|1:2,0:0:0:0:
214,239,50021,6,0,B|205:216|210:184|210:184|245:162|245:162|283:183|283:183|279:210|290:246,1,204.000003890991,6|0,0:0|0:0,0:0:0:0:
364,362,50385,6,0,B|355:298|355:298|377:270|377:270|363:188,1,176.000005371094,2|2,0:0|0:0,0:0:0:0:
212,61,50930,1,10,0:0:0:0:
347,122,51112,1,2,0:0:0:0:
246,244,51294,2,0,P|250:215|258:182,1,44.0000013427735,2|2,1:2|0:0,0:0:0:0:
323,38,51476,1,2,0:0:0:0:
345,217,51658,1,8,0:0:0:0:
239,69,51839,1,2,0:0:0:0:
121,276,52021,6,0,P|172:211|254:273,1,176.000005371094,0|10,1:2|0:0,0:0:0:0:
321,367,52567,1,0,0:0:0:0:
336,173,52748,1,2,1:2:0:0:
201,306,52930,2,0,B|184:295|158:297|158:297|133:276|106:271,1,88.000002685547,2|8,0:0|0:0,0:0:0:0:
239,197,53294,1,0,0:0:0:0:
96,168,53476,5,2,1:2:0:0:
173,370,53658,1,2,0:0:0:0:
170,148,53839,1,10,0:0:0:0:
334,127,54021,1,2,0:0:0:0:
357,354,54203,2,0,P|347:311|339:249,1,88.000002685547,2|2,1:2|0:0,0:0:0:0:
259,93,54567,2,0,P|249:136|241:198,1,88.000002685547,10|0,0:0|0:0,0:0:0:0:
78,312,54930,6,0,P|163:301|258:293,1,176.000005371094,2|8,1:2|0:0,0:0:0:0:
159,204,55476,2,0,P|114:193|75:181,1,88.000002685547,2|0,0:0|1:2,0:0:0:0:
203,26,55839,6,0,B|215:87|272:91|272:91|223:120|244:186,1,204.000003890991,6|0,0:0|0:0,0:0:0:0:
199,316,56203,6,0,P|258:251|345:288,1,176.000005371094,2|2,0:0|0:0,0:0:0:0:
240,123,56748,1,10,0:0:0:0:
426,193,56930,1,2,0:0:0:0:
271,297,57112,2,0,L|262:236,1,44.0000013427735,2|2,1:2|0:0,0:0:0:0:
315,98,57294,1,2,0:0:0:0:
182,228,57476,1,8,0:0:0:0:
355,293,57657,1,2,0:0:0:0:
219,88,57839,6,0,P|303:77|395:61,1,176.000005371094,0|10,1:2|0:0,0:0:0:0:
424,204,58385,2,0,P|380:188|339:168,1,88.000002685547,0|2,0:0|1:2,0:0:0:0:
190,38,58748,2,0,B|181:80|181:80|193:109|187:133,1,88.000002685547,2|8,0:0|0:0,0:0:0:0:
271,257,59112,1,0,0:0:0:0:
76,132,59294,5,2,1:2:0:0:
131,247,59476,1,2,0:0:0:0:
259,80,59658,1,10,0:0:0:0:
161,164,59839,1,2,0:0:0:0:
280,286,60021,1,0,1:2:0:0:
354,31,60203,2,0,P|359:60|363:82,1,44.0000013427735
392,250,60385,2,0,P|432:264|479:260,1,88.000002685547,8|2,0:0|0:0,0:0:0:0:
273,312,60748,6,0,B|251:306|230:313|230:313|206:297|179:293,1,88.000002685547,4|2,0:0|0:0,0:0:0:0:
182,190,61112,1,10,0:0:0:0:
319,174,61294,1,2,0:0:0:0:
273,312,61476,1,2,1:2:0:0:
413,366,61658,2,0,B|413:343|427:324|427:324|420:302|430:277,1,88.000002685547,2|8,0:0|0:0,0:0:0:0:
367,126,62021,6,0,P|358:218|350:306,1,176.000005371094,2|2,0:0|0:0,0:0:0:0:
201,367,62567,2,0,P|246:339|297:358,1,88.000002685547,8|2,0:0|0:0,0:0:0:0:
417,347,62930,1,2,1:2:0:0:
283,250,63112,2,0,P|287:207|292:160,1,88.000002685547,2|8,0:0|0:0,0:0:0:0:
237,55,63476,1,2,0:0:0:0:
418,33,63658,5,0,1:2:0:0:
368,137,63839,1,2,0:0:0:0:
204,27,64021,2,0,P|247:37|291:43,1,88.000002685547,10|2,0:0|0:0,0:0:0:0:
288,174,64385,1,2,1:2:0:0:
254,0,64567,1,2,0:0:0:0:
173,215,64748,1,10,0:0:0:0:
396,101,64930,6,0,P|357:169|292:125,1,176.000005371094,2|2,0:0|0:0,0:0:0:0:
388,0,65476,1,10,0:0:0:0:
175,73,65658,1,2,0:0:0:0:
366,186,65839,2,0,P|356:232|350:284,1,88.000002685547,2|2,1:2|0:0,0:0:0:0:
286,108,66203,2,0,P|276:62|270:10,1,88.000002685547,10|2,0:0|0:0,0:0:0:0:
82,212,66567,6,0,P|170:222|262:228,1,176.000005371094,4|8,1:2|0:0,0:0:0:0:
292,342,67112,2,0,P|250:323|211:307,1,88.000002685547,2|0,0:0|1:2,0:0:0:0:
155,58,67476,2,0,B|200:112|145:150|145:150|202:192|133:272,1,204.000003890991,6|0,0:0|0:0,0:0:0:0:
238,306,67839,6,0,B|236:352|199:370|199:370|167:329|112:336,1,176.000005371094,2|0,0:0|0:0,0:0:0:0:
229,196,68385,1,10,0:0:0:0:
131,257,68567,1,2,0:0:0:0:
308,277,68748,2,0,B|328:275|347:291|347:291|366:274|419:261,1,88.000002685547,2|0,1:2|0:0,0:0:0:0:
278,369,69112,1,10,0:0:0:0:
204,139,69294,6,0,B|182:270|182:270|154:227,1,176.000005371094,2|2,0:0|0:0,0:0:0:0:
74,93,69839,1,10,0:0:0:0:
95,301,70020,1,0,0:0:0:0:
221,122,70203,2,0,P|265:121|314:113,1,88.000002685547,2|2,1:2|0:0,0:0:0:0:
203,268,70566,1,8,0:0:0:0:
350,233,70748,1,0,0:0:0:0:
209,69,70930,5,2,1:2:0:0:
287,277,71111,1,2,0:0:0:0:
107,225,71293,1,10,0:0:0:0:
318,254,71476,1,2,0:0:0:0:
235,56,71658,2,0,P|229:105|215:159,1,88.000002685547,2|2,1:2|0:0,0:0:0:0:
78,261,72021,2,0,P|108:229|163:248,1,88.000002685547,10|2,0:0|0:0,0:0:0:0:
381,326,72385,6,0,B|329:295|279:306|279:306|265:278|240:248,1,176.000005371094,2|8,1:2|0:0,0:0:0:0:
326,92,72930,2,0,P|328:135|335:179,1,88.000002685547,2|0,0:0|1:2,0:0:0:0:
238,325,73294,2,0,B|215:335|183:332|183:332|159:299|159:299|177:260|177:260|204:262|239:248,1,204.000003890991,6|0,0:0|0:0,0:0:0:0:
369,195,73658,6,0,B|290:187|290:187|259:166|259:166|200:160,1,176.000005371094,2|2,0:0|0:0,0:0:0:0:
94,42,74203,1,10,0:0:0:0:
123,235,74385,1,2,0:0:0:0:
249,95,74567,1,2,1:2:0:0:
72,136,74749,1,2,0:0:0:0:
103,311,74931,1,8,0:0:0:0:
274,269,75112,1,2,0:0:0:0:
160,110,75294,6,0,P|201:131|245:122,1,88.000002685547,0|2,1:2|0:0,0:0:0:0:
129,209,75658,1,10,0:0:0:0:
108,8,75839,2,0,B|82:49|82:49|83:98,1,88.000002685547,0|2,0:0|1:2,0:0:0:0:
151,204,76203,2,0,P|141:247|139:301,1,88.000002685547,2|8,0:0|0:0,0:0:0:0:
62,175,76567,1,0,0:0:0:0:
191,84,76748,5,10,0:0:0:0:
216,63,76838,1,8,0:0:0:0:
247,55,76929,1,10,0:0:0:0:
279,61,77020,1,8,0:0:0:0:
309,72,77111,1,10,0:0:0:0:
341,80,77202,1,8,0:0:0:0:
373,76,77293,1,10,0:0:0:0:
401,61,77385,1,8,0:0:0:0:
426,39,77476,6,0,P|451:38|475:34,1,44.0000013427735,8|8,0:3|0:3,0:0:0:0:
409,184,77658,2,0,P|387:180|365:180,1,44.0000013427735,8|8,0:3|0:3,0:0:0:0:
259,235,77839,1,8,0:3:0:0:
253,254,77929,1,8,0:3:0:0:
251,275,78020,1,8,0:3:0:0:
255,296,78111,1,8,0:3:0:0:
265,315,78204,6,0,P|272:224|282:148,2,160,6|8|2,1:2|0:0|1:2,0:0:0:0:
341,380,79112,1,0,0:0:0:0:
181,308,79294,2,0,B|163:301|140:303|140:303|110:274,1,80,10|0,0:0|0:0,0:0:0:0:
106,75,79658,5,6,1:2:0:0:
193,213,79839,1,2,0:0:0:0:
7,158,80021,1,10,0:0:0:0:
139,9,80203,2,0,P|131:89|131:174,1,160,6|0,0:0|0:0,0:0:0:0:
0,266,80748,1,8,0:0:0:0:
167,298,80930,1,0,0:0:0:0:
167,298,81021,1,0,0:0:0:0:
178,321,81112,5,2,1:2:0:0:
188,338,81203,2,0,P|214:342|244:351,1,51.999997619629,2|0,0:0|0:0,0:0:0:0:
388,227,81385,5,2,0:0:0:0:
379,245,81476,2,0,P|354:250|319:251,1,60.0000022888184,2|0,0:0|0:0,0:0:0:0:
152,183,81658,5,0,0:0:0:0:
172,190,81748,2,0,P|169:157|159:112,1,68.0000012969971,2|0,0:0|0:0,0:0:0:0:
369,5,81930,5,2,0:0:0:0:
344,0,82021,2,0,P|341:33|330:82,1,75.9999979705811,2|0,0:0|0:0,0:0:0:0:
228,321,82567,5,6,0:0:0:0:
343,145,82748,2,0,P|340:191|331:241,1,88.000002685547,2|0,1:2|1:2,0:0:0:0:
185,52,83112,1,6,0:0:0:0:
262,219,83476,5,2,0:0:0:0:
160,267,83658,1,2,0:0:0:0:
348,337,83839,1,2,0:0:0:0:
392,117,84021,6,0,B|332:101|304:145|304:145|242:120|191:167,1,191.999994140625,2|10,1:2|0:0,0:0:0:0:
120,234,84567,1,0,0:0:0:0:
219,295,84748,2,0,L|227:345,1,40,2|2,1:2|0:0,0:0:0:0:
304,185,84930,2,0,P|298:144|294:105,1,80,2|8,0:0|0:0,0:0:0:0:
104,90,85294,6,0,P|164:127|189:53,1,160,2|2,0:0|0:0,0:0:0:0:
81,0,85839,1,8,0:0:0:0:
18,179,86021,1,0,0:0:0:0:
161,110,86203,1,0,1:2:0:0:
162,121,86294,1,0,1:2:0:0:
163,132,86385,1,2,0:0:0:0:
257,9,86567,1,10,0:0:0:0:
291,153,86748,1,2,0:0:0:0:
219,311,86930,6,0,P|208:275|204:228,1,68.0000012969971,2|0,1:2|0:0,0:0:0:0:
274,78,87294,2,0,P|263:114|259:161,1,68.0000012969971,10|0,0:0|0:0,0:0:0:0:
357,229,87658,2,0,P|375:225|406:215,1,40,2|2,1:2|0:0,0:0:0:0:
307,358,87839,1,2,0:0:0:0:
396,310,88021,1,10,0:0:0:0:
232,136,88203,6,0,P|250:194|213:257,1,120.000004577637,2|0,0:0|0:0,0:0:0:0:
136,305,88748,1,8,0:0:0:0:
301,357,88930,1,0,0:0:0:0:
403,208,89112,1,0,1:2:0:0:
400,196,89203,1,0,1:2:0:0:
397,185,89294,1,2,0:0:0:0:
489,296,89476,1,8,0:0:0:0:
293,205,89658,1,2,0:0:0:0:
396,30,89839,6,0,P|344:90|244:52,1,191.999994140625,2|10,1:2|0:0,0:0:0:0:
164,1,90385,1,0,0:0:0:0:
45,88,90567,2,0,P|25:84|5:79,1,40,2|2,1:2|0:0,0:0:0:0:
167,178,90748,2,0,B|202:161|202:161|229:175|263:162,1,80,2|10,0:0|0:0,0:0:0:0:
444,262,91112,6,0,P|368:253|285:239,1,160,2|2,0:0|0:0,0:0:0:0:
271,100,91658,2,0,P|310:127|339:146,1,80,8|0,0:0|0:0,0:0:0:0:
362,276,92021,1,2,1:2:0:0:
435,133,92203,1,2,0:0:0:0:
462,325,92385,1,10,0:0:0:0:
299,110,92567,1,2,0:0:0:0:
261,360,92748,6,0,B|269:303|269:303|240:246,1,103.999995239258,2|0,1:2|0:0,0:0:0:0:
109,114,93112,2,0,P|157:125|198:80,1,103.999995239258,10|0,0:0|0:0,0:0:0:0:
335,193,93476,1,2,1:2:0:0:
332,181,93567,1,2,0:0:0:0:
329,170,93658,1,2,0:0:0:0:
239,30,93839,1,10,0:0:0:0:
201,258,94021,1,2,0:0:0:0:
191,278,94203,6,0,P|240:270|285:266,1,80,12|8,1:2|0:0,0:0:0:0:
444,223,94567,1,8,0:3:0:0:
444,223,94658,1,8,0:3:0:0:
444,223,94748,2,0,P|474:226|501:234,1,40,8|8,0:3|0:3,0:0:0:0:
371,341,94930,1,4,0:0:0:0:
338,132,95112,2,0,L|326:215,1,80,8|8,0:0|0:0,0:0:0:0:
170,345,95658,5,6,0:0:0:0:
278,251,95839,1,0,1:2:0:0:
143,204,96021,1,0,1:2:0:0:
341,38,96203,5,6,0:0:0:0:
368,179,96384,1,0,1:2:0:0:
233,132,96566,1,0,1:2:0:0:
286,329,96748,6,0,P|363:335|366:243,1,180.000006866455,6|0,0:0|0:0,0:0:0:0:
316,116,97112,1,6,0:0:0:0:
186,204,98365,6,0,P|201:204|229:200,2,35.5555555555556,8|8|0,1:2|1:2|1:2,1:2:0:0:
