osu file format v14

[General]
AudioFilename: audio.mp3
AudioLeadIn: 0
PreviewTime: 48294
Countdown: 0
SampleSet: Soft
StackLeniency: 0.7
Mode: 0
LetterboxInBreaks: 0
WidescreenStoryboard: 1

[Editor]
Bookmarks: 38385
DistanceSpacing: 1
BeatDivisor: 2
GridSize: 4
TimelineZoom: 1.4

[Metadata]
Title:Kira! Mankai Smile (Cut Ver.)
TitleUnicode:キラッ!満開スマイル (Cut Ver.)
Artist:Uzuki Shimamura (CV: Ayaka Ohashi)
ArtistUnicode:島村卯月 (CV: 大橋彩香)
Creator:Setz
Version:E@SY
Source:シンデレラガールズ劇場
Tags:スターライトステージ starlight stage jpop pop japanese アイドルマスター シンデレラガールズ deresute Little Stars! Gekijou Cingeki Gears- Lanturn cinderella girls im@as imas idolmaster idolm@ster
BeatmapID:3362537
BeatmapSetID:1636539

[Difficulty]
HPDrainRate:3
CircleSize:3
OverallDifficulty:2
ApproachRate:3
SliderMultiplier:0.9
SliderTickRate:2

[Events]
//Background and Video events
0,0,"BG.jpeg",0,0
//Break Periods
//Storyboard Layer 0 (Background)
//Storyboard Layer 1 (Fail)
//Storyboard Layer 2 (Pass)
//Storyboard Layer 3 (Foreground)
//Storyboard Layer 4 (Overlay)
//Storyboard Sound Samples

[TimingPoints]
-342,363.636363636364,4,2,2,70,1,0
11658,-100,4,2,2,5,0,0
12385,-100,4,2,2,70,0,0
17476,-100,4,2,2,70,0,0
18567,-100,4,2,2,70,0,0
18930,-100,4,2,2,70,0,0
21748,-100,4,2,2,5,0,0
21839,-100,4,2,2,70,0,0
22112,-100,4,2,2,5,0,0
22203,-100,4,2,2,70,0,0
22476,-100,4,2,2,5,0,0
22567,-100,4,2,2,70,0,0
22839,-100,4,2,2,5,0,0
22930,-100,4,2,2,70,0,0
23021,-100,4,2,2,5,0,0
23112,-100,4,2,2,70,0,0
23385,-100,4,2,2,5,0,0
23476,-100,4,2,2,70,0,0
24021,-100,4,2,2,70,0,0
24385,-100,4,2,2,70,0,0
27567,-100,4,2,2,5,0,0
27658,-100,4,2,2,70,0,0
29112,-100,4,2,2,70,0,0
30203,-100,4,2,2,70,0,0
30567,-100,4,2,2,70,0,0
34203,-100,4,2,2,70,0,0
34567,-100,4,2,2,70,0,0
39930,-100,4,2,2,5,0,0
40021,-100,4,2,2,70,0,0
46203,-100,4,2,2,45,0,0
47658,-100,4,2,2,70,0,0
49112,-100,4,2,2,80,0,1
50294,-100,4,2,2,5,0,1
50385,-100,4,2,2,80,0,1
50476,-100,4,2,2,80,0,1
56112,-100,4,2,2,5,0,1
56203,-100,4,2,2,80,0,1
56294,-100,4,2,2,80,0,1
66476,-100,4,2,2,80,0,0
66567,-100,4,2,2,80,0,1
67748,-100,4,2,2,5,0,1
67839,-100,4,2,2,80,0,1
67930,-100,4,2,2,80,0,1
73567,-100,4,2,2,5,0,1
73658,-100,4,2,2,80,0,1
73748,-100,4,2,2,80,0,1
76748,-100,4,2,2,40,0,1
78203,-100,4,2,2,80,0,1
81294,-100,4,2,2,5,0,1
81385,-100,4,2,2,80,0,1
81567,-100,4,2,2,5,0,1
81658,-100,4,2,2,80,0,1
81839,-100,4,2,2,5,0,1
81930,-100,4,2,2,80,0,1
82112,-100,4,2,2,5,0,1
82567,-100,4,2,2,80,0,1
83112,-100,4,2,2,70,0,0
95839,-100,4,2,2,70,0,0
96203,-100,4,2,2,70,0,0
96385,-100,4,2,2,70,0,0
96748,-100,4,2,2,70,0,0
97021,-100,4,2,2,5,0,0
97112,-100,4,2,2,70,0,0
98365,-100,4,2,2,40,0,0

[Colours]
Combo1 : 255,172,89
Combo2 : 255,170,193
Combo3 : 83,199,255
Combo4 : 255,85,85
Combo5 : 157,157,255
SliderBorder : 255,255,255

[HitObjects]
70,250,1112,6,0,P|113:239|170:232,1,90,6|10,1:2|0:0,0:0:0:0:
241,266,1839,1,2,1:2:0:0:
334,168,2385,2,0,P|397:175|459:123,1,135,2|8,0:0|0:0,0:0:0:0:
373,79,3294,1,0,1:2:0:0:
307,17,3658,1,10,0:0:0:0:
261,94,4021,6,0,B|219:91|204:79|204:79|165:84,1,90,2|10,1:2|0:0,0:0:0:0:
98,131,4748,1,2,1:2:0:0:
16,238,5294,2,0,B|68:223|68:223|105:238|105:238|155:224,1,135,2|8,0:0|0:0,0:0:0:0:
219,177,6203,1,0,1:2:0:0:
269,251,6567,1,10,0:0:0:0:
335,190,6930,6,0,B|382:181|382:181|432:211,1,90,2|10,1:2|0:0,0:0:0:0:
363,274,7658,1,2,1:2:0:0:
258,359,8203,2,0,P|219:314|136:330,1,135,2|8,0:0|0:0,0:0:0:0:
66,281,9112,1,0,1:2:0:0:
131,218,9476,1,10,0:0:0:0:
181,143,9839,6,0,P|221:155|285:161,2,90,2|10|2,1:2|0:0|1:2,0:0:0:0:
103,97,10930,1,10,0:0:0:0:
155,23,11294,1,0,1:2:0:0:
368,312,12748,6,0,B|339:314|309:344|309:344|281:324|231:338,2,135,2|2|8,1:2|0:0|0:0,0:0:0:0:
427,244,14203,2,0,B|434:215|415:177|415:177|443:157|447:105,2,135,2|2|10,1:2|0:0|0:0,0:0:0:0:
339,219,15658,6,0,P|289:214|251:202,1,90,2|10,1:2|0:0,0:0:0:0:
172,157,16385,1,2,1:2:0:0:
112,224,16748,1,10,0:0:0:0:
49,159,17112,2,0,B|67:122|46:91|46:91|111:44,1,135,0|0,1:2|1:2,0:0:0:0:
228,23,18203,1,8,0:0:0:0:
301,75,18567,5,0,1:2:0:0:
272,160,18930,2,0,P|317:163|370:133,1,90,10|2,0:0|1:2,0:0:0:0:
413,74,19658,1,10,0:0:0:0:
456,151,20021,2,0,B|476:185|443:224|443:224|478:289,2,135,2|2|10,1:2|0:0|0:0,0:0:0:0:
366,151,21476,5,2,1:2:0:0:
327,69,21839,1,14,0:0:0:0:
265,134,22203,1,2,1:2:0:0:
228,51,22567,1,14,0:0:0:0:
162,112,22930,2,0,P|180:186|138:232,1,135,2|2,1:2|0:0,0:0:0:0:
229,334,24021,1,8,0:0:0:0:
279,259,24385,6,0,B|313:265|335:296|335:296|366:266|405:260,2,135,2|2|10,1:2|0:0|0:0,0:0:0:0:
209,201,25839,2,0,B|198:168|164:150|164:150|189:115|190:76,2,135,2|2|10,1:2|0:0|0:0,0:0:0:0:
192,289,27294,5,2,1:2:0:0:
277,316,27658,1,10,0:0:0:0:
320,235,28021,2,0,P|364:241|414:244,1,90,2|8,1:2|0:0,0:0:0:0:
478,186,28748,2,0,B|433:160|433:160|385:159|334:151,1,135,0|0,1:2|1:2,0:0:0:0:
245,68,29839,1,8,0:0:0:0:
169,116,30203,5,0,1:2:0:0:
211,195,30567,2,0,P|209:240|203:291,1,90,10|2,0:0|1:2,0:0:0:0:
283,327,31294,1,10,0:0:0:0:
353,271,31658,2,0,P|419:272|453:203,2,135,2|2|8,1:2|0:0|0:0,0:0:0:0:
286,209,33112,5,2,1:2:0:0:
339,136,33476,1,10,0:0:0:0:
284,64,33839,2,0,B|238:86|238:86|195:80,1,90,2|10,1:2|0:0,0:0:0:0:
159,161,34567,2,0,P|91:152|14:139,2,135,2|0|10,1:2|1:2|0:0,0:0:0:0:
216,230,36021,5,4,0:0:0:0:
301,202,36385,2,0,P|339:225|396:211,1,90,10|2,0:0|1:2,0:0:0:0:
458,171,37112,1,8,0:0:0:0:
479,83,37476,2,0,B|440:59|412:88|412:88|338:53,1,135,2|2,1:2|1:2,0:0:0:0:
267,71,38385,1,2,0:0:0:0:
181,98,38748,6,0,B|153:130|160:168|160:168|186:200|151:235,1,135,2|10,0:0|0:0,0:0:0:0:
90,277,39658,1,2,1:2:0:0:
161,331,40021,1,10,0:0:0:0:
245,298,40385,2,0,P|312:291|385:285,2,135,2|2|10,1:2|1:2|0:0,0:0:0:0:
167,251,41839,6,0,B|203:211|203:211|242:208|299:201,1,135,2|2,1:2|1:2,0:0:0:0:
388,117,42930,1,10,0:0:0:0:
314,64,43294,2,0,B|275:44|275:44|223:82|179:50,1,135,2|2,1:2|1:2,0:0:0:0:
81,137,44385,1,10,0:0:0:0:
147,197,44748,6,0,B|186:226|144:292|144:292|184:299|215:337,1,180,2|2,1:2|1:2,0:0:0:0:
256,252,45839,1,10,0:0:0:0:
256,192,46203,12,8,47658,0:0:0:0:
85,286,49112,6,0,B|129:274|157:307|157:307|209:272,1,135,4|2,1:2|0:0,0:0:0:0:
154,200,50021,1,6,0:0:0:0:
211,130,50385,2,0,B|266:96|266:96|343:115,2,135,2|10|2,0:0|0:0|0:0,0:0:0:0:
280,187,51839,6,0,L|416:221,1,135,2|10,0:0|0:0,0:0:0:0:
500,208,52748,1,2,1:2:0:0:
466,291,53112,1,8,0:0:0:0:
381,321,53476,2,0,P|317:304|263:362,1,135,2|2,1:2|0:0,0:0:0:0:
151,276,54567,1,10,0:0:0:0:
96,204,54930,6,0,B|142:179|142:179|168:186|168:186|221:158,1,135,2|2,1:2|0:0,0:0:0:0:
187,75,55839,1,6,0:0:0:0:
269,39,56203,2,0,B|312:44|335:20|335:20|414:44,2,135,2|10|2,0:0|0:0|0:0,0:0:0:0:
246,126,57658,6,0,P|255:189|212:250,1,135,2|10,0:0|0:0,0:0:0:0:
167,169,58567,1,2,1:2:0:0:
88,213,58930,1,8,0:0:0:0:
41,136,59294,2,0,B|31:75|31:75|71:61|94:22,2,135,2|2|8,1:2|0:0|0:0,0:0:0:0:
6,219,60748,6,0,P|58:292|149:271,1,180,4|2,0:0|1:2,0:0:0:0:
207,222,61839,1,8,0:0:0:0:
288,260,62203,2,0,P|332:265|390:282,2,90,0|8|2,0:0|0:0|1:2,0:0:0:0:
279,170,63294,1,8,0:0:0:0:
361,134,63658,6,0,B|378:93|378:93|350:38,1,90,0|10,1:2|0:0,0:0:0:0:
270,27,64385,1,2,1:2:0:0:
195,139,64930,2,0,P|125:128|89:73,1,135,2|10,0:0|0:0,0:0:0:0:
178,50,65839,1,2,1:2:0:0:
270,27,66203,1,10,0:0:0:0:
317,103,66567,6,0,B|349:126|386:121|386:121|410:182,1,135,4|2,1:2|0:0,0:0:0:0:
321,203,67476,1,6,0:0:0:0:
253,262,67839,2,0,P|183:251|114:245,1,135,2|10,0:0|0:0,0:0:0:0:
37,283,68748,1,2,1:2:0:0:
39,147,69294,6,0,P|104:157|155:92,1,135,2|10,0:0|0:0,0:0:0:0:
195,34,70203,1,2,1:2:0:0:
249,105,70567,1,8,0:0:0:0:
323,54,70930,2,0,B|386:24|386:24|460:41,2,135,2|2|10,1:2|0:0|0:0,0:0:0:0:
392,111,72385,6,0,P|352:166|383:230,1,135,2|2,1:2|0:0,0:0:0:0:
423,298,73294,1,6,0:0:0:0:
339,331,73658,2,0,B|299:329|270:309|270:309|205:330,1,135,2|10,0:0|0:0,0:0:0:0:
157,255,74567,1,2,1:2:0:0:
185,123,75112,6,0,P|144:172|82:155,1,135,2|10,0:0|0:0,0:0:0:0:
12,98,76021,1,2,1:2:0:0:
78,37,76385,1,8,0:0:0:0:
167,43,76748,2,0,P|210:39|283:26,1,90,10|10,0:0|0:0,0:0:0:0:
324,91,77476,2,0,P|367:94|440:108,1,90,8|8,0:0|0:0,0:0:0:0:
474,167,78203,6,0,B|431:188|431:188|406:183|375:179,1,90,6|8,1:2|0:0,0:0:0:0:
305,214,78930,1,2,1:2:0:0:
363,282,79294,1,10,0:0:0:0:
299,345,79658,2,0,B|247:330|247:330|210:345|210:345|160:331,1,135,6|6,1:2|0:0,0:0:0:0:
99,219,80748,1,8,0:0:0:0:
180,181,81112,6,0,B|199:180|220:190|220:190|263:176|275:155|277:127|262:90|262:90|223:92|183:72,1,225,2|2,1:2|0:0,0:0:0:0:
79,39,82567,1,6,0:0:0:0:
30,165,83112,1,6,0:0:0:0:
175,336,84021,6,0,P|186:293|193:236,1,90,2|10,1:2|0:0,0:0:0:0:
277,218,84748,1,2,1:2:0:0:
373,136,85294,2,0,P|412:189|406:255,1,135,2|8,0:0|0:0,0:0:0:0:
352,327,86203,1,0,1:2:0:0:
265,301,86567,1,10,0:0:0:0:
196,243,86930,6,0,B|155:250|137:242|137:242|100:257,1,90,2|10,1:2|0:0,0:0:0:0:
36,199,87657,1,2,1:2:0:0:
140,113,88203,2,0,B|125:61|125:61|140:24|140:24|184:9,1,135,2|8,0:0|0:0,0:0:0:0:
231,83,89112,1,0,1:2:0:0:
315,50,89476,1,8,0:0:0:0:
346,134,89839,6,0,B|393:125|393:125|443:155,1,90,2|10,1:2|0:0,0:0:0:0:
376,220,90567,1,2,1:2:0:0:
241,213,91112,2,0,P|176:230|95:241,1,135,2|8,0:0|0:0,0:0:0:0:
31,194,92021,1,2,1:2:0:0:
75,115,92385,1,10,0:0:0:0:
161,89,92748,6,0,P|167:48|163:-17,2,90,2|10|2,1:2|0:0|1:2,0:0:0:0:
222,154,93839,1,10,0:0:0:0:
170,227,94203,6,0,P|205:241|271:228,1,90,12|8,1:2|0:3,0:0:0:0:
338,199,94930,2,0,P|379:208|437:215,1,90,4|8,0:0|0:0,0:0:0:0:
508,175,95658,6,0,B|471:137|471:137|427:134|371:122,2,135,6|6|6,0:0|0:0|0:0,0:0:0:0:
505,265,97112,1,6,0:0:0:0:
