osu file format v14

[General]
AudioFilename: audio.mp3
AudioLeadIn: 0
PreviewTime: 75294
Countdown: 0
SampleSet: Soft
StackLeniency: 0.7
Mode: 0
LetterboxInBreaks: 0
WidescreenStoryboard: 0

[Editor]
Bookmarks: 72666,209912
DistanceSpacing: 1.2
BeatDivisor: 4
GridSize: 4
TimelineZoom: 1

[Metadata]
Title:Hanikami days
TitleUnicode:はにかみdays
Artist:Uzuki Shimamura (CV: Ayaka Ohashi)
ArtistUnicode:島村卯月 (CV: 大橋彩香)
Creator:Setz
Version:M@STER
Source:アイドルマスター シンデレラガールズ
Tags:idolmaster Starlight Stage im@s deresute THE IDOLM@STER CINDERELLA GIRLS japanese pop STARLIGHT MASTER 01 Snow Wings jpop
BeatmapID:3237674
BeatmapSetID:1585091

[Difficulty]
HPDrainRate:7
CircleSize:4
OverallDifficulty:8
ApproachRate:9
SliderMultiplier:1.7
SliderTickRate:1

[Events]
//Background and Video events
0,0,"bg.jpeg",0,0
//Break Periods
2,231861,240662
//Storyboard Layer 0 (Background)
//Storyboard Layer 1 (Fail)
//Storyboard Layer 2 (Pass)
//Storyboard Layer 3 (Foreground)
//Storyboard Layer 4 (Overlay)
//Storyboard Sound Samples

[TimingPoints]
662,375,4,2,2,60,1,0
662,-125,4,2,2,60,0,0
3099,-125,4,2,2,50,0,0
3662,-125,4,2,2,60,0,0
6099,-125,4,2,2,50,0,0
6662,-125,4,2,2,60,0,0
9099,-125,4,2,2,50,0,0
9662,-125,4,2,2,60,0,0
12662,-100,4,2,2,70,0,0
13224,-100,4,2,2,50,0,0
13599,-100,4,2,2,70,0,0
15099,-100,4,2,2,60,0,0
15662,-100,4,2,2,70,0,0
16224,-100,4,2,2,50,0,0
16599,-100,4,2,2,70,0,0
17255,-100,4,2,2,5,0,0
17349,-100,4,2,2,70,0,0
18099,-100,4,2,2,60,0,0
18662,-100,4,2,2,70,0,0
19224,-100,4,2,2,50,0,0
19599,-100,4,2,2,70,0,0
21099,-100,4,2,2,60,0,0
21662,-100,4,2,2,70,0,0
22224,-100,4,2,2,50,0,0
22599,-100,4,2,2,70,0,0
27568,-100,4,2,2,5,0,0
27662,-100,4,2,2,70,0,0
29724,-100,4,2,2,50,0,0
30005,-100,4,2,2,70,0,0
38724,-100,4,2,2,50,0,0
39005,-100,4,2,2,70,0,0
48099,-100,4,2,2,60,0,0
48662,-133.333333333333,4,2,2,60,0,0
50068,-133.333333333333,4,2,2,60,0,0
50162,-133.333333333333,4,2,2,60,0,0
51568,-133.333333333333,4,2,2,60,0,0
51662,-133.333333333333,4,2,2,60,0,0
57568,-133.333333333333,4,2,2,60,0,0
57662,-133.333333333333,4,2,2,60,0,0
60099,-133.333333333333,4,2,2,50,0,0
60662,-133.333333333333,4,2,2,60,0,0
63568,-133.333333333333,4,2,2,60,0,0
63662,-133.333333333333,4,2,2,60,0,0
66099,-133.333333333333,4,2,2,50,0,0
66662,-100,4,2,2,70,0,0
68162,-100,4,2,2,55,0,0
68349,-100,4,2,2,70,0,0
75662,-86.9565217391304,4,2,2,80,0,1
87568,-86.9565217391304,4,2,2,80,0,0
87662,-95.2380952380952,4,2,2,80,0,1
98162,-95.2380952380952,4,2,2,70,0,1
99662,-100,4,2,2,70,0,0
100224,-100,4,2,2,50,0,0
100599,-100,4,2,2,70,0,0
102099,-100,4,2,2,60,0,0
102662,-100,4,2,2,70,0,0
103224,-100,4,2,2,50,0,0
103599,-100,4,2,2,70,0,0
104255,-100,4,2,2,5,0,0
104349,-100,4,2,2,70,0,0
105099,-100,4,2,2,60,0,0
105662,-100,4,2,2,70,0,0
106224,-100,4,2,2,50,0,0
106599,-100,4,2,2,70,0,0
108099,-100,4,2,2,60,0,0
108662,-100,4,2,2,70,0,0
109224,-100,4,2,2,50,0,0
109505,-100,4,2,2,70,0,0
119724,-100,4,2,2,50,0,0
120005,-100,4,2,2,70,0,0
128724,-100,4,2,2,50,0,0
129005,-100,4,2,2,70,0,0
135099,-100,4,2,2,60,0,0
135662,-133.333333333333,4,2,2,60,0,0
137068,-133.333333333333,4,2,2,5,0,0
137162,-133.333333333333,4,2,2,60,0,0
138568,-133.333333333333,4,2,2,5,0,0
138662,-133.333333333333,4,2,2,60,0,0
144568,-133.333333333333,4,2,2,5,0,0
144662,-133.333333333333,4,2,2,60,0,0
147099,-133.333333333333,4,2,2,50,0,0
147662,-133.333333333333,4,2,2,60,0,0
150568,-133.333333333333,4,2,2,5,0,0
150662,-133.333333333333,4,2,2,60,0,0
153099,-133.333333333333,4,2,2,50,0,0
153662,-100,4,2,2,70,0,0
155162,-100,4,2,2,55,0,0
155349,-100,4,2,2,70,0,0
162662,-86.9565217391304,4,2,2,80,0,1
174568,-86.9565217391304,4,2,2,80,0,0
174662,-86.9565217391304,4,2,2,80,0,1
185162,-100,4,2,2,80,0,1
185537,-100,4,2,2,55,0,1
185724,-100,4,2,2,80,0,1
186662,-100,4,2,2,80,0,0
201662,-133.333333333333,4,2,2,61,0,0
203068,-133.333333333333,4,2,2,5,0,0
203162,-133.333333333333,4,2,2,60,0,0
207568,-133.333333333333,4,2,2,5,0,0
207662,-133.333333333333,4,2,2,60,0,0
213568,-133.333333333333,4,2,2,5,0,0
213662,-100,4,2,2,70,0,0
214880,-100,4,2,2,50,0,0
215162,-100,4,2,2,70,0,0
220505,-100,4,2,2,5,0,0
220599,-100,4,2,2,70,0,0
228662,-166.666666666667,4,2,2,70,0,0
228755,-166.666666666667,4,2,2,40,0,0
230068,-166.666666666667,4,2,2,5,0,0
230162,-250,4,2,2,35,0,0
242162,-100,4,2,2,80,0,0
242537,-100,4,2,2,60,0,0
242630,-100,4,2,2,80,0,0
243662,-83.3333333333333,4,2,2,80,0,1
255568,-83.3333333333333,4,2,2,80,0,0
255662,-86.9565217391304,4,2,2,80,0,1
258568,-86.9565217391304,4,2,2,5,0,1
258662,-100,4,2,2,80,0,1
263162,-90.9090909090909,4,2,2,80,0,0
263724,-90.9090909090909,4,2,2,55,0,0
264005,-90.9090909090909,4,2,2,80,0,0
265599,-90.9090909090909,4,2,2,70,0,0
266162,-90.9090909090909,4,2,2,80,0,0
266724,-90.9090909090909,4,2,2,55,0,0
267005,-90.9090909090909,4,2,2,80,0,0
267755,-90.9090909090909,4,2,2,5,0,0
267849,-90.9090909090909,4,2,2,80,0,0
268599,-90.9090909090909,4,2,2,70,0,0
269162,-90.9090909090909,4,2,2,80,0,0
269724,-90.9090909090909,4,2,2,55,0,0
270005,-90.9090909090909,4,2,2,80,0,0
271599,-90.9090909090909,4,2,2,70,0,0
272162,-90.9090909090909,4,2,2,80,0,0
272724,-90.9090909090909,4,2,2,55,0,0
273005,-90.9090909090909,4,2,2,80,0,0
273474,-100,4,2,2,70,0,0
275162,-100,4,2,2,30,0,0
275912,-100,4,2,2,80,0,0
276005,-90.9090909090909,4,2,2,30,0,0
285662,-90.9090909090909,4,2,2,10,0,0

[Colours]
Combo1 : 255,255,128
Combo2 : 255,183,183
Combo3 : 117,180,255
Combo4 : 247,106,128
Combo5 : 0,145,145
Combo6 : 145,72,72
Combo7 : 159,159,208

[HitObjects]
196,105,662,6,0,P|262:114|332:119,2,136,6|10|2,0:0|0:0|1:2,0:0:0:0:
81,201,1599,2,0,P|114:199|152:193,1,68,2|8,0:0|0:0,0:0:0:0:
331,118,1974,6,0,B|351:101|351:101|369:209,1,136,2|2,0:0|0:0,0:0:0:0:
304,291,2537,1,8,0:0:0:0:
437,271,2724,1,2,0:0:0:0:
284,198,2912,2,0,P|249:196|199:188,1,68,2|8,1:2|0:0,0:0:0:0:
106,84,3287,2,0,P|139:79|173:77,1,68,10|8,0:0|0:0,0:0:0:0:
168,276,3662,6,0,B|197:280|197:280|243:325|306:295,2,136,2|10|2,1:2|0:0|1:2,0:0:0:0:
67,186,4599,2,0,P|51:218|39:265,1,68,2|8,0:0|0:0,0:0:0:0:
172,73,4974,6,0,P|231:36|299:53,1,136,2|2,0:0|0:0,0:0:0:0:
245,131,5537,1,8,0:0:0:0:
398,102,5724,2,0,P|389:135|383:180,1,68,2|2,0:0|1:2,0:0:0:0:
468,237,6099,1,8,0:2:0:0:
338,277,6287,1,10,0:0:0:0:
478,211,6474,1,8,0:2:0:0:
328,78,6662,6,0,P|388:87|452:45,2,136,6|10|2,0:0|0:0|1:2,0:0:0:0:
158,15,7599,2,0,P|193:11|238:3,1,68,2|8,0:0|0:0,0:0:0:0:
133,214,7974,6,0,B|119:108|119:108|167:124,1,136,2|2,0:0|0:0,0:0:0:0:
251,148,8537,1,8,0:0:0:0:
199,247,8724,1,2,0:0:0:0:
380,222,8912,2,0,P|415:221|458:209,1,68,2|8,1:2|0:2,0:0:0:0:
337,64,9287,2,0,P|331:103|319:145,1,68,10|8,0:0|0:0,0:0:0:0:
238,299,9662,6,0,P|300:287|358:335,1,136,2|10,1:2|0:0,0:0:0:0:
161,190,10412,1,2,1:2:0:0:
279,127,10599,1,2,0:0:0:0:
158,49,10787,1,8,0:0:0:0:
241,224,10974,1,10,0:0:0:0:
211,203,11349,5,2,1:2:0:0:
374,163,11537,1,10,0:0:0:0:
184,185,11724,1,2,1:2:0:0:
265,56,11912,1,10,0:0:0:0:
319,249,12099,1,2,1:2:0:0:
170,88,12287,1,10,0:0:0:0:
107,323,12474,1,2,1:2:0:0:
386,185,12662,5,6,0:0:0:0:
263,132,12849,2,0,P|278:88|285:45,1,85,2|8,0:0|0:0,0:0:0:0:
145,67,13224,1,2,1:2:0:0:
145,67,13318,1,0,1:2:0:0:
145,67,13412,1,0,1:2:0:0:
196,174,13599,1,2,0:0:0:0:
284,50,13787,1,8,0:0:0:0:
246,282,13974,6,0,B|217:148|217:148|191:179,1,170,2|2,0:0|0:0,0:0:0:0:
116,262,14537,1,10,0:0:0:0:
221,362,14724,1,2,0:0:0:0:
195,173,14912,1,2,1:2:0:0:
326,217,15099,1,10,0:0:0:0:
215,262,15287,1,10,0:0:0:0:
351,356,15474,1,10,0:2:0:0:
116,262,15662,5,2,1:2:0:0:
156,148,15849,2,0,P|197:153|241:156,1,85,2|8,0:0|0:0,0:0:0:0:
355,112,16224,1,2,1:2:0:0:
355,112,16318,1,0,1:2:0:0:
355,112,16412,1,0,1:2:0:0:
284,220,16599,1,2,0:0:0:0:
233,64,16787,1,8,0:0:0:0:
158,238,16974,6,0,P|225:232|287:219,1,127.5,2|0,0:0|0:0,0:0:0:0:
384,277,17349,2,0,P|330:283|299:290,1,85,2|8,0:0|0:0,0:0:0:0:
142,279,17724,1,2,0:0:0:0:
337,171,17912,1,2,1:2:0:0:
140,258,18099,1,10,0:0:0:0:
347,317,18287,1,10,0:0:0:0:
221,88,18474,1,8,0:0:0:0:
261,241,18662,5,2,1:2:0:0:
123,174,18849,2,0,P|129:216|140:258,1,85,2|8,0:0|0:0,0:0:0:0:
18,223,19224,1,2,1:2:0:0:
18,223,19318,1,0,1:2:0:0:
18,223,19412,1,0,1:2:0:0:
89,90,19599,2,0,P|122:92|176:100,1,85,2|8,0:0|0:0,0:0:0:0:
372,168,19974,6,0,P|287:173|203:185,1,170,2|2,0:0|0:0,0:0:0:0:
203,185,20537,1,10,0:0:0:0:
272,74,20724,1,2,0:0:0:0:
295,271,20912,1,2,1:2:0:0:
377,147,21099,1,10,0:0:0:0:
153,109,21287,1,10,0:0:0:0:
355,52,21474,1,8,1:2:0:0:
383,250,21662,5,2,1:2:0:0:
281,189,21849,2,0,P|236:181|189:167,1,85,2|8,0:0|0:0,0:0:0:0:
289,92,22224,1,2,1:2:0:0:
289,92,22318,1,0,1:2:0:0:
289,92,22412,1,0,1:2:0:0:
303,267,22599,2,0,P|299:305|289:351,1,85,2|8,0:0|0:0,0:0:0:0:
182,77,22974,5,10,0:0:0:0:
206,61,23349,2,0,L|182:151,1,85,2|8,1:2|0:0,0:0:0:0:
35,281,23724,1,2,1:2:0:0:
171,240,23912,1,10,0:0:0:0:
92,175,24099,1,2,1:2:0:0:
184,143,24287,2,0,P|225:150|281:163,1,85,10|0,0:0|0:0,0:0:0:0:
23,21,24662,5,6,1:2:0:0:
113,92,24849,2,0,L|89:186,1,85,2|8,0:0|0:0,0:0:0:0:
0,139,25224,1,2,0:0:0:0:
205,83,25412,2,0,P|289:69|354:142,1,170,2|8,1:2|0:0,0:0:0:0:
407,224,25974,6,0,P|451:237|495:247,1,85,2|2,1:2|0:0,0:0:0:0:
345,324,26349,1,2,0:0:0:0:
256,154,26537,2,0,P|263:197|274:253,1,85,10|2,0:0|0:0,0:0:0:0:
135,355,26912,2,0,P|142:312|153:256,1,85,2|0,1:2|1:2,0:0:0:0:
185,105,27287,2,0,P|240:69|309:89,1,127.5,8|0,0:0|0:0,0:0:0:0:
344,109,27662,5,2,1:2:0:0:
185,194,27849,2,0,P|142:184|99:177,1,85,2|8,0:0|0:0,0:0:0:0:
20,101,28224,1,2,0:0:0:0:
149,271,28412,2,0,P|226:277|274:194,1,170,2|8,1:2|0:0,0:0:0:0:
144,28,28974,6,0,L|187:205,1,170,2|2,1:2|1:2,0:0:0:0:
243,296,29537,1,8,0:0:0:0:
343,113,29724,1,0,1:2:0:0:
375,103,29818,1,0,1:2:0:0:
408,94,29912,2,0,L|388:186,1,85,2|2,1:2|1:2,0:0:0:0:
229,220,30287,1,10,0:0:0:0:
370,278,30474,1,2,0:0:0:0:
312,121,30662,5,2,1:2:0:0:
435,19,30849,2,0,P|388:25|347:24,1,85,2|8,0:0|0:0,0:0:0:0:
172,151,31224,1,2,0:0:0:0:
253,78,31412,1,2,1:2:0:0:
70,19,31599,1,0,1:2:0:0:
88,118,31787,1,8,0:0:0:0:
232,0,31974,1,0,0:0:0:0:
292,207,32162,5,2,1:2:0:0:
157,265,32349,2,0,P|123:263|72:250,1,85,2|8,1:2|0:0,0:0:0:0:
206,159,32724,1,0,0:0:0:0:
77,111,32912,1,2,1:2:0:0:
157,265,33099,1,2,1:2:0:0:
254,73,33287,2,0,P|213:61|171:59,1,85,10|0,0:0|0:0,0:0:0:0:
360,30,33662,5,2,1:2:0:0:
450,106,33849,2,0,P|458:150|470:192,1,85,2|8,0:0|0:0,0:0:0:0:
386,275,34224,1,0,0:0:0:0:
512,344,34412,1,2,1:2:0:0:
366,188,34599,1,0,1:2:0:0:
302,371,34787,1,8,0:0:0:0:
216,146,34974,1,2,1:2:0:0:
242,19,35349,5,2,1:2:0:0:
194,169,35537,2,0,P|236:164|287:163,1,85,10|0,0:0|1:2,0:0:0:0:
437,245,35912,2,0,P|394:243|352:238,1,85,10|0,0:0|0:0,0:0:0:0:
310,2,36287,2,0,P|330:47|343:100,1,85,10|0,0:0|1:2,0:0:0:0:
233,337,36662,5,4,1:2:0:0:
233,337,36849,2,0,P|253:292|266:239,1,85,2|8,0:0|0:0,0:0:0:0:
167,210,37224,1,2,0:0:0:0:
281,114,37412,2,0,P|321:109|369:107,1,85,2|0,1:2|1:2,0:0:0:0:
470,144,37787,1,8,0:0:0:0:
257,27,37974,6,0,P|169:23|87:16,1,170,2|0,1:2|1:2,0:0:0:0:
159,137,38537,1,10,0:0:0:0:
19,272,38724,1,0,1:2:0:0:
8,240,38818,1,0,1:2:0:0:
10,207,38912,2,0,P|53:200|109:189,1,85,2|0,1:2|0:0,0:0:0:0:
184,329,39287,2,0,P|141:322|85:311,1,85,10|0,0:0|1:2,0:0:0:0:
278,260,39662,5,2,1:2:0:0:
209,123,39849,2,0,L|190:214,1,85,2|8,0:0|0:0,0:0:0:0:
299,272,40224,1,2,1:2:0:0:
130,92,40412,2,0,P|202:43|278:75,1,170,2|8,1:2|0:0,0:0:0:0:
401,284,40974,6,0,P|381:205|359:108,1,170,2|2,1:2|1:2,0:0:0:0:
433,34,41537,1,10,0:0:0:0:
262,161,41724,1,0,1:2:0:0:
262,161,41818,1,2,1:2:0:0:
262,161,41912,2,0,P|215:156|169:147,1,85,2|0,1:2|0:0,0:0:0:0:
81,94,42287,1,10,0:0:0:0:
138,220,42474,1,2,0:0:0:0:
197,36,42662,5,2,1:2:0:0:
307,91,42849,2,0,P|353:86|400:77,1,85,2|8,0:0|0:0,0:0:0:0:
494,38,43224,1,2,1:2:0:0:
396,249,43412,2,0,P|383:206|367:148,1,85,2|0,1:2|0:0,0:0:0:0:
259,7,43787,2,0,P|247:47|235:88,1,85,8|0,0:0|1:2,0:0:0:0:
294,219,44162,5,2,0:0:0:0:
215,319,44349,2,0,B|172:325|172:325|120:308,1,85,2|8,1:2|0:0,0:0:0:0:
32,264,44724,1,2,1:2:0:0:
183,121,44912,1,2,1:2:0:0:
113,202,45099,1,0,0:0:0:0:
311,169,45287,1,10,0:0:0:0:
221,243,45474,1,0,0:0:0:0:
266,78,45662,5,2,1:2:0:0:
277,216,45849,2,0,P|285:260|294:301,1,85,2|8,0:0|0:0,0:0:0:0:
143,161,46224,1,2,1:2:0:0:
63,24,46412,2,0,L|38:110,1,85,2|0,1:2|0:0,0:0:0:0:
143,161,46787,1,8,0:0:0:0:
0,231,46974,1,2,1:2:0:0:
169,335,47162,6,0,B|214:337|214:337|251:319,2,85,2|2|10,0:0|1:2|0:0,0:0:0:0:
76,274,47724,1,2,1:2:0:0:
180,238,47912,2,0,L|169:152,1,85,2|8,1:2|0:0,0:0:0:0:
308,71,48287,2,0,L|297:155,1,85,10|8,0:0|0:0,0:0:0:0:
216,307,48662,6,0,P|264:272|335:290,1,127.500004863739,4|8,1:2|0:0,0:0:0:0:
394,342,49224,1,0,1:2:0:0:
446,269,49412,2,0,L|428:200,1,63.7500024318696,0|0,1:2|0:0,0:0:0:0:
408,109,49787,2,0,P|354:111|304:93,1,95.6250036478044,10|0,0:0|0:0,0:0:0:0:
245,115,50162,6,0,L|116:123,1,127.500004863739,2|8,1:2|0:0,0:0:0:0:
174,26,50724,2,0,L|251:21,2,63.7500024318696,2|0|0,1:2|1:2|0:0,0:0:0:0:
67,36,51287,2,0,P|38:76|51:127,1,95.6250036478044,10|0,0:0|0:0,0:0:0:0:
58,188,51662,6,0,P|78:240|48:318,1,127.500004863739,2|8,1:2|0:0,0:0:0:0:
133,355,52224,2,0,L|148:286,1,63.7500024318696,2|0,1:2|1:2,0:0:0:0:
171,208,52599,1,0,0:0:0:0:
300,133,52787,1,10,0:0:0:0:
205,113,52974,1,2,0:0:0:0:
293,266,53162,5,2,1:2:0:0:
243,190,53349,1,2,0:0:0:0:
196,336,53537,1,10,0:0:0:0:
156,252,53724,1,2,1:2:0:0:
243,190,53912,2,0,L|321:179,1,63.7500024318696,2|2,1:2|0:0,0:0:0:0:
385,139,54287,2,0,L|448:145,1,63.7500024318696,10|2,0:0|0:0,0:0:0:0:
286,63,54662,6,0,P|234:34|159:46,1,127.500004863739,2|8,1:2|0:0,0:0:0:0:
92,89,55224,2,0,L|28:96,1,63.7500024318696,2|0,1:2|1:2,0:0:0:0:
120,234,55599,2,0,L|108:151,1,63.7500024318696,2|8,0:0|0:0,0:0:0:0:
189,128,55974,1,0,0:0:0:0:
71,299,56162,6,0,P|132:311|198:257,1,127.500004863739,2|10,1:2|0:0,0:0:0:0:
240,208,56724,1,0,1:2:0:0:
317,253,56912,2,0,P|350:261|393:265,1,63.7500024318696,2|0,1:2|0:0,0:0:0:0:
471,159,57287,2,0,L|373:144,1,95.6250036478044,10|0,0:0|0:0,0:0:0:0:
312,104,57662,6,0,B|362:67|362:67|430:78,1,127.500004863739,2|10,1:2|0:0,0:0:0:0:
398,164,58224,1,2,1:2:0:0:
317,211,58412,2,0,L|335:273,1,63.7500024318696,2|0,1:2|0:0,0:0:0:0:
216,318,58787,1,8,0:0:0:0:
299,354,58974,1,0,0:0:0:0:
248,161,59162,6,0,B|236:251|236:251|191:224,1,127.500004863739,2|8,1:2|0:0,0:0:0:0:
132,188,59724,1,0,1:2:0:0:
189,119,59912,2,0,L|170:46,1,63.7500024318696,2|8,1:2|0:0,0:0:0:0:
78,16,60287,2,0,L|59:89,1,63.7500024318696,10|8,0:0|0:0,0:0:0:0:
27,258,60662,6,0,P|74:226|149:246,1,127.500004863739,2|8,1:2|0:0,0:0:0:0:
207,296,61224,1,0,1:2:0:0:
294,277,61412,2,0,P|328:279|358:283,1,63.7500024318696,0|0,1:2|0:0,0:0:0:0:
267,133,61787,2,0,L|274:208,1,63.7500024318696,10|0,0:0|0:0,0:0:0:0:
168,70,62162,6,0,B|223:65|223:65|256:42|305:60,1,127.500004863739,2|8,1:2|0:0,0:0:0:0:
364,107,62724,1,0,1:2:0:0:
459,60,62912,2,0,L|453:137,1,63.7500024318696,2|0,1:2|0:0,0:0:0:0:
384,219,63287,2,0,P|336:219|288:227,1,95.6250036478044,10|0,0:0|0:0,0:0:0:0:
225,264,63662,6,0,B|174:255|174:255|129:273|92:235,1,127.500004863739,2|8,1:2|0:0,0:0:0:0:
22,160,64224,2,0,B|73:169|73:169|118:151|155:189,1,127.500004863739,2|0,1:2|0:0,0:0:0:0:
225,264,64787,2,0,L|245:340,1,63.7500024318696,10|0,0:0|0:0,0:0:0:0:
297,182,65162,6,0,B|272:84|272:84|313:98,1,127.500004863739,2|8,1:2|0:0,0:0:0:0:
396,120,65724,1,0,1:2:0:0:
372,206,65912,2,0,L|352:266,1,63.7500024318696,2|8,1:2|0:0,0:0:0:0:
457,351,66287,2,0,L|437:291,1,63.7500024318696,8|8,0:0|0:0,0:0:0:0:
241,100,66662,5,2,1:2:0:0:
499,178,66849,1,2,1:2:0:0:
251,319,67037,1,2,1:2:0:0:
275,337,67412,2,0,B|259:203|259:203|233:232,1,170,2|8,1:2|0:0,0:0:0:0:
117,246,67974,2,0,P|77:236|28:228,1,85,0|0,0:0|1:2,0:0:0:0:
243,69,68349,5,2,1:2:0:0:
358,300,68537,1,2,1:2:0:0:
345,323,68912,2,0,P|385:313|434:305,1,85,2|0,1:2|0:0,0:0:0:0:
484,206,69287,1,8,0:0:0:0:
465,372,69474,1,0,0:0:0:0:
355,143,69662,6,0,P|289:85|201:100,1,170,2|8,1:2|0:0,0:0:0:0:
107,148,70224,1,0,0:0:0:0:
317,10,70412,2,0,L|262:181,1,170,2|8,1:2|0:0,0:0:0:0:
151,209,70974,1,0,0:0:0:0:
331,352,71162,6,0,B|375:370|422:337|422:337|503:360,2,170,2|8|2,1:2|0:0|1:2,0:0:0:0:
360,247,72099,2,0,L|341:158,1,85,0|8,0:0|0:0,0:0:0:0:
260,77,72474,1,0,0:0:0:0:
446,19,72662,5,2,1:2:0:0:
360,247,72849,1,0,1:0:0:0:
197,105,73037,1,8,0:0:0:0:
414,133,73224,1,0,1:0:0:0:
249,19,73412,1,8,0:0:0:0:
270,170,73599,1,0,1:0:0:0:
401,31,73787,1,8,0:0:0:0:
306,154,73974,1,0,1:0:0:0:
110,24,74162,5,2,1:2:0:0:
176,272,74349,2,0,P|218:268|266:260,1,85,2|8,1:2|0:0,0:0:0:0:
466,142,74724,2,0,P|423:138|381:131,1,85,2|0,1:2|0:0,0:0:0:0:
195,350,75099,1,2,1:2:0:0:
106,155,75287,1,10,0:0:0:0:
96,122,75380,1,2,0:0:0:0:
85,89,75474,1,2,0:0:0:0:
73,56,75568,1,2,0:0:0:0:
61,28,75662,6,0,L|11:219,1,195.500003728867,4|10,1:2|0:0,0:0:0:0:
104,332,76224,1,0,0:0:0:0:
182,103,76412,2,0,P|199:155|206:197,1,97.7500018644333,2|0,1:2|0:0,0:0:0:0:
280,300,76787,2,0,B|319:307|319:307|379:275,1,97.7500018644333,10|0,0:0|0:0,0:0:0:0:
277,144,77162,5,2,1:2:0:0:
421,185,77349,1,2,0:0:0:0:
280,300,77537,1,10,0:0:0:0:
360,87,77724,1,2,0:0:0:0:
360,87,77818,1,2,0:0:0:0:
360,87,77912,2,0,P|351:139|338:196,1,97.7500018644333,2|2,1:2|0:0,0:0:0:0:
184,234,78287,1,10,0:0:0:0:
341,182,78474,1,2,0:0:0:0:
205,84,78662,5,2,1:2:0:0:
264,186,78849,1,0,0:0:0:0:
310,18,79037,1,8,0:0:0:0:
160,153,79224,1,2,0:0:0:0:
160,153,79318,1,2,0:0:0:0:
160,153,79412,2,0,P|103:140|47:134,1,97.7500018644333,2|0,1:2|0:0,0:0:0:0:
209,286,79787,2,0,P|266:299|321:304,1,97.7500018644333,10|0,0:0|0:0,0:0:0:0:
499,175,80162,6,0,B|413:181|413:181|359:225|304:190,1,195.500003728867,2|8,1:2|0:0,0:0:0:0:
170,120,80724,1,2,0:0:0:0:
324,19,80912,2,0,L|351:113,1,97.7500018644333,2|2,1:2|0:0,0:0:0:0:
238,229,81287,1,10,0:2:0:0:
257,73,81474,1,2,1:2:0:0:
305,312,81662,6,0,P|214:332|134:255,1,195.500003728867,2|8,1:2|0:0,0:0:0:0:
32,130,82224,1,0,0:0:0:0:
232,66,82412,2,0,L|208:164,1,97.7500018644333,2|0,1:2|0:0,0:0:0:0:
444,73,82787,2,0,P|394:61|348:53,1,97.7500018644333,10|0,0:0|0:0,0:0:0:0:
232,66,83162,5,2,1:2:0:0:
349,209,83349,1,2,0:0:0:0:
453,24,83537,2,0,P|447:79|432:134,1,97.7500018644333,10|0,0:0|0:0,0:0:0:0:
474,342,83912,2,0,P|399:285|297:315,1,195.500003728867,2|8,1:2|0:0,0:0:0:0:
128,360,84474,1,2,0:0:0:0:
245,139,84662,6,0,B|212:265|212:265|170:214,1,195.500003728867,2|10,1:2|0:0,0:0:0:0:
93,26,85224,2,0,P|84:77|74:123,1,97.7500018644333,2|0,0:0|1:2,0:0:0:0:
215,20,85599,1,2,0:0:0:0:
170,214,85787,1,10,0:0:0:0:
93,26,85974,1,2,0:0:0:0:
323,145,86162,6,0,P|373:225|326:311,1,195.500003728867,2|8,1:2|0:0,0:0:0:0:
108,363,86724,2,0,P|156:360|216:350,1,97.7500018644333,0|10,0:0|0:0,0:0:0:0:
243,218,87099,1,2,1:2:0:0:
139,77,87287,2,0,L|124:182,1,97.7500018644333,10|0,0:0|1:2,0:0:0:0:
276,23,87662,6,0,P|362:24|425:90,1,178.499994552612,4|10,1:2|0:0,0:0:0:0:
314,139,88224,1,0,1:2:0:0:
393,325,88412,2,0,P|397:280|408:222,1,89.2499972763062,2|0,1:2|0:0,0:0:0:0:
285,260,88787,2,0,P|240:256|189:248,1,89.2499972763062,10|0,0:0|0:0,0:0:0:0:
346,116,89162,5,2,1:2:0:0:
202,151,89349,1,2,0:0:0:0:
285,260,89537,1,10,0:0:0:0:
97,308,89724,1,2,1:2:0:0:
97,308,89818,1,2,1:2:0:0:
97,308,89912,2,0,L|119:215,1,89.2499972763062,2|2,1:2|0:0,0:0:0:0:
12,82,90287,2,0,L|34:175,1,89.2499972763062,10|2,0:0|0:0,0:0:0:0:
0,305,90662,5,2,1:2:0:0:
117,221,90849,1,2,0:0:0:0:
102,371,91037,1,10,0:0:0:0:
23,127,91224,1,2,1:2:0:0:
59,132,91318,1,2,1:2:0:0:
93,137,91412,2,0,P|95:177|119:224,1,89.2499972763062,2|0,1:2|0:0,0:0:0:0:
198,302,91787,2,0,P|248:306|289:312,1,89.2499972763062,10|0,0:0|0:0,0:0:0:0:
374,113,92162,6,0,P|425:184|369:258,1,178.499994552612,2|10,1:2|0:0,0:0:0:0:
286,311,92724,1,2,1:2:0:0:
168,152,92912,2,0,L|138:254,1,89.2499972763062,2|2,1:2|0:0,0:0:0:0:
266,221,93287,1,10,0:0:0:0:
78,134,93474,1,2,0:0:0:0:
288,101,93662,6,0,B|431:114|431:114|395:79,1,178.499994552612,2|10,1:2|0:0,0:0:0:0:
317,3,94224,1,0,1:2:0:0:
258,172,94412,2,0,L|170:165,1,89.2499972763062,2|0,1:2|0:0,0:0:0:0:
312,343,94787,2,0,P|305:298|304:251,1,89.2499972763062,10|0,0:0|0:0,0:0:0:0:
416,225,95162,5,2,1:2:0:0:
210,170,95349,1,2,0:0:0:0:
355,11,95537,2,0,P|348:56|347:102,1,89.2499972763062,10|0,0:0|1:2,0:0:0:0:
432,291,95912,2,0,P|347:272|281:328,1,178.499994552612,2|8,1:2|0:0,0:0:0:0:
169,360,96474,1,2,0:0:0:0:
84,154,96662,6,0,B|52:292|52:292|115:267,1,178.499994552612,2|10,1:2|0:0,0:0:0:0:
189,226,97224,2,0,P|236:232|277:243,1,89.2499972763062,2|0,1:2|1:2,0:0:0:0:
344,336,97599,1,2,0:0:0:0:
238,156,97787,2,0,P|248:110|250:59,1,89.2499972763062,10|0,0:0|0:0,0:0:0:0:
413,174,98162,5,10,0:0:0:0:
134,36,98349,1,2,1:2:0:0:
187,272,98537,1,10,0:0:0:0:
346,110,98724,1,2,1:2:0:0:
292,303,98912,1,10,0:0:0:0:
211,174,99099,1,2,1:2:0:0:
418,194,99287,1,10,0:0:0:0:
251,234,99474,1,2,1:2:0:0:
428,24,99662,5,6,1:2:0:0:
346,110,99849,2,0,L|325:207,1,85,2|8,0:0|0:0,0:0:0:0:
201,126,100224,1,2,1:2:0:0:
201,126,100318,1,0,1:2:0:0:
201,126,100412,1,0,1:2:0:0:
328,193,100599,1,2,0:0:0:0:
278,58,100787,1,8,0:0:0:0:
273,277,100974,6,0,P|355:282|416:226,1,170,2|2,0:0|0:0,0:0:0:0:
399,58,101537,1,10,0:0:0:0:
496,179,101724,1,2,0:0:0:0:
307,153,101912,1,2,1:2:0:0:
351,284,102099,1,10,0:0:0:0:
397,182,102287,1,10,0:0:0:0:
490,309,102474,1,10,0:0:0:0:
281,170,102662,5,2,1:2:0:0:
179,280,102849,2,0,P|176:237|171:195,1,85,2|8,0:0|0:0,0:0:0:0:
135,73,103224,1,2,1:2:0:0:
135,73,103318,1,0,1:2:0:0:
135,73,103412,1,0,1:2:0:0:
243,144,103599,1,2,0:0:0:0:
87,195,103787,1,8,0:0:0:0:
185,312,103974,6,0,P|247:335|299:297,1,127.5,2|0,0:0|0:0,0:0:0:0:
230,177,104349,2,0,L|239:276,1,85,2|8,0:0|0:0,0:0:0:0:
316,140,104724,1,2,0:0:0:0:
185,312,104912,1,2,1:2:0:0:
214,94,105099,1,10,0:0:0:0:
327,345,105287,1,10,0:0:0:0:
98,219,105474,1,8,0:0:0:0:
270,242,105662,5,2,1:2:0:0:
316,140,105849,2,0,P|358:134|400:123,1,85,2|8,0:0|0:0,0:0:0:0:
457,22,106224,1,2,1:2:0:0:
457,22,106318,1,0,1:2:0:0:
457,22,106412,1,0,1:2:0:0:
321,98,106599,2,0,P|327:139|330:182,1,85,2|8,0:0|0:0,0:0:0:0:
228,357,106974,6,0,B|217:238|217:238|177:278,1,170,2|2,0:0|0:0,0:0:0:0:
93,356,107537,1,10,0:0:0:0:
64,229,107724,1,2,0:0:0:0:
219,352,107912,1,2,1:2:0:0:
190,206,108099,1,10,0:0:0:0:
15,338,108287,1,10,0:0:0:0:
107,155,108474,1,8,0:0:0:0:
267,275,108662,5,2,1:2:0:0:
206,172,108849,2,0,L|217:73,1,85,2|8,0:0|0:0,0:0:0:0:
319,16,109224,1,2,1:2:0:0:
319,16,109318,1,0,1:2:0:0:
319,16,109412,1,0,1:2:0:0:
136,112,109599,2,0,L|43:100,1,85,2|8,0:0|0:0,0:0:0:0:
327,177,109974,5,10,0:0:0:0:
344,198,110349,2,0,L|251:186,1,85,2|8,1:2|0:0,0:0:0:0:
104,59,110724,1,2,1:2:0:0:
164,188,110912,1,10,0:0:0:0:
217,101,111099,1,2,1:2:0:0:
259,187,111287,2,0,P|252:228|244:282,1,85,10|0,0:0|0:0,0:0:0:0:
360,11,111662,5,4,1:2:0:0:
186,90,111849,1,2,0:0:0:0:
330,150,112037,2,0,P|373:146|422:135,1,85,10|0,0:0|0:0,0:0:0:0:
290,29,112412,1,2,1:2:0:0:
512,56,112599,1,2,0:0:0:0:
330,150,112787,1,10,0:0:0:0:
474,325,112974,6,0,B|455:198|455:198|413:234,1,170,2|0,1:2|1:2,0:0:0:0:
293,261,113537,2,0,B|241:251|241:251|207:230,1,85,8|0,0:0|0:0,0:0:0:0:
203,72,113912,1,2,1:2:0:0:
257,166,114099,1,2,1:2:0:0:
47,197,114287,1,10,0:0:0:0:
78,52,114474,1,2,0:0:0:0:
213,234,114662,1,2,1:2:0:0:
355,44,114849,5,2,0:0:0:0:
191,98,115037,2,0,L|209:15,1,85,10|0,0:0|0:0,0:0:0:0:
243,205,115412,1,2,1:2:0:0:
343,18,115599,1,2,0:0:0:0:
360,142,115787,1,10,0:0:0:0:
191,98,115974,6,0,B|61:124|61:124|112:155,1,170,2|0,1:2|1:2,0:0:0:0:
169,334,116537,2,0,L|188:244,1,85,8|0,0:0|0:0,0:0:0:0:
276,172,116912,1,2,1:2:0:0:
100,174,117099,1,2,1:2:0:0:
288,206,117287,1,10,0:0:0:0:
86,141,117474,1,2,0:0:0:0:
301,238,117662,5,2,1:2:0:0:
203,79,117849,2,0,L|183:187,1,85,2|8,0:0|0:0,0:0:0:0:
75,104,118224,1,2,0:0:0:0:
294,121,118412,2,0,B|352:141|352:141|364:165,1,85,2|0,1:2|0:0,0:0:0:0:
334,46,118787,1,10,0:0:0:0:
253,241,118974,6,0,P|244:283|243:326,1,85,2|0,1:2|0:0,0:0:0:0:
127,112,119349,2,0,P|135:69|137:27,1,85,2|8,1:2|0:0,0:0:0:0:
23,195,119724,1,2,1:2:0:0:
55,184,119818,1,0,1:2:0:0:
85,198,119912,2,0,P|127:208|179:191,1,85,2|0,0:0|0:0,0:0:0:0:
348,103,120287,2,0,P|305:109|259:113,1,85,10|0,0:0|0:0,0:0:0:0:
412,15,120662,5,2,1:2:0:0:
468,163,120849,2,0,B|459:229|459:229|434:237,1,85,2|8,0:0|0:0,0:0:0:0:
312,261,121224,1,2,0:0:0:0:
248,140,121412,1,2,1:2:0:0:
332,348,121599,1,2,1:2:0:0:
396,165,121787,1,8,0:0:0:0:
210,281,121974,1,2,1:2:0:0:
227,91,122349,5,2,1:2:0:0:
227,91,122537,2,0,P|232:133|233:184,1,85,10|0,0:0|0:0,0:0:0:0:
148,351,122912,2,0,P|149:308|154:266,1,85,2|0,0:0|0:0,0:0:0:0:
391,224,123287,2,0,P|346:244|293:257,1,85,10|0,0:0|1:2,0:0:0:0:
56,147,123662,5,4,1:2:0:0:
56,147,123849,2,0,P|101:167|154:180,1,85,2|8,0:0|0:0,0:0:0:0:
183,81,124224,1,2,1:2:0:0:
279,195,124412,2,0,P|284:235|286:283,1,85,2|2,1:2|0:0,0:0:0:0:
191,352,124787,1,8,0:0:0:0:
366,171,124974,6,0,B|370:83|376:40|376:40|417:76,1,170,2|2,1:2|1:2,0:0:0:0:
280,98,125537,1,8,0:0:0:0:
190,184,125724,1,0,1:2:0:0:
190,184,125818,1,2,1:2:0:0:
190,184,125912,1,2,1:2:0:0:
224,16,126099,1,2,0:0:0:0:
286,215,126287,1,10,0:0:0:0:
117,89,126474,1,2,0:0:0:0:
250,11,126662,5,0,1:0:0:0:
286,215,126849,2,0,B|223:202|223:202|203:183,1,85,2|8,0:0|0:0,0:0:0:0:
141,80,127224,1,2,1:2:0:0:
353,159,127412,2,0,B|375:292|375:292|347:269,1,170,2|8,1:2|0:0,0:0:0:0:
97,171,127974,6,0,B|157:160|157:160|202:214|268:172,1,170,2|0,1:2|1:2,0:0:0:0:
365,110,128537,1,8,0:0:0:0:
198,23,128724,1,0,1:2:0:0:
198,23,128818,1,2,1:2:0:0:
198,23,128912,2,0,L|221:120,1,85,2|2,1:2|0:0,0:0:0:0:
388,146,129287,1,10,0:0:0:0:
254,177,129474,1,2,1:2:0:0:
292,26,129662,5,2,1:2:0:0:
388,146,129849,2,0,L|365:243,1,85,2|8,0:0|0:0,0:0:0:0:
270,297,130224,1,2,1:2:0:0:
328,100,130412,2,0,P|361:76|412:73,1,85,2|0,1:2|0:0,0:0:0:0:
218,177,130787,2,0,P|174:180|131:187,1,85,10|0,0:0|1:2,0:0:0:0:
47,256,131162,5,2,0:0:0:0:
197,101,131349,2,0,B|237:97|237:97|286:115,1,85,2|8,0:0|0:0,0:0:0:0:
380,156,131724,1,0,1:2:0:0:
280,32,131912,1,2,1:2:0:0:
261,206,132099,1,2,0:0:0:0:
444,100,132287,2,0,L|464:197,1,85,8|0,0:0|1:2,0:0:0:0:
348,143,132662,5,2,1:2:0:0:
399,300,132849,1,2,0:0:0:0:
230,200,133037,1,10,0:0:0:0:
461,183,133224,1,2,1:2:0:0:
292,48,133412,2,0,L|276:136,1,85,2|0,1:2|0:0,0:0:0:0:
338,233,133787,1,8,0:0:0:0:
177,135,133974,1,0,1:2:0:0:
404,55,134162,6,0,P|442:54|501:45,2,85,2|2|8,0:0|1:2|0:0,0:0:0:0:
300,16,134724,1,0,1:2:0:0:
179,109,134912,2,0,L|264:120,1,85,2|8,1:2|0:0,0:0:0:0:
181,237,135287,2,0,L|97:248,1,85,10|8,0:0|0:0,0:0:0:0:
304,306,135662,6,0,P|352:341|423:323,1,127.500004863739,4|8,1:2|0:0,0:0:0:0:
372,250,136224,1,0,1:2:0:0:
437,188,136412,2,0,L|419:119,1,63.7500024318696,0|0,1:2|0:0,0:0:0:0:
320,56,136787,2,0,L|202:83,1,95.6250036478044,10|0,0:0|0:0,0:0:0:0:
207,155,137162,6,0,L|336:126,1,127.500004863739,2|8,1:2|0:0,0:0:0:0:
417,100,137724,2,0,L|496:92,2,63.7500024318696,2|0|0,1:2|1:2|0:0,0:0:0:0:
342,49,138287,2,0,L|236:36,1,95.6250036478044,10|0,0:0|0:0,0:0:0:0:
204,104,138662,6,0,B|310:117|310:117|270:137,1,127.500004863739,2|8,1:2|0:0,0:0:0:0:
146,185,139224,2,0,L|224:178,1,63.7500024318696,2|0,1:2|1:2,0:0:0:0:
288,220,139599,1,0,0:0:0:0:
213,349,139787,1,10,0:0:0:0:
193,254,139974,1,2,0:0:0:0:
346,342,140162,5,2,1:2:0:0:
270,292,140349,1,2,0:0:0:0:
416,245,140537,1,10,0:0:0:0:
332,205,140724,1,2,1:2:0:0:
405,153,140912,2,0,L|416:75,1,63.7500024318696,2|2,1:2|0:0,0:0:0:0:
326,109,141287,2,0,L|262:102,1,63.7500024318696,10|2,0:0|0:0,0:0:0:0:
129,39,141662,6,0,P|151:97|109:154,1,127.500004863739,2|8,1:2|0:0,0:0:0:0:
79,245,142224,2,0,L|86:309,1,63.7500024318696,2|0,1:2|1:2,0:0:0:0:
224,217,142599,2,0,L|141:229,1,63.7500024318696,2|8,0:0|0:0,0:0:0:0:
118,148,142974,1,0,0:0:0:0:
289,266,143162,6,0,P|301:205|247:139,1,127.500004863739,2|10,1:2|0:0,0:0:0:0:
198,97,143724,1,0,1:2:0:0:
283,71,143912,2,0,P|291:38|295:-5,1,63.7500024318696,2|0,1:2|0:0,0:0:0:0:
351,137,144287,2,0,P|391:161|449:152,1,95.6250036478044,10|0,0:0|0:0,0:0:0:0:
508,139,144662,6,0,P|461:88|400:96,1,127.500004863739,2|10,1:2|0:0,0:0:0:0:
313,62,145224,1,2,1:2:0:0:
211,104,145412,2,0,P|177:92|149:86,1,63.7500024318696,2|0,1:2|0:0,0:0:0:0:
99,207,145787,1,8,0:0:0:0:
68,122,145974,1,0,0:0:0:0:
261,173,146162,6,0,B|171:185|171:185|198:230,1,127.500004863739,2|8,1:2|0:0,0:0:0:0:
245,286,146724,1,0,1:2:0:0:
322,231,146912,2,0,L|395:250,1,63.7500024318696,2|8,1:2|0:0,0:0:0:0:
439,94,147287,2,0,L|377:110,1,63.7500024318696,10|8,0:0|0:0,0:0:0:0:
203,66,147662,6,0,P|262:33|333:59,1,127.500004863739,6|8,1:2|0:0,0:0:0:0:
378,111,148224,1,0,1:2:0:0:
301,163,148412,2,0,P|270:161|233:155,1,63.7500024318696,0|0,1:2|0:0,0:0:0:0:
356,241,148787,2,0,P|387:236|419:233,1,63.7500024318696,10|0,0:0|0:0,0:0:0:0:
242,328,149162,6,0,B|186:273|114:313,1,127.500004863739,2|8,1:2|0:0,0:0:0:0:
41,336,149724,1,0,1:2:0:0:
61,249,149912,2,0,L|67:172,1,63.7500024318696,2|0,1:2|0:0,0:0:0:0:
136,129,150287,2,0,B|151:192|151:192|144:225,1,95.6250036478044,10|0,0:0|0:0,0:0:0:0:
227,220,150662,6,0,B|200:88,1,127.500004863739,2|8,1:2|0:0,0:0:0:0:
296,5,151224,2,0,B|321:129,1,127.500004863739,2|0,1:2|0:0,0:0:0:0:
380,197,151787,2,0,P|413:204|450:200,1,63.7500024318696,10|0,0:0|0:0,0:0:0:0:
294,275,152162,6,0,B|264:291|232:271|232:271|198:295|166:285,1,127.500004863739,2|8,1:2|0:0,0:0:0:0:
175,197,152724,1,0,1:2:0:0:
252,142,152912,2,0,L|325:161,1,63.7500024318696,2|8,1:2|0:0,0:0:0:0:
369,5,153287,2,0,L|307:21,1,63.7500024318696,8|8,0:0|0:0,0:0:0:0:
97,45,153662,5,2,1:2:0:0:
355,123,153849,1,2,1:2:0:0:
107,264,154037,1,2,1:2:0:0:
77,291,154412,2,0,L|256:264,1,170,2|8,1:2|0:0,0:0:0:0:
350,374,154974,2,0,L|265:361,1,85,0|0,0:0|1:2,0:0:0:0:
190,90,155349,5,2,1:2:0:0:
373,279,155537,1,2,1:2:0:0:
399,303,155912,2,0,L|382:210,1,85,2|0,1:2|0:0,0:0:0:0:
468,134,156287,1,8,0:0:0:0:
311,230,156474,1,0,0:0:0:0:
160,47,156662,6,0,P|247:31|303:94,1,170,2|8,1:2|0:0,0:0:0:0:
299,83,157224,1,0,0:0:0:0:
458,275,157412,2,0,B|414:286|386:238|386:238|336:260|309:227,1,170,2|8,1:2|0:0,0:0:0:0:
310,228,157974,1,0,0:0:0:0:
402,49,158162,6,0,B|384:27|384:27|351:180,2,170,2|8|2,1:2|0:0|1:2,0:0:0:0:
480,137,159099,2,0,L|456:236,1,85,0|8,0:0|0:0,0:0:0:0:
354,166,159474,1,0,0:0:0:0:
412,352,159662,5,2,1:2:0:0:
184,266,159849,1,0,1:0:0:0:
326,103,160037,1,8,0:0:0:0:
298,320,160224,1,0,1:0:0:0:
412,154,160412,1,8,0:0:0:0:
261,176,160599,1,0,1:0:0:0:
400,307,160787,1,8,0:0:0:0:
344,187,160974,1,0,1:0:0:0:
184,370,161162,5,2,1:2:0:0:
81,131,161349,2,0,L|62:214,1,85,2|8,1:2|0:0,0:0:0:0:
281,85,161724,2,0,L|262:2,1,85,2|0,1:2|0:0,0:0:0:0:
435,185,162099,1,2,1:2:0:0:
288,339,162287,1,10,0:0:0:0:
255,349,162380,1,2,0:0:0:0:
223,335,162474,1,2,0:0:0:0:
190,345,162568,1,2,0:0:0:0:
152,332,162662,6,0,B|115:191|115:191|87:246,1,195.500003728867,4|10,1:2|0:0,0:0:0:0:
35,349,163224,1,0,0:0:0:0:
206,197,163412,2,0,L|182:103,1,97.7500018644333,2|0,1:2|0:0,0:0:0:0:
280,300,163787,2,0,B|327:315|367:265,1,97.7500018644333,10|0,0:0|0:0,0:0:0:0:
478,158,164162,5,2,1:2:0:0:
365,267,164349,1,2,0:0:0:0:
497,135,164537,1,10,0:0:0:0:
339,44,164724,1,2,0:0:0:0:
339,44,164818,1,2,0:0:0:0:
339,44,164912,2,0,P|281:51|240:50,1,97.7500018644333,2|2,1:2|0:0,0:0:0:0:
174,171,165287,1,10,0:0:0:0:
321,245,165474,1,2,0:0:0:0:
295,79,165662,5,2,1:2:0:0:
229,240,165849,1,0,0:0:0:0:
415,106,166037,1,8,0:0:0:0:
214,96,166224,1,2,0:0:0:0:
214,96,166318,1,2,0:0:0:0:
214,96,166412,2,0,B|221:15|221:15|186:2,1,97.7500018644333,2|0,1:2|0:0,0:0:0:0:
345,96,166787,2,0,L|331:193,1,97.7500018644333,10|0,0:0|0:0,0:0:0:0:
391,371,167162,6,0,P|321:295|233:325,1,195.500003728867,2|8,1:2|0:0,0:0:0:0:
125,366,167724,1,2,0:0:0:0:
122,167,167912,2,0,L|149:261,1,97.7500018644333,2|2,1:2|0:0,0:0:0:0:
261,181,168287,1,10,0:0:0:0:
58,309,168474,1,2,1:2:0:0:
22,117,168662,6,0,P|94:54|190:79,1,195.500003728867,2|8,1:2|0:0,0:0:0:0:
261,181,169224,1,0,0:0:0:0:
383,118,169412,2,0,P|432:115|487:99,1,97.7500018644333,2|0,1:2|0:0,0:0:0:0:
311,329,169787,2,0,L|328:229,1,97.7500018644333,10|0,0:0|0:0,0:0:0:0:
383,118,170162,5,2,1:2:0:0:
234,177,170349,1,2,0:0:0:0:
394,302,170537,2,0,P|446:304|495:315,1,97.7500018644333,10|0,0:0|0:0,0:0:0:0:
192,374,170912,2,0,P|136:293|208:232,1,195.500003728867,2|8,1:2|0:0,0:0:0:0:
317,217,171474,1,2,0:0:0:0:
187,37,171662,6,0,L|171:143,1,97.7500018644333,2|0,1:2|0:0,0:0:0:0:
172,133,172037,1,10,0:0:0:0:
41,379,172224,2,0,P|51:331|59:283,1,97.7500018644333,2|0,0:0|1:2,0:0:0:0:
191,233,172599,1,2,0:0:0:0:
74,193,172787,1,10,0:0:0:0:
176,31,172974,1,2,0:0:0:0:
5,99,173162,6,0,L|238:130,1,195.500003728867,2|8,1:2|0:0,0:0:0:0:
398,34,173724,2,0,L|290:47,1,97.7500018644333,0|10,0:0|0:0,0:0:0:0:
267,168,174099,1,2,0:0:0:0:
374,226,174287,2,0,L|388:130,1,97.7500018644333,10|0,0:0|1:2,0:0:0:0:
424,344,174662,6,0,P|338:343|259:265,1,195.500003728867,4|10,1:2|0:0,0:0:0:0:
220,166,175224,1,0,1:2:0:0:
315,107,175412,2,0,L|333:212,1,97.7500018644333,2|0,1:2|0:0,0:0:0:0:
261,271,175787,2,0,P|216:275|157:284,1,97.7500018644333,10|0,0:0|0:0,0:0:0:0:
95,362,176162,5,2,1:2:0:0:
154,208,176349,1,2,0:0:0:0:
230,374,176537,1,10,0:0:0:0:
58,270,176724,1,2,1:2:0:0:
58,270,176818,1,2,1:2:0:0:
58,270,176912,2,0,L|80:170,1,97.7500018644333,2|2,1:2|0:0,0:0:0:0:
68,28,177287,2,0,P|114:52|169:48,1,97.7500018644333,10|2,0:0|0:0,0:0:0:0:
289,121,177662,5,2,1:2:0:0:
143,201,177849,1,2,0:0:0:0:
158,51,178037,1,10,0:0:0:0:
268,237,178224,1,2,1:2:0:0:
268,237,178318,1,2,1:2:0:0:
268,237,178412,2,0,P|315:246|377:253,1,97.7500018644333,2|0,1:2|0:0,0:0:0:0:
443,88,178787,2,0,P|394:93|346:103,1,97.7500018644333,10|0,0:0|0:0,0:0:0:0:
111,22,179162,6,0,B|262:44|262:44|209:71,1,195.500003728867,2|10,1:2|0:0,0:0:0:0:
122,118,179724,1,2,1:2:0:0:
217,196,179912,2,0,L|188:292,1,97.7500018644333,2|2,1:2|0:0,0:0:0:0:
97,202,180287,1,10,0:0:0:0:
248,358,180474,1,2,0:0:0:0:
157,138,180662,6,0,P|248:123|302:211,1,195.500003728867,2|10,1:2|0:0,0:0:0:0:
312,320,181224,1,0,1:2:0:0:
406,225,181412,2,0,P|448:221|500:197,1,97.7500018644333,2|0,1:2|0:0,0:0:0:0:
234,81,181787,2,0,P|227:126|226:184,1,97.7500018644333,10|0,0:0|0:0,0:0:0:0:
351,258,182162,5,2,1:2:0:0:
133,183,182349,1,2,0:0:0:0:
247,361,182537,2,0,P|240:316|241:259,1,97.7500018644333,10|0,0:0|1:2,0:0:0:0:
390,119,182912,2,0,P|305:138|233:67,1,195.500003728867,2|8,1:2|0:0,0:0:0:0:
130,20,183474,1,2,0:0:0:0:
84,230,183662,6,0,B|54:84|54:84|115:117,1,195.500003728867,2|10,1:2|0:0,0:0:0:0:
189,154,184224,2,0,L|286:135,1,97.7500018644333,2|0,1:2|1:2,0:0:0:0:
369,85,184599,1,2,0:0:0:0:
177,57,184787,2,0,P|187:103|188:167,1,97.7500018644333,10|0,0:0|0:0,0:0:0:0:
122,308,185162,5,2,1:2:0:0:
312,250,185349,2,0,P|357:255|410:264,1,85,2|0,1:2|1:2,0:0:0:0:
188,153,185724,1,2,1:2:0:0:
163,130,186099,1,2,1:2:0:0:
375,45,186287,1,2,0:0:0:0:
375,45,186380,1,2,0:0:0:0:
375,45,186474,1,2,1:2:0:0:
375,45,186568,1,2,0:0:0:0:
375,45,186662,6,0,P|378:91|388:131,1,85,4|2,0:0|0:0,0:0:0:0:
470,69,187037,1,10,0:0:0:0:
285,96,187224,2,0,B|230:107|230:107|207:131,1,85,2|0,0:0|1:2,0:0:0:0:
347,174,187599,1,2,1:2:0:0:
205,238,187787,1,10,0:0:0:0:
346,24,187974,6,0,P|381:102|346:174,1,170,2|0,1:2|1:2,0:0:0:0:
280,255,188537,1,10,0:0:0:0:
175,66,188724,1,2,0:0:0:0:
175,66,188818,1,2,0:0:0:0:
175,66,188912,1,2,1:2:0:0:
311,113,189099,1,2,1:2:0:0:
106,166,189287,1,10,0:0:0:0:
312,322,189474,6,0,P|247:272|164:277,1,170,2|0,1:2|1:2,0:0:0:0:
46,327,190037,1,10,0:0:0:0:
78,163,190224,1,2,0:0:0:0:
78,163,190318,1,2,0:0:0:0:
78,163,190412,2,0,L|101:256,1,85,2|2,1:2|1:2,0:0:0:0:
194,197,190787,2,0,P|234:197|292:209,1,85,10|0,0:0|0:0,0:0:0:0:
156,69,191162,5,2,1:2:0:0:
368,123,191349,1,2,0:0:0:0:
194,197,191537,1,10,0:0:0:0:
275,39,191724,2,0,L|249:142,1,85,2|0,1:2|0:0,0:0:0:0:
341,240,192099,2,0,P|380:260|425:258,1,85,2|8,1:2|0:0,0:0:0:0:
162,104,192474,6,0,B|35:145|35:145|74:182,1,170,2|2,1:2|1:2,0:0:0:0:
176,253,193037,1,8,0:0:0:0:
283,139,193224,1,2,0:0:0:0:
270,107,193318,1,2,0:0:0:0:
243,87,193412,2,0,P|200:103|162:104,1,85,2|0,1:2|1:2,0:0:0:0:
305,11,193787,1,10,0:0:0:0:
381,202,193974,1,2,0:0:0:0:
381,202,194068,1,2,0:0:0:0:
381,202,194162,5,2,1:2:0:0:
142,170,194349,1,2,0:0:0:0:
414,83,194537,1,10,0:0:0:0:
243,87,194724,1,2,0:0:0:0:
197,316,194912,1,2,1:2:0:0:
262,202,195099,1,2,1:2:0:0:
425,369,195287,1,10,0:0:0:0:
362,230,195474,1,2,0:0:0:0:
475,110,195662,6,0,P|411:51|326:73,1,170,2|10,1:2|0:0,0:0:0:0:
222,270,196224,2,0,L|252:92,1,170,2|2,1:2|1:2,0:0:0:0:
250,102,196787,1,8,0:0:0:0:
499,25,196974,6,0,L|468:202,1,170,2|2,1:2|1:2,0:0:0:0:
360,268,197537,1,10,0:0:0:0:
169,162,197724,2,0,P|229:107|318:129,1,170,2|2,1:2|1:2,0:0:0:0:
386,175,198287,2,0,P|426:185|480:193,1,85,8|0,0:0|0:0,0:0:0:0:
293,259,198662,6,0,B|228:250|228:250|180:293|115:263,1,170,2|8,1:2|0:0,0:0:0:0:
152,101,199224,2,0,L|165:195,1,85,2|0,1:2|0:0,0:0:0:0:
130,269,199599,1,2,1:2:0:0:
243,213,199787,1,10,0:0:0:0:
74,85,199974,6,0,P|126:27|220:58,1,170,2|0,1:2|1:2,0:0:0:0:
294,83,200537,2,0,P|333:77|381:72,1,85,8|0,0:0|0:0,0:0:0:0:
462,28,200912,1,0,1:2:0:0:
462,28,201099,1,0,1:2:0:0:
401,153,201287,2,0,P|390:193|385:239,1,85,8|0,0:0|0:0,0:0:0:0:
228,312,201662,5,2,0:0:0:0:
309,222,201849,1,2,0:0:0:0:
347,302,202037,1,10,0:0:0:0:
425,336,202224,1,2,0:0:0:0:
476,275,202412,2,0,L|464:204,1,63.7500024318696,2|0,0:0|0:0,0:0:0:0:
509,129,202787,2,0,P|459:139|416:122,1,95.6250036478044,8|0,0:0|0:0,0:0:0:0:
384,105,203162,5,4,1:2:0:0:
214,48,203537,2,0,P|180:52|149:53,1,63.7500024318696,10|0,0:0|1:2,0:0:0:0:
78,106,203912,1,2,1:2:0:0:
119,184,204099,2,0,L|101:254,1,63.7500024318696,2|8,0:0|0:0,0:0:0:0:
203,138,204474,6,0,P|265:112|328:141,1,127.500004863739,2|2,0:0|0:0,0:0:0:0:
389,186,205037,1,8,0:0:0:0:
311,229,205224,2,0,L|298:293,1,63.7500024318696,2|0,1:2|1:2,0:0:0:0:
398,366,205599,2,0,L|385:302,1,63.7500024318696,2|8,0:0|0:0,0:0:0:0:
446,238,205974,1,0,0:0:0:0:
393,121,206162,6,0,L|258:103,1,127.500004863739,2|10,1:2|0:0,0:0:0:0:
185,141,206724,1,0,1:2:0:0:
128,56,206912,2,0,L|199:44,1,63.7500024318696,2|0,1:2|0:0,0:0:0:0:
311,24,207287,2,0,P|334:67|317:131,1,95.6250036478044,10|0,0:0|0:0,0:0:0:0:
302,148,207662,6,0,B|228:160|228:160|185:199,1,127.500004863739,2|10,1:2|0:0,0:0:0:0:
279,240,208224,1,0,1:2:0:0:
214,302,208412,2,0,L|235:366,1,63.7500024318696,2|0,1:2|0:0,0:0:0:0:
145,347,208787,1,10,0:0:0:0:
96,272,208974,1,2,0:0:0:0:
221,191,209162,6,0,P|174:149|106:161,1,127.500004863739,2|10,1:2|0:0,0:0:0:0:
143,239,209724,1,2,1:2:0:0:
221,191,209912,2,0,P|285:201|357:204,1,127.500004863739,2|8,1:2|0:0,0:0:0:0:
412,264,210474,1,2,0:0:0:0:
294,332,210662,6,0,P|234:315|184:353,1,127.500004863739,2|8,1:2|0:0,0:0:0:0:
104,313,211224,1,2,1:2:0:0:
124,219,211412,2,0,L|62:233,1,63.7500024318696,2|0,1:2|0:0,0:0:0:0:
23,135,211787,2,0,L|85:148,1,63.7500024318696,10|0,0:0|0:0,0:0:0:0:
262,54,212162,6,0,L|136:70,1,127.500004863739,2|8,1:2|0:0,0:0:0:0:
85,148,212724,1,2,1:2:0:0:
168,232,212912,1,0,1:2:0:0:
164,143,213099,1,0,0:0:0:0:
84,227,213287,2,0,P|93:276|73:332,1,95.6250036478044,8|0,0:0|0:0,0:0:0:0:
44,344,213662,5,2,1:2:0:0:
216,283,213849,2,0,L|303:268,1,85,2|8,1:2|0:0,0:0:0:0:
164,143,214224,1,2,1:2:0:0:
194,118,214599,1,2,1:2:0:0:
48,225,214787,1,10,0:0:0:0:
48,225,214880,1,2,0:0:0:0:
48,225,214974,1,2,0:0:0:0:
48,225,215068,1,2,0:0:0:0:
48,225,215162,6,0,P|118:179|201:222,1,170,4|8,1:2|0:0,0:0:0:0:
265,279,215724,1,2,0:0:0:0:
323,194,215912,2,0,P|364:191|409:182,1,85,2|0,1:2|1:2,0:0:0:0:
503,149,216287,1,10,0:0:0:0:
443,367,216474,6,0,B|406:257|406:257|372:310,1,170,2|2,1:2|1:2,0:0:0:0:
288,354,217037,1,8,0:0:0:0:
203,199,217224,2,0,P|229:280|164:333,1,170,2|0,1:2|1:2,0:0:0:0:
20,303,217787,1,8,0:0:0:0:
100,377,217974,1,0,0:0:0:0:
121,113,218162,6,0,L|100:289,1,170,4|8,1:2|0:0,0:0:0:0:
270,368,218724,1,2,0:0:0:0:
179,304,218912,1,2,1:2:0:0:
296,203,219099,1,2,1:2:0:0:
197,218,219287,1,10,0:0:0:0:
356,273,219474,6,0,P|393:200|319:129,1,170,2|2,1:2|0:0,0:0:0:0:
229,150,220037,1,8,0:0:0:0:
47,70,220224,2,0,P|99:37|163:46,1,127.5,2|0,1:2|0:0,0:0:0:0:
205,71,220599,1,2,1:2:0:0:
67,210,220787,1,10,0:0:0:0:
98,17,220974,1,2,0:0:0:0:
258,221,221162,6,0,B|282:256|338:238|338:238|372:282|423:260,1,170,4|8,1:2|0:0,0:0:0:0:
307,143,221724,1,2,0:0:0:0:
451,10,221912,2,0,L|408:187,1,170,2|10,1:2|0:0,0:0:0:0:
310,319,222474,1,2,0:0:0:0:
333,330,222662,6,0,L|162:348,1,170,4|10,1:2|0:0,0:0:0:0:
0,210,223224,2,0,P|82:188|136:256,1,170,2|2,1:2|1:2,0:0:0:0:
261,105,223787,2,0,L|253:189,1,85,8|0,0:0|0:0,0:0:0:0:
402,45,224162,5,2,1:2:0:0:
339,238,224349,1,2,0:0:0:0:
261,105,224537,1,10,0:0:0:0:
271,303,224724,2,0,P|362:323|426:257,1,170,2|10,1:2|0:0,0:0:0:0:
405,154,225287,1,10,0:0:0:0:
268,55,225474,6,0,L|247:150,1,85,2|8,0:0|0:0,0:0:0:0:
354,103,225849,1,2,0:0:0:0:
121,124,226037,1,8,0:0:0:0:
336,32,226224,2,0,P|384:32|415:63,1,85,10|0,0:0|1:2,0:0:0:0:
464,141,226599,1,2,0:0:0:0:
386,286,226787,2,0,L|365:197,1,85,10|0,0:0|0:0,0:0:0:0:
244,37,227162,5,2,1:2:0:0:
67,186,227537,1,2,1:2:0:0:
256,248,227912,1,2,1:2:0:0:
202,147,228287,1,2,1:2:0:0:
202,147,228662,6,0,B|282:135|282:135|269:186|269:186|332:204|334:253|323:293|287:327|228:332|194:271,1,382.499988327027,2|0,1:2|0:0,0:0:0:0:
177,255,230162,6,0,P|63:247|121:344,1,272,2|2,0:0|0:0,0:0:0:0:
388,342,242162,5,4,2:0:0:0:
331,152,242349,2,0,P|335:107|345:54,1,85,4|0,2:0|1:2,0:0:0:0:
233,276,242724,1,4,2:0:0:0:
163,130,243099,1,4,0:0:0:0:
87,340,243287,1,2,0:0:0:0:
91,323,243380,1,2,0:0:0:0:
95,306,243474,1,2,0:0:0:0:
99,289,243568,1,2,0:0:0:0:
103,274,243662,6,0,B|244:237|244:237|187:209,1,203.999993774414,4|10,1:2|0:0,0:0:0:0:
84,150,244224,1,0,0:0:0:0:
226,333,244412,2,0,P|269:357|332:352,1,101.999996887207,2|0,1:2|0:0,0:0:0:0:
492,260,244787,2,0,P|439:265|390:273,1,101.999996887207,10|0,0:0|0:0,0:0:0:0:
218,241,245162,5,2,1:2:0:0:
307,166,245349,1,2,0:0:0:0:
320,356,245537,1,8,0:0:0:0:
382,101,245724,1,2,0:0:0:0:
382,101,245818,1,2,0:0:0:0:
382,101,245912,2,0,L|406:203,1,101.999996887207,2|2,1:2|0:0,0:0:0:0:
248,123,246287,1,10,0:0:0:0:
202,272,246474,1,2,0:0:0:0:
372,262,246662,5,2,1:2:0:0:
186,180,246849,1,0,0:0:0:0:
341,366,247037,1,8,0:0:0:0:
351,165,247224,1,2,0:0:0:0:
351,165,247318,1,2,0:0:0:0:
351,165,247412,2,0,B|432:172|432:172|444:137,1,101.999996887207,2|0,1:2|0:0,0:0:0:0:
285,285,247787,2,0,P|233:281|169:268,1,101.999996887207,10|0,0:0|0:0,0:0:0:0:
0,193,248162,6,0,L|211:168,1,203.999993774414,2|8,1:2|0:0,0:0:0:0:
328,231,248724,1,2,0:0:0:0:
158,88,248912,2,0,L|54:73,1,101.999996887207,2|2,1:2|0:0,0:0:0:0:
267,57,249287,1,10,0:0:0:0:
114,205,249474,1,2,1:2:0:0:
326,163,249662,6,0,P|388:233|323:300,1,203.999993774414,2|10,1:2|0:0,0:0:0:0:
182,331,250224,1,0,0:0:0:0:
440,240,250412,2,0,L|318:231,1,101.999996887207,2|0,1:2|0:0,0:0:0:0:
170,117,250787,2,0,L|271:109,1,101.999996887207,10|0,0:0|0:0,0:0:0:0:
146,273,251162,5,2,1:2:0:0:
377,150,251349,1,2,0:0:0:0:
169,16,251537,2,0,L|171:137,1,101.999996887207,10|0,0:0|0:0,0:0:0:0:
69,319,251912,2,0,P|148:250|242:270,1,203.999993774414,2|8,1:2|0:0,0:0:0:0:
121,172,252474,1,2,0:0:0:0:
281,50,252662,6,0,L|310:154,1,101.999996887207,2|0,1:2|0:0,0:0:0:0:
238,267,253037,1,10,0:0:0:0:
475,314,253224,1,2,0:0:0:0:
475,314,253318,1,2,0:0:0:0:
475,314,253412,2,0,P|424:288|373:294,1,101.999996887207,2|0,1:2|0:0,0:0:0:0:
481,189,253787,1,10,0:0:0:0:
315,364,253974,1,2,0:0:0:0:
136,220,254162,6,0,L|344:194,1,203.999993774414,2|8,1:2|0:0,0:0:0:0:
498,123,254724,2,0,L|394:111,1,101.999996887207,0|10,0:0|0:0,0:0:0:0:
240,191,255099,1,2,0:0:0:0:
147,30,255287,2,0,P|139:80|126:129,1,101.999996887207,10|0,1:2|1:2,0:0:0:0:
62,319,255662,6,0,P|142:255|245:282,1,195.500003728867,4|10,0:2|0:0,0:0:0:0:
353,315,256224,1,0,1:2:0:0:
244,365,256412,2,0,L|226:260,1,97.7500018644333,2|0,1:2|0:0,0:0:0:0:
298,201,256787,2,0,P|343:197|402:188,1,97.7500018644333,10|0,0:0|0:0,0:0:0:0:
512,94,257162,5,2,1:2:0:0:
412,291,257349,1,2,0:0:0:0:
299,76,257537,1,10,0:0:0:0:
501,202,257724,1,2,1:2:0:0:
501,202,257818,1,2,1:2:0:0:
501,202,257912,2,0,L|479:302,1,97.7500018644333,2|2,1:2|0:0,0:0:0:0:
322,346,258287,2,0,P|263:311|183:332,1,146.62500279665,8|0,0:0|0:0,0:0:0:0:
139,336,258662,6,0,B|29:315|29:315|88:247,1,170,0|8,1:0|0:0,0:0:0:0:
148,246,259224,1,2,1:2:0:0:
59,116,259412,2,0,L|28:204,1,85,2|2,1:2|0:0,0:0:0:0:
155,155,259787,1,10,0:0:0:0:
220,279,259974,1,2,0:0:0:0:
343,148,260162,5,0,1:0:0:0:
238,66,260349,2,0,L|231:152,1,85,2|10,0:0|0:0,0:0:0:0:
278,241,260724,2,0,P|316:247|383:269,1,85,2|0,1:2|1:2,0:0:0:0:
425,338,261099,1,2,0:0:0:0:
481,252,261287,1,10,0:0:0:0:
411,177,261474,1,2,0:0:0:0:
475,97,261662,6,0,L|455:7,1,85,0|2,1:0|0:0,0:0:0:0:
456,14,262037,1,8,0:0:0:0:
342,242,262224,2,0,L|322:332,1,85,2|0,1:2|1:2,0:0:0:0:
113,252,262599,1,2,0:0:0:0:
119,236,262693,1,2,0:0:0:0:
125,220,262787,1,10,0:0:0:0:
130,204,262880,1,2,0:0:0:0:
136,188,262974,1,2,0:0:0:0:
143,172,263068,1,2,0:0:0:0:
149,157,263162,5,6,1:2:0:0:
258,67,263349,2,0,P|308:64|354:52,1,93.5000028533936,2|8,0:0|0:0,0:0:0:0:
256,195,263724,1,2,1:2:0:0:
256,195,263817,1,0,1:2:0:0:
256,195,263911,1,0,1:2:0:0:
421,128,264099,1,2,0:0:0:0:
258,67,264287,1,8,0:0:0:0:
80,155,264474,6,0,B|214:126|214:126|171:90,1,187.000005706787,2|2,0:0|0:0,0:0:0:0:
86,25,265037,1,10,0:0:0:0:
0,142,265224,1,2,0:0:0:0:
175,93,265412,1,2,1:2:0:0:
153,251,265599,1,10,0:0:0:0:
100,124,265787,1,10,0:0:0:0:
21,291,265974,1,10,0:0:0:0:
100,25,266162,5,2,1:2:0:0:
226,100,266349,2,0,P|221:141|222:195,1,93.5000028533936,2|8,0:0|0:0,0:0:0:0:
271,308,266724,1,2,1:2:0:0:
271,308,266818,1,0,1:2:0:0:
271,308,266912,1,0,1:2:0:0:
154,228,267099,1,2,0:0:0:0:
382,150,267287,1,8,0:0:0:0:
133,89,267474,6,0,P|139:156|155:232,1,140.25000428009,2|0,0:0|0:0,0:0:0:0:
97,328,267849,2,0,P|91:274|80:229,1,93.5000028533936,2|8,0:0|0:0,0:0:0:0:
95,86,268224,1,2,0:0:0:0:
200,306,268412,1,2,0:0:0:0:
116,84,268599,1,10,0:0:0:0:
57,291,268787,1,10,0:0:0:0:
286,165,268974,1,8,0:0:0:0:
133,205,269162,5,2,1:2:0:0:
207,65,269349,2,0,P|161:72|103:88,1,93.5000028533936,2|8,0:0|0:0,0:0:0:0:
214,188,269724,1,2,1:2:0:0:
214,188,269818,1,0,1:2:0:0:
214,188,269912,1,0,1:2:0:0:
327,20,270099,2,0,L|350:119,1,93.5000028533936,2|8,0:0|0:0,0:0:0:0:
445,275,270474,6,0,P|363:259|286:335,1,187.000005706787,2|2,0:0|0:0,0:0:0:0:
289,322,271037,1,10,0:0:0:0:
147,252,271224,1,2,0:0:0:0:
375,230,271412,1,2,1:2:0:0:
251,148,271599,1,10,0:0:0:0:
171,377,271787,1,10,0:0:0:0:
120,160,271974,1,8,0:0:0:0:
354,142,272162,5,2,1:2:0:0:
293,244,272349,2,0,P|285:289|264:352,1,93.5000028533936,2|8,0:0|0:0,0:0:0:0:
196,236,272724,1,2,1:2:0:0:
196,236,272818,1,0,1:2:0:0:
196,236,272912,1,0,1:2:0:0:
371,222,273099,2,0,P|413:233|467:240,1,93.5000028533936,2|8,0:0|0:0,0:0:0:0:
181,343,273474,5,10,0:0:0:0:
210,321,273849,2,0,L|123:333,1,85,2|8,1:2|0:0,0:0:0:0:
57,214,274224,1,2,1:2:0:0:
38,299,274412,1,10,0:0:0:0:
138,253,274599,1,2,1:2:0:0:
124,171,274787,2,0,P|214:157|301:149,1,170,10|0,0:0|0:0,0:0:0:0:
292,149,275912,5,4,0:0:0:0:
256,192,276005,12,0,285662,0:0:0:0:
