osu file format v14

[General]
AudioFilename: audio.ogg
AudioLeadIn: 0
PreviewTime: 59558
Countdown: 0
SampleSet: Drum
StackLeniency: 0.7
Mode: 3
LetterboxInBreaks: 0
SpecialStyle: 0
WidescreenStoryboard: 1

[Editor]
DistanceSpacing: 0.5
BeatDivisor: 4
GridSize: 16
TimelineZoom: 0.8

[Metadata]
Title:MYSTERIA ~ Tamashii no Yukue (Short Ver.)
TitleUnicode:MYSTERIA ~ 魂の行方 (Short Ver.)
Artist:Uzuki Mao
ArtistUnicode:宇月真織
Creator:Muse Dash
Version:Easy
Source:Mysteria ~Occult Shadows~
Tags:Seiran- 兽娘秘境 异象残影 project lights Best Collection Vol.04 U-Secret Studio SakuraGame rpg jrpg arpg video game theme song ed ending Japanese folk PLCC-1023
BeatmapID:4370333
BeatmapSetID:2076043

[Difficulty]
HPDrainRate:6.6
CircleSize:4
OverallDifficulty:6.4
ApproachRate:5
SliderMultiplier:1.4
SliderTickRate:1

[Events]
//Background and Video events
0,0,"Easy.jpg",0,0
//Break Periods
//Storyboard Layer 0 (Background)
//Storyboard Layer 1 (Fail)
//Storyboard Layer 2 (Pass)
//Storyboard Layer 3 (Foreground)
//Storyboard Layer 4 (Overlay)
//Storyboard Sound Samples

[TimingPoints]
975,666.666666666667,3,3,1,40,1,0
26975,666.666666666667,3,3,1,40,1,0
59974,666.666666666667,3,3,1,40,1,1
75474,-100,3,3,1,40,0,0
75974,-100,3,3,1,40,0,1
87974,666.666666666667,3,3,1,40,1,1
95974,-100,3,3,1,40,0,0

[HitObjects]
320,192,975,128,0,1975:0:0:0:0:
192,192,1975,128,0,2975:0:0:0:0:
64,192,2975,128,0,3975:0:0:0:0:
448,192,3975,128,0,4975:0:0:0:0:
192,192,4975,128,0,5975:0:0:0:0:
320,192,5975,128,0,6975:0:0:0:0:
64,192,6975,128,0,7975:0:0:0:0:
320,192,7975,1,8,0:0:0:0:
448,192,7975,128,0,8641:0:0:0:0:
320,192,8975,1,2,0:0:0:0:
448,192,8975,1,4,0:0:0:0:
448,192,9308,1,0,0:0:0:0:
448,192,9641,1,2,0:0:0:0:
64,192,9975,1,8,0:0:0:0:
192,192,9975,128,0,10308:0:0:0:0:
320,192,10308,128,0,10641:0:0:0:0:
448,192,10641,128,0,10975:0:0:0:0:
192,192,10975,128,2,11308:0:0:0:0:
320,192,11308,128,0,11641:0:0:0:0:
64,192,11641,128,0,11975:0:0:0:0:
192,192,11975,128,8,12308:0:0:0:0:
448,192,11975,1,0,0:0:0:0:
320,192,12308,128,2,12641:0:0:0:0:
448,192,12641,128,0,12975:0:0:0:0:
64,192,12975,1,2,0:0:0:0:
192,192,12975,1,4,0:0:0:0:
64,192,13308,1,0,0:0:0:0:
64,192,13641,1,2,0:0:0:0:
320,192,13975,128,8,14308:0:0:0:0:
448,192,13975,1,0,0:0:0:0:
192,192,14308,128,0,14641:0:0:0:0:
64,192,14641,128,0,14975:0:0:0:0:
320,192,14975,128,2,15308:0:0:0:0:
192,192,15308,128,0,15641:0:0:0:0:
320,192,15641,1,8,0:0:0:0:
448,192,15641,1,4,0:0:0:0:
64,192,15975,128,8,16308:0:0:0:0:
192,192,15975,1,0,0:0:0:0:
448,192,16308,128,2,16641:0:0:0:0:
192,192,16641,128,12,16975:0:0:0:0:
320,192,16975,1,2,0:0:0:0:
448,192,16975,1,4,0:0:0:0:
320,192,17308,1,0,0:0:0:0:
320,192,17641,1,2,0:0:0:0:
64,192,17975,1,8,0:0:0:0:
192,192,17975,128,0,18308:0:0:0:0:
320,192,18308,128,0,18641:0:0:0:0:
448,192,18641,128,0,18975:0:0:0:0:
192,192,18975,128,2,19308:0:0:0:0:
320,192,19308,128,0,19641:0:0:0:0:
64,192,19641,128,0,19975:0:0:0:0:
192,192,19975,128,8,20308:0:0:0:0:
448,192,19975,1,0,0:0:0:0:
320,192,20308,128,2,20641:0:0:0:0:
448,192,20641,128,8,20975:0:0:0:0:
64,192,20975,1,2,0:0:0:0:
192,192,20975,1,4,0:0:0:0:
192,192,21308,1,0,0:0:0:0:
192,192,21641,1,2,0:0:0:0:
320,192,21975,128,8,22308:0:0:0:0:
448,192,21975,1,0,0:0:0:0:
192,192,22308,128,0,22641:0:0:0:0:
64,192,22641,128,0,22975:0:0:0:0:
320,192,22975,128,2,23475:0:0:0:0:
448,192,22975,1,4,0:0:0:0:
64,192,23475,1,2,0:0:0:0:
192,192,23641,1,8,0:0:0:0:
320,192,23808,1,2,0:0:0:0:
192,192,23975,128,8,24641:0:0:0:0:
448,192,23975,1,0,0:0:0:0:
320,192,24308,1,8,0:0:0:0:
64,192,24641,1,2,0:0:0:0:
192,192,24975,1,0,0:0:0:0:
320,192,25641,1,0,0:0:0:0:
448,192,25975,1,0,0:0:0:0:
64,192,26475,1,0,0:0:0:0:
192,192,26975,128,0,27641:0:0:0:0:
448,192,27641,1,0,0:0:0:0:
320,192,27975,128,0,28641:0:0:0:0:
64,192,28641,1,0,0:0:0:0:
64,192,28975,128,0,29641:0:0:0:0:
320,192,29641,1,0,0:0:0:0:
448,192,29975,128,0,30641:0:0:0:0:
192,192,30641,1,0,0:0:0:0:
192,192,30975,128,0,31308:0:0:0:0:
320,192,31308,128,0,31641:0:0:0:0:
448,192,31641,128,0,31975:0:0:0:0:
64,192,31975,128,0,32308:0:0:0:0:
192,192,32308,128,0,32641:0:0:0:0:
320,192,32641,128,0,32975:0:0:0:0:
64,192,32975,128,0,33641:0:0:0:0:
448,192,33641,1,0,0:0:0:0:
320,192,33975,128,0,34641:0:0:0:0:
192,192,34641,1,0,0:0:0:0:
192,192,34975,128,2,35475:0:0:0:0:
448,192,34975,1,4,0:0:0:0:
448,192,35475,128,0,35975:0:0:0:0:
64,192,35975,128,0,36308:0:0:0:0:
192,192,36308,128,0,36641:0:0:0:0:
320,192,36641,128,0,36975:0:0:0:0:
64,192,36975,128,2,37641:0:0:0:0:
448,192,36975,1,0,0:0:0:0:
320,192,37641,1,0,0:0:0:0:
320,192,37975,128,0,38641:0:0:0:0:
64,192,38641,1,0,0:0:0:0:
320,192,38975,1,2,0:0:0:0:
448,192,38975,128,0,39308:0:0:0:0:
192,192,39308,128,0,39641:0:0:0:0:
320,192,39641,128,0,39975:0:0:0:0:
64,192,39975,128,0,40641:0:0:0:0:
192,192,40641,128,0,40975:0:0:0:0:
64,192,40975,1,2,0:0:0:0:
320,192,40975,128,0,41975:0:0:0:0:
192,192,41975,1,8,0:0:0:0:
448,192,41975,128,0,42641:0:0:0:0:
64,192,42641,1,2,0:0:0:0:
64,192,42975,128,2,43641:0:0:0:0:
448,192,42975,1,4,0:0:0:0:
320,192,43641,1,2,0:0:0:0:
64,192,43975,1,8,0:0:0:0:
192,192,43975,128,0,44641:0:0:0:0:
320,192,44641,1,0,0:0:0:0:
192,192,44975,1,2,0:0:0:0:
448,192,44975,128,0,45641:0:0:0:0:
320,192,45641,1,0,0:0:0:0:
64,192,45975,128,8,46641:0:0:0:0:
448,192,45975,1,0,0:0:0:0:
192,192,46641,1,0,0:0:0:0:
64,192,46975,1,2,0:0:0:0:
320,192,46975,128,0,47475:0:0:0:0:
192,192,47475,128,2,47975:0:0:0:0:
64,192,47975,128,8,48308:0:0:0:0:
448,192,47975,1,0,0:0:0:0:
320,192,48308,128,0,48641:0:0:0:0:
192,192,48641,128,0,48975:0:0:0:0:
320,192,48975,1,2,0:0:0:0:
448,192,48975,128,0,49975:0:0:0:0:
192,192,49475,1,2,0:0:0:0:
64,192,49975,1,8,0:0:0:0:
192,192,49975,1,0,0:0:0:0:
320,192,50308,1,0,0:0:0:0:
320,192,50641,1,0,0:0:0:0:
192,192,50975,128,2,51475:0:0:0:0:
448,192,50975,1,0,0:0:0:0:
320,192,51475,128,2,51975:0:0:0:0:
64,192,51975,1,8,0:0:0:0:
448,192,51975,128,0,52308:0:0:0:0:
192,192,52308,128,0,52641:0:0:0:0:
64,192,52641,128,0,52975:0:0:0:0:
192,192,52975,1,2,0:0:0:0:
448,192,52975,128,0,53641:0:0:0:0:
320,192,53641,1,0,0:0:0:0:
192,192,53975,128,8,54641:0:0:0:0:
448,192,53975,1,0,0:0:0:0:
320,192,54641,1,2,0:0:0:0:
64,192,54975,128,2,55308:0:0:0:0:
192,192,54975,1,0,0:0:0:0:
320,192,55308,128,0,55641:0:0:0:0:
192,192,55641,128,2,55975:0:0:0:0:
320,192,55975,1,8,0:0:0:0:
448,192,55975,128,0,56308:0:0:0:0:
64,192,56308,128,4,56641:0:0:0:0:
320,192,56641,128,0,56975:0:0:0:0:
192,192,56975,128,2,57475:0:0:0:0:
448,192,56975,1,0,0:0:0:0:
64,192,57475,1,0,0:0:0:0:
320,192,57641,128,0,57975:0:0:0:0:
192,192,57975,1,8,0:0:0:0:
448,192,57975,128,0,58308:0:0:0:0:
64,192,58308,128,0,58975:0:0:0:0:
320,192,58975,1,8,0:0:0:0:
448,192,58975,1,4,0:0:0:0:
192,192,59141,1,8,0:0:0:0:
448,192,59308,128,2,59641:0:0:0:0:
192,192,59641,128,2,59974:0:0:0:0:
64,192,59974,1,2,0:0:0:0:
320,192,59974,128,4,60474:0:0:0:0:
64,192,60474,128,2,60807:0:0:0:0:
320,192,60807,1,2,0:0:0:0:
192,192,60974,128,8,61474:0:0:0:0:
448,192,60974,1,0,0:0:0:0:
64,192,61474,1,0,0:0:0:0:
320,192,61640,128,0,61974:0:0:0:0:
192,192,61974,128,2,62474:0:0:0:0:
448,192,61974,1,0,0:0:0:0:
448,192,62474,128,2,62807:0:0:0:0:
192,192,62807,1,2,0:0:0:0:
64,192,62974,1,8,0:0:0:0:
320,192,62974,128,0,63474:0:0:0:0:
448,192,63474,1,0,0:0:0:0:
192,192,63640,128,0,63974:0:0:0:0:
64,192,63974,1,2,0:0:0:0:
320,192,63974,128,0,64474:0:0:0:0:
448,192,64474,128,2,64807:0:0:0:0:
192,192,64807,1,0,0:0:0:0:
64,192,64974,128,4,65307:0:0:0:0:
320,192,64974,1,8,0:0:0:0:
192,192,65307,128,0,65640:0:0:0:0:
320,192,65640,128,0,65974:0:0:0:0:
64,192,65974,128,2,66474:0:0:0:0:
192,192,65974,1,0,0:0:0:0:
320,192,66474,1,2,0:0:0:0:
192,192,66640,1,0,0:0:0:0:
448,192,66807,1,2,0:0:0:0:
64,192,66974,1,8,0:0:0:0:
320,192,66974,128,0,67307:0:0:0:0:
64,192,67307,128,0,67640:0:0:0:0:
320,192,67640,128,2,67974:0:0:0:0:
192,192,67974,128,2,68307:0:0:0:0:
448,192,67974,1,4,0:0:0:0:
64,192,68307,1,0,0:0:0:0:
448,192,68474,128,2,68807:0:0:0:0:
192,192,68807,1,2,0:0:0:0:
64,192,68974,1,8,0:0:0:0:
320,192,68974,128,0,69474:0:0:0:0:
448,192,69474,1,0,0:0:0:0:
192,192,69640,128,0,69974:0:0:0:0:
64,192,69974,1,2,0:0:0:0:
320,192,69974,128,0,70474:0:0:0:0:
64,192,70474,128,2,70807:0:0:0:0:
320,192,70807,1,2,0:0:0:0:
192,192,70974,128,8,71474:0:0:0:0:
448,192,70974,1,0,0:0:0:0:
64,192,71474,1,0,0:0:0:0:
320,192,71640,128,0,71974:0:0:0:0:
192,192,71974,128,2,72474:0:0:0:0:
448,192,71974,1,0,0:0:0:0:
64,192,72474,128,2,72807:0:0:0:0:
320,192,72807,1,2,0:0:0:0:
192,192,72974,1,8,0:0:0:0:
448,192,72974,128,0,73307:0:0:0:0:
320,192,73307,128,8,73640:0:0:0:0:
192,192,73640,128,0,73974:0:0:0:0:
64,192,73974,1,2,0:0:0:0:
448,192,73974,128,0,74307:0:0:0:0:
320,192,74307,1,0,0:0:0:0:
192,192,74474,1,8,0:0:0:0:
448,192,74640,1,0,0:0:0:0:
320,192,74807,1,2,0:0:0:0:
64,192,74974,1,8,0:0:0:0:
192,192,74974,1,4,0:0:0:0:
320,192,75307,1,8,0:0:0:0:
64,192,75474,1,8,0:0:0:0:
320,192,75640,1,8,0:0:0:0:
64,192,75807,1,2,0:0:0:0:
192,192,75974,1,2,0:0:0:0:
448,192,75974,128,4,76307:0:0:0:0:
320,192,76307,1,0,0:0:0:0:
192,192,76474,128,2,76807:0:0:0:0:
64,192,76807,1,2,0:0:0:0:
320,192,76974,128,8,77474:0:0:0:0:
448,192,76974,1,4,0:0:0:0:
192,192,77474,1,0,0:0:0:0:
448,192,77640,128,0,77974:0:0:0:0:
64,192,77974,128,2,78474:0:0:0:0:
320,192,77974,1,0,0:0:0:0:
320,192,78474,128,2,78807:0:0:0:0:
64,192,78807,1,0,0:0:0:0:
192,192,78974,128,8,79474:0:0:0:0:
448,192,78974,1,0,0:0:0:0:
64,192,79474,1,2,0:0:0:0:
448,192,79640,128,0,79974:0:0:0:0:
192,192,79974,128,2,80474:0:0:0:0:
320,192,79974,1,4,0:0:0:0:
64,192,80474,128,2,80807:0:0:0:0:
320,192,80807,1,2,0:0:0:0:
192,192,80974,1,8,0:0:0:0:
448,192,80974,128,0,81307:0:0:0:0:
320,192,81307,128,0,81640:0:0:0:0:
192,192,81640,128,0,81974:0:0:0:0:
320,192,81974,1,2,0:0:0:0:
448,192,81974,128,0,82474:0:0:0:0:
192,192,82474,1,2,0:0:0:0:
320,192,82640,1,0,0:0:0:0:
64,192,82807,1,2,0:0:0:0:
192,192,82974,128,8,83307:0:0:0:0:
448,192,82974,1,4,0:0:0:0:
448,192,83307,128,0,83640:0:0:0:0:
192,192,83640,128,2,83974:0:0:0:0:
64,192,83974,128,2,84307:0:0:0:0:
320,192,83974,1,4,0:0:0:0:
192,192,84307,1,0,0:0:0:0:
320,192,84474,128,2,84807:0:0:0:0:
64,192,84807,1,2,0:0:0:0:
192,192,84974,128,8,85474:0:0:0:0:
448,192,84974,1,0,0:0:0:0:
320,192,85474,1,0,0:0:0:0:
64,192,85640,128,0,85974:0:0:0:0:
192,192,85974,1,2,0:0:0:0:
448,192,85974,128,0,86474:0:0:0:0:
192,192,86474,128,2,86807:0:0:0:0:
64,192,86807,1,2,0:0:0:0:
320,192,86974,128,8,87307:0:0:0:0:
448,192,86974,1,0,0:0:0:0:
192,192,87307,1,4,0:0:0:0:
448,192,87474,1,0,0:0:0:0:
192,192,87640,1,8,0:0:0:0:
448,192,87807,1,2,0:0:0:0:
64,192,87974,128,2,88474:0:0:0:0:
320,192,87974,1,4,0:0:0:0:
320,192,88474,1,2,0:0:0:0:
192,192,88640,1,0,0:0:0:0:
448,192,88640,128,0,88974:0:0:0:0:
192,192,88974,128,8,89640:0:0:0:0:
320,192,88974,1,4,0:0:0:0:
64,192,89640,1,8,0:0:0:0:
320,192,89807,1,2,0:0:0:0:
192,192,89974,1,2,0:0:0:0:
448,192,89974,128,4,90474:0:0:0:0:
192,192,90474,1,0,0:0:0:0:
64,192,90640,128,8,90974:0:0:0:0:
320,192,90640,1,0,0:0:0:0:
320,192,90974,128,8,91474:0:0:0:0:
448,192,90974,1,4,0:0:0:0:
64,192,91474,1,8,0:0:0:0:
192,192,91640,1,8,0:0:0:0:
320,192,91807,1,2,0:0:0:0:
64,192,91974,1,2,0:0:0:0:
448,192,91974,128,4,92474:0:0:0:0:
192,192,92474,1,0,0:0:0:0:
64,192,92640,1,0,0:0:0:0:
320,192,92807,1,2,0:0:0:0:
192,192,92974,1,8,0:0:0:0:
448,192,92974,128,4,93307:0:0:0:0:
64,192,93307,128,8,93640:0:0:0:0:
320,192,93307,1,0,0:0:0:0:
320,192,93640,128,0,93974:0:0:0:0:
64,192,93974,1,2,0:0:0:0:
192,192,93974,128,4,94474:0:0:0:0:
448,192,94474,1,8,0:0:0:0:
320,192,94640,1,0,0:0:0:0:
192,192,94807,1,2,0:0:0:0:
64,192,94974,128,2,95640:0:0:0:0:
448,192,94974,1,4,0:0:0:0:
448,192,95307,1,2,0:0:0:0:
448,192,95640,1,8,0:0:0:0:
64,192,95974,1,2,0:0:0:0:
192,192,95974,1,4,0:0:0:0:
64,192,96307,1,0,0:0:0:0:
64,192,96640,1,0,0:0:0:0:
320,192,96974,128,8,97307:0:0:0:0:
448,192,96974,1,0,0:0:0:0:
192,192,97307,128,0,97640:0:0:0:0:
64,192,97640,128,0,97974:0:0:0:0:
320,192,97974,128,2,98307:0:0:0:0:
192,192,98307,128,0,98640:0:0:0:0:
448,192,98640,128,0,98974:0:0:0:0:
64,192,98974,1,8,0:0:0:0:
320,192,98974,128,0,99307:0:0:0:0:
192,192,99307,128,2,99640:0:0:0:0:
64,192,99640,128,0,99974:0:0:0:0:
320,192,99974,1,2,0:0:0:0:
448,192,99974,1,0,0:0:0:0:
448,192,100307,1,0,0:0:0:0:
448,192,100640,1,2,0:0:0:0:
64,192,100974,1,8,0:0:0:0:
192,192,100974,128,0,101307:0:0:0:0:
320,192,101307,128,0,101640:0:0:0:0:
448,192,101640,128,0,101974:0:0:0:0:
192,192,101974,128,2,102307:0:0:0:0:
320,192,102307,128,0,102640:0:0:0:0:
64,192,102640,1,8,0:0:0:0:
192,192,102640,1,4,0:0:0:0:
320,192,102974,1,8,0:0:0:0:
448,192,102974,128,0,103307:0:0:0:0:
64,192,103307,128,8,103640:0:0:0:0:
320,192,103640,128,12,103974:0:0:0:0:
64,192,103974,1,2,0:0:0:0:
192,192,103974,1,4,0:0:0:0:
192,192,104307,1,0,0:0:0:0:
192,192,104640,1,2,0:0:0:0:
320,192,104974,128,8,105307:0:0:0:0:
448,192,104974,1,4,0:0:0:0:
192,192,105307,128,0,105640:0:0:0:0:
64,192,105640,128,8,105974:0:0:0:0:
320,192,105974,128,2,106307:0:0:0:0:
192,192,106307,128,0,106640:0:0:0:0:
448,192,106640,128,0,106974:0:0:0:0:
64,192,106974,1,8,0:0:0:0:
320,192,106974,128,0,107307:0:0:0:0:
192,192,107307,128,0,107640:0:0:0:0:
64,192,107640,128,8,107974:0:0:0:0:
320,192,107974,1,2,0:0:0:0:
448,192,107974,1,0,0:0:0:0:
320,192,108307,1,2,0:0:0:0:
320,192,108640,1,6,0:0:0:0:
64,192,108974,1,8,0:0:0:0:
192,192,108974,128,4,109307:0:0:0:0:
320,192,109307,128,2,109640:0:0:0:0:
448,192,109640,128,8,109974:0:0:0:0:
64,192,109974,1,2,0:0:0:0:
192,192,109974,128,0,110474:0:0:0:0:
448,192,110474,1,2,0:0:0:0:
320,192,110640,1,8,0:0:0:0:
192,192,110807,1,2,0:0:0:0:
64,192,110974,1,8,0:0:0:0:
320,192,110974,128,4,111307:0:0:0:0:
192,192,111307,1,8,0:0:0:0:
320,192,111640,1,8,0:0:0:0:
448,192,111807,1,2,0:0:0:0:
64,192,111974,1,0,0:0:0:0:
192,192,112640,1,0,0:0:0:0:
64,192,112974,1,0,0:0:0:0:
448,192,113474,1,0,0:0:0:0:
320,192,113807,1,4,0:0:0:0:
