osu file format v14

[General]
AudioFilename: audio.ogg
AudioLeadIn: 0
PreviewTime: 59558
Countdown: 0
SampleSet: Drum
StackLeniency: 0.7
Mode: 3
LetterboxInBreaks: 0
SpecialStyle: 0
WidescreenStoryboard: 0

[Editor]
DistanceSpacing: 0.5
BeatDivisor: 4
GridSize: 16
TimelineZoom: 0.8

[Metadata]
Title:MYSTERIA ~ Tamashii no Yukue (Short Ver.)
TitleUnicode:MYSTERIA ~ 魂の行方 (Short Ver.)
Artist:Uzuki Mao
ArtistUnicode:宇月真織
Creator:Muse Dash
Version:Beginner
Source:Mysteria ~Occult Shadows~
Tags:Seiran- 兽娘秘境 异象残影 project lights Best Collection Vol.04 U-Secret Studio SakuraGame rpg jrpg arpg video game theme song ed ending Japanese folk PLCC-1023
BeatmapID:4370326
BeatmapSetID:2076043

[Difficulty]
HPDrainRate:6
CircleSize:4
OverallDifficulty:6
ApproachRate:5
SliderMultiplier:1.4
SliderTickRate:1

[Events]
//Background and Video events
0,0,"Beginner.jpg",0,0
//Break Periods
//Storyboard Layer 0 (Background)
//Storyboard Layer 1 (Fail)
//Storyboard Layer 2 (Pass)
//Storyboard Layer 3 (Foreground)
//Storyboard Layer 4 (Overlay)
//Storyboard Sound Samples

[TimingPoints]
975,666.666666666667,3,3,1,40,1,0
26975,666.666666666667,3,3,1,40,1,0
59974,666.666666666667,3,3,1,40,1,1
75474,-100,3,3,1,40,0,0
75974,-100,3,3,1,40,0,1
87974,666.666666666667,3,3,1,40,1,1
95974,-100,3,3,1,40,0,0

[HitObjects]
320,192,975,5,0,0:0:0:0:
64,192,1975,1,0,0:0:0:0:
448,192,2975,1,0,0:0:0:0:
192,192,3975,1,0,0:0:0:0:
320,192,4975,1,0,0:0:0:0:
64,192,5975,1,0,0:0:0:0:
448,192,6975,128,0,8975:0:0:0:0:
192,192,7975,1,8,0:0:0:0:
192,192,8975,128,6,9975:0:0:0:0:
320,192,9975,128,8,10975:0:0:0:0:
64,192,10975,128,2,11975:0:0:0:0:
448,192,11975,128,8,12975:0:0:0:0:
192,192,12975,128,6,13975:0:0:0:0:
320,192,13975,128,8,14975:0:0:0:0:
448,192,14975,128,2,15975:0:0:0:0:
64,192,15975,128,8,16975:0:0:0:0:
320,192,16975,128,6,17975:0:0:0:0:
192,192,17975,128,8,18975:0:0:0:0:
448,192,18975,128,2,19975:0:0:0:0:
64,192,19975,128,8,20975:0:0:0:0:
320,192,20975,128,6,21975:0:0:0:0:
192,192,21975,128,8,22975:0:0:0:0:
64,192,22975,128,6,23975:0:0:0:0:
448,192,23975,128,8,24975:0:0:0:0:
64,192,26975,1,0,0:0:0:0:
192,192,27975,1,0,0:0:0:0:
320,192,28975,1,0,0:0:0:0:
448,192,29975,1,0,0:0:0:0:
192,192,30975,1,0,0:0:0:0:
320,192,31975,1,0,0:0:0:0:
64,192,32975,1,0,0:0:0:0:
192,192,33975,1,0,0:0:0:0:
320,192,34975,128,6,36975:0:0:0:0:
64,192,35975,1,0,0:0:0:0:
192,192,36975,128,2,38475:0:0:0:0:
448,192,37975,1,0,0:0:0:0:
64,192,38975,128,2,40975:0:0:0:0:
320,192,39975,1,0,0:0:0:0:
448,192,40975,128,2,42475:0:0:0:0:
192,192,41975,1,8,0:0:0:0:
320,192,42975,128,6,43975:0:0:0:0:
64,192,43975,1,8,0:0:0:0:
192,192,44975,128,2,45975:0:0:0:0:
448,192,45975,1,8,0:0:0:0:
448,192,46975,128,2,47975:0:0:0:0:
64,192,47975,128,8,48975:0:0:0:0:
320,192,48975,128,2,49975:0:0:0:0:
192,192,49975,1,8,0:0:0:0:
192,192,50975,128,2,51975:0:0:0:0:
448,192,51975,1,8,0:0:0:0:
320,192,52975,128,2,53975:0:0:0:0:
64,192,53975,1,8,0:0:0:0:
64,192,54975,128,2,55975:0:0:0:0:
448,192,55975,128,8,56975:0:0:0:0:
192,192,56975,128,2,57975:0:0:0:0:
320,192,57975,1,8,0:0:0:0:
320,192,58975,1,12,0:0:0:0:
192,192,59974,128,6,60974:0:0:0:0:
448,192,60974,128,8,61474:0:0:0:0:
320,192,61974,128,2,62974:0:0:0:0:
192,192,62974,128,8,63474:0:0:0:0:
64,192,63974,128,2,64974:0:0:0:0:
320,192,64974,128,12,65974:0:0:0:0:
448,192,65974,128,2,66974:0:0:0:0:
64,192,66974,128,8,67474:0:0:0:0:
192,192,67974,128,6,68974:0:0:0:0:
320,192,68974,128,8,69474:0:0:0:0:
64,192,69974,128,2,70974:0:0:0:0:
192,192,70974,128,8,71474:0:0:0:0:
448,192,71974,128,2,72974:0:0:0:0:
192,192,72974,128,8,73974:0:0:0:0:
320,192,73974,128,2,74974:0:0:0:0:
64,192,74974,128,12,75474:0:0:0:0:
192,192,75474,128,8,75974:0:0:0:0:
320,192,75974,128,6,76474:0:0:0:0:
448,192,76474,128,2,76974:0:0:0:0:
192,192,76974,128,12,77474:0:0:0:0:
192,192,77974,128,2,78974:0:0:0:0:
448,192,78974,128,8,79474:0:0:0:0:
448,192,79974,128,6,80974:0:0:0:0:
320,192,80974,128,8,81640:0:0:0:0:
192,192,81640,1,0,0:0:0:0:
64,192,81974,128,2,82974:0:0:0:0:
320,192,82974,128,12,83474:0:0:0:0:
320,192,83974,128,6,84974:0:0:0:0:
448,192,84974,128,8,85474:0:0:0:0:
448,192,85974,128,2,86974:0:0:0:0:
64,192,86974,128,8,87474:0:0:0:0:
64,192,87974,128,6,88974:0:0:0:0:
192,192,88974,128,12,89474:0:0:0:0:
320,192,89974,128,6,90974:0:0:0:0:
448,192,90974,128,12,91474:0:0:0:0:
64,192,91974,128,6,92974:0:0:0:0:
448,192,92974,1,12,0:0:0:0:
320,192,93307,128,8,93974:0:0:0:0:
192,192,93974,128,6,94474:0:0:0:0:
192,192,94974,128,6,95974:0:0:0:0:
320,192,95974,128,6,96974:0:0:0:0:
64,192,96974,128,8,97974:0:0:0:0:
192,192,97974,128,2,98974:0:0:0:0:
448,192,98974,128,8,99974:0:0:0:0:
320,192,99974,128,2,100974:0:0:0:0:
64,192,100974,128,8,101974:0:0:0:0:
448,192,101974,128,2,102974:0:0:0:0:
192,192,102974,128,8,103974:0:0:0:0:
320,192,103974,128,6,104974:0:0:0:0:
64,192,104974,128,12,105974:0:0:0:0:
192,192,105974,128,2,106974:0:0:0:0:
448,192,106974,128,8,107974:0:0:0:0:
320,192,107974,128,2,108974:0:0:0:0:
64,192,108974,128,12,109974:0:0:0:0:
320,192,109974,128,2,110974:0:0:0:0:
448,192,110974,128,12,111974:0:0:0:0:
192,192,113807,1,4,0:0:0:0:
