osu file format v14

[General]
AudioFilename: 05.ogg
AudioLeadIn: 0
PreviewTime: 31717
Countdown: 0
SampleSet: Normal
StackLeniency: 0.7
Mode: 1
LetterboxInBreaks: 0
WidescreenStoryboard: 0

[Editor]
Bookmarks: 8015,12006,16003,31993,47983,63973,79962,87957,111942,119944,135931,151923,167913,183903,199892,215882,231872,247862,263851,271846,279502
DistanceSpacing: 1.3
BeatDivisor: 6
GridSize: 32
TimelineZoom: 2.2

[Metadata]
Title:Waltz For Life Will Born
TitleUnicode:Waltz For Life Will Born
Artist:Uyama Hiroto
ArtistUnicode:Uyama Hiroto
Creator:ZTH
Version:Inner Oni
Source:
Tags:jazz instrumental A Son of the Sun Nujabes
BeatmapID:4164605
BeatmapSetID:2002631

[Difficulty]
HPDrainRate:5.5
CircleSize:5
OverallDifficulty:5.5
ApproachRate:5
SliderMultiplier:1.4
SliderTickRate:1

[Events]
//Background and Video events
0,0,"Fmb0uL7aMAMBB9r.jpg",0,-85
//Break Periods
//Storyboard Layer 0 (Background)
//Storyboard Layer 1 (Fail)
//Storyboard Layer 2 (Pass)
//Storyboard Layer 3 (Foreground)
//Storyboard Layer 4 (Overlay)
//Storyboard Sound Samples

[TimingPoints]
404,333.119889848356,6,1,0,42,1,0
404,-131.578947368421,6,1,0,42,0,0
16393,-131.578947368421,6,1,0,50,0,0
112332,-131.578947368421,6,1,0,50,0,1
120327,-131.578947368421,6,1,0,50,0,0
216265,-131.578947368421,6,1,0,50,0,1
246413,-131.578947368421,6,1,0,46,0,1
248245,-131.578947368421,6,1,0,46,0,0
264318,-131.578947368421,6,1,0,42,0,0
268398,-131.578947368421,6,1,0,38,0,0
272229,333.119889848356,6,1,0,42,1,8
272229,-131.578947368421,6,1,0,42,0,8
272285,499.680759513367,6,1,0,38,1,0
272285,-87.719298245614,6,1,0,38,0,0
273283,582.960886099738,6,1,0,38,1,8
273283,-75.1879699247076,6,1,0,38,0,0
273865,1832.16278488082,6,1,0,38,1,0
273865,-23.9234449760965,6,1,0,38,0,0
275697,1665.60253171585,6,1,0,38,1,0
275697,-26.3157894736111,6,1,0,38,0,0

[HitObjects]
232,169,16393,5,4,0:0:0:0:
228,180,16615,1,8,0:0:0:0:
243,193,16948,1,0,0:0:0:0:
243,193,17059,1,8,0:0:0:0:
257,228,17282,1,0,0:0:0:0:
257,228,17393,1,0,0:0:0:0:
257,228,17615,1,8,0:0:0:0:
252,228,17948,1,8,0:0:0:0:
252,228,18059,1,0,0:0:0:0:
232,220,18225,1,8,0:0:0:0:
231,185,18281,1,0,0:0:0:0:
228,194,18336,1,0,0:0:0:0:
231,185,18392,1,0,0:0:0:0:
231,185,18614,1,8,0:0:0:0:
236,198,18947,1,0,0:0:0:0:
230,170,19058,1,8,0:0:0:0:
242,201,19280,1,0,0:0:0:0:
242,201,19391,1,0,0:0:0:0:
222,189,19613,1,8,0:0:0:0:
223,189,19724,1,0,0:0:0:0:
241,216,19947,1,8,0:0:0:0:
249,216,20058,1,0,0:0:0:0:
254,213,20169,1,8,0:0:0:0:
245,236,20280,1,0,0:0:0:0:
245,236,20391,1,0,0:0:0:0:
237,232,20613,1,8,0:0:0:0:
237,232,20946,1,0,0:0:0:0:
237,232,21057,1,8,0:0:0:0:
231,253,21223,1,0,0:0:0:0:
241,242,21279,1,0,0:0:0:0:
231,253,21335,1,8,0:0:0:0:
241,242,21390,1,0,0:0:0:0:
241,242,21612,1,8,0:0:0:0:
257,249,21945,1,8,0:0:0:0:
257,249,22056,1,8,0:0:0:0:
208,256,22167,1,0,0:0:0:0:
257,249,22278,1,0,0:0:0:0:
223,238,22334,1,8,0:0:0:0:
236,255,22389,1,0,0:0:0:0:
238,262,22611,1,8,0:0:0:0:
238,262,22945,1,0,0:0:0:0:
238,262,23056,1,8,0:0:0:0:
238,262,23278,1,0,0:0:0:0:
238,262,23389,1,0,0:0:0:0:
238,262,23611,1,8,0:0:0:0:
212,226,23722,1,0,0:0:0:0:
238,262,23944,1,0,0:0:0:0:
185,214,24055,1,8,0:0:0:0:
205,233,24277,1,0,0:0:0:0:
205,233,24388,1,0,0:0:0:0:
205,233,24610,1,8,0:0:0:0:
185,222,24943,1,0,0:0:0:0:
185,222,25054,1,8,0:0:0:0:
201,222,25276,1,0,0:0:0:0:
200,222,25387,1,0,0:0:0:0:
200,222,25610,1,8,0:0:0:0:
200,230,25943,1,8,0:0:0:0:
155,182,26054,1,0,0:0:0:0:
194,227,26220,1,8,0:0:0:0:
200,230,26276,1,0,0:0:0:0:
201,203,26331,1,0,0:0:0:0:
199,230,26387,1,0,0:0:0:0:
197,213,26609,1,8,0:0:0:0:
197,213,26942,1,8,0:0:0:0:
197,210,27053,1,8,0:0:0:0:
197,213,27275,1,0,0:0:0:0:
197,213,27386,1,0,0:0:0:0:
197,213,27608,1,8,0:0:0:0:
197,213,27941,1,0,0:0:0:0:
197,210,28052,1,8,0:0:0:0:
201,200,28275,1,0,0:0:0:0:
201,198,28386,1,0,0:0:0:0:
201,198,28608,1,8,0:0:0:0:
197,213,28719,1,0,0:0:0:0:
200,198,28941,1,0,0:0:0:0:
200,198,29052,1,8,0:0:0:0:
200,224,29163,1,8,0:0:0:0:
201,200,29274,1,0,0:0:0:0:
201,198,29385,1,0,0:0:0:0:
201,198,29607,1,8,0:0:0:0:
201,198,29718,1,0,0:0:0:0:
200,198,29940,1,8,0:0:0:0:
240,220,29996,1,8,0:0:0:0:
200,198,30051,1,0,0:0:0:0:
201,200,30273,1,0,0:0:0:0:
201,198,30384,1,8,0:0:0:0:
215,222,30495,1,0,0:0:0:0:
209,200,30606,1,0,0:0:0:0:
209,200,30717,1,8,0:0:0:0:
209,200,30828,1,0,0:0:0:0:
209,200,30939,1,0,0:0:0:0:
209,200,31051,1,8,0:0:0:0:
209,200,31162,1,8,0:0:0:0:
209,200,31273,1,0,0:0:0:0:
209,200,31384,1,8,0:0:0:0:
209,200,31495,1,0,0:0:0:0:
209,200,31606,1,0,0:0:0:0:
209,200,31717,1,8,0:0:0:0:
209,200,31828,1,8,0:0:0:0:
209,200,31939,1,0,0:0:0:0:
209,200,32050,1,8,0:0:0:0:
209,200,32161,1,8,0:0:0:0:
209,200,32272,1,8,0:0:0:0:
209,200,32383,1,4,0:0:0:0:
212,203,32605,1,8,0:0:0:0:
212,203,32716,1,0,0:0:0:0:
212,203,32938,1,0,0:0:0:0:
212,203,33049,1,8,0:0:0:0:
212,203,33160,1,8,0:0:0:0:
212,203,33271,1,0,0:0:0:0:
212,203,33382,1,0,0:0:0:0:
212,203,33604,1,8,0:0:0:0:
212,203,33715,1,0,0:0:0:0:
212,203,33827,1,0,0:0:0:0:
212,203,33938,1,8,0:0:0:0:
212,203,33993,1,8,0:0:0:0:
212,203,34049,1,0,0:0:0:0:
225,218,34271,1,0,0:0:0:0:
219,221,34382,1,0,0:0:0:0:
230,204,34604,1,8,0:0:0:0:
220,199,34937,5,8,0:0:0:0:
220,199,35048,1,8,0:0:0:0:
220,199,35270,1,0,0:0:0:0:
220,199,35381,1,0,0:0:0:0:
220,199,35603,1,8,0:0:0:0:
220,199,35714,1,0,0:0:0:0:
220,199,35825,1,8,0:0:0:0:
211,217,35881,1,8,0:0:0:0:
220,199,35936,1,0,0:0:0:0:
224,209,36047,1,8,0:0:0:0:
223,209,36269,1,0,0:0:0:0:
223,209,36380,1,0,0:0:0:0:
233,214,36603,1,8,0:0:0:0:
233,214,36714,1,0,0:0:0:0:
233,214,36825,1,0,0:0:0:0:
243,222,36936,1,0,0:0:0:0:
243,222,37047,1,8,0:0:0:0:
243,222,37269,1,0,0:0:0:0:
243,222,37380,1,0,0:0:0:0:
243,214,37602,5,8,0:0:0:0:
243,214,37713,1,0,0:0:0:0:
251,226,37824,5,8,0:0:0:0:
251,226,37935,1,8,0:0:0:0:
251,226,38046,1,0,0:0:0:0:
251,226,38268,1,0,0:0:0:0:
251,226,38379,1,0,0:0:0:0:
221,224,38601,1,8,0:0:0:0:
221,225,38712,1,0,0:0:0:0:
216,218,38934,1,8,0:0:0:0:
216,218,39045,1,8,0:0:0:0:
221,224,39267,1,0,0:0:0:0:
221,224,39379,1,0,0:0:0:0:
221,224,39601,1,8,0:0:0:0:
221,225,39712,1,0,0:0:0:0:
209,235,39767,1,8,0:0:0:0:
218,224,39823,1,8,0:0:0:0:
218,224,39934,1,0,0:0:0:0:
218,224,40045,1,8,0:0:0:0:
221,224,40267,1,0,0:0:0:0:
221,224,40378,1,0,0:0:0:0:
212,219,40600,1,8,0:0:0:0:
213,219,40711,1,0,0:0:0:0:
213,219,40822,1,0,0:0:0:0:
213,219,40933,1,8,0:0:0:0:
213,219,41044,1,8,0:0:0:0:
213,219,41266,1,0,0:0:0:0:
225,210,41377,1,0,0:0:0:0:
225,211,41599,1,8,0:0:0:0:
225,211,41710,1,0,0:0:0:0:
217,228,41932,1,0,0:0:0:0:
234,237,41988,1,0,0:0:0:0:
234,235,42043,1,8,0:0:0:0:
222,236,42266,1,0,0:0:0:0:
222,236,42377,1,0,0:0:0:0:
232,238,42599,1,8,0:0:0:0:
238,251,42932,1,8,0:0:0:0:
238,251,43043,1,8,0:0:0:0:
238,251,43265,1,0,0:0:0:0:
238,251,43376,1,0,0:0:0:0:
247,257,43598,1,8,0:0:0:0:
247,257,43709,1,0,0:0:0:0:
294,264,43765,1,8,0:0:0:0:
248,220,43820,1,8,0:0:0:0:
247,257,44042,1,0,0:0:0:0:
247,257,44153,1,8,0:0:0:0:
283,274,44264,1,8,0:0:0:0:
263,259,44375,1,0,0:0:0:0:
247,257,44597,1,8,0:0:0:0:
247,257,44708,1,0,0:0:0:0:
245,257,44931,1,8,0:0:0:0:
247,257,45042,1,8,0:0:0:0:
250,262,45264,1,0,0:0:0:0:
250,262,45375,1,0,0:0:0:0:
250,262,45597,1,0,0:0:0:0:
248,275,45708,1,8,0:0:0:0:
259,246,45819,1,0,0:0:0:0:
244,277,45930,1,0,0:0:0:0:
244,277,46041,1,8,0:0:0:0:
244,268,46263,1,0,0:0:0:0:
244,268,46374,1,0,0:0:0:0:
244,268,46596,1,8,0:0:0:0:
244,268,46707,1,0,0:0:0:0:
244,268,46929,1,8,0:0:0:0:
244,268,47040,1,8,0:0:0:0:
244,268,47262,1,0,0:0:0:0:
244,268,47373,1,0,0:0:0:0:
244,268,47595,1,8,0:0:0:0:
244,268,47707,1,0,0:0:0:0:
258,275,47818,1,0,0:0:0:0:
258,275,47929,1,0,0:0:0:0:
258,275,48040,1,8,0:0:0:0:
258,275,48151,1,8,0:0:0:0:
258,275,48262,1,8,0:0:0:0:
258,275,48373,1,4,0:0:0:0:
257,267,48595,1,8,0:0:0:0:
240,258,48928,1,0,0:0:0:0:
240,257,49039,1,8,0:0:0:0:
240,257,49261,1,0,0:0:0:0:
240,257,49372,1,0,0:0:0:0:
239,264,49483,1,0,0:0:0:0:
233,262,49539,1,8,0:0:0:0:
248,262,49594,1,8,0:0:0:0:
230,281,50038,1,0,0:0:0:0:
217,276,50149,1,8,0:0:0:0:
233,280,50260,1,0,0:0:0:0:
228,268,50316,1,0,0:0:0:0:
233,280,50371,1,0,0:0:0:0:
246,269,50594,1,8,0:0:0:0:
246,269,50705,1,0,0:0:0:0:
239,275,50927,1,0,0:0:0:0:
239,275,51038,1,8,0:0:0:0:
239,275,51260,1,0,0:0:0:0:
239,275,51371,1,0,0:0:0:0:
239,275,51593,1,8,0:0:0:0:
239,275,51704,1,8,0:0:0:0:
239,275,51815,1,0,0:0:0:0:
239,275,51926,1,0,0:0:0:0:
239,275,52037,1,8,0:0:0:0:
224,263,52093,1,8,0:0:0:0:
239,275,52259,1,0,0:0:0:0:
237,280,52370,1,0,0:0:0:0:
246,286,52592,1,8,0:0:0:0:
242,282,52925,1,0,0:0:0:0:
242,282,53036,1,8,0:0:0:0:
243,282,53259,1,0,0:0:0:0:
243,282,53370,1,0,0:0:0:0:
246,286,53481,1,8,0:0:0:0:
246,286,53592,1,8,0:0:0:0:
242,282,53703,1,0,0:0:0:0:
242,282,53925,1,0,0:0:0:0:
242,282,54036,1,0,0:0:0:0:
243,282,54091,1,8,0:0:0:0:
248,301,54258,1,0,0:0:0:0:
248,301,54369,1,0,0:0:0:0:
241,280,54591,1,8,0:0:0:0:
242,282,54702,1,0,0:0:0:0:
242,282,54758,1,0,0:0:0:0:
242,282,54813,1,8,0:0:0:0:
242,282,54869,1,8,0:0:0:0:
242,282,54924,1,0,0:0:0:0:
242,282,55035,1,8,0:0:0:0:
237,270,55257,1,0,0:0:0:0:
237,278,55368,1,0,0:0:0:0:
223,278,55590,1,8,0:0:0:0:
223,278,55701,1,0,0:0:0:0:
255,270,55757,1,0,0:0:0:0:
228,277,55812,1,8,0:0:0:0:
228,277,55923,1,0,0:0:0:0:
228,277,56035,1,8,0:0:0:0:
228,277,56257,1,0,0:0:0:0:
228,277,56368,1,0,0:0:0:0:
228,268,56590,1,8,0:0:0:0:
228,268,56923,1,0,0:0:0:0:
228,268,57034,1,8,0:0:0:0:
228,268,57256,1,0,0:0:0:0:
228,268,57367,1,0,0:0:0:0:
200,225,57589,1,8,0:0:0:0:
217,237,57645,1,8,0:0:0:0:
217,237,57700,1,0,0:0:0:0:
216,231,57922,1,0,0:0:0:0:
217,232,57978,1,0,0:0:0:0:
216,231,58033,1,8,0:0:0:0:
214,222,58255,1,0,0:0:0:0:
214,222,58366,1,0,0:0:0:0:
225,240,58588,1,8,0:0:0:0:
225,239,58644,1,0,0:0:0:0:
225,239,58699,1,0,0:0:0:0:
225,239,58922,1,0,0:0:0:0:
223,241,58977,1,8,0:0:0:0:
223,240,59033,1,8,0:0:0:0:
223,238,59255,1,0,0:0:0:0:
223,238,59366,1,0,0:0:0:0:
206,212,59477,1,8,0:0:0:0:
225,240,59588,1,8,0:0:0:0:
225,239,59699,1,0,0:0:0:0:
220,229,59921,1,0,0:0:0:0:
223,240,60032,1,8,0:0:0:0:
223,238,60254,1,0,0:0:0:0:
223,238,60365,1,0,0:0:0:0:
225,240,60587,1,8,0:0:0:0:
225,239,60698,1,0,0:0:0:0:
222,242,60920,1,0,0:0:0:0:
223,240,61031,1,8,0:0:0:0:
210,240,61253,1,0,0:0:0:0:
210,240,61364,1,0,0:0:0:0:
210,240,61587,1,0,0:0:0:0:
210,240,61698,1,8,0:0:0:0:
210,240,61809,1,0,0:0:0:0:
210,240,61920,1,0,0:0:0:0:
210,240,62031,1,8,0:0:0:0:
210,240,62142,1,8,0:0:0:0:
210,240,62253,1,0,0:0:0:0:
210,240,62364,1,0,0:0:0:0:
197,237,62419,1,8,0:0:0:0:
210,240,62586,1,8,0:0:0:0:
210,240,62641,1,8,0:0:0:0:
192,218,62697,1,0,0:0:0:0:
212,248,62919,1,0,0:0:0:0:
196,229,63030,1,8,0:0:0:0:
194,258,63252,1,0,0:0:0:0:
194,258,63363,1,0,0:0:0:0:
194,258,63585,1,8,0:0:0:0:
194,258,63696,1,0,0:0:0:0:
195,252,63752,1,8,0:0:0:0:
186,226,63918,1,8,0:0:0:0:
194,258,63974,1,0,0:0:0:0:
194,258,64029,1,8,0:0:0:0:
180,224,64085,1,8,0:0:0:0:
194,258,64251,1,0,0:0:0:0:
194,258,64363,1,0,0:0:0:0:
203,261,64585,1,8,0:0:0:0:
203,261,64696,1,0,0:0:0:0:
203,261,64807,1,0,0:0:0:0:
203,261,64918,1,0,0:0:0:0:
203,261,65029,1,8,0:0:0:0:
210,260,65251,1,0,0:0:0:0:
210,260,65362,1,0,0:0:0:0:
210,260,65584,1,8,0:0:0:0:
210,260,65695,1,0,0:0:0:0:
192,256,65862,1,0,0:0:0:0:
210,260,65917,1,0,0:0:0:0:
212,263,65973,1,8,0:0:0:0:
217,255,66028,1,8,0:0:0:0:
224,224,66250,1,0,0:0:0:0:
224,224,66361,1,0,0:0:0:0:
224,256,66583,1,8,0:0:0:0:
224,256,66694,1,0,0:0:0:0:
224,256,66916,1,0,0:0:0:0:
224,256,67027,1,8,0:0:0:0:
224,256,67139,1,8,0:0:0:0:
224,256,67250,1,0,0:0:0:0:
224,256,67361,1,0,0:0:0:0:
224,256,67583,1,8,0:0:0:0:
224,256,67694,1,0,0:0:0:0:
224,256,67916,1,8,0:0:0:0:
224,256,68027,1,8,0:0:0:0:
235,266,68138,1,0,0:0:0:0:
224,256,68249,1,0,0:0:0:0:
224,256,68360,1,0,0:0:0:0:
224,256,68582,1,8,0:0:0:0:
239,228,68638,1,0,0:0:0:0:
224,256,68693,1,8,0:0:0:0:
224,256,68915,1,0,0:0:0:0:
224,256,69026,1,8,0:0:0:0:
223,241,69248,1,0,0:0:0:0:
223,241,69359,1,0,0:0:0:0:
223,241,69581,1,8,0:0:0:0:
220,240,69637,1,0,0:0:0:0:
223,241,69692,1,8,0:0:0:0:
223,241,69915,1,0,0:0:0:0:
223,241,70026,1,8,0:0:0:0:
223,241,70137,1,8,0:0:0:0:
223,241,70248,1,0,0:0:0:0:
217,237,70359,1,0,0:0:0:0:
215,250,70581,1,8,0:0:0:0:
215,250,70692,1,0,0:0:0:0:
212,251,70747,1,8,0:0:0:0:
212,251,70803,1,8,0:0:0:0:
212,251,70914,1,0,0:0:0:0:
212,251,71025,1,8,0:0:0:0:
228,266,71247,1,0,0:0:0:0:
228,266,71358,1,0,0:0:0:0:
235,260,71580,1,8,0:0:0:0:
235,260,71691,1,0,0:0:0:0:
235,260,71913,1,0,0:0:0:0:
235,260,72024,1,8,0:0:0:0:
252,253,72135,1,8,0:0:0:0:
252,253,72246,1,0,0:0:0:0:
235,260,72357,1,0,0:0:0:0:
249,260,72579,1,8,0:0:0:0:
249,260,72691,1,0,0:0:0:0:
249,260,72913,1,8,0:0:0:0:
249,260,73024,1,8,0:0:0:0:
259,254,73246,1,0,0:0:0:0:
259,254,73357,1,0,0:0:0:0:
259,255,73579,1,8,0:0:0:0:
259,255,73690,1,8,0:0:0:0:
254,252,73801,1,0,0:0:0:0:
259,255,73912,1,8,0:0:0:0:
259,255,74023,1,0,0:0:0:0:
259,254,74245,1,0,0:0:0:0:
265,251,74356,1,0,0:0:0:0:
265,251,74578,1,8,0:0:0:0:
265,251,74689,1,0,0:0:0:0:
265,251,74911,1,8,0:0:0:0:
265,251,75022,1,8,0:0:0:0:
265,251,75244,1,0,0:0:0:0:
265,251,75355,1,0,0:0:0:0:
270,255,75578,1,8,0:0:0:0:
270,255,75689,1,0,0:0:0:0:
280,248,75911,1,8,0:0:0:0:
280,248,76022,1,8,0:0:0:0:
280,248,76244,1,0,0:0:0:0:
280,248,76355,1,0,0:0:0:0:
280,248,76577,1,8,0:0:0:0:
280,248,76688,1,0,0:0:0:0:
276,251,76799,1,0,0:0:0:0:
287,263,76910,1,0,0:0:0:0:
287,263,77021,1,8,0:0:0:0:
281,260,77243,1,0,0:0:0:0:
281,260,77354,1,0,0:0:0:0:
237,235,77465,1,8,0:0:0:0:
251,237,77521,1,8,0:0:0:0:
214,182,77576,1,8,0:0:0:0:
215,191,77632,1,0,0:0:0:0:
215,204,77854,1,0,0:0:0:0:
218,216,77909,1,8,0:0:0:0:
223,202,77965,1,8,0:0:0:0:
218,216,78020,1,0,0:0:0:0:
221,212,78243,1,0,0:0:0:0:
221,212,78354,1,0,0:0:0:0:
218,220,78576,1,8,0:0:0:0:
222,220,78687,1,8,0:0:0:0:
222,220,78909,1,0,0:0:0:0:
222,220,79020,1,8,0:0:0:0:
222,220,79242,1,0,0:0:0:0:
222,220,79353,1,0,0:0:0:0:
218,220,79575,1,8,0:0:0:0:
235,230,79908,1,0,0:0:0:0:
235,230,80019,1,8,0:0:0:0:
235,230,80241,1,0,0:0:0:0:
237,217,80352,1,0,0:0:0:0:
237,217,80574,1,8,0:0:0:0:
237,217,80685,1,8,0:0:0:0:
258,241,80796,1,0,0:0:0:0:
241,223,80907,1,8,0:0:0:0:
241,223,81019,1,8,0:0:0:0:
241,223,81241,1,0,0:0:0:0:
241,223,81352,1,0,0:0:0:0:
241,223,81574,1,8,0:0:0:0:
241,223,81685,1,0,0:0:0:0:
241,223,81796,1,0,0:0:0:0:
241,223,81907,1,8,0:0:0:0:
241,223,82018,1,8,0:0:0:0:
241,223,82129,1,8,0:0:0:0:
241,223,82240,1,0,0:0:0:0:
241,223,82351,1,0,0:0:0:0:
241,223,82573,1,8,0:0:0:0:
241,223,82684,1,0,0:0:0:0:
241,223,82906,1,8,0:0:0:0:
254,232,83017,1,8,0:0:0:0:
252,231,83239,1,0,0:0:0:0:
252,231,83350,1,0,0:0:0:0:
252,231,83572,1,8,0:0:0:0:
252,231,83683,1,8,0:0:0:0:
246,222,83795,1,8,0:0:0:0:
246,222,83906,1,0,0:0:0:0:
246,222,84017,1,8,0:0:0:0:
252,218,84239,1,0,0:0:0:0:
252,218,84350,1,0,0:0:0:0:
252,218,84572,1,8,0:0:0:0:
252,218,84683,1,0,0:0:0:0:
252,218,84905,1,0,0:0:0:0:
252,218,85016,1,8,0:0:0:0:
252,218,85127,1,8,0:0:0:0:
252,218,85238,1,0,0:0:0:0:
252,218,85349,1,0,0:0:0:0:
246,221,85571,1,8,0:0:0:0:
246,221,85682,1,0,0:0:0:0:
246,221,85904,1,0,0:0:0:0:
246,221,86015,1,8,0:0:0:0:
201,210,86126,1,0,0:0:0:0:
252,231,86237,1,0,0:0:0:0:
252,222,86348,1,0,0:0:0:0:
248,227,86571,1,8,0:0:0:0:
248,227,86682,1,0,0:0:0:0:
248,227,86904,1,8,0:0:0:0:
248,227,87015,1,8,0:0:0:0:
248,227,87237,1,0,0:0:0:0:
248,227,87348,1,0,0:0:0:0:
248,227,87570,1,8,0:0:0:0:
248,227,87681,1,0,0:0:0:0:
255,230,87903,1,0,0:0:0:0:
255,230,88014,1,8,0:0:0:0:
255,230,88236,1,8,0:0:0:0:
248,212,88347,1,4,0:0:0:0:
238,218,88569,1,8,0:0:0:0:
261,221,88902,1,0,0:0:0:0:
255,218,89013,1,8,0:0:0:0:
255,230,89235,1,0,0:0:0:0:
256,226,89347,1,0,0:0:0:0:
256,226,89569,1,8,0:0:0:0:
256,226,89680,1,0,0:0:0:0:
261,235,89902,1,8,0:0:0:0:
261,235,90013,1,8,0:0:0:0:
261,235,90235,1,0,0:0:0:0:
261,235,90346,1,0,0:0:0:0:
261,235,90568,1,8,0:0:0:0:
259,246,90901,1,0,0:0:0:0:
259,246,91012,1,8,0:0:0:0:
259,246,91234,1,0,0:0:0:0:
259,246,91345,1,0,0:0:0:0:
259,246,91567,1,8,0:0:0:0:
259,246,91678,1,0,0:0:0:0:
259,246,91789,1,0,0:0:0:0:
268,260,91900,1,8,0:0:0:0:
268,260,92011,1,8,0:0:0:0:
259,246,92123,1,8,0:0:0:0:
259,246,92234,1,0,0:0:0:0:
259,246,92345,1,0,0:0:0:0:
259,246,92567,1,8,0:0:0:0:
268,260,92900,1,0,0:0:0:0:
268,260,93011,1,8,0:0:0:0:
272,257,93233,1,0,0:0:0:0:
272,257,93344,1,0,0:0:0:0:
272,257,93566,1,8,0:0:0:0:
272,257,93677,1,8,0:0:0:0:
272,257,93788,1,0,0:0:0:0:
272,257,93899,1,8,0:0:0:0:
274,251,94010,1,0,0:0:0:0:
274,251,94232,1,0,0:0:0:0:
274,251,94343,1,0,0:0:0:0:
279,244,94565,1,8,0:0:0:0:
279,244,94899,1,8,0:0:0:0:
279,244,95010,1,8,0:0:0:0:
279,244,95232,1,0,0:0:0:0:
279,244,95343,1,0,0:0:0:0:
274,237,95454,1,0,0:0:0:0:
266,246,95509,1,8,0:0:0:0:
279,244,95565,1,8,0:0:0:0:
260,217,95676,1,0,0:0:0:0:
268,241,95731,1,0,0:0:0:0:
279,244,95787,1,8,0:0:0:0:
274,237,95898,1,0,0:0:0:0:
279,244,96009,1,8,0:0:0:0:
271,237,96231,1,0,0:0:0:0:
271,237,96342,1,0,0:0:0:0:
271,237,96564,1,8,0:0:0:0:
274,237,96897,1,0,0:0:0:0:
271,237,97008,1,8,0:0:0:0:
271,237,97230,1,0,0:0:0:0:
271,237,97341,1,0,0:0:0:0:
271,237,97563,1,8,0:0:0:0:
266,252,97675,1,0,0:0:0:0:
270,233,97897,1,8,0:0:0:0:
269,244,98008,1,8,0:0:0:0:
271,242,98119,1,0,0:0:0:0:
259,235,98230,1,0,0:0:0:0:
259,235,98341,1,0,0:0:0:0:
259,235,98563,1,8,0:0:0:0:
259,235,98896,1,8,0:0:0:0:
259,235,99007,1,8,0:0:0:0:
250,185,99229,1,0,0:0:0:0:
266,231,99340,1,0,0:0:0:0:
250,185,99396,1,8,0:0:0:0:
248,186,99562,1,8,0:0:0:0:
244,182,99618,1,0,0:0:0:0:
235,198,99673,1,8,0:0:0:0:
241,197,99729,1,0,0:0:0:0:
248,186,99895,1,0,0:0:0:0:
208,195,99951,1,0,0:0:0:0:
248,186,100006,1,8,0:0:0:0:
232,195,100228,1,0,0:0:0:0:
246,168,100339,5,0,0:0:0:0:
246,168,100451,1,8,0:0:0:0:
246,168,100562,1,8,0:0:0:0:
246,168,100673,1,0,0:0:0:0:
246,168,100784,1,8,0:0:0:0:
246,168,100895,1,0,0:0:0:0:
246,168,101006,1,8,0:0:0:0:
246,168,101117,1,8,0:0:0:0:
246,168,101228,1,0,0:0:0:0:
246,168,101339,1,0,0:0:0:0:
246,168,101450,1,8,0:0:0:0:
246,168,101561,1,8,0:0:0:0:
246,168,101672,1,0,0:0:0:0:
246,168,101783,1,8,0:0:0:0:
246,168,101894,1,0,0:0:0:0:
246,168,102005,1,8,0:0:0:0:
246,183,102116,1,8,0:0:0:0:
246,183,102227,1,0,0:0:0:0:
246,183,102338,1,0,0:0:0:0:
246,183,102449,1,8,0:0:0:0:
246,183,102560,1,8,0:0:0:0:
246,183,102671,1,0,0:0:0:0:
246,183,102782,1,8,0:0:0:0:
246,183,102893,1,0,0:0:0:0:
246,183,103004,1,8,0:0:0:0:
246,183,103115,1,8,0:0:0:0:
246,183,103227,1,0,0:0:0:0:
246,183,103338,1,0,0:0:0:0:
246,183,103449,1,8,0:0:0:0:
246,183,103560,1,8,0:0:0:0:
246,183,103671,1,0,0:0:0:0:
246,183,103782,1,8,0:0:0:0:
246,183,103893,1,0,0:0:0:0:
246,183,104004,1,8,0:0:0:0:
246,183,104115,1,8,0:0:0:0:
246,183,104226,1,0,0:0:0:0:
246,183,104337,1,0,0:0:0:0:
262,188,104559,1,8,0:0:0:0:
262,188,104670,1,0,0:0:0:0:
262,188,104892,1,0,0:0:0:0:
262,188,105003,1,8,0:0:0:0:
262,188,105225,1,0,0:0:0:0:
262,188,105336,1,0,0:0:0:0:
262,188,105558,1,8,0:0:0:0:
262,188,105669,1,0,0:0:0:0:
265,197,105780,1,0,0:0:0:0:
262,188,105891,1,8,0:0:0:0:
262,188,106003,1,8,0:0:0:0:
257,196,106114,1,8,0:0:0:0:
257,196,106225,1,0,0:0:0:0:
257,196,106336,1,0,0:0:0:0:
260,204,106447,1,8,0:0:0:0:
260,204,106558,1,8,0:0:0:0:
260,204,106669,1,0,0:0:0:0:
260,204,106780,1,8,0:0:0:0:
260,204,106891,1,8,0:0:0:0:
260,204,107002,1,8,0:0:0:0:
260,204,107113,1,8,0:0:0:0:
260,204,107224,1,0,0:0:0:0:
260,204,107335,1,0,0:0:0:0:
229,197,107391,1,8,0:0:0:0:
209,185,107557,5,8,0:0:0:0:
266,240,107613,1,0,0:0:0:0:
220,192,107668,1,0,0:0:0:0:
227,215,107724,1,8,0:0:0:0:
260,204,107835,1,0,0:0:0:0:
234,229,107890,1,0,0:0:0:0:
225,207,108001,5,8,0:0:0:0:
274,236,108057,1,0,0:0:0:0:
229,197,108112,1,8,0:0:0:0:
226,217,108168,1,8,0:0:0:0:
225,198,108223,1,0,0:0:0:0:
246,209,108334,1,0,0:0:0:0:
252,215,108556,1,8,0:0:0:0:
252,215,108667,1,0,0:0:0:0:
252,215,108890,1,0,0:0:0:0:
252,215,109001,1,8,0:0:0:0:
254,215,109112,1,8,0:0:0:0:
252,215,109223,1,0,0:0:0:0:
254,215,109334,1,0,0:0:0:0:
252,215,109556,1,8,0:0:0:0:
252,215,109667,1,0,0:0:0:0:
250,221,109778,1,0,0:0:0:0:
223,238,109833,1,8,0:0:0:0:
250,221,109889,1,0,0:0:0:0:
250,221,110000,1,8,0:0:0:0:
250,221,110111,1,8,0:0:0:0:
250,221,110222,1,0,0:0:0:0:
250,221,110333,1,0,0:0:0:0:
254,235,110555,1,8,0:0:0:0:
254,235,110666,1,0,0:0:0:0:
254,235,110888,1,8,0:0:0:0:
254,235,110999,1,8,0:0:0:0:
254,235,111221,1,0,0:0:0:0:
254,235,111332,1,0,0:0:0:0:
254,235,111388,1,8,0:0:0:0:
266,233,111555,1,8,0:0:0:0:
254,235,111666,1,0,0:0:0:0:
254,235,111888,1,0,0:0:0:0:
259,235,111999,1,8,0:0:0:0:
217,209,112221,1,8,0:0:0:0:
259,235,112332,1,4,0:0:0:0:
239,227,112554,1,8,0:0:0:0:
234,233,112887,1,0,0:0:0:0:
260,229,112998,1,8,0:0:0:0:
266,231,113220,1,0,0:0:0:0:
266,231,113331,1,0,0:0:0:0:
266,231,113553,1,8,0:0:0:0:
225,217,113886,1,0,0:0:0:0:
260,229,113942,1,8,0:0:0:0:
249,221,113997,1,8,0:0:0:0:
244,222,114219,1,8,0:0:0:0:
262,227,114330,1,4,0:0:0:0:
259,225,114553,1,8,0:0:0:0:
260,229,114886,1,8,0:0:0:0:
256,237,114997,1,0,0:0:0:0:
259,238,115219,1,0,0:0:0:0:
259,238,115330,1,0,0:0:0:0:
259,238,115552,1,8,0:0:0:0:
273,242,115885,1,0,0:0:0:0:
275,244,115996,1,8,0:0:0:0:
275,244,116107,1,0,0:0:0:0:
275,244,116218,1,8,0:0:0:0:
275,244,116329,1,4,0:0:0:0:
275,244,116551,1,8,0:0:0:0:
273,242,116884,1,0,0:0:0:0:
275,244,116995,1,8,0:0:0:0:
275,244,117218,1,0,0:0:0:0:
275,244,117329,1,0,0:0:0:0:
275,244,117551,1,8,0:0:0:0:
273,242,117884,1,8,0:0:0:0:
275,244,117995,1,0,0:0:0:0:
275,244,118217,1,8,0:0:0:0:
275,244,118328,1,4,0:0:0:0:
275,244,118550,1,8,0:0:0:0:
273,242,118661,1,0,0:0:0:0:
273,242,118772,1,0,0:0:0:0:
273,242,118883,1,8,0:0:0:0:
275,244,118994,1,8,0:0:0:0:
275,244,119105,1,8,0:0:0:0:
275,244,119216,1,0,0:0:0:0:
275,244,119327,1,0,0:0:0:0:
280,242,119438,1,8,0:0:0:0:
280,242,119549,1,8,0:0:0:0:
280,242,119660,1,0,0:0:0:0:
280,242,119771,1,0,0:0:0:0:
280,242,119883,1,8,0:0:0:0:
280,242,119994,1,8,0:0:0:0:
280,242,120105,1,8,0:0:0:0:
280,242,120216,1,0,0:0:0:0:
286,248,120327,1,12,0:0:0:0:
270,244,120826,1,0,0:0:0:0:
270,244,121326,1,8,0:0:0:0:
270,244,122325,1,0,0:0:0:0:
270,244,122825,1,8,0:0:0:0:
270,244,123325,1,8,0:0:0:0:
270,244,124324,1,0,0:0:0:0:
270,244,124824,1,0,0:0:0:0:
270,244,125323,1,8,0:0:0:0:
270,244,125823,1,8,0:0:0:0:
270,244,126323,1,0,0:0:0:0:
270,244,126822,1,8,0:0:0:0:
270,244,127322,1,0,0:0:0:0:
270,244,128322,1,0,0:0:0:0:
270,244,128821,1,0,0:0:0:0:
270,244,129321,1,8,0:0:0:0:
270,244,130320,1,0,0:0:0:0:
270,244,130820,1,8,0:0:0:0:
270,244,131320,1,8,0:0:0:0:
270,244,132319,1,0,0:0:0:0:
270,244,132819,1,0,0:0:0:0:
270,244,133318,1,8,0:0:0:0:
270,244,133818,1,8,0:0:0:0:
270,244,134318,1,0,0:0:0:0:
270,244,134817,1,0,0:0:0:0:
270,244,135317,1,8,0:0:0:0:
280,236,135428,1,0,0:0:0:0:
280,236,135539,1,0,0:0:0:0:
280,236,135650,1,8,0:0:0:0:
286,240,135761,5,0,0:0:0:0:
278,234,135872,1,0,0:0:0:0:
278,234,135983,1,8,0:0:0:0:
278,234,136094,1,8,0:0:0:0:
270,236,136205,1,8,0:0:0:0:
260,234,136316,1,4,0:0:0:0:
236,243,136538,1,8,0:0:0:0:
241,248,136650,1,0,0:0:0:0:
241,248,136872,1,8,0:0:0:0:
241,248,136983,1,8,0:0:0:0:
241,248,137205,1,0,0:0:0:0:
241,248,137316,1,0,0:0:0:0:
241,248,137427,1,8,0:0:0:0:
238,266,137538,1,8,0:0:0:0:
238,266,137649,1,0,0:0:0:0:
218,266,137760,1,0,0:0:0:0:
221,264,137871,1,8,0:0:0:0:
221,264,137982,1,0,0:0:0:0:
222,261,138204,1,0,0:0:0:0:
228,276,138260,1,8,0:0:0:0:
222,261,138315,1,0,0:0:0:0:
228,276,138426,1,0,0:0:0:0:
236,275,138537,1,8,0:0:0:0:
228,276,138593,1,8,0:0:0:0:
236,275,138648,1,0,0:0:0:0:
230,221,138870,1,0,0:0:0:0:
231,233,138981,1,8,0:0:0:0:
231,253,139203,1,0,0:0:0:0:
230,252,139314,1,0,0:0:0:0:
230,252,139537,1,8,0:0:0:0:
231,255,139870,1,0,0:0:0:0:
231,255,139981,1,8,0:0:0:0:
231,253,140203,1,0,0:0:0:0:
230,252,140314,1,0,0:0:0:0:
223,262,140536,1,8,0:0:0:0:
223,259,140647,1,8,0:0:0:0:
223,258,140869,1,0,0:0:0:0:
223,258,140980,1,8,0:0:0:0:
197,249,141147,1,8,0:0:0:0:
217,251,141202,1,0,0:0:0:0:
218,250,141313,1,0,0:0:0:0:
210,255,141480,1,8,0:0:0:0:
210,252,141535,1,8,0:0:0:0:
197,249,141591,1,0,0:0:0:0:
205,217,141646,1,0,0:0:0:0:
210,243,141813,1,8,0:0:0:0:
196,238,141868,1,0,0:0:0:0:
202,230,141924,1,0,0:0:0:0:
210,243,141979,1,8,0:0:0:0:
196,238,142202,1,0,0:0:0:0:
196,238,142313,1,0,0:0:0:0:
190,245,142535,1,8,0:0:0:0:
202,252,142590,1,8,0:0:0:0:
190,245,142646,1,0,0:0:0:0:
194,248,142868,1,0,0:0:0:0:
194,248,142979,1,8,0:0:0:0:
194,249,143201,1,0,0:0:0:0:
194,249,143312,1,0,0:0:0:0:
190,245,143534,1,8,0:0:0:0:
190,245,143645,1,0,0:0:0:0:
187,245,143867,1,0,0:0:0:0:
187,245,143978,1,8,0:0:0:0:
183,240,144089,1,8,0:0:0:0:
183,240,144200,1,0,0:0:0:0:
183,240,144311,1,0,0:0:0:0:
196,239,144533,1,0,0:0:0:0:
196,239,144644,1,8,0:0:0:0:
196,239,144866,1,8,0:0:0:0:
196,239,144978,1,8,0:0:0:0:
196,239,145200,1,0,0:0:0:0:
196,239,145311,1,0,0:0:0:0:
196,239,145533,1,8,0:0:0:0:
196,239,145644,1,0,0:0:0:0:
196,230,145755,1,8,0:0:0:0:
196,230,145866,1,0,0:0:0:0:
196,230,145977,1,8,0:0:0:0:
196,230,146088,1,8,0:0:0:0:
196,230,146199,1,0,0:0:0:0:
196,230,146310,1,0,0:0:0:0:
210,245,146532,5,8,0:0:0:0:
204,244,146643,1,0,0:0:0:0:
210,245,146865,1,8,0:0:0:0:
210,245,146976,1,0,0:0:0:0:
220,249,147198,5,0,0:0:0:0:
220,249,147309,1,0,0:0:0:0:
220,249,147531,1,8,0:0:0:0:
220,249,147642,1,0,0:0:0:0:
220,249,147698,1,8,0:0:0:0:
220,249,147754,1,8,0:0:0:0:
220,250,147809,1,8,0:0:0:0:
224,247,147865,1,0,0:0:0:0:
220,250,147976,1,8,0:0:0:0:
223,267,148198,1,0,0:0:0:0:
234,264,148309,1,0,0:0:0:0:
234,262,148420,1,8,0:0:0:0:
234,262,148475,1,0,0:0:0:0:
234,262,148531,1,8,0:0:0:0:
234,265,148642,1,0,0:0:0:0:
220,249,148697,1,0,0:0:0:0:
234,265,148753,1,8,0:0:0:0:
234,265,148808,1,8,0:0:0:0:
234,265,148864,1,0,0:0:0:0:
234,265,148975,1,8,0:0:0:0:
221,260,149030,1,0,0:0:0:0:
234,265,149086,1,8,0:0:0:0:
234,264,149197,1,0,0:0:0:0:
234,264,149308,1,0,0:0:0:0:
249,258,149419,1,8,0:0:0:0:
249,258,149530,1,8,0:0:0:0:
217,211,149641,1,0,0:0:0:0:
253,222,149697,1,0,0:0:0:0:
230,237,149808,1,8,0:0:0:0:
230,237,149863,1,0,0:0:0:0:
230,237,149919,1,0,0:0:0:0:
228,239,149974,1,8,0:0:0:0:
224,221,150085,1,0,0:0:0:0:
195,213,150141,1,0,0:0:0:0:
188,218,150196,1,0,0:0:0:0:
228,234,150252,1,0,0:0:0:0:
207,221,150307,1,8,0:0:0:0:
149,211,150641,1,0,0:0:0:0:
198,226,150752,1,8,0:0:0:0:
198,226,150863,1,0,0:0:0:0:
198,226,150974,1,8,0:0:0:0:
212,227,151085,1,8,0:0:0:0:
212,227,151196,1,0,0:0:0:0:
212,227,151307,1,0,0:0:0:0:
212,227,151418,1,8,0:0:0:0:
212,227,151529,1,8,0:0:0:0:
212,227,151640,1,0,0:0:0:0:
212,227,151751,1,8,0:0:0:0:
212,227,151862,1,0,0:0:0:0:
212,227,151973,1,8,0:0:0:0:
212,227,152084,1,8,0:0:0:0:
212,227,152195,1,8,0:0:0:0:
212,227,152306,1,4,0:0:0:0:
212,203,152528,1,8,0:0:0:0:
212,203,152639,1,0,0:0:0:0:
212,203,152861,1,0,0:0:0:0:
212,203,152972,1,8,0:0:0:0:
212,203,153083,1,8,0:0:0:0:
212,203,153194,1,0,0:0:0:0:
212,203,153305,1,0,0:0:0:0:
212,203,153527,1,8,0:0:0:0:
212,203,153638,1,0,0:0:0:0:
212,203,153750,1,0,0:0:0:0:
212,203,153861,1,8,0:0:0:0:
212,203,153916,1,8,0:0:0:0:
212,203,153972,1,0,0:0:0:0:
225,218,154194,1,0,0:0:0:0:
219,221,154305,1,0,0:0:0:0:
230,204,154527,1,8,0:0:0:0:
203,212,154638,1,0,0:0:0:0:
220,199,154860,5,8,0:0:0:0:
220,199,154971,1,8,0:0:0:0:
220,199,155193,1,0,0:0:0:0:
220,199,155304,1,0,0:0:0:0:
220,199,155526,1,8,0:0:0:0:
220,199,155637,1,0,0:0:0:0:
220,199,155748,1,8,0:0:0:0:
211,217,155804,1,0,0:0:0:0:
220,199,155859,1,0,0:0:0:0:
224,209,155970,1,8,0:0:0:0:
223,209,156192,1,0,0:0:0:0:
223,209,156303,1,0,0:0:0:0:
233,214,156526,1,8,0:0:0:0:
233,214,156637,1,0,0:0:0:0:
233,214,156748,1,0,0:0:0:0:
243,222,156859,1,0,0:0:0:0:
243,222,156970,1,8,0:0:0:0:
243,222,157192,1,0,0:0:0:0:
243,222,157303,1,0,0:0:0:0:
243,214,157525,5,8,0:0:0:0:
243,214,157636,1,0,0:0:0:0:
251,226,157747,5,8,0:0:0:0:
251,226,157858,1,8,0:0:0:0:
251,226,157969,1,0,0:0:0:0:
251,226,158191,1,0,0:0:0:0:
251,226,158302,1,0,0:0:0:0:
221,224,158524,1,8,0:0:0:0:
221,225,158635,1,0,0:0:0:0:
242,254,158691,1,0,0:0:0:0:
232,233,158802,1,8,0:0:0:0:
216,218,158857,1,0,0:0:0:0:
216,218,158968,1,8,0:0:0:0:
221,224,159190,1,0,0:0:0:0:
221,224,159302,1,0,0:0:0:0:
221,224,159524,1,8,0:0:0:0:
221,225,159635,1,0,0:0:0:0:
218,224,159746,1,8,0:0:0:0:
233,231,159801,1,0,0:0:0:0:
218,224,159857,1,0,0:0:0:0:
218,224,159968,1,8,0:0:0:0:
221,224,160190,1,0,0:0:0:0:
221,224,160301,1,0,0:0:0:0:
212,219,160523,1,8,0:0:0:0:
213,219,160634,1,0,0:0:0:0:
213,219,160745,1,0,0:0:0:0:
213,219,160856,1,8,0:0:0:0:
213,219,160967,1,8,0:0:0:0:
213,219,161189,1,0,0:0:0:0:
225,210,161300,1,0,0:0:0:0:
225,211,161522,1,8,0:0:0:0:
225,211,161633,1,0,0:0:0:0:
217,228,161689,1,8,0:0:0:0:
235,230,161911,1,8,0:0:0:0:
249,243,161967,1,0,0:0:0:0:
222,236,162189,1,0,0:0:0:0:
222,236,162300,1,0,0:0:0:0:
232,238,162522,1,8,0:0:0:0:
244,236,162577,1,0,0:0:0:0:
222,242,162633,1,0,0:0:0:0:
238,260,162799,1,8,0:0:0:0:
238,251,162855,1,0,0:0:0:0:
238,251,162966,1,8,0:0:0:0:
238,251,163188,1,0,0:0:0:0:
238,251,163299,1,0,0:0:0:0:
247,257,163521,1,8,0:0:0:0:
247,257,163632,1,0,0:0:0:0:
248,220,163743,1,0,0:0:0:0:
264,259,163854,1,8,0:0:0:0:
247,257,163965,1,8,0:0:0:0:
247,257,164076,1,8,0:0:0:0:
283,274,164187,1,0,0:0:0:0:
263,259,164298,1,0,0:0:0:0:
247,257,164520,1,8,0:0:0:0:
247,257,164631,1,0,0:0:0:0:
245,257,164854,1,8,0:0:0:0:
247,257,164965,1,8,0:0:0:0:
250,262,165187,1,0,0:0:0:0:
250,262,165298,1,0,0:0:0:0:
250,262,165520,1,8,0:0:0:0:
241,255,165631,1,0,0:0:0:0:
236,261,165686,1,0,0:0:0:0:
259,246,165742,1,8,0:0:0:0:
220,251,165909,1,8,0:0:0:0:
244,277,165964,1,8,0:0:0:0:
234,265,166020,1,0,0:0:0:0:
244,268,166186,1,0,0:0:0:0:
244,268,166297,1,0,0:0:0:0:
244,268,166519,1,8,0:0:0:0:
244,268,166630,1,0,0:0:0:0:
244,268,166852,1,0,0:0:0:0:
244,268,166963,1,8,0:0:0:0:
244,268,167185,1,0,0:0:0:0:
244,268,167296,1,0,0:0:0:0:
244,268,167518,1,8,0:0:0:0:
244,268,167630,1,0,0:0:0:0:
263,286,167685,1,0,0:0:0:0:
258,275,167741,1,8,0:0:0:0:
258,275,167852,1,0,0:0:0:0:
258,275,167963,1,8,0:0:0:0:
258,275,168074,1,8,0:0:0:0:
258,275,168185,1,0,0:0:0:0:
251,266,168296,1,0,0:0:0:0:
257,279,168518,1,8,0:0:0:0:
257,279,168629,1,0,0:0:0:0:
258,275,168851,1,0,0:0:0:0:
258,275,168962,1,8,0:0:0:0:
266,274,169018,1,8,0:0:0:0:
258,275,169184,1,0,0:0:0:0:
257,279,169295,1,0,0:0:0:0:
257,279,169517,1,8,0:0:0:0:
257,279,169628,1,0,0:0:0:0:
257,279,169850,1,8,0:0:0:0:
257,285,169906,1,0,0:0:0:0:
257,279,169962,1,0,0:0:0:0:
257,285,170184,1,0,0:0:0:0:
243,282,170295,1,0,0:0:0:0:
243,282,170517,1,8,0:0:0:0:
243,282,170628,1,0,0:0:0:0:
243,282,170850,1,8,0:0:0:0:
256,256,170905,1,8,0:0:0:0:
243,282,170961,1,0,0:0:0:0:
257,285,171183,1,0,0:0:0:0:
255,284,171294,1,0,0:0:0:0:
255,284,171516,1,8,0:0:0:0:
255,284,171627,1,0,0:0:0:0:
255,284,171849,1,8,0:0:0:0:
255,284,171960,1,8,0:0:0:0:
272,273,172182,1,0,0:0:0:0:
267,272,172293,1,0,0:0:0:0:
265,271,172515,1,8,0:0:0:0:
265,271,172626,1,0,0:0:0:0:
265,271,172849,1,0,0:0:0:0:
265,271,172960,1,8,0:0:0:0:
247,250,173015,1,8,0:0:0:0:
271,265,173182,1,0,0:0:0:0:
271,265,173293,1,0,0:0:0:0:
271,265,173515,1,8,0:0:0:0:
256,256,173626,1,0,0:0:0:0:
247,250,173737,1,0,0:0:0:0:
256,256,173848,1,8,0:0:0:0:
256,256,173903,1,0,0:0:0:0:
256,256,173959,1,0,0:0:0:0:
256,256,174014,1,8,0:0:0:0:
256,256,174181,1,0,0:0:0:0:
256,256,174292,1,0,0:0:0:0:
256,256,174514,1,8,0:0:0:0:
244,249,174570,1,0,0:0:0:0:
256,256,174625,1,0,0:0:0:0:
253,244,174792,1,8,0:0:0:0:
256,256,174847,1,8,0:0:0:0:
197,246,174903,1,0,0:0:0:0:
256,256,174958,1,8,0:0:0:0:
256,256,175180,1,0,0:0:0:0:
256,256,175291,1,0,0:0:0:0:
256,256,175514,1,8,0:0:0:0:
225,247,175569,1,8,0:0:0:0:
256,256,175625,1,0,0:0:0:0:
229,239,175791,1,8,0:0:0:0:
256,256,175847,1,0,0:0:0:0:
188,246,175902,1,8,0:0:0:0:
224,256,175958,1,8,0:0:0:0:
224,256,176180,1,0,0:0:0:0:
224,256,176291,1,0,0:0:0:0:
224,256,176513,1,8,0:0:0:0:
224,256,176846,1,8,0:0:0:0:
224,256,176957,1,8,0:0:0:0:
224,256,177179,1,0,0:0:0:0:
224,256,177290,1,0,0:0:0:0:
224,256,177512,1,8,0:0:0:0:
224,256,177623,1,0,0:0:0:0:
224,256,177845,1,8,0:0:0:0:
224,256,177956,1,8,0:0:0:0:
224,256,178067,1,0,0:0:0:0:
224,256,178178,1,0,0:0:0:0:
224,256,178290,1,0,0:0:0:0:
224,256,178512,1,8,0:0:0:0:
224,256,178623,1,0,0:0:0:0:
224,256,178845,1,8,0:0:0:0:
224,256,178956,1,8,0:0:0:0:
224,256,179067,1,8,0:0:0:0:
224,256,179178,1,0,0:0:0:0:
224,256,179289,1,0,0:0:0:0:
224,256,179511,1,8,0:0:0:0:
224,256,179622,1,0,0:0:0:0:
224,256,179844,1,8,0:0:0:0:
224,256,179955,1,8,0:0:0:0:
192,256,180066,1,0,0:0:0:0:
192,256,180122,1,8,0:0:0:0:
192,256,180177,1,0,0:0:0:0:
192,256,180233,1,8,0:0:0:0:
192,256,180288,1,0,0:0:0:0:
192,256,180510,1,8,0:0:0:0:
192,256,180621,1,0,0:0:0:0:
192,256,180843,1,0,0:0:0:0:
192,256,180954,1,8,0:0:0:0:
192,256,181066,1,8,0:0:0:0:
192,256,181177,1,0,0:0:0:0:
192,256,181288,1,0,0:0:0:0:
192,256,181510,1,8,0:0:0:0:
192,256,181621,1,0,0:0:0:0:
192,256,181732,1,8,0:0:0:0:
192,256,181787,1,0,0:0:0:0:
192,256,181843,1,0,0:0:0:0:
192,256,181954,1,8,0:0:0:0:
192,256,182176,1,0,0:0:0:0:
192,256,182287,1,0,0:0:0:0:
192,256,182398,1,8,0:0:0:0:
192,256,182509,1,8,0:0:0:0:
192,256,182620,1,0,0:0:0:0:
192,256,182676,1,8,0:0:0:0:
192,256,182731,1,0,0:0:0:0:
192,256,182787,1,8,0:0:0:0:
192,256,182842,1,0,0:0:0:0:
192,256,182953,1,8,0:0:0:0:
192,256,183009,1,8,0:0:0:0:
192,256,183064,1,0,0:0:0:0:
192,224,183175,1,0,0:0:0:0:
192,256,183231,1,8,0:0:0:0:
192,256,183286,1,0,0:0:0:0:
192,256,183508,1,8,0:0:0:0:
192,256,183619,1,0,0:0:0:0:
192,224,183842,1,0,0:0:0:0:
192,224,183953,1,8,0:0:0:0:
192,224,184175,1,0,0:0:0:0:
192,224,184286,1,0,0:0:0:0:
192,256,184397,1,8,0:0:0:0:
192,256,184508,1,8,0:0:0:0:
192,256,184619,1,0,0:0:0:0:
192,256,184730,1,8,0:0:0:0:
192,256,184841,1,0,0:0:0:0:
192,256,184952,1,8,0:0:0:0:
192,256,185063,1,8,0:0:0:0:
192,256,185174,1,0,0:0:0:0:
192,256,185285,1,0,0:0:0:0:
192,256,185396,1,8,0:0:0:0:
192,256,185507,1,8,0:0:0:0:
192,256,185618,1,0,0:0:0:0:
192,256,185729,1,8,0:0:0:0:
192,256,185785,1,8,0:0:0:0:
192,256,185840,1,0,0:0:0:0:
192,256,185951,1,0,0:0:0:0:
192,256,186062,1,8,0:0:0:0:
192,256,186118,1,8,0:0:0:0:
192,256,186173,1,0,0:0:0:0:
192,256,186284,1,0,0:0:0:0:
192,256,186395,1,8,0:0:0:0:
192,256,186451,1,0,0:0:0:0:
192,256,186506,1,8,0:0:0:0:
192,256,186618,1,0,0:0:0:0:
192,256,186729,1,8,0:0:0:0:
192,256,186784,1,8,0:0:0:0:
192,256,186840,1,0,0:0:0:0:
192,256,186951,1,8,0:0:0:0:
192,256,187062,1,8,0:0:0:0:
192,256,187117,1,8,0:0:0:0:
192,256,187173,1,0,0:0:0:0:
192,256,187284,1,0,0:0:0:0:
192,256,187395,1,8,0:0:0:0:
192,256,187450,1,0,0:0:0:0:
192,256,187506,1,8,0:0:0:0:
192,256,187617,1,0,0:0:0:0:
192,256,187728,1,8,0:0:0:0:
192,256,187783,1,8,0:0:0:0:
192,256,187839,1,0,0:0:0:0:
192,256,187950,1,8,0:0:0:0:
192,256,188061,1,8,0:0:0:0:
192,256,188117,1,8,0:0:0:0:
192,256,188172,1,0,0:0:0:0:
192,256,188283,1,0,0:0:0:0:
192,256,188394,1,8,0:0:0:0:
192,256,188505,1,8,0:0:0:0:
192,256,188616,1,0,0:0:0:0:
192,256,188727,1,8,0:0:0:0:
192,256,188838,1,0,0:0:0:0:
192,256,188949,1,8,0:0:0:0:
192,256,189060,1,8,0:0:0:0:
192,256,189171,1,0,0:0:0:0:
192,256,189282,1,0,0:0:0:0:
192,256,189394,1,8,0:0:0:0:
192,256,189505,1,8,0:0:0:0:
192,256,189616,1,0,0:0:0:0:
192,256,189727,1,8,0:0:0:0:
192,256,189838,5,0,0:0:0:0:
192,256,189949,1,8,0:0:0:0:
192,256,190060,1,8,0:0:0:0:
192,256,190171,1,0,0:0:0:0:
192,256,190282,1,0,0:0:0:0:
192,256,190504,1,8,0:0:0:0:
192,256,190559,5,8,0:0:0:0:
192,256,190615,1,0,0:0:0:0:
192,256,190837,1,0,0:0:0:0:
192,256,190948,1,8,0:0:0:0:
192,256,191170,1,0,0:0:0:0:
192,256,191281,1,0,0:0:0:0:
192,256,191503,1,8,0:0:0:0:
192,256,191614,1,8,0:0:0:0:
192,256,191836,1,0,0:0:0:0:
192,256,191947,1,8,0:0:0:0:
192,256,192170,1,0,0:0:0:0:
192,256,192281,1,0,0:0:0:0:
192,256,192503,1,8,0:0:0:0:
192,256,192614,1,0,0:0:0:0:
192,256,192836,1,0,0:0:0:0:
192,256,192947,1,8,0:0:0:0:
186,236,193002,1,0,0:0:0:0:
192,256,193058,1,8,0:0:0:0:
192,256,193169,1,0,0:0:0:0:
192,256,193280,1,0,0:0:0:0:
192,256,193502,1,8,0:0:0:0:
192,256,193613,1,0,0:0:0:0:
192,256,193835,1,8,0:0:0:0:
192,256,193946,1,0,0:0:0:0:
192,256,194002,1,0,0:0:0:0:
192,256,194057,1,8,0:0:0:0:
192,224,194168,1,0,0:0:0:0:
192,256,194279,1,0,0:0:0:0:
192,256,194446,1,8,0:0:0:0:
192,256,194501,1,8,0:0:0:0:
206,254,194612,1,0,0:0:0:0:
192,256,194834,1,0,0:0:0:0:
192,256,194946,1,8,0:0:0:0:
224,256,195001,1,0,0:0:0:0:
224,256,195057,1,8,0:0:0:0:
192,256,195168,1,0,0:0:0:0:
192,256,195279,1,0,0:0:0:0:
212,259,195334,1,8,0:0:0:0:
192,256,195390,1,0,0:0:0:0:
192,256,195445,1,0,0:0:0:0:
192,256,195501,1,8,0:0:0:0:
192,256,195945,1,8,0:0:0:0:
192,256,196056,1,8,0:0:0:0:
192,256,196167,1,0,0:0:0:0:
192,256,196278,1,0,0:0:0:0:
192,256,196500,1,8,0:0:0:0:
192,256,196611,1,0,0:0:0:0:
192,256,196833,1,8,0:0:0:0:
192,256,196944,1,8,0:0:0:0:
192,256,197166,1,0,0:0:0:0:
192,256,197277,1,0,0:0:0:0:
192,256,197499,1,8,0:0:0:0:
192,256,197610,1,0,0:0:0:0:
192,256,197833,1,0,0:0:0:0:
192,256,197944,1,8,0:0:0:0:
192,256,198166,5,0,0:0:0:0:
192,256,198277,1,0,0:0:0:0:
192,256,198499,1,8,0:0:0:0:
192,256,198610,1,0,0:0:0:0:
192,256,198721,5,0,0:0:0:0:
192,256,198832,1,8,0:0:0:0:
192,256,198943,1,8,0:0:0:0:
192,256,199054,1,8,0:0:0:0:
192,256,199165,1,0,0:0:0:0:
192,256,199276,1,0,0:0:0:0:
192,256,199387,1,0,0:0:0:0:
192,256,199498,1,8,0:0:0:0:
192,256,199609,1,0,0:0:0:0:
192,256,199720,1,8,0:0:0:0:
192,256,199831,1,8,0:0:0:0:
192,256,199942,1,0,0:0:0:0:
192,256,200053,1,0,0:0:0:0:
192,256,200164,1,8,0:0:0:0:
192,256,200275,1,4,0:0:0:0:
228,180,200498,1,8,0:0:0:0:
192,224,200609,1,0,0:0:0:0:
243,193,200831,1,0,0:0:0:0:
243,193,200942,1,8,0:0:0:0:
257,228,201165,1,0,0:0:0:0:
257,228,201276,1,0,0:0:0:0:
257,228,201498,1,8,0:0:0:0:
232,220,201608,1,0,0:0:0:0:
252,228,201831,1,8,0:0:0:0:
252,228,201942,1,0,0:0:0:0:
232,220,202108,1,8,0:0:0:0:
231,185,202164,1,0,0:0:0:0:
228,194,202219,1,0,0:0:0:0:
231,185,202275,1,0,0:0:0:0:
231,185,202497,1,8,0:0:0:0:
160,192,202607,1,0,0:0:0:0:
236,198,202830,1,8,0:0:0:0:
230,170,202941,1,8,0:0:0:0:
242,201,203163,1,0,0:0:0:0:
242,201,203274,1,0,0:0:0:0:
222,189,203496,1,8,0:0:0:0:
223,189,203607,1,0,0:0:0:0:
241,216,203830,1,8,0:0:0:0:
249,216,203941,1,0,0:0:0:0:
254,213,204052,1,8,0:0:0:0:
245,236,204163,1,0,0:0:0:0:
245,236,204274,1,0,0:0:0:0:
256,256,204495,1,8,0:0:0:0:
256,256,204606,1,0,0:0:0:0:
237,232,204829,1,0,0:0:0:0:
237,232,204940,1,8,0:0:0:0:
224,224,205106,1,8,0:0:0:0:
241,242,205161,1,0,0:0:0:0:
224,256,205217,1,8,0:0:0:0:
241,242,205273,1,0,0:0:0:0:
241,242,205495,1,8,0:0:0:0:
224,256,205605,1,0,0:0:0:0:
257,249,205828,1,8,0:0:0:0:
257,249,205939,1,8,0:0:0:0:
208,256,206105,1,0,0:0:0:0:
257,249,206161,1,0,0:0:0:0:
223,238,206217,1,8,0:0:0:0:
236,255,206272,1,0,0:0:0:0:
238,262,206494,1,8,0:0:0:0:
224,256,206605,1,0,0:0:0:0:
238,262,206828,1,8,0:0:0:0:
238,262,206939,1,8,0:0:0:0:
238,262,207161,1,0,0:0:0:0:
238,262,207272,1,0,0:0:0:0:
238,262,207494,1,8,0:0:0:0:
212,226,207605,1,0,0:0:0:0:
238,262,207827,1,0,0:0:0:0:
185,214,207938,1,8,0:0:0:0:
205,233,208160,1,0,0:0:0:0:
205,233,208271,1,0,0:0:0:0:
205,233,208493,1,8,0:0:0:0:
192,256,208603,1,0,0:0:0:0:
185,222,208826,1,0,0:0:0:0:
185,222,208937,1,8,0:0:0:0:
201,222,209159,1,0,0:0:0:0:
200,222,209270,1,0,0:0:0:0:
200,222,209493,1,8,0:0:0:0:
192,192,209603,1,0,0:0:0:0:
199,228,209714,1,0,0:0:0:0:
200,230,209826,1,8,0:0:0:0:
155,182,209937,1,0,0:0:0:0:
194,227,210103,1,8,0:0:0:0:
200,230,210159,1,0,0:0:0:0:
201,203,210214,1,0,0:0:0:0:
199,230,210270,1,0,0:0:0:0:
197,213,210492,1,8,0:0:0:0:
192,256,210602,1,0,0:0:0:0:
197,213,210825,1,8,0:0:0:0:
197,210,210936,1,8,0:0:0:0:
197,213,211158,1,0,0:0:0:0:
197,213,211269,1,0,0:0:0:0:
197,213,211491,1,8,0:0:0:0:
192,192,211602,1,0,0:0:0:0:
197,213,211824,1,0,0:0:0:0:
197,210,211935,1,8,0:0:0:0:
197,226,212046,1,8,0:0:0:0:
201,200,212158,1,0,0:0:0:0:
201,198,212269,1,0,0:0:0:0:
201,198,212491,1,8,0:0:0:0:
197,213,212602,1,0,0:0:0:0:
200,198,212824,1,0,0:0:0:0:
200,198,212935,1,8,0:0:0:0:
201,200,213157,1,0,0:0:0:0:
201,198,213268,1,0,0:0:0:0:
201,198,213490,1,8,0:0:0:0:
201,198,213601,1,0,0:0:0:0:
189,215,213767,1,8,0:0:0:0:
200,198,213823,1,8,0:0:0:0:
240,220,213879,1,8,0:0:0:0:
200,198,213934,1,0,0:0:0:0:
201,200,214156,1,0,0:0:0:0:
201,198,214267,1,8,0:0:0:0:
215,222,214378,1,0,0:0:0:0:
209,200,214489,1,0,0:0:0:0:
209,200,214600,1,8,0:0:0:0:
209,200,214711,1,0,0:0:0:0:
209,200,214822,1,0,0:0:0:0:
209,200,214934,1,8,0:0:0:0:
209,200,215045,1,8,0:0:0:0:
209,200,215156,1,0,0:0:0:0:
209,200,215267,1,8,0:0:0:0:
209,200,215378,1,0,0:0:0:0:
209,200,215489,1,0,0:0:0:0:
209,200,215600,1,8,0:0:0:0:
209,200,215711,1,8,0:0:0:0:
209,200,215822,1,0,0:0:0:0:
209,200,215933,1,8,0:0:0:0:
209,200,216044,1,8,0:0:0:0:
209,200,216155,1,8,0:0:0:0:
209,200,216266,1,4,0:0:0:0:
212,203,216488,1,8,0:0:0:0:
212,203,216599,1,0,0:0:0:0:
212,203,216821,1,0,0:0:0:0:
212,203,216932,1,8,0:0:0:0:
212,203,217043,1,8,0:0:0:0:
212,203,217154,1,0,0:0:0:0:
212,203,217265,1,0,0:0:0:0:
212,203,217487,1,8,0:0:0:0:
212,203,217598,1,0,0:0:0:0:
212,203,217710,1,0,0:0:0:0:
212,203,217821,1,8,0:0:0:0:
212,203,217876,1,8,0:0:0:0:
212,203,217932,1,0,0:0:0:0:
225,218,218154,1,0,0:0:0:0:
219,221,218265,1,0,0:0:0:0:
230,204,218487,1,8,0:0:0:0:
192,192,218597,1,0,0:0:0:0:
220,199,218820,5,8,0:0:0:0:
220,199,218931,1,8,0:0:0:0:
220,199,219153,1,0,0:0:0:0:
220,199,219264,1,0,0:0:0:0:
220,199,219486,1,8,0:0:0:0:
220,199,219597,1,0,0:0:0:0:
220,199,219708,1,8,0:0:0:0:
211,217,219764,1,8,0:0:0:0:
220,199,219819,1,0,0:0:0:0:
224,209,219930,1,8,0:0:0:0:
223,209,220152,1,0,0:0:0:0:
223,209,220263,1,0,0:0:0:0:
233,214,220486,1,8,0:0:0:0:
233,214,220597,1,0,0:0:0:0:
233,214,220708,1,0,0:0:0:0:
243,222,220819,1,0,0:0:0:0:
243,222,220930,1,8,0:0:0:0:
243,222,221152,1,0,0:0:0:0:
243,222,221263,1,0,0:0:0:0:
243,214,221485,5,8,0:0:0:0:
243,214,221596,1,0,0:0:0:0:
251,226,221707,5,8,0:0:0:0:
251,226,221818,1,8,0:0:0:0:
251,226,221929,1,0,0:0:0:0:
251,226,222151,1,0,0:0:0:0:
251,226,222262,1,0,0:0:0:0:
221,224,222484,1,8,0:0:0:0:
221,225,222595,1,0,0:0:0:0:
216,218,222817,1,8,0:0:0:0:
216,218,222928,1,8,0:0:0:0:
221,224,223150,1,0,0:0:0:0:
221,224,223262,1,0,0:0:0:0:
221,224,223484,1,8,0:0:0:0:
221,225,223595,1,0,0:0:0:0:
209,235,223650,1,8,0:0:0:0:
218,224,223706,1,8,0:0:0:0:
218,224,223817,1,0,0:0:0:0:
218,224,223928,1,8,0:0:0:0:
221,224,224150,1,0,0:0:0:0:
221,224,224261,1,0,0:0:0:0:
212,219,224483,1,8,0:0:0:0:
213,219,224594,1,0,0:0:0:0:
213,219,224705,1,0,0:0:0:0:
213,219,224816,1,8,0:0:0:0:
213,219,224927,1,8,0:0:0:0:
213,219,225149,1,0,0:0:0:0:
225,210,225260,1,0,0:0:0:0:
225,211,225482,1,8,0:0:0:0:
225,211,225593,1,0,0:0:0:0:
217,228,225815,1,0,0:0:0:0:
234,237,225871,1,0,0:0:0:0:
234,235,225926,1,8,0:0:0:0:
232,244,226038,1,8,0:0:0:0:
222,236,226149,1,0,0:0:0:0:
222,236,226260,1,0,0:0:0:0:
232,238,226482,1,8,0:0:0:0:
224,224,226592,1,0,0:0:0:0:
238,251,226815,1,8,0:0:0:0:
238,251,226926,1,8,0:0:0:0:
238,251,227148,1,0,0:0:0:0:
238,251,227259,1,0,0:0:0:0:
247,257,227481,1,8,0:0:0:0:
247,257,227592,1,0,0:0:0:0:
294,264,227648,1,8,0:0:0:0:
248,220,227703,1,8,0:0:0:0:
247,257,227925,1,8,0:0:0:0:
247,257,228036,1,8,0:0:0:0:
283,274,228147,1,0,0:0:0:0:
263,259,228258,1,0,0:0:0:0:
247,257,228480,1,8,0:0:0:0:
247,257,228591,1,0,0:0:0:0:
245,257,228814,1,8,0:0:0:0:
247,257,228925,1,8,0:0:0:0:
250,262,229147,1,0,0:0:0:0:
250,262,229258,1,0,0:0:0:0:
250,262,229480,1,8,0:0:0:0:
248,275,229591,1,8,0:0:0:0:
259,246,229702,1,0,0:0:0:0:
244,277,229813,1,0,0:0:0:0:
244,277,229924,1,8,0:0:0:0:
244,268,230146,1,0,0:0:0:0:
244,268,230257,1,0,0:0:0:0:
244,268,230479,1,8,0:0:0:0:
244,268,230590,1,0,0:0:0:0:
244,268,230812,1,8,0:0:0:0:
244,268,230923,1,8,0:0:0:0:
244,268,231145,1,0,0:0:0:0:
244,268,231256,1,0,0:0:0:0:
244,268,231478,1,8,0:0:0:0:
244,268,231590,1,0,0:0:0:0:
258,275,231701,1,0,0:0:0:0:
258,275,231812,1,0,0:0:0:0:
258,275,231923,1,8,0:0:0:0:
258,275,232034,1,8,0:0:0:0:
258,275,232145,1,8,0:0:0:0:
258,275,232256,1,4,0:0:0:0:
212,203,232477,1,8,0:0:0:0:
212,203,232588,1,0,0:0:0:0:
212,203,232810,1,0,0:0:0:0:
212,203,232921,1,8,0:0:0:0:
212,203,233032,1,8,0:0:0:0:
212,203,233143,1,0,0:0:0:0:
212,203,233254,1,0,0:0:0:0:
212,203,233476,1,8,0:0:0:0:
212,203,233587,1,0,0:0:0:0:
212,203,233699,1,0,0:0:0:0:
212,203,233810,1,8,0:0:0:0:
212,203,233865,1,8,0:0:0:0:
212,203,233921,1,0,0:0:0:0:
212,203,234032,1,8,0:0:0:0:
225,218,234143,1,0,0:0:0:0:
219,221,234254,1,0,0:0:0:0:
230,204,234476,1,8,0:0:0:0:
192,192,234586,1,0,0:0:0:0:
220,199,234809,5,8,0:0:0:0:
220,199,234920,1,8,0:0:0:0:
220,199,235142,1,0,0:0:0:0:
220,199,235253,1,0,0:0:0:0:
220,199,235475,1,8,0:0:0:0:
220,199,235586,1,0,0:0:0:0:
220,199,235697,1,8,0:0:0:0:
211,217,235753,1,8,0:0:0:0:
220,199,235808,1,0,0:0:0:0:
224,209,235919,1,8,0:0:0:0:
224,192,236030,1,8,0:0:0:0:
223,209,236141,1,0,0:0:0:0:
223,209,236252,1,0,0:0:0:0:
233,214,236475,1,8,0:0:0:0:
233,214,236586,1,0,0:0:0:0:
233,214,236697,1,0,0:0:0:0:
243,222,236808,1,0,0:0:0:0:
243,222,236919,1,8,0:0:0:0:
243,222,237141,1,0,0:0:0:0:
243,222,237252,1,0,0:0:0:0:
243,214,237474,5,8,0:0:0:0:
243,214,237585,1,0,0:0:0:0:
251,226,237696,5,8,0:0:0:0:
251,226,237807,1,8,0:0:0:0:
251,226,237918,1,0,0:0:0:0:
224,224,238029,1,8,0:0:0:0:
251,226,238140,1,0,0:0:0:0:
251,226,238251,1,0,0:0:0:0:
221,224,238473,1,8,0:0:0:0:
221,225,238584,1,0,0:0:0:0:
216,218,238806,1,8,0:0:0:0:
216,218,238917,1,8,0:0:0:0:
221,224,239139,1,0,0:0:0:0:
221,224,239251,1,0,0:0:0:0:
221,224,239473,1,8,0:0:0:0:
221,225,239584,1,0,0:0:0:0:
209,235,239639,1,0,0:0:0:0:
218,224,239695,1,8,0:0:0:0:
218,224,239806,1,0,0:0:0:0:
218,224,239917,1,8,0:0:0:0:
256,224,240028,1,8,0:0:0:0:
221,224,240139,1,0,0:0:0:0:
221,224,240250,1,0,0:0:0:0:
212,219,240472,1,8,0:0:0:0:
213,219,240583,1,0,0:0:0:0:
213,219,240694,1,0,0:0:0:0:
213,219,240805,1,8,0:0:0:0:
213,219,240916,1,8,0:0:0:0:
213,219,241138,1,0,0:0:0:0:
225,210,241249,1,0,0:0:0:0:
225,211,241471,1,8,0:0:0:0:
225,211,241582,1,8,0:0:0:0:
224,224,241693,1,0,0:0:0:0:
217,228,241804,1,8,0:0:0:0:
234,237,241860,1,0,0:0:0:0:
234,235,241915,1,0,0:0:0:0:
232,244,242027,1,8,0:0:0:0:
222,236,242138,1,0,0:0:0:0:
222,236,242249,1,0,0:0:0:0:
232,238,242471,1,8,0:0:0:0:
224,224,242581,1,0,0:0:0:0:
238,251,242804,1,8,0:0:0:0:
238,251,242915,1,8,0:0:0:0:
238,251,243137,1,0,0:0:0:0:
238,251,243248,1,0,0:0:0:0:
247,257,243470,1,8,0:0:0:0:
247,257,243581,1,0,0:0:0:0:
294,264,243637,1,8,0:0:0:0:
248,220,243692,1,8,0:0:0:0:
256,256,243803,1,0,0:0:0:0:
247,257,243914,1,8,0:0:0:0:
247,257,244025,1,8,0:0:0:0:
283,274,244136,1,0,0:0:0:0:
263,259,244247,1,0,0:0:0:0:
247,257,244469,1,8,0:0:0:0:
247,257,244580,1,0,0:0:0:0:
245,257,244803,1,8,0:0:0:0:
247,257,244914,1,8,0:0:0:0:
250,262,245136,1,0,0:0:0:0:
250,262,245247,1,0,0:0:0:0:
250,262,245469,1,8,0:0:0:0:
248,275,245580,1,8,0:0:0:0:
259,246,245691,1,0,0:0:0:0:
244,277,245802,1,0,0:0:0:0:
244,277,245913,1,8,0:0:0:0:
256,256,246024,1,0,0:0:0:0:
244,268,246135,1,0,0:0:0:0:
244,268,246246,1,8,0:0:0:0:
244,268,246579,1,0,0:0:0:0:
256,256,246690,1,8,0:0:0:0:
244,268,246801,1,8,0:0:0:0:
244,268,246912,1,0,0:0:0:0:
256,256,247023,1,8,0:0:0:0:
244,268,247134,1,8,0:0:0:0:
244,268,247245,1,0,0:0:0:0:
240,274,247356,1,8,0:0:0:0:
244,268,247467,1,0,0:0:0:0:
244,268,247579,1,0,0:0:0:0:
258,275,247690,1,8,0:0:0:0:
258,275,247801,1,8,0:0:0:0:
258,275,247912,1,0,0:0:0:0:
258,275,248023,1,0,0:0:0:0:
258,275,248134,1,8,0:0:0:0:
256,288,248245,1,4,0:0:0:0:
256,288,248467,1,8,0:0:0:0:
256,256,248800,1,8,0:0:0:0:
256,256,248911,1,0,0:0:0:0:
256,256,249133,1,0,0:0:0:0:
256,256,249244,1,8,0:0:0:0:
256,256,249466,1,8,0:0:0:0:
265,239,249799,1,0,0:0:0:0:
256,256,249910,1,8,0:0:0:0:
288,256,250132,1,0,0:0:0:0:
288,256,250243,1,0,0:0:0:0:
256,256,250465,1,8,0:0:0:0:
288,256,250577,1,8,0:0:0:0:
288,256,250688,1,0,0:0:0:0:
288,256,250799,1,8,0:0:0:0:
288,256,250910,1,0,0:0:0:0:
288,256,251132,1,8,0:0:0:0:
288,256,251243,1,0,0:0:0:0:
288,256,251465,1,0,0:0:0:0:
270,270,251576,1,0,0:0:0:0:
288,256,251798,1,0,0:0:0:0:
288,256,251909,1,8,0:0:0:0:
288,256,252131,1,8,0:0:0:0:
288,256,252242,1,0,0:0:0:0:
288,256,252464,1,8,0:0:0:0:
288,256,252797,1,8,0:0:0:0:
288,256,252908,1,0,0:0:0:0:
304,263,253130,1,0,0:0:0:0:
288,256,253241,1,8,0:0:0:0:
286,262,253464,1,8,0:0:0:0:
284,245,253797,1,8,0:0:0:0:
286,262,253908,1,0,0:0:0:0:
280,255,254130,1,0,0:0:0:0:
280,254,254241,1,8,0:0:0:0:
273,246,254463,1,8,0:0:0:0:
273,246,254574,1,0,0:0:0:0:
265,260,254685,1,0,0:0:0:0:
270,253,254796,1,8,0:0:0:0:
266,266,254907,1,0,0:0:0:0:
269,253,255129,1,0,0:0:0:0:
254,250,255240,1,8,0:0:0:0:
255,250,255462,1,8,0:0:0:0:
241,258,255573,1,8,0:0:0:0:
241,258,255684,1,0,0:0:0:0:
244,244,255795,1,8,0:0:0:0:
244,244,255906,1,0,0:0:0:0:
251,245,256129,1,0,0:0:0:0:
254,250,256240,1,8,0:0:0:0:
268,252,256462,1,8,0:0:0:0:
270,259,256795,1,8,0:0:0:0:
270,259,256906,1,0,0:0:0:0:
279,259,257128,1,0,0:0:0:0:
278,258,257239,1,8,0:0:0:0:
284,238,257461,1,8,0:0:0:0:
278,250,257794,1,8,0:0:0:0:
278,250,257905,1,0,0:0:0:0:
280,252,258127,1,0,0:0:0:0:
280,252,258238,1,8,0:0:0:0:
257,234,258460,1,8,0:0:0:0:
257,234,258571,1,0,0:0:0:0:
257,234,258682,1,0,0:0:0:0:
234,239,258793,1,0,0:0:0:0:
257,234,258905,1,8,0:0:0:0:
255,242,259127,1,8,0:0:0:0:
236,240,259238,1,0,0:0:0:0:
243,242,259460,1,0,0:0:0:0:
257,243,259571,1,0,0:0:0:0:
238,248,259793,1,0,0:0:0:0:
267,249,259904,1,8,0:0:0:0:
267,249,260126,1,0,0:0:0:0:
267,249,260237,1,0,0:0:0:0:
260,247,260459,1,8,0:0:0:0:
277,244,260792,1,0,0:0:0:0:
277,245,260903,1,8,0:0:0:0:
277,244,261125,1,0,0:0:0:0:
277,244,261236,1,0,0:0:0:0:
277,244,261458,1,8,0:0:0:0:
277,244,261792,1,0,0:0:0:0:
272,252,261903,1,8,0:0:0:0:
277,244,262125,1,0,0:0:0:0:
277,244,262236,1,0,0:0:0:0:
277,244,262458,1,8,0:0:0:0:
266,266,262569,1,0,0:0:0:0:
192,226,262680,1,0,0:0:0:0:
277,244,262791,1,8,0:0:0:0:
277,244,262902,1,8,0:0:0:0:
277,244,263124,1,0,0:0:0:0:
277,244,263235,1,8,0:0:0:0:
243,240,263457,1,8,0:0:0:0:
277,244,263568,1,8,0:0:0:0:
277,244,263679,1,0,0:0:0:0:
262,232,263790,1,0,0:0:0:0:
277,244,263901,1,8,0:0:0:0:
277,244,264123,1,8,0:0:0:0:
277,244,264234,1,0,0:0:0:0:
259,250,264457,1,8,0:0:0:0:
269,255,264790,1,8,0:0:0:0:
270,255,264901,1,0,0:0:0:0:
270,255,265123,1,0,0:0:0:0:
262,265,265234,1,8,0:0:0:0:
262,265,265456,1,8,0:0:0:0:
254,230,265789,1,0,0:0:0:0:
262,265,265900,1,8,0:0:0:0:
262,265,266122,1,0,0:0:0:0:
262,265,266233,1,8,0:0:0:0:
284,257,266455,1,0,0:0:0:0:
283,258,266566,1,0,0:0:0:0:
285,257,266788,1,8,0:0:0:0:
279,273,266899,1,8,0:0:0:0:
291,272,267121,1,0,0:0:0:0:
285,257,267233,1,8,0:0:0:0:
291,272,267455,1,8,0:0:0:0:
291,272,267566,1,0,0:0:0:0:
291,272,267788,1,0,0:0:0:0:
266,266,267899,1,0,0:0:0:0:
291,272,268121,1,0,0:0:0:0:
291,272,268232,1,8,0:0:0:0:
292,282,268454,1,8,0:0:0:0:
269,255,268787,1,8,0:0:0:0:
252,257,268898,1,0,0:0:0:0:
270,255,269120,1,0,0:0:0:0:
262,265,269231,1,8,0:0:0:0:
262,265,269453,1,8,0:0:0:0:
253,255,269786,1,0,0:0:0:0:
262,265,269897,1,8,0:0:0:0:
262,265,270119,1,0,0:0:0:0:
262,265,270230,1,8,0:0:0:0:
284,257,270452,1,0,0:0:0:0:
283,258,270563,1,0,0:0:0:0:
285,257,270785,1,8,0:0:0:0:
265,253,270897,1,0,0:0:0:0:
291,272,271118,1,0,0:0:0:0:
285,257,271230,1,8,0:0:0:0:
291,272,271452,1,0,0:0:0:0:
291,272,271563,1,8,0:0:0:0:
291,272,271785,1,0,0:0:0:0:
266,266,271896,1,0,0:0:0:0:
260,267,272118,1,8,0:0:0:0:
266,264,272229,1,0,0:0:0:0:
294,261,272285,1,0,0:0:0:0:
286,281,272784,1,8,0:0:0:0:
284,288,273283,1,0,0:0:0:0:
279,282,273865,1,0,0:0:0:0:
212,190,275697,5,0,0:0:0:0:
256,192,276113,12,0,279861,0:0:0:0:
