osu file format v14

[General]
AudioFilename: audio.mp3
AudioLeadIn: 0
PreviewTime: -1
Countdown: 1
SampleSet: None
StackLeniency: 0.7
Mode: 0
LetterboxInBreaks: 0
WidescreenStoryboard: 0

[Editor]
DistanceSpacing: 2.7
BeatDivisor: 4
GridSize: 4
TimelineZoom: 1.4

[Metadata]
Title:Core pride
TitleUnicode:Core pride
Artist:Uverworld
ArtistUnicode:Uverworld
Creator:MilusPrime
Version:Satanic
Source:ao no exorcist
Tags:blue exorcist, ao no exorcist
BeatmapID:1968912
BeatmapSetID:942820

[Difficulty]
HPDrainRate:6
CircleSize:4.5
OverallDifficulty:8
ApproachRate:9
SliderMultiplier:1.4
SliderTickRate:1

[Events]
//Background and Video events
//Break Periods
//Storyboard Layer 0 (Background)
//Storyboard Layer 1 (Fail)
//Storyboard Layer 2 (Pass)
//Storyboard Layer 3 (Foreground)
//Storyboard Sound Samples

[TimingPoints]
8110,326.086956521739,4,1,0,100,1,0
8110,-133.333333333333,4,1,0,100,0,1
17566,-83.3333333333333,4,3,0,100,0,0
28816,-133.333333333333,4,2,0,100,0,0
36071,-133.333333333333,4,1,0,100,0,0
36724,-133.333333333333,4,2,0,100,0,0
39414,-133.333333333333,4,2,0,100,0,0
41696,-133.333333333333,4,1,0,100,0,0
42023,-133.333333333333,4,2,0,100,0,0
46914,-133.333333333333,4,1,0,100,0,0
47158,-133.333333333333,4,2,0,100,0,0
49115,-133.333333333333,4,1,0,100,0,0
49767,-133.333333333333,4,2,0,100,0,0
54251,-133.333333333333,4,2,0,100,0,0
56370,-133.333333333333,4,3,0,100,0,0
57430,-133.333333333333,4,1,0,100,0,0
60120,-133.333333333333,4,2,0,100,0,0
80827,-399.999999999997,4,2,0,100,0,0
86533,-285.714285714284,4,2,0,100,0,0
96805,-100,4,2,0,100,0,0
145718,-133.333333333333,4,3,0,100,0,1
156153,-133.333333333333,4,3,0,100,0,0
161370,-100,4,3,0,100,0,0

[HitObjects]
90,84,447,5,0,0:0:0:0:
121,93,528,1,0,0:0:0:0:
143,117,610,1,0,0:0:0:0:
154,144,691,1,0,0:0:0:0:
156,176,773,1,0,0:0:0:0:
142,241,936,5,0,0:0:0:0:
148,276,1017,1,0,0:0:0:0:
169,301,1099,1,0,0:0:0:0:
199,318,1180,1,0,0:0:0:0:
230,319,1262,1,0,0:0:0:0:
236,256,1425,5,0,0:0:0:0:
261,234,1506,1,0,0:0:0:0:
281,208,1588,1,0,0:0:0:0:
296,182,1669,1,0,0:0:0:0:
309,154,1751,1,0,0:0:0:0:
320,122,1832,1,0,0:0:0:0:
280,132,1914,1,0,0:0:0:0:
254,137,1995,1,0,0:0:0:0:
222,144,2077,1,0,0:0:0:0:
186,142,2158,1,0,0:0:0:0:
152,130,2240,1,0,0:0:0:0:
127,112,2321,1,0,0:0:0:0:
104,93,2403,1,0,0:0:0:0:
101,69,2485,1,0,0:0:0:0:
143,70,2566,1,0,0:0:0:0:
188,65,2648,1,0,0:0:0:0:
240,57,2729,1,0,0:0:0:0:
288,54,2811,1,0,0:0:0:0:
335,48,2892,1,0,0:0:0:0:
386,36,2974,1,0,0:0:0:0:
400,67,3055,6,0,L|406:121,2,35
324,243,3544,1,0,0:0:0:0:
324,243,3707,2,0,L|301:170,2,70
207,289,4196,1,0,0:0:0:0:
388,333,4360,1,0,0:0:0:0:
328,170,4686,2,0,L|411:157,2,70
104,284,5175,5,0,0:0:0:0:
116,253,5256,1,0,0:0:0:0:
129,225,5338,1,0,0:0:0:0:
325,240,5501,1,0,0:0:0:0:
151,94,5664,5,0,0:0:0:0:
337,152,5827,1,0,0:0:0:0:
124,251,6153,2,0,L|105:179,2,70
234,148,6805,5,0,0:0:0:0:
381,271,6968,1,0,0:0:0:0:
228,286,7294,5,0,0:0:0:0:
327,196,7457,1,0,0:0:0:0:
149,207,7620,1,0,0:0:0:0:
268,27,7783,1,0,0:0:0:0:
79,217,8110,6,0,P|166:219|201:209,1,105.000004005432
95,76,8599,1,0,0:0:0:0:
256,154,8762,1,0,0:0:0:0:
198,325,8925,2,0,L|242:268,2,52.5000020027161
422,198,9414,1,0,0:0:0:0:
419,160,9495,1,0,0:0:0:0:
408,132,9577,1,0,0:0:0:0:
388,104,9658,1,0,0:0:0:0:
364,79,9740,1,0,0:0:0:0:
332,61,9821,1,0,0:0:0:0:
304,62,9903,2,0,L|267:130,1,52.5000020027161
381,324,10229,2,0,P|322:272|335:237,1,105.000004005432
85,293,10718,6,0,P|70:249|84:229,1,52.5000020027161
194,157,11044,2,0,P|222:161|208:193,1,52.5000020027161
119,117,11370,2,0,P|95:85|141:90,1,105.000004005432
291,70,11860,2,0,P|333:71|334:93,1,52.5000020027161
309,235,12186,2,0,P|340:216|346:182,1,52.5000020027161
109,231,12512,2,0,P|91:269|104:293,1,52.5000020027161
256,326,12838,2,0,P|237:291|262:283,2,52.5000020027161
298,198,13327,6,0,P|309:151|259:145,2,105.000004005432
162,278,14142,1,0,0:0:0:0:
81,151,14305,2,0,P|78:117|110:117,1,52.5000020027161
232,242,14631,2,0,P|231:203|203:185,1,52.5000020027161
373,238,14957,2,0,P|393:263|384:286,1,52.5000020027161
321,117,15283,2,0,P|336:84|316:64,1,52.5000020027161
132,184,15609,2,0,P|112:204|116:234,1,52.5000020027161
313,321,15936,2,0,P|329:270|247:207,2,157.500006008148
65,87,17566,6,0,L|127:243,1,167.999994873047
280,117,18055,1,0,0:0:0:0:
310,277,18218,1,0,0:0:0:0:
389,172,18381,1,0,0:0:0:0:
225,215,18544,6,0,P|196:238|192:295,1,83.9999974365235
383,324,18870,2,0,P|395:270|370:245,1,83.9999974365235
181,105,19196,2,0,P|187:63|228:52,1,83.9999974365235
272,177,19523,1,0,0:0:0:0:
284,294,19686,1,0,0:0:0:0:
403,118,19849,1,0,0:0:0:0:
418,283,20012,1,0,0:0:0:0:
114,200,20175,6,0,L|78:87,2,83.9999974365235
190,293,20664,2,0,P|256:304|282:264,1,83.9999974365235
270,146,20990,1,0,0:0:0:0:
401,206,21153,2,0,P|432:239|412:268,1,83.9999974365235
261,289,21479,1,0,0:0:0:0:
169,162,21642,1,0,0:0:0:0:
263,65,21805,2,0,P|308:75|319:115,1,83.9999974365235
185,283,22131,2,0,P|126:236|127:200,1,83.9999974365235
299,228,22457,2,0,P|351:186|330:157,1,83.9999974365235
172,157,22783,6,0,L|106:77,2,83.9999974365235
229,304,23273,1,0,0:0:0:0:
278,138,23436,1,0,0:0:0:0:
347,297,23599,1,0,0:0:0:0:
407,197,23762,2,0,P|423:149|393:120,1,83.9999974365235
173,202,24088,2,0,P|136:243|145:287,1,83.9999974365235
349,337,24414,2,0,P|395:273|380:243,1,83.9999974365235
204,114,24740,2,0,P|200:70|241:54,1,83.9999974365235
226,269,25066,5,0,0:0:0:0:
328,152,25229,1,0,0:0:0:0:
394,261,25392,2,0,P|409:313|356:344,1,83.9999974365235
168,197,25718,2,0,P|148:132|182:107,1,83.9999974365235
258,271,26044,1,0,0:0:0:0:
305,116,26207,1,0,0:0:0:0:
374,292,26370,1,0,0:0:0:0:
169,196,26533,2,0,P|155:151|166:117,1,83.9999974365235
260,279,26859,5,0,0:0:0:0:
304,156,27023,1,0,0:0:0:0:
375,280,27186,1,0,0:0:0:0:
429,169,27349,2,0,P|432:113|382:95,1,83.9999974365235
166,153,27675,2,0,P|126:207|136:255,1,83.9999974365235
284,307,28001,5,0,0:0:0:0:
308,282,28082,1,0,0:0:0:0:
327,254,28164,1,0,0:0:0:0:
346,222,28245,1,0,0:0:0:0:
356,192,28327,1,0,0:0:0:0:
363,159,28408,1,0,0:0:0:0:
361,127,28490,1,0,0:0:0:0:
353,97,28571,1,0,0:0:0:0:
336,66,28653,1,0,0:0:0:0:
75,118,28816,6,0,L|99:179,1,52.5000020027161
157,302,29142,1,0,0:0:0:0:
268,194,29305,2,0,L|276:138,1,52.5000020027161
334,308,29631,1,0,0:0:0:0:
458,162,29794,2,0,L|455:220,1,52.5000020027161
371,71,30120,5,0,0:0:0:0:
255,196,30283,2,0,L|259:138,1,52.5000020027161
133,278,30609,1,0,0:0:0:0:
255,144,30773,2,0,L|256:202,1,52.5000020027161
111,104,31099,1,0,0:0:0:0:
279,263,31262,5,0,0:0:0:0:
310,236,31343,1,0,0:0:0:0:
331,208,31425,1,0,0:0:0:0:
351,181,31506,1,0,0:0:0:0:
358,163,31588,2,0,L|345:105,1,52.5000020027161
146,107,31914,6,0,L|156:181,1,52.5000020027161
62,227,32240,1,0,0:0:0:0:
201,304,32403,2,0,L|185:231,1,52.5000020027161
450,227,32729,5,0,0:0:0:0:
366,107,32892,2,0,L|356:181,1,52.5000020027161
239,188,33218,1,0,0:0:0:0:
331,316,33381,2,0,P|277:342|169:337,1,157.500006008148
87,241,34033,1,0,0:0:0:0:
112,86,34196,6,0,B|159:103|159:103|107:154,1,105.000004005432
236,211,34686,1,0,0:0:0:0:
302,91,34849,1,0,0:0:0:0:
372,203,35012,2,0,P|377:232|352:257,1,52.5000020027161
156,259,35338,2,0,P|140:208|151:200,1,52.5000020027161
204,129,35664,1,0,0:0:0:0:
258,293,35827,1,0,0:0:0:0:
351,83,35990,1,0,0:0:0:0:
440,268,36153,5,0,0:0:0:0:
116,293,36316,1,0,0:0:0:0:
314,343,36479,1,0,0:0:0:0:
85,181,36642,6,0,P|77:136|92:117,1,52.5000020027161
195,185,36968,1,0,0:0:0:0:
234,277,37131,2,0,P|271:257|276:234,1,52.5000020027161
246,111,37457,1,0,0:0:0:0:
100,258,37620,1,0,0:0:0:0:
408,252,37783,1,0,0:0:0:0:
240,328,37946,6,0,L|196:270,1,52.5000020027161
151,118,38273,2,0,L|196:165,1,52.5000020027161
397,287,38599,2,0,L|343:246,1,52.5000020027161
86,93,39414,5,0,0:0:0:0:
103,241,39577,1,0,0:0:0:0:
255,237,39740,2,0,L|247:169,1,52.5000020027161
238,88,40066,1,0,0:0:0:0:
402,83,40229,1,0,0:0:0:0:
417,178,40392,2,0,L|425:238,1,52.5000020027161
427,321,40718,5,0,0:0:0:0:
347,261,40881,1,0,0:0:0:0:
258,177,41044,2,0,L|266:245,1,52.5000020027161
184,276,41370,1,0,0:0:0:0:
111,331,41533,1,0,0:0:0:0:
97,212,41696,5,0,0:0:0:0:
101,182,41778,1,0,0:0:0:0:
120,147,41859,1,0,0:0:0:0:
137,124,41941,1,0,0:0:0:0:
166,104,42023,2,0,P|188:90|226:96,1,52.5000020027161
244,220,42349,6,0,P|222:231|192:231,1,52.5000020027161
215,93,42675,1,0,0:0:0:0:
386,211,42838,1,0,0:0:0:0:
414,89,43001,2,0,P|381:92|341:102,1,52.5000020027161
199,217,43327,1,0,0:0:0:0:
92,102,43490,1,0,0:0:0:0:
217,51,43653,2,0,P|269:64|282:76,1,52.5000020027161
347,234,43979,5,0,0:0:0:0:
107,294,44142,1,0,0:0:0:0:
180,165,44305,2,0,P|201:129|229:121,1,52.5000020027161
98,140,44631,5,0,0:0:0:0:
279,141,44794,1,0,0:0:0:0:
206,270,44957,2,0,P|185:306|157:314,1,52.5000020027161
377,356,45283,1,0,0:0:0:0:
441,217,45446,1,0,0:0:0:0:
312,198,45609,2,0,L|236:194,1,52.5000020027161
116,162,45936,1,0,0:0:0:0:
256,87,46099,1,0,0:0:0:0:
386,87,46262,2,0,L|450:91,1,52.5000020027161
121,197,46588,5,0,0:0:0:0:
176,298,46751,1,0,0:0:0:0:
251,153,46914,1,0,0:0:0:0:
273,177,46995,1,0,0:0:0:0:
296,207,47077,1,0,0:0:0:0:
396,172,47240,1,0,0:0:0:0:
210,78,47403,2,0,L|282:51,1,52.5000020027161
384,269,47729,5,0,0:0:0:0:
244,305,47892,1,0,0:0:0:0:
116,238,48055,2,0,L|64:192,1,52.5000020027161
119,78,48381,1,0,0:0:0:0:
280,109,48544,1,0,0:0:0:0:
319,236,48707,2,0,L|388:320,1,105.000004005432
231,327,49196,5,0,0:0:0:0:
63,113,49359,1,0,0:0:0:0:
221,96,49523,5,0,0:0:0:0:
80,313,49686,1,0,0:0:0:0:
311,222,49849,5,0,0:0:0:0:
321,90,50012,1,0,0:0:0:0:
164,114,50175,2,0,L|221:76,1,52.5000020027161
107,212,50501,1,0,0:0:0:0:
165,317,50664,1,0,0:0:0:0:
273,294,50827,2,0,L|314:242,1,52.5000020027161
209,133,51153,1,0,0:0:0:0:
315,65,51316,1,0,0:0:0:0:
421,132,51479,2,0,L|372:185,1,52.5000020027161
449,281,51805,5,0,0:0:0:0:
329,340,51968,1,0,0:0:0:0:
166,289,52131,2,0,L|108:256,1,52.5000020027161
77,78,52457,1,0,0:0:0:0:
239,264,52620,1,0,0:0:0:0:
314,118,52783,2,0,L|360:78,1,52.5000020027161
407,311,53109,5,0,0:0:0:0:
139,130,53273,1,0,0:0:0:0:
95,265,53436,2,0,L|87:318,1,52.5000020027161
260,139,53762,1,0,0:0:0:0:
325,306,53925,1,0,0:0:0:0:
99,177,54088,2,0,L|77:124,1,52.5000020027161
222,80,54414,6,0,B|239:103|239:103|240:117|240:117|268:122|268:122|240:150|240:150,1,105.000004005432
137,274,54903,1,0,0:0:0:0:
272,308,55066,1,0,0:0:0:0:
357,155,55229,2,0,P|359:118|349:94,1,52.5000020027161
218,181,55555,1,0,0:0:0:0:
86,133,55718,2,0,P|98:96|116:82,1,52.5000020027161
108,283,56044,5,0,0:0:0:0:
277,360,56207,1,0,0:0:0:0:
330,158,56370,5,0,0:0:0:0:
313,131,56452,1,0,0:0:0:0:
291,107,56533,1,0,0:0:0:0:
268,91,56615,1,0,0:0:0:0:
236,77,56696,1,0,0:0:0:0:
206,73,56778,1,0,0:0:0:0:
175,75,56859,1,0,0:0:0:0:
146,86,56941,1,0,0:0:0:0:
121,109,57023,1,0,0:0:0:0:
108,135,57104,1,0,0:0:0:0:
97,164,57186,1,0,0:0:0:0:
97,200,57267,1,0,0:0:0:0:
109,223,57349,1,0,0:0:0:0:
285,293,57512,5,0,0:0:0:0:
182,135,57675,1,0,0:0:0:0:
162,278,58001,5,0,0:0:0:0:
162,278,58164,5,0,0:0:0:0:
397,332,58327,1,0,0:0:0:0:
96,57,58816,5,0,0:0:0:0:
258,244,58979,1,0,0:0:0:0:
392,151,59468,5,0,0:0:0:0:
371,128,59550,1,0,0:0:0:0:
352,112,59631,1,0,0:0:0:0:
81,92,60120,6,0,P|139:93|149:190,1,157.500006008148
64,298,60773,2,0,L|99:246,1,52.5000020027161
191,343,61099,1,0,0:0:0:0:
285,229,61262,2,0,L|308:296,1,52.5000020027161
375,129,61588,2,0,P|368:71|284:41,1,157.500006008148
101,141,62240,2,0,P|74:192|74:204,1,52.5000020027161
85,269,62566,1,0,0:0:0:0:
184,280,62729,1,0,0:0:0:0:
247,232,62892,2,0,P|271:178|240:155,1,105.000004005432
343,73,63381,1,0,0:0:0:0:
343,73,63544,2,0,P|408:92|416:130,1,105.000004005432
247,295,64033,5,0,0:0:0:0:
57,125,64196,1,0,0:0:0:0:
126,284,64359,1,0,0:0:0:0:
224,95,64523,1,0,0:0:0:0:
337,250,64686,1,0,0:0:0:0:
146,178,64849,1,0,0:0:0:0:
341,104,65012,1,0,0:0:0:0:
341,104,65175,2,0,P|349:157|317:209,1,105.000004005432
98,210,65664,5,0,0:0:0:0:
78,121,65827,2,0,P|107:89|220:95,1,157.500006008148
275,307,66479,2,0,P|306:251|282:207,1,105.000004005432
214,160,66968,1,0,0:0:0:0:
90,198,67131,2,0,P|88:149|137:132,1,105.000004005432
239,52,67620,1,0,0:0:0:0:
331,222,67783,5,0,0:0:0:0:
334,227,67946,2,0,P|348:263|252:303,1,157.500006008148
81,197,68599,1,0,0:0:0:0:
149,87,68762,1,0,0:0:0:0:
166,291,68925,1,0,0:0:0:0:
244,169,69088,1,0,0:0:0:0:
251,165,69251,2,0,P|258:121|356:77,1,157.500006008148
266,315,69903,5,0,0:0:0:0:
118,246,70066,1,0,0:0:0:0:
98,122,70392,6,0,P|168:108|194:179,1,157.500006008148
177,312,71044,1,0,0:0:0:0:
301,213,71207,1,0,0:0:0:0:
317,304,71370,1,0,0:0:0:0:
422,199,71533,2,0,P|428:154|339:80,1,157.500006008148
159,133,72186,1,0,0:0:0:0:
84,270,72349,1,0,0:0:0:0:
215,336,72512,1,0,0:0:0:0:
361,265,72675,1,0,0:0:0:0:
361,144,72838,1,0,0:0:0:0:
306,71,73001,6,0,P|254:67|182:89,1,105.000004005432
66,197,73490,1,0,0:0:0:0:
143,270,73653,1,0,0:0:0:0:
194,183,73816,1,0,0:0:0:0:
263,282,73979,1,0,0:0:0:0:
331,193,74142,2,0,L|291:134,1,52.5000020027161
385,293,74468,2,0,L|419:343,1,52.5000020027161
217,240,74794,2,0,L|186:187,1,52.5000020027161
262,324,75120,2,0,L|294:374,1,52.5000020027161
307,240,75446,5,0,0:0:0:0:
307,240,75609,2,0,P|336:122|303:90,1,157.500006008148
201,85,76262,1,0,0:0:0:0:
82,213,76425,1,0,0:0:0:0:
173,278,76588,1,0,0:0:0:0:
231,207,76751,1,0,0:0:0:0:
305,150,76914,2,0,P|341:133|406:156,1,105.000004005432
424,235,77403,1,0,0:0:0:0:
275,235,77566,1,0,0:0:0:0:
406,356,77729,5,0,0:0:0:0:
239,348,77892,2,0,P|171:328|141:291,1,105.000004005432
155,118,78544,5,0,0:0:0:0:
171,218,78707,1,0,0:0:0:0:
260,105,78870,1,0,0:0:0:0:
284,215,79033,1,0,0:0:0:0:
208,165,79196,1,0,0:0:0:0:
105,223,79359,2,0,L|37:207,1,52.5000020027161
374,223,79686,2,0,L|434:206,1,52.5000020027161
440,336,80012,1,0,0:0:0:0:
300,347,80175,1,0,0:0:0:0:
173,278,80338,1,0,0:0:0:0:
121,161,80501,6,0,P|111:121|128:98,1,52.5000020027161
251,82,80827,6,0,P|311:91|329:288,1,297.5
129,126,85229,5,0,0:0:0:0:
151,148,85311,1,0,0:0:0:0:
171,168,85392,1,0,0:0:0:0:
144,259,85555,1,0,0:0:0:0:
314,250,85718,1,0,0:0:0:0:
242,348,85881,1,0,0:0:0:0:
371,353,86044,1,0,0:0:0:0:
393,333,86126,1,0,0:0:0:0:
417,309,86207,1,0,0:0:0:0:
433,290,86289,1,0,0:0:0:0:
456,267,86370,1,0,0:0:0:0:
226,252,86533,5,0,0:0:0:0:
378,166,86696,6,0,L|388:142,1,26.25
263,196,87023,1,0,0:0:0:0:
166,196,87186,1,0,0:0:0:0:
69,124,87349,2,0,L|69:97,1,24.4999992523194
178,48,87675,1,0,0:0:0:0:
294,53,87838,1,0,0:0:0:0:
218,157,88001,2,0,L|223:188,1,24.4999992523194
68,260,88327,2,0,L|72:233,1,24.4999992523194
198,332,88653,1,0,0:0:0:0:
226,312,88734,1,0,0:0:0:0:
255,292,88816,1,0,0:0:0:0:
276,270,88898,1,0,0:0:0:0:
288,250,88979,2,0,L|283:215,1,24.4999992523194
360,154,89305,2,0,L|377:183,1,24.4999992523194
221,102,89631,5,0,0:0:0:0:
235,236,89794,1,0,0:0:0:0:
442,93,89957,2,0,L|442:127,1,24.4999992523194
374,295,90283,2,0,L|369:262,1,24.4999992523194
310,304,90528,2,0,L|311:277,2,24.4999992523194
235,294,90936,2,0,L|248:269,1,24.4999992523194
342,191,91262,1,0,0:0:0:0:
336,157,91343,1,0,0:0:0:0:
322,135,91425,1,0,0:0:0:0:
293,118,91506,1,0,0:0:0:0:
263,103,91588,2,0,L|248:75,1,24.4999992523194
116,144,91914,6,0,L|142:166,1,24.4999992523194
65,235,92240,1,0,0:0:0:0:
188,242,92403,1,0,0:0:0:0:
98,329,92566,2,0,L|128:313,1,24.4999992523194
225,201,92892,1,0,0:0:0:0:
301,299,93055,1,0,0:0:0:0:
357,96,93218,2,0,L|337:121,1,24.4999992523194
79,95,93544,2,0,L|101:116,1,24.4999992523194
230,231,93870,5,0,0:0:0:0:
354,267,94033,1,0,0:0:0:0:
210,323,94196,2,0,L|181:322,1,24.4999992523194
165,216,94441,2,0,L|199:220,1,24.4999992523194
401,248,94849,2,0,L|373:258,3,24.4999992523194
205,182,95501,1,0,0:0:0:0:
321,124,95664,1,0,0:0:0:0:
283,265,95827,5,0,0:0:0:0:
276,300,95908,1,0,0:0:0:0:
261,323,95990,1,0,0:0:0:0:
233,344,96071,1,0,0:0:0:0:
201,345,96153,1,0,0:0:0:0:
172,335,96234,1,0,0:0:0:0:
142,319,96316,1,0,0:0:0:0:
123,220,96479,5,0,0:0:0:0:
205,72,96642,1,0,0:0:0:0:
322,123,96805,6,0,P|349:159|328:176,1,70
202,197,97131,2,0,P|201:238|232:283,1,70
326,339,97457,1,0,0:0:0:0:
352,227,97620,1,0,0:0:0:0:
431,343,97783,1,0,0:0:0:0:
467,172,97946,1,0,0:0:0:0:
409,93,98109,2,0,P|388:59|341:71,1,70
245,127,98436,2,0,P|201:100|198:71,1,70
87,227,98762,5,0,0:0:0:0:
281,194,98925,1,0,0:0:0:0:
137,300,99088,1,0,0:0:0:0:
238,312,99251,2,0,P|294:306|314:278,1,70
416,221,99577,1,0,0:0:0:0:
392,90,99740,2,0,P|331:74|252:82,1,140
71,197,100229,1,0,0:0:0:0:
176,269,100392,1,0,0:0:0:0:
158,129,100555,1,0,0:0:0:0:
301,188,100718,5,0,0:0:0:0:
352,333,100881,1,0,0:0:0:0:
82,254,101044,5,0,0:0:0:0:
161,198,101207,1,0,0:0:0:0:
261,304,101370,1,0,0:0:0:0:
371,220,101533,2,0,P|411:164|399:142,1,70
221,152,101859,2,0,P|247:117|296:86,1,70
332,320,102186,1,0,0:0:0:0:
137,278,102349,1,0,0:0:0:0:
88,155,102512,2,0,P|75:107|147:65,1,140
209,227,103001,1,0,0:0:0:0:
326,175,103164,1,0,0:0:0:0:
380,286,103327,1,0,0:0:0:0:
223,137,103490,1,0,0:0:0:0:
85,167,103653,6,0,L|92:243,1,70
236,335,103979,2,0,L|227:257,1,70
323,181,104305,2,0,P|340:142|312:98,1,70
134,96,104631,5,0,0:0:0:0:
172,269,104794,1,0,0:0:0:0:
211,114,104957,5,0,0:0:0:0:
95,259,105120,1,0,0:0:0:0:
254,165,105283,5,0,0:0:0:0:
58,195,105446,1,0,0:0:0:0:
236,243,105610,5,0,0:0:0:0:
75,131,105773,1,0,0:0:0:0:
196,81,106099,6,0,L|277:69,1,70
291,83,106343,1,0,0:0:0:0:
321,99,106425,1,0,0:0:0:0:
346,114,106506,1,0,0:0:0:0:
370,128,106588,1,0,0:0:0:0:
244,259,106751,6,0,L|185:314,1,70
56,267,107077,1,0,0:0:0:0:
107,134,107240,2,0,L|162:193,1,70
251,176,107566,1,0,0:0:0:0:
345,232,107729,1,0,0:0:0:0:
272,319,107892,2,0,L|202:349,1,70
87,272,108218,5,0,0:0:0:0:
66,138,108381,1,0,0:0:0:0:
182,66,108544,2,0,P|224:64|266:67,1,70
202,194,108870,1,0,0:0:0:0:
285,298,109033,1,0,0:0:0:0:
411,236,109196,2,0,P|425:191|413:154,1,70
400,139,109441,1,0,0:0:0:0:
368,115,109523,1,0,0:0:0:0:
166,84,109686,5,0,0:0:0:0:
145,225,109849,1,0,0:0:0:0:
279,144,110012,1,0,0:0:0:0:
303,268,110175,1,0,0:0:0:0:
81,120,110338,1,0,0:0:0:0:
210,293,110501,1,0,0:0:0:0:
253,71,110664,1,0,0:0:0:0:
354,215,110827,1,0,0:0:0:0:
419,106,110990,1,0,0:0:0:0:
434,278,111153,2,0,L|429:352,1,70
248,345,111479,5,0,0:0:0:0:
113,283,111642,1,0,0:0:0:0:
257,255,111805,2,0,L|333:249,1,70
147,181,112131,1,0,0:0:0:0:
222,97,112294,1,0,0:0:0:0:
334,142,112457,2,0,L|276:182,1,70
157,223,112783,1,0,0:0:0:0:
71,138,112946,1,0,0:0:0:0:
117,60,113109,2,0,P|167:32|201:28,1,70
254,192,113436,1,0,0:0:0:0:
196,323,113599,2,0,L|124:345,1,70
319,348,113925,5,0,0:0:0:0:
401,256,114088,1,0,0:0:0:0:
416,140,114251,1,0,0:0:0:0:
305,61,114414,5,0,0:0:0:0:
264,80,114495,1,0,0:0:0:0:
235,97,114577,1,0,0:0:0:0:
86,189,114740,5,0,0:0:0:0:
175,261,114903,1,0,0:0:0:0:
314,265,115066,2,0,P|328:222|321:196,1,70
219,326,115392,1,0,0:0:0:0:
368,348,115555,1,0,0:0:0:0:
448,286,115718,2,0,P|457:243|436:205,1,70
396,140,116044,1,0,0:0:0:0:
306,85,116207,1,0,0:0:0:0:
326,210,116370,2,0,P|346:247|324:293,2,70
150,50,116859,5,0,0:0:0:0:
64,195,117023,5,0,0:0:0:0:
312,56,117186,1,0,0:0:0:0:
407,163,117349,5,0,0:0:0:0:
295,159,117512,1,0,0:0:0:0:
277,277,117675,2,0,L|214:308,1,70
384,232,118001,1,0,0:0:0:0:
295,159,118164,2,0,L|216:190,1,70
112,222,118490,1,0,0:0:0:0:
142,109,118653,1,0,0:0:0:0:
254,79,118816,2,0,L|320:42,1,70
310,138,119142,1,0,0:0:0:0:
386,181,119305,2,0,L|318:218,1,70
101,290,119631,5,0,0:0:0:0:
78,86,119794,1,0,0:0:0:0:
22,227,119957,1,0,0:0:0:0:
197,94,120120,1,0,0:0:0:0:
200,217,120283,2,0,L|193:296,1,70
301,290,120609,2,0,L|307:203,1,70
282,104,120936,2,0,P|263:74|153:56,1,140
61,129,121425,1,0,0:0:0:0:
88,259,121588,1,0,0:0:0:0:
159,360,121751,6,0,P|288:333|336:260,1,210
131,196,122403,1,0,0:0:0:0:
363,100,122566,1,0,0:0:0:0:
332,274,122729,1,0,0:0:0:0:
177,118,122892,5,0,0:0:0:0:
193,98,122974,1,0,0:0:0:0:
223,90,123055,1,0,0:0:0:0:
250,93,123137,1,0,0:0:0:0:
277,118,123218,1,0,0:0:0:0:
294,152,123300,1,0,0:0:0:0:
300,178,123381,1,0,0:0:0:0:
155,295,123544,1,0,0:0:0:0:
388,291,123870,5,0,0:0:0:0:
113,187,124033,1,0,0:0:0:0:
401,208,124196,1,0,0:0:0:0:
401,208,124278,1,0,0:0:0:0:
401,208,124359,1,0,0:0:0:0:
217,95,124523,1,0,0:0:0:0:
272,154,124686,1,0,0:0:0:0:
338,104,124849,1,0,0:0:0:0:
48,171,125501,6,0,P|97:239|90:294,1,140
241,323,125990,1,0,0:0:0:0:
307,181,126153,1,0,0:0:0:0:
380,325,126316,1,0,0:0:0:0:
430,221,126479,2,0,P|437:141|401:91,1,140
286,59,126968,1,0,0:0:0:0:
171,111,127131,1,0,0:0:0:0:
126,213,127294,1,0,0:0:0:0:
176,314,127457,2,0,P|203:348|308:335,1,140
384,184,128109,6,0,P|351:114|171:128,1,280
136,263,128925,1,0,0:0:0:0:
258,328,129088,1,0,0:0:0:0:
187,192,129251,1,0,0:0:0:0:
359,314,129414,1,0,0:0:0:0:
82,318,129577,1,0,0:0:0:0:
321,220,129740,2,0,P|358:192|331:103,1,140
116,218,130555,5,0,0:0:0:0:
116,218,130718,2,0,P|90:273|165:309,1,140
314,298,131207,2,0,P|346:249|237:195,1,210
125,128,131859,1,0,0:0:0:0:
321,84,132023,1,0,0:0:0:0:
172,232,132186,1,0,0:0:0:0:
401,253,132349,1,0,0:0:0:0:
170,90,132512,1,0,0:0:0:0:
65,229,132675,1,0,0:0:0:0:
254,134,132838,1,0,0:0:0:0:
239,245,133001,2,0,P|174:269|259:275,1,210
367,179,133653,5,0,0:0:0:0:
379,288,133816,1,0,0:0:0:0:
219,149,133979,1,0,0:0:0:0:
102,256,134142,1,0,0:0:0:0:
219,301,134305,2,0,P|269:246|226:223,1,140
328,94,134794,5,0,0:0:0:0:
129,87,134957,1,0,0:0:0:0:
164,252,135283,6,0,P|76:255|165:255,1,280
281,152,136099,1,0,0:0:0:0:
303,300,136262,1,0,0:0:0:0:
398,160,136425,1,0,0:0:0:0:
440,294,136588,1,0,0:0:0:0:
297,223,136751,1,0,0:0:0:0:
411,80,136914,1,0,0:0:0:0:
148,86,137077,6,0,L|151:159,1,70
228,304,137403,2,0,L|225:219,1,70
237,98,137729,1,0,0:0:0:0:
312,264,137892,1,0,0:0:0:0:
216,170,138055,1,0,0:0:0:0:
352,174,138218,6,0,L|380:99,1,70
413,296,138544,2,0,L|374:357,1,70
122,291,139033,5,0,0:0:0:0:
186,188,139196,1,0,0:0:0:0:
237,333,139359,1,0,0:0:0:0:
74,182,139522,1,0,0:0:0:0:
143,57,139686,1,0,0:0:0:0:
160,274,139849,1,0,0:0:0:0:
258,134,140012,1,0,0:0:0:0:
277,261,140175,2,0,L|274:335,1,70
421,202,140501,6,0,P|402:138|317:147,1,140
171,151,140990,1,0,0:0:0:0:
105,248,141153,1,0,0:0:0:0:
195,329,141316,2,0,P|235:274|316:254,1,140
407,328,141805,1,0,0:0:0:0:
296,167,141968,1,0,0:0:0:0:
187,259,142131,1,0,0:0:0:0:
162,144,142294,2,0,L|126:70,1,70
252,222,142620,2,0,L|293:300,1,70
307,88,142946,1,0,0:0:0:0:
111,253,143436,5,0,0:0:0:0:
186,124,143599,1,0,0:0:0:0:
220,311,143762,1,0,0:0:0:0:
86,137,143925,1,0,0:0:0:0:
296,258,144088,1,0,0:0:0:0:
355,132,144251,2,0,P|348:35|332:128,1,280
127,149,145066,1,0,0:0:0:0:
232,232,145229,1,0,0:0:0:0:
87,269,145392,1,0,0:0:0:0:
213,127,145555,1,0,0:0:0:0:
378,269,145718,6,0,P|412:217|387:168,1,105.000004005432
283,243,146207,1,0,0:0:0:0:
198,150,146370,2,0,P|160:177|150:216,2,78.7500030040742
396,125,147023,2,0,P|386:82|368:69,1,52.5000020027161
255,181,147349,2,0,P|237:212|240:232,1,52.5000020027161
399,284,147675,2,0,P|395:310|376:342,1,52.5000020027161
141,343,148001,2,0,P|104:319|105:293,1,52.5000020027161
79,163,148327,2,0,P|84:122|91:159,2,105.000004005432
271,149,149142,6,0,P|290:115|243:71,1,105.000004005432
186,212,149631,2,0,P|153:238|186:283,1,105.000004005432
298,237,150120,2,0,P|334:245|339:269,5,52.5000020027161
93,179,151099,6,0,P|81:131|113:88,1,105.000004005432
140,255,151588,2,0,P|90:286|126:325,1,105.000004005432
265,204,152077,2,0,P|269:172|244:166,1,52.5000020027161
321,89,152403,2,0,P|347:77|374:96,1,52.5000020027161
434,242,152729,2,0,P|434:214|415:192,1,52.5000020027161
304,320,153055,2,0,P|286:349|253:357,1,52.5000020027161
121,317,153381,2,0,P|93:287|112:267,1,52.5000020027161
117,135,153870,6,0,P|114:100|131:137,2,105.000004005432
207,242,154686,2,0,P|236:202|246:199,1,52.5000020027161
305,312,155012,2,0,P|265:323|253:338,1,52.5000020027161
339,191,155338,2,0,P|348:163|370:157,1,52.5000020027161
236,85,155664,1,0,0:0:0:0:
87,241,155827,1,0,0:0:0:0:
175,332,155990,1,0,0:0:0:0:
373,320,156153,2,0,P|367:265|370:321,1,157.500006008148
165,200,160066,5,0,0:0:0:0:
307,193,160229,2,0,L|300:165,11,26.2500010013581
78,143,161370,6,0,P|98:112|205:113,1,140
131,256,161859,1,0,0:0:0:0:
303,260,162023,1,0,0:0:0:0:
145,349,162186,1,0,0:0:0:0:
353,176,162349,1,0,0:0:0:0:
175,155,162512,1,0,0:0:0:0:
320,338,162675,1,0,0:0:0:0:
294,96,162838,1,0,0:0:0:0:
157,271,163001,1,0,0:0:0:0:
282,224,163164,1,0,0:0:0:0:
103,176,163327,6,0,L|60:151,7,35
113,179,163979,2,0,P|140:139|178:114,1,70
131,295,164305,1,0,0:0:0:0:
299,179,164468,1,0,0:0:0:0:
373,335,164631,1,0,0:0:0:0:
169,227,164794,1,0,0:0:0:0:
411,251,164957,1,0,0:0:0:0:
275,80,165120,2,0,P|231:65|151:107,1,140
66,236,165609,6,0,L|108:293,1,70
252,304,165936,2,0,L|280:255,1,35
274,261,166099,1,0,0:0:0:0:
443,173,166262,2,0,L|366:134,1,70
189,155,166588,2,0,L|279:187,1,70
346,251,166914,2,0,P|350:285|321:332,1,70
238,358,167240,2,0,P|201:310|168:310,1,70
104,248,167566,2,0,P|83:218|112:173,1,70
274,252,167892,2,0,P|295:203|299:177,1,70
112,126,168218,2,0,P|94:90|139:65,1,70
150,253,168544,5,0,0:0:0:0:
237,118,168707,1,0,0:0:0:0:
350,329,168870,1,0,0:0:0:0:
176,163,169033,1,0,0:0:0:0:
418,227,169196,2,0,P|324:175|431:127,1,280
177,70,170175,6,0,B|109:125|158:150|158:150|140:216,1,140
140,326,170664,1,0,0:0:0:0:
276,210,170827,1,0,0:0:0:0:
79,135,170990,1,0,0:0:0:0:
331,65,171153,1,0,0:0:0:0:
154,232,171316,1,0,0:0:0:0:
331,323,171479,1,0,0:0:0:0:
191,97,171642,1,0,0:0:0:0:
364,165,171805,5,0,0:0:0:0:
197,320,171968,1,0,0:0:0:0:
90,243,172131,6,0,P|50:211|56:177,1,70
58,103,172457,2,0,P|92:75|132:55,1,70
212,53,172783,2,0,P|262:53|297:68,1,70
447,91,173109,2,0,P|405:90|358:115,1,70
281,158,173436,2,0,P|242:191|230:219,1,70
143,287,173762,5,0,0:0:0:0:
349,348,173925,1,0,0:0:0:0:
99,152,174088,1,0,0:0:0:0:
378,197,174251,1,0,0:0:0:0:
241,109,174414,1,0,0:0:0:0:
234,115,174495,1,0,0:0:0:0:
226,126,174577,1,0,0:0:0:0:
224,147,174658,1,0,0:0:0:0:
235,158,174740,1,0,0:0:0:0:
251,161,174821,1,0,0:0:0:0:
264,146,174903,1,0,0:0:0:0:
271,131,174984,1,0,0:0:0:0:
264,113,175066,1,0,0:0:0:0:
250,101,175148,1,0,0:0:0:0:
227,92,175229,1,0,0:0:0:0:
205,109,175311,1,0,0:0:0:0:
189,140,175392,2,0,P|202:158|332:164,1,140
191,300,175881,6,0,L|128:332,1,70
331,327,176207,2,0,L|393:270,1,70
