osu file format v14

[General]
AudioFilename: Heart Sutra Hardcore (PTSD Version).mp3
AudioLeadIn: 0
PreviewTime: 37010
Countdown: 0
SampleSet: Normal
StackLeniency: 0.7
Mode: 1
LetterboxInBreaks: 0
WidescreenStoryboard: 1

[Editor]
Bookmarks: 22160,49610,54110,57035
DistanceSpacing: 1.2
BeatDivisor: 4
GridSize: 32
TimelineZoom: 1.6

[Metadata]
Title:Heart Sutra Hardcore (PTSD Version)
TitleUnicode:Heart Sutra Hardcore (PTSD Version)
Artist:UtsuP feat. Hatsune Miku
ArtistUnicode:UtsuP feat. Hatsune Miku
Creator:Thousand
Version:Muzukashii
Source:
Tags:Post-Traumatic Stress Disorder Vocaloid Hardcore JessiChan game rock
BeatmapID:1193137
BeatmapSetID:564358

[Difficulty]
HPDrainRate:4
CircleSize:4
OverallDifficulty:4
ApproachRate:5
SliderMultiplier:1.4
SliderTickRate:1

[Events]
//Background and Video events
0,0,"bg.png",0,0
//Break Periods
//Storyboard Layer 0 (Background)
//Storyboard Layer 1 (Fail)
//Storyboard Layer 2 (Pass)
//Storyboard Layer 3 (Foreground)
//Storyboard Sound Samples

[TimingPoints]
410,300,4,1,1,20,1,0
3635,-100,4,1,1,100,0,0
4010,-100,4,1,1,100,0,1
13610,-100,4,1,1,100,0,0
37610,-100,4,1,1,100,0,1
46985,-100,4,1,1,100,0,0
66410,-100,4,1,1,100,0,1
85385,-100,4,1,1,100,0,0

[HitObjects]
256,192,410,12,0,3410,0:0:0:0:
256,192,3710,5,0,0:0:0:0:
256,192,4010,1,8,0:0:0:0:
256,192,4160,1,0,0:0:0:0:
256,192,4310,1,8,0:0:0:0:
256,192,4610,1,8,0:0:0:0:
256,192,4910,1,8,0:0:0:0:
256,192,5210,1,8,0:0:0:0:
256,192,5360,1,0,0:0:0:0:
256,192,5510,1,8,0:0:0:0:
256,192,5810,1,8,0:0:0:0:
256,192,6110,1,8,0:0:0:0:
256,192,6410,1,8,0:0:0:0:
256,192,6560,1,0,0:0:0:0:
256,192,6710,1,8,0:0:0:0:
256,192,7010,1,8,0:0:0:0:
256,192,7310,1,8,0:0:0:0:
256,192,7610,1,8,0:0:0:0:
256,192,7760,1,0,0:0:0:0:
256,192,7910,1,8,0:0:0:0:
256,192,8210,1,0,0:0:0:0:
256,192,8360,1,8,0:0:0:0:
256,192,8435,1,8,0:0:0:0:
256,192,8510,1,8,0:0:0:0:
256,192,8810,1,0,0:0:0:0:
256,192,8960,1,0,0:0:0:0:
256,192,9110,1,0,0:0:0:0:
256,192,9260,1,0,0:0:0:0:
256,192,9410,1,0,0:0:0:0:
256,192,9560,1,0,0:0:0:0:
256,192,9635,1,0,0:0:0:0:
256,192,9710,1,0,0:0:0:0:
256,192,10010,1,0,0:0:0:0:
256,192,10160,1,0,0:0:0:0:
256,192,10310,1,0,0:0:0:0:
256,192,10460,1,0,0:0:0:0:
256,192,10610,1,0,0:0:0:0:
256,192,10760,1,0,0:0:0:0:
256,192,10835,1,0,0:0:0:0:
256,192,10910,1,0,0:0:0:0:
256,192,11210,1,0,0:0:0:0:
256,192,11360,1,0,0:0:0:0:
256,192,11510,1,0,0:0:0:0:
256,192,11660,1,0,0:0:0:0:
256,192,11810,1,0,0:0:0:0:
256,192,11960,1,0,0:0:0:0:
256,192,12035,1,0,0:0:0:0:
256,192,12110,1,0,0:0:0:0:
256,192,12410,1,0,0:0:0:0:
256,192,12560,1,0,0:0:0:0:
256,192,12710,1,0,0:0:0:0:
256,192,12860,1,0,0:0:0:0:
256,192,13010,1,0,0:0:0:0:
256,192,13085,1,0,0:0:0:0:
288,192,13160,1,0,0:0:0:0:
256,192,13310,1,0,0:0:0:0:
256,192,13460,1,0,0:0:0:0:
256,192,13610,1,8,0:0:0:0:
256,192,13760,1,8,0:0:0:0:
256,192,14060,1,8,0:0:0:0:
256,192,14210,1,8,0:0:0:0:
256,192,14360,1,8,0:0:0:0:
256,192,14660,1,8,0:0:0:0:
256,192,14960,1,8,0:0:0:0:
256,192,15260,1,8,0:0:0:0:
256,192,15410,1,8,0:0:0:0:
256,192,15710,1,0,0:0:0:0:
256,192,16010,1,8,0:0:0:0:
256,192,16160,1,8,0:0:0:0:
256,192,16460,1,8,0:0:0:0:
256,192,16610,1,8,0:0:0:0:
256,192,16760,1,8,0:0:0:0:
256,192,17060,1,8,0:0:0:0:
256,192,17360,1,8,0:0:0:0:
256,192,17660,1,8,0:0:0:0:
256,192,17810,1,8,0:0:0:0:
256,192,18110,1,0,0:0:0:0:
256,192,18410,1,0,0:0:0:0:
256,192,18560,1,0,0:0:0:0:
256,192,18860,1,0,0:0:0:0:
256,192,19010,1,8,0:0:0:0:
256,192,19160,1,0,0:0:0:0:
256,192,19460,1,0,0:0:0:0:
256,192,19760,1,0,0:0:0:0:
256,192,20060,1,0,0:0:0:0:
256,192,20210,1,8,0:0:0:0:
256,192,20510,1,0,0:0:0:0:
256,192,20810,1,0,0:0:0:0:
256,192,20960,1,0,0:0:0:0:
256,192,21260,1,0,0:0:0:0:
256,192,21410,1,8,0:0:0:0:
256,192,21560,1,0,0:0:0:0:
256,192,21860,1,0,0:0:0:0:
256,192,22160,1,0,0:0:0:0:
256,192,22460,1,0,0:0:0:0:
256,192,22610,1,8,0:0:0:0:
256,192,22760,1,0,0:0:0:0:
256,192,22910,1,8,0:0:0:0:
256,192,23210,1,4,0:0:0:0:
256,192,23510,1,8,0:0:0:0:
256,192,23660,1,0,0:0:0:0:
256,192,23960,1,0,0:0:0:0:
256,192,24110,1,8,0:0:0:0:
224,192,24260,1,0,0:0:0:0:
224,192,24560,1,0,0:0:0:0:
224,192,24710,1,8,0:0:0:0:
224,192,24860,1,0,0:0:0:0:
256,192,25160,1,0,0:0:0:0:
256,192,25310,1,8,0:0:0:0:
256,192,25460,1,0,0:0:0:0:
256,192,25610,1,0,0:0:0:0:
256,192,25910,1,8,0:0:0:0:
256,192,26060,1,0,0:0:0:0:
256,192,26360,1,0,0:0:0:0:
256,192,26510,1,8,0:0:0:0:
256,192,26660,1,0,0:0:0:0:
256,160,26960,1,0,0:0:0:0:
256,192,27110,1,8,0:0:0:0:
256,192,27260,1,0,0:0:0:0:
256,192,27560,1,0,0:0:0:0:
256,192,27710,1,8,0:0:0:0:
256,192,27860,1,8,0:0:0:0:
256,192,28010,1,0,0:0:0:0:
256,160,28160,1,0,0:0:0:0:
256,192,28310,1,8,0:0:0:0:
256,192,28460,1,0,0:0:0:0:
256,192,28760,1,0,0:0:0:0:
256,192,28910,1,8,0:0:0:0:
256,192,29060,1,0,0:0:0:0:
256,192,29360,1,0,0:0:0:0:
256,192,29510,1,8,0:0:0:0:
256,192,29660,1,0,0:0:0:0:
256,192,29960,1,0,0:0:0:0:
224,192,30110,1,8,0:0:0:0:
256,192,30260,1,0,0:0:0:0:
256,192,30560,1,0,0:0:0:0:
224,192,30710,1,8,0:0:0:0:
256,192,30860,1,0,0:0:0:0:
256,192,31010,1,0,0:0:0:0:
224,192,31310,1,8,0:0:0:0:
256,192,31460,1,0,0:0:0:0:
224,192,31610,1,8,0:0:0:0:
256,192,31685,1,8,0:0:0:0:
256,192,31760,1,8,0:0:0:0:
224,192,31910,1,8,0:0:0:0:
224,192,32210,1,4,0:0:0:0:
256,192,32810,1,0,0:0:0:0:
224,192,33110,1,8,0:0:0:0:
224,192,33260,1,0,0:0:0:0:
256,192,33410,1,8,0:0:0:0:
256,192,33710,1,0,0:0:0:0:
256,192,33860,1,8,0:0:0:0:
224,192,34010,1,0,0:0:0:0:
224,192,34160,1,8,0:0:0:0:
256,192,34460,1,0,0:0:0:0:
224,192,34610,1,8,0:0:0:0:
224,192,34910,1,0,0:0:0:0:
224,192,35060,1,8,0:0:0:0:
224,192,35210,1,0,0:0:0:0:
224,192,35510,1,0,0:0:0:0:
224,192,35810,1,0,0:0:0:0:
224,192,35960,1,0,0:0:0:0:
224,192,36035,1,0,0:0:0:0:
224,192,36110,1,0,0:0:0:0:
224,192,36260,1,8,0:0:0:0:
224,192,36410,1,0,0:0:0:0:
224,192,36560,1,0,0:0:0:0:
224,192,36710,1,8,0:0:0:0:
224,192,36860,1,8,0:0:0:0:
224,192,36935,1,8,0:0:0:0:
224,192,37010,1,8,0:0:0:0:
224,192,37610,1,4,0:0:0:0:
224,192,37760,1,8,0:0:0:0:
224,192,37910,1,0,0:0:0:0:
224,192,38060,1,8,0:0:0:0:
224,192,38210,1,0,0:0:0:0:
224,192,38360,1,8,0:0:0:0:
224,192,38510,1,0,0:0:0:0:
224,192,38660,1,8,0:0:0:0:
224,192,38810,1,0,0:0:0:0:
224,192,39110,1,8,0:0:0:0:
224,192,39410,1,0,0:0:0:0:
224,192,39710,1,8,0:0:0:0:
224,192,40010,1,0,0:0:0:0:
224,192,40160,1,8,0:0:0:0:
224,192,40310,1,0,0:0:0:0:
224,192,40460,1,8,0:0:0:0:
224,192,40610,1,0,0:0:0:0:
224,192,40760,1,8,0:0:0:0:
224,192,40910,1,0,0:0:0:0:
224,192,41060,1,8,0:0:0:0:
224,192,41210,1,0,0:0:0:0:
224,192,41510,1,0,0:0:0:0:
224,192,41810,1,0,0:0:0:0:
224,192,42110,1,8,0:0:0:0:
224,192,42260,1,0,0:0:0:0:
224,192,42335,1,0,0:0:0:0:
224,192,42410,1,0,0:0:0:0:
224,192,42560,1,8,0:0:0:0:
224,192,42710,1,0,0:0:0:0:
224,192,42860,1,8,0:0:0:0:
224,192,43010,1,0,0:0:0:0:
224,192,43310,1,8,0:0:0:0:
224,192,43610,1,0,0:0:0:0:
224,192,43910,1,0,0:0:0:0:
224,192,44060,1,8,0:0:0:0:
224,192,44210,1,0,0:0:0:0:
224,192,44510,1,8,0:0:0:0:
224,192,44660,1,0,0:0:0:0:
224,192,44810,1,0,0:0:0:0:
224,192,45110,1,8,0:0:0:0:
224,192,45410,1,0,0:0:0:0:
224,192,45710,1,8,0:0:0:0:
224,192,46010,1,14,0:0:0:0:
224,192,46310,1,14,0:0:0:0:
224,192,46610,1,14,0:0:0:0:
224,192,46910,1,0,0:0:0:0:
224,192,47060,1,8,0:0:0:0:
224,192,47210,1,0,0:0:0:0:
224,192,47360,1,0,0:0:0:0:
224,192,47660,1,0,0:0:0:0:
224,192,47810,1,8,0:0:0:0:
224,192,47960,1,0,0:0:0:0:
224,192,48260,1,0,0:0:0:0:
224,192,48560,1,0,0:0:0:0:
224,192,48860,1,0,0:0:0:0:
224,192,49010,1,8,0:0:0:0:
224,192,49310,1,0,0:0:0:0:
224,192,49610,1,0,0:0:0:0:
224,192,49760,1,0,0:0:0:0:
224,192,50060,1,0,0:0:0:0:
224,192,50210,1,8,0:0:0:0:
224,192,50360,1,0,0:0:0:0:
224,192,50660,1,0,0:0:0:0:
224,192,50960,1,0,0:0:0:0:
224,192,51260,1,0,0:0:0:0:
224,192,51410,1,8,0:0:0:0:
224,192,51710,1,0,0:0:0:0:
224,192,52010,1,8,0:0:0:0:
224,192,52160,1,8,0:0:0:0:
224,192,52460,1,8,0:0:0:0:
224,192,52610,1,8,0:0:0:0:
224,192,52760,1,8,0:0:0:0:
224,192,53060,1,8,0:0:0:0:
224,192,53360,1,8,0:0:0:0:
224,192,53660,1,8,0:0:0:0:
224,192,53810,1,8,0:0:0:0:
224,192,54110,1,0,0:0:0:0:
224,192,54410,1,8,0:0:0:0:
224,192,54560,1,8,0:0:0:0:
224,192,54860,1,8,0:0:0:0:
224,192,55010,1,8,0:0:0:0:
224,192,55160,1,8,0:0:0:0:
224,192,55460,1,8,0:0:0:0:
224,192,55760,1,8,0:0:0:0:
224,192,56060,1,8,0:0:0:0:
224,192,56210,1,8,0:0:0:0:
224,192,56510,1,0,0:0:0:0:
224,192,56810,1,0,0:0:0:0:
224,192,56960,1,0,0:0:0:0:
224,192,57110,1,8,0:0:0:0:
224,192,57260,1,0,0:0:0:0:
256,192,57560,1,0,0:0:0:0:
256,192,57710,1,8,0:0:0:0:
256,192,57860,1,0,0:0:0:0:
256,192,58160,1,0,0:0:0:0:
256,192,58310,1,8,0:0:0:0:
256,192,58460,1,0,0:0:0:0:
224,192,58760,1,0,0:0:0:0:
224,192,58910,1,8,0:0:0:0:
256,192,59210,1,0,0:0:0:0:
256,192,59510,1,8,0:0:0:0:
256,192,59660,1,0,0:0:0:0:
256,192,59960,1,0,0:0:0:0:
256,192,60110,1,8,0:0:0:0:
256,192,60260,1,0,0:0:0:0:
256,192,60560,1,0,0:0:0:0:
256,192,60710,1,8,0:0:0:0:
256,192,60860,1,0,0:0:0:0:
256,192,61160,1,0,0:0:0:0:
256,192,61310,1,8,0:0:0:0:
256,192,61610,1,0,0:0:0:0:
256,192,61685,1,0,0:0:0:0:
256,192,61760,1,0,0:0:0:0:
256,192,61910,1,8,0:0:0:0:
256,192,62060,1,0,0:0:0:0:
256,192,62210,1,0,0:0:0:0:
256,192,62510,1,8,0:0:0:0:
256,192,62810,1,0,0:0:0:0:
256,192,62885,1,0,0:0:0:0:
256,192,62960,1,0,0:0:0:0:
256,192,63110,1,8,0:0:0:0:
256,192,63260,1,0,0:0:0:0:
256,192,63410,1,0,0:0:0:0:
256,192,63710,1,8,0:0:0:0:
256,192,64010,1,0,0:0:0:0:
256,192,64085,1,0,0:0:0:0:
256,192,64160,1,0,0:0:0:0:
256,192,64310,1,8,0:0:0:0:
256,192,64460,1,0,0:0:0:0:
256,192,64610,1,0,0:0:0:0:
256,192,64910,1,8,0:0:0:0:
256,192,65210,1,8,0:0:0:0:
256,192,65360,1,0,0:0:0:0:
256,192,65510,1,8,0:0:0:0:
256,192,65660,1,0,0:0:0:0:
256,192,65735,1,0,0:0:0:0:
256,192,65810,1,0,0:0:0:0:
256,192,66410,1,0,0:0:0:0:
256,192,66560,1,8,0:0:0:0:
256,192,66710,1,0,0:0:0:0:
256,192,66860,1,8,0:0:0:0:
224,192,67010,1,0,0:0:0:0:
256,192,67160,1,8,0:0:0:0:
256,192,67310,1,0,0:0:0:0:
256,192,67460,1,8,0:0:0:0:
224,192,67610,1,8,0:0:0:0:
256,192,67910,1,8,0:0:0:0:
224,192,68210,1,0,0:0:0:0:
256,192,68510,1,8,0:0:0:0:
224,192,68810,1,8,0:0:0:0:
256,192,69110,1,8,0:0:0:0:
224,192,69410,1,8,0:0:0:0:
256,192,69560,1,8,0:0:0:0:
256,192,69710,1,0,0:0:0:0:
224,192,70010,1,8,0:0:0:0:
256,192,70310,1,8,0:0:0:0:
256,192,70460,1,8,0:0:0:0:
224,192,70610,1,0,0:0:0:0:
256,192,70910,1,8,0:0:0:0:
256,192,71210,1,0,0:0:0:0:
256,192,71360,1,8,0:0:0:0:
256,192,71510,1,0,0:0:0:0:
256,192,71660,1,8,0:0:0:0:
224,192,71810,1,0,0:0:0:0:
256,192,71960,1,8,0:0:0:0:
256,192,72110,1,0,0:0:0:0:
256,192,72260,1,8,0:0:0:0:
224,192,72410,1,0,0:0:0:0:
256,192,72710,1,8,0:0:0:0:
224,192,73010,1,0,0:0:0:0:
256,192,73310,1,8,0:0:0:0:
224,192,73610,1,0,0:0:0:0:
256,192,73760,1,8,0:0:0:0:
256,192,73910,1,0,0:0:0:0:
256,192,74060,1,8,0:0:0:0:
224,192,74210,1,0,0:0:0:0:
256,192,74360,1,8,0:0:0:0:
256,192,74510,1,0,0:0:0:0:
256,192,74660,1,8,0:0:0:0:
224,192,74810,1,8,0:0:0:0:
256,192,75110,1,8,0:0:0:0:
224,192,75410,1,8,0:0:0:0:
256,192,75710,1,8,0:0:0:0:
288,192,75785,1,8,0:0:0:0:
256,192,75860,1,8,0:0:0:0:
256,192,76010,1,0,0:0:0:0:
256,192,76310,1,8,0:0:0:0:
256,192,76460,1,8,0:0:0:0:
224,192,76610,1,0,0:0:0:0:
256,192,76910,1,8,0:0:0:0:
224,192,77210,1,0,0:0:0:0:
256,192,77510,1,8,0:0:0:0:
224,192,77660,1,0,0:0:0:0:
224,192,77810,1,8,0:0:0:0:
256,192,78110,1,8,0:0:0:0:
256,192,78410,1,8,0:0:0:0:
256,192,78710,1,8,0:0:0:0:
224,192,79010,1,0,0:0:0:0:
256,192,79310,1,8,0:0:0:0:
256,192,79460,1,8,0:0:0:0:
224,192,79610,1,0,0:0:0:0:
256,192,79760,1,0,0:0:0:0:
256,192,79910,1,8,0:0:0:0:
224,192,80060,1,8,0:0:0:0:
256,192,80210,1,0,0:0:0:0:
256,192,80510,1,8,0:0:0:0:
256,192,80585,1,8,0:0:0:0:
256,192,80660,1,8,0:0:0:0:
256,192,80810,1,0,0:0:0:0:
256,192,80960,1,8,0:0:0:0:
256,192,81110,1,0,0:0:0:0:
256,192,81260,1,8,0:0:0:0:
224,192,81410,1,0,0:0:0:0:
256,192,81560,1,8,0:0:0:0:
256,192,81710,1,0,0:0:0:0:
256,192,81860,1,8,0:0:0:0:
224,192,82010,1,0,0:0:0:0:
256,192,82160,1,8,0:0:0:0:
256,192,82310,1,8,0:0:0:0:
224,192,82610,1,0,0:0:0:0:
288,192,83210,1,0,0:0:0:0:
256,192,83360,1,8,0:0:0:0:
256,192,83510,1,0,0:0:0:0:
256,192,83660,1,8,0:0:0:0:
224,192,83810,1,0,0:0:0:0:
256,192,83960,1,8,0:0:0:0:
256,192,84110,1,0,0:0:0:0:
256,192,84260,1,8,0:0:0:0:
224,192,84410,1,8,0:0:0:0:
256,192,84710,1,8,0:0:0:0:
256,192,85010,1,8,0:0:0:0:
256,192,85085,1,8,0:0:0:0:
256,192,85160,1,8,0:0:0:0:
256,192,85310,12,0,87260,0:0:0:0:
256,192,89210,5,4,0:0:0:0:
256,192,89810,1,8,0:0:0:0:
256,192,90110,1,0,0:0:0:0:
256,192,90410,1,8,0:0:0:70:normal-hitclap.wav
256,192,91010,1,8,0:0:0:0:
256,192,91310,1,0,0:0:0:0:
256,192,91610,1,8,0:0:0:0:
256,192,92210,1,8,0:0:0:0:
256,192,92510,1,0,0:0:0:0:
256,192,92810,1,8,0:0:0:0:
256,192,93110,1,8,0:0:0:0:
256,192,93410,1,8,0:0:0:0:
256,192,93710,1,0,0:0:0:0:
256,192,94010,1,8,0:0:0:0:
256,192,94610,1,8,0:0:0:0:
256,192,94910,1,0,0:0:0:0:
256,192,95210,1,8,0:0:0:0:
256,192,95810,1,8,0:0:0:0:
256,192,96110,1,0,0:0:0:0:
256,192,96410,1,8,0:0:0:0:
256,192,97010,1,8,0:0:0:0:
256,192,97310,1,0,0:0:0:0:
256,192,97610,1,8,0:0:0:0:
256,192,97910,1,8,0:0:0:0:
256,192,98210,1,8,0:0:0:0:
256,192,98510,1,0,0:0:0:0:
256,192,98810,1,12,0:0:0:0:
256,192,99410,1,8,0:0:0:0:
256,160,99710,1,0,0:0:0:0:
256,160,100010,1,8,0:0:0:0:
256,160,100610,1,8,0:0:0:0:
256,160,100910,1,0,0:0:0:0:
256,160,101210,1,8,0:0:0:0:
256,160,101810,1,8,0:0:0:0:
256,160,102110,1,0,0:0:0:0:
256,160,102410,1,8,0:0:0:0:
256,160,102710,1,0,0:0:0:0:
256,160,103010,1,8,0:0:0:0:
256,160,103310,1,0,0:0:0:0:
256,160,103610,1,12,0:0:0:0:
256,160,104210,1,12,0:0:0:0:
256,160,104510,1,12,0:0:0:0:
256,160,104810,1,12,0:0:0:0:
256,160,105410,1,12,0:0:0:0:
256,160,105710,1,12,0:0:0:0:
256,160,106010,1,12,0:0:0:0:
256,160,106610,1,4,0:0:0:0:
