osu file format v14

[General]
AudioFilename: audio.mp3
AudioLeadIn: 0
PreviewTime: 128360
Countdown: 0
SampleSet: Normal
StackLeniency: 0.6
Mode: 0
LetterboxInBreaks: 0
WidescreenStoryboard: 1

[Editor]
Bookmarks: 11115,20911,40503,60095,79687,89483,109075,128666,148258,167850,188666,213156,216830
DistanceSpacing: 1
BeatDivisor: 4
GridSize: 16
TimelineZoom: 0.9

[Metadata]
Title:Terror Storyteller
TitleUnicode:テラーストーリーテラー
Artist:UtsuP
ArtistUnicode:鬱P
Creator:NoSanity
Version:Hard
Source:Vocaloid
Tags:Vocaloid Gumi Flower Metal Scream Synth
BeatmapID:1947610
BeatmapSetID:923158

[Difficulty]
HPDrainRate:4
CircleSize:3.5
OverallDifficulty:5
ApproachRate:7.5
SliderMultiplier:1.2
SliderTickRate:1

[Events]
//Background and Video events
0,0,"46249542_p0_master1200.jpg",0,0
//Break Periods
//Storyboard Layer 0 (Background)
//Storyboard Layer 1 (Fail)
//Storyboard Layer 2 (Pass)
//Storyboard Layer 3 (Foreground)
//Storyboard Sound Samples

[TimingPoints]
1320,306.122448979592,4,1,1,30,1,0
1320,-133.333333333333,4,1,1,30,0,0
3768,-133.333333333333,4,1,1,40,0,0
6217,-133.333333333333,4,1,1,50,0,0
9891,-100,4,1,1,80,0,0
10503,-100,4,1,1,80,0,0
10809,-100,4,1,1,80,0,0
11115,-100,4,1,1,80,0,0
12340,-100,4,1,1,80,0,0
12952,-100,4,1,1,80,0,0
13182,-100,4,1,1,40,0,0
13258,-100,4,1,1,80,0,0
13488,-100,4,1,1,40,0,0
13564,-100,4,1,1,80,0,0
15095,-100,4,1,1,80,0,0
15401,-100,4,1,1,80,0,0
15707,-100,4,1,1,80,0,0
17238,-100,4,1,1,80,0,0
17850,-100,4,1,1,80,0,0
18080,-100,4,1,1,40,0,0
18156,-100,4,1,1,80,0,0
18386,-100,4,1,1,40,0,0
18462,-100,4,1,1,80,0,0
20299,-100,4,1,1,80,0,0
20911,-100,4,1,1,80,0,0
40503,-133.333333333333,4,1,1,50,0,0
50299,-133.333333333333,4,1,1,60,0,0
55809,-133.333333333333,4,1,1,60,0,0
56422,-133.333333333333,4,1,1,60,0,0
57034,-133.333333333333,4,1,1,60,0,0
57646,-100,4,1,1,60,0,0
58258,-100,4,1,1,80,0,0
60095,-100,4,1,1,90,0,1
69891,-100,4,1,1,90,0,1
74789,-100,4,1,1,90,0,1
75401,-100,4,1,1,90,0,1
75707,-100,4,1,1,90,0,1
79687,-100,4,1,1,80,0,0
89483,-100,4,1,1,80,0,0
109228,-100,4,1,1,80,0,0
118105,-100,4,1,1,80,0,0
118564,-100,4,1,1,80,0,0
118871,-100,4,1,1,80,0,0
124381,-100,4,1,1,80,0,0
124993,-100,4,1,1,80,0,0
125605,-100,4,1,1,80,0,0
126830,-100,4,1,1,80,0,0
128666,-100,4,1,1,90,0,1
143360,-100,4,1,1,90,0,1
143973,-100,4,1,1,90,0,1
144279,-100,4,1,1,90,0,1
148258,-100,4,1,1,80,0,0
148871,-100,4,1,1,50,0,0
159279,-100,4,1,1,50,0,0
159891,-100,4,1,1,50,0,0
161115,-100,4,1,1,50,0,0
165401,-100,4,1,1,50,0,0
167850,-100,4,1,1,60,0,0
174585,-100,4,1,1,60,0,0
182544,-100,4,1,1,70,0,0
184075,-100,4,1,1,70,0,0
184993,-100,4,1,1,80,0,0
186371,-100,4,1,1,50,0,0
188360,-100,4,1,1,70,0,0
188666,-100,4,1,1,90,0,1
197697,-100,4,1,1,90,0,1
198462,-100,4,1,1,90,0,1
208564,-100,4,1,1,90,0,1
213156,-100,4,1,1,80,0,0
216830,-100,4,1,1,80,0,0

[HitObjects]
41,98,1473,5,0,2:0:0:0:
41,98,1626,2,0,L|99:92,1,45.0000017166138,0|0,2:0|2:0,0:0:0:0:
135,90,1932,2,0,L|231:81,1,90.0000034332277,0|0,2:0|2:0,0:0:0:0:
233,138,2391,2,0,L|134:146,1,90.0000034332277,0|0,2:0|2:0,0:0:0:0:
49,156,3003,1,0,2:0:0:0:
49,156,3156,2,0,L|107:150,2,45.0000017166138,0|0|0,2:0|2:0|2:0,0:0:0:0:
185,213,3921,5,0,2:0:0:0:
185,213,4075,2,0,P|159:226|127:233,1,45.0000017166138,0|0,2:0|2:0,0:0:0:0:
96,242,4381,2,0,P|44:254|5:269,1,90.0000034332277,0|0,2:0|2:0,2:0:0:0:
24,322,4840,2,0,P|66:306|110:296,1,90.0000034332277,0|0,2:0|2:0,0:0:0:0:
205,266,5452,1,0,2:0:0:0:
205,266,5606,2,0,P|179:279|147:286,2,45.0000017166138,0|0|0,2:0|2:0|2:0,0:0:0:0:
279,137,6371,5,0,2:0:0:0:
279,137,6524,2,0,B|300:152|300:152|334:157,1,45.0000017166138,0|0,2:0|2:0,0:0:0:0:
371,154,6830,2,0,B|424:155|424:155|466:170,1,90.0000034332277,0|0,2:0|2:0,0:0:0:0:
454,226,7289,2,0,B|411:209|411:209|356:208,1,90.0000034332277,0|0,2:0|2:0,0:0:0:0:
268,202,7901,1,0,2:0:0:0:
268,202,8054,2,0,B|291:211|291:211|326:212,2,45.0000017166138,0|0|0,2:0|2:0|2:0,0:0:0:0:
160,99,8820,6,0,L|124:138,1,45.0000017166138,0|0,2:0|2:0,0:0:0:0:
93,166,9126,2,0,L|51:210,1,45.0000017166138,0|0,2:0|2:0,0:0:0:0:
165,158,9585,2,0,L|195:124,1,45.0000017166138,0|0,2:0|2:0,0:0:0:0:
259,56,9891,6,0,P|300:52|373:91,1,120,8|8,3:3|3:0,0:0:0:0:
417,130,10350,1,8,3:0:0:0:
366,172,10503,2,0,L|403:220,1,60,0|0,3:0|3:0,0:0:0:0:
307,213,10809,2,0,L|344:261,1,60,0|0,3:0|3:0,0:0:0:0:
265,305,11115,6,0,P|305:342|332:347,2,60,0|0|4,0:0|0:0|0:3,0:0:0:0:
132,298,11728,1,8,0:3:0:0:
132,298,11881,2,0,P|122:236|126:177,1,120,0|0,0:0|0:0,0:0:0:0:
140,101,12340,2,0,L|201:116,1,60,0|0,3:0|3:0,0:0:0:0:
162,31,12646,2,0,L|223:46,1,60,4|0,3:3|3:0,0:0:0:0:
314,67,12952,5,8,0:3:0:0:
308,198,13258,1,4,0:3:0:0:
176,223,13564,6,0,P|203:168|220:152,2,60,0|0|4,0:0|0:0|0:3,0:0:0:0:
148,353,14177,1,8,0:3:0:0:
148,353,14330,2,0,P|200:312|256:307,1,120,0|0,0:0|0:0,0:0:0:0:
260,226,14789,5,0,0:0:0:0:
309,182,14942,1,0,0:0:0:0:
340,123,15095,2,0,P|349:74|340:38,1,60,4|0,0:3|0:0,0:0:0:0:
271,83,15401,1,8,0:3:0:0:
208,102,15554,1,0,0:0:0:0:
151,135,15707,2,0,P|188:166|224:177,1,60,4|0,0:3|0:0,0:0:0:0:
248,231,16013,6,0,P|288:240|319:270,2,60,0|0|4,0:0|0:0|0:3,0:0:0:0:
121,254,16626,1,8,0:3:0:0:
121,254,16779,2,0,P|182:323|233:323,1,120,0|0,0:0|0:0,0:0:0:0:
283,329,17238,2,0,L|313:273,1,60,0|0,3:0|3:0,0:0:0:0:
363,334,17544,2,0,L|393:278,1,60,4|0,3:0|3:0,0:0:0:0:
490,230,17850,5,8,0:3:0:0:
384,151,18156,1,4,0:3:0:0:
253,170,18462,6,0,P|286:199|296:225,2,60,0|0|4,0:0|0:0|0:3,0:0:0:0:
127,127,19075,1,8,0:3:0:0:
127,127,19228,2,0,P|161:188|151:240,1,120,0|0,0:0|0:0,0:0:0:0:
128,296,19687,1,8,0:3:0:0:
166,351,19840,1,0,0:0:0:0:
229,369,19993,1,0,0:0:0:0:
294,365,20146,1,0,0:0:0:0:
338,299,20299,6,0,B|335:267|335:267|316:236|316:236|345:201|345:201|326:171|326:171|322:123,1,180,10|0,0:3|0:0,0:0:0:0:
320,93,20911,5,4,0:0:0:0:
191,122,21217,1,0,0:0:0:0:
114,229,21524,2,0,L|192:196,1,60,8|0,0:3|3:0,0:0:0:0:
266,125,22136,5,0,0:0:0:0:
384,182,22442,1,0,0:0:0:0:
391,313,22748,2,0,L|340:248,1,60,8|0,0:3|3:0,0:0:0:0:
213,203,23360,5,0,0:0:0:0:
207,334,23666,1,0,0:0:0:0:
125,229,23973,2,0,L|139:157,1,60,8|0,0:3|3:0,0:0:0:0:
324,108,24585,6,0,P|362:134|395:136,1,60,0|0,0:0|0:0,0:0:0:0:
308,191,24891,2,0,P|333:227|327:263,1,60,0|0,0:0|0:0,0:0:0:0:
353,315,25197,2,0,P|379:302|400:281,2,60,8|0|0,0:3|0:0|0:0,0:0:0:0:
242,286,25809,5,0,0:0:0:0:
295,167,26115,1,0,0:0:0:0:
200,74,26422,2,0,L|213:142,1,60,8|0,0:3|3:0,0:0:0:0:
118,265,27034,5,0,0:0:0:0:
233,201,27340,1,0,0:0:0:0:
318,301,27646,2,0,L|312:229,1,60,8|0,0:3|3:0,0:0:0:0:
358,117,28258,5,0,0:0:0:0:
230,83,28564,1,0,0:0:0:0:
128,122,28871,2,0,P|165:124|201:145,2,60,0|0|0,0:3|3:0|3:0,0:0:0:0:
132,199,29330,2,0,L|62:225,1,60
79,297,29636,2,0,P|30:288|7:263,2,60,0|0|0,0:0|0:0|0:0,0:0:0:0:
143,342,30095,2,0,P|159:297|153:264,1,60,8|0,0:3|0:0,0:0:0:0:
149,212,30401,1,0,0:0:0:0:
203,106,30707,5,4,0:3:0:0:
333,128,31013,1,4,0:3:0:0:
331,260,31320,2,0,L|369:207,1,60,8|0,0:3|3:0,0:0:0:0:
415,53,31932,5,0,0:0:0:0:
294,107,32238,1,0,0:0:0:0:
182,35,32544,2,0,L|219:109,1,60,8|0,0:3|3:0,0:0:0:0:
175,220,33156,5,0,0:0:0:0:
276,266,33462,1,0,0:0:0:0:
199,373,33768,2,0,L|212:304,1,60,8|0,0:3|3:0,0:0:0:0:
371,230,34381,6,0,P|344:192|314:173,1,60,0|0,0:0|0:0,0:0:0:0:
377,120,34687,2,0,P|331:108|296:112,1,60,0|0,0:0|0:0,0:0:0:0:
242,116,34993,2,0,P|249:76|278:43,2,60,8|0|0,0:3|0:0|0:0,0:0:0:0:
184,229,35605,6,0,P|241:239|327:237,1,120,0|0,0:0|0:0,0:0:0:0:
259,329,36217,2,0,L|180:312,1,60,8|0,0:3|3:0,0:0:0:0:
88,214,36830,5,0,0:0:0:0:
219,217,37136,1,0,0:0:0:0:
146,106,37442,2,0,L|213:142,1,60,8|0,0:3|3:0,0:0:0:0:
344,77,38054,5,0,0:0:0:0:
441,166,38360,1,0,0:0:0:0:
363,230,38666,2,0,P|338:200|296:186,2,60,8|0|0,0:3|3:0|0:0,0:0:0:0:
289,262,39126,2,0,L|218:224,1,60
152,224,39432,2,0,P|160:265|181:295,2,60,0|0|0,0:0|0:0|0:0,0:0:0:0:
153,152,39891,2,0,P|152:116|139:82,1,60,8|0,0:3|0:0,0:0:0:0:
100,37,40197,1,0,0:0:0:0:
239,76,40503,5,8,2:2:0:0:
239,76,40656,2,0,L|181:56,2,45.0000017166138,0|0|0,2:0|2:0|2:0,0:0:0:0:
286,90,41115,2,0,L|380:122,1,90.0000034332277,8|0,2:2|2:0,0:0:0:0:
356,183,41575,1,0,2:0:0:0:
309,167,41728,2,0,L|261:149,1,45.0000017166138,8|0,2:2|2:0,0:0:0:0:
173,118,42187,1,0,2:0:0:0:
173,118,42340,2,0,L|115:98,2,45.0000017166138,8|0|0,2:2|2:0|2:0,0:0:0:0:
250,179,42952,5,8,2:2:0:0:
250,179,43105,2,0,L|294:183,2,45.0000017166138,0|0|0,2:0|2:0|2:0,0:0:0:0:
202,172,43564,2,0,L|112:162,1,90.0000034332277,8|0,2:2|2:0,0:0:0:0:
99,226,44024,1,0,2:0:0:0:
148,232,44177,2,0,L|192:235,1,45.0000017166138,8|0,2:2|2:0,0:0:0:0:
292,245,44636,1,0,2:0:0:0:
292,245,44789,2,0,L|336:249,2,45.0000017166138,8|0|0,2:2|2:0|2:0,0:0:0:0:
290,146,45401,6,0,P|273:95|241:77,1,90.0000034332277,8|0,2:2|2:0,0:0:0:0:
190,161,46013,2,0,P|150:175|103:157,1,90.0000034332277,8|0,2:2|2:0,0:0:0:0:
24,104,46626,2,0,P|6:64|7:44,2,45.0000017166138,8|0|0,2:2|2:0|2:0,0:0:0:0:
116,68,47238,2,0,P|130:105|112:161,1,90.0000034332277,8|0,2:2|2:0,0:0:0:0:
77,242,47850,6,0,B|102:259|112:283|112:283|140:278|166:283,1,90.0000034332277,8|0,2:2|2:0,0:0:0:0:
245,288,48462,2,0,B|247:257|263:237|263:237|244:215|236:190,1,90.0000034332277,8|0,2:2|2:0,0:0:0:0:
154,164,49075,2,0,B|159:159|169:132|169:132|195:135|222:122,1,90.0000034332277,8|0,2:2|2:0,0:0:0:0:
268,105,49534,1,0,2:0:0:0:
315,90,49687,1,8,2:2:0:0:
342,285,50299,5,8,3:2:0:0:
342,285,50452,2,0,P|316:282|278:284,2,45.0000017166138,0|0|0,2:0|3:0|2:0,0:0:0:0:
352,224,50911,2,0,P|309:220|258:224,1,90.0000034332277,8|0,3:2|3:0,0:0:0:0:
213,232,51371,1,0,2:0:0:0:
165,244,51524,2,0,P|127:266|110:279,2,45.0000017166138,8|0|0,3:2|2:0|3:0,0:0:0:0:
141,200,51983,1,0,2:0:0:0:
94,217,52136,2,0,P|56:239|39:252,2,45.0000017166138,8|0|0,3:2|2:0|2:0,0:0:0:0:
145,132,52748,5,8,3:2:0:0:
145,132,52901,2,0,P|166:126|188:119,2,45.0000017166138,0|0|0,2:0|3:0|2:0,0:0:0:0:
156,192,53360,2,0,P|199:180|240:162,1,90.0000034332277,8|0,3:2|3:0,0:0:0:0:
284,137,53820,1,0,2:0:0:0:
325,110,53973,2,0,P|340:93|353:75,2,45.0000017166138,8|0|0,3:2|2:0|2:0,0:0:0:0:
363,143,54432,1,0,2:0:0:0:
401,111,54585,2,0,P|416:94|429:76,2,45.0000017166138,8|0|0,3:2|2:0|3:0,0:0:0:0:
436,203,55197,6,0,P|436:251|400:294,1,90.0000034332277,8|0,3:2|3:0,0:0:0:0:
370,309,55656,1,0,3:0:0:0:
323,326,55809,2,0,B|264:333|281:303|224:304,1,90.0000034332277,8|0,3:2|3:0,0:0:0:0:
138,295,56422,2,0,P|160:250|147:205,1,90.0000034332277,8|0,3:2|3:0,0:0:0:0:
53,204,57034,2,0,P|77:145|117:125,1,90.0000034332277,8|0,3:2|3:0,0:0:0:0:
193,107,57646,5,8,3:2:0:0:
323,128,57952,1,0,3:0:0:0:
230,221,58258,2,0,P|256:254|290:273,2,60,8|0|0,3:2|3:0|3:0,0:0:0:0:
154,112,58871,6,0,P|179:90|190:67,2,60,8|8|0,3:3|3:3|3:0,0:0:0:0:
90,131,59330,1,0,3:0:0:0:
55,187,59483,2,0,L|117:225,1,60,8|0,3:3|3:0,0:0:0:0:
120,310,59789,5,0,3:0:0:0:
191,279,59942,1,0,3:0:0:0:
240,218,60095,2,0,P|252:178|251:135,1,60,4|0,0:3|0:0,0:0:0:0:
338,94,60401,2,0,P|289:75|257:75,1,60,4|0,0:3|0:0,0:0:0:0:
233,13,60707,2,0,L|171:58,1,60,12|0,0:3|0:0,0:0:0:0:
78,44,61013,6,0,P|67:86|71:125,1,60,4|0,0:3|0:0,0:0:0:0:
76,180,61320,2,0,P|80:232|72:258,1,60,4|0,0:3|0:0,0:0:0:0:
157,179,61626,2,0,P|195:170|224:173,1,60,4|0,0:3|0:0,0:0:0:0:
270,226,61932,2,0,L|326:177,1,60,12|0,0:3|0:0,0:0:0:0:
413,153,62238,6,0,P|390:114|361:94,1,60,4|0,0:3|0:0,0:0:0:0:
302,53,62544,2,0,P|271:83|186:107,1,120,4|4,0:3|0:3,0:0:0:0:
121,101,63003,1,0,0:0:0:0:
24,69,63156,2,0,L|49:139,1,60,12|0,0:3|0:0,0:0:0:0:
74,196,63462,6,0,P|96:248|95:272,1,60,4|0,0:3|0:0,0:0:0:0:
93,328,63768,1,4,0:3:0:0:
165,298,63922,2,0,P|190:282|219:275,1,60,0|4,0:0|0:3,0:0:0:0:
297,269,64228,1,0,0:0:0:0:
376,209,64381,2,0,L|301:187,1,60,12|0,0:3|0:0,0:0:0:0:
231,164,64687,5,4,0:3:0:0:
165,121,64840,1,0,0:0:0:0:
122,47,64993,2,0,P|90:86|85:167,1,120,4|4,0:3|0:3,0:0:0:0:
106,227,65452,1,0,0:0:0:0:
102,304,65605,2,0,L|176:281,1,60,12|0,0:3|0:0,0:0:0:0:
195,191,65911,6,0,P|241:197|275:180,1,60,4|0,0:3|0:0,0:0:0:0:
298,257,66217,2,0,P|332:202|320:139,1,120,4|4,0:3|0:3,0:0:0:0:
269,93,66677,1,0,0:0:0:0:
208,141,66830,2,0,L|172:66,1,60,12|0,0:3|0:0,0:0:0:0:
116,29,67136,6,0,P|96:75|98:108,1,60,4|0,0:3|0:0,0:0:0:0:
89,161,67442,2,0,P|87:208|62:279,1,120,4|4,0:3|0:3,0:0:0:0:
17,339,67901,1,0,0:0:0:0:
91,362,68054,2,0,L|149:320,1,60,12|0,0:3|0:0,0:0:0:0:
203,281,68360,5,4,0:3:0:0:
280,282,68513,2,0,P|280:242|266:203,1,60,0|4,0:0|0:3,0:0:0:0:
245,149,68820,1,0,0:0:0:0:
252,71,68973,2,0,P|300:93|320:117,1,60,4|0,0:3|0:0,0:0:0:0:
359,41,69279,2,0,P|379:79|385:119,1,60,12|0,0:3|0:0,0:0:0:0:
460,91,69585,2,0,P|454:131|434:167,1,60,12|0,0:3|0:0,0:0:0:0:
471,222,69891,6,0,P|412:220|370:179,1,120,4|4,0:3|0:3,0:0:0:0:
338,108,70350,1,0,0:0:0:0:
291,170,70503,2,0,L|278:249,1,60,12|0,0:3|0:0,0:0:0:0:
214,270,70809,6,0,P|202:242|201:212,1,60,4|0,0:3|0:0,0:0:0:0:
212,135,71115,2,0,P|217:83|165:17,1,120,4|4,0:3|0:3,0:0:0:0:
105,13,71575,1,0,0:0:0:0:
59,76,71728,2,0,L|128:116,1,60,12|0,0:3|0:0,0:0:0:0:
171,155,72034,6,0,P|125:180|90:181,1,60,4|0,0:3|0:0,0:0:0:0:
182,239,72340,2,0,P|222:250|263:321,1,120,4|4,0:3|0:3,0:0:0:0:
185,321,72799,1,0,0:0:0:0:
115,356,72952,2,0,L|87:292,1,60,12|0,0:3|0:0,0:0:0:0:
22,264,73258,6,0,P|44:239|46:196,1,60,4|0,0:3|0:0,0:0:0:0:
88,146,73564,1,4,0:3:0:0:
163,164,73717,2,0,P|188:179|217:180,1,60,0|4,0:0|0:3,0:0:0:0:
291,153,74024,1,0,0:0:0:0:
336,89,74177,2,0,L|386:151,1,60,12|0,0:3|0:0,0:0:0:0:
422,196,74483,5,4,0:3:0:0:
415,218,74789,2,0,B|384:243|373:272|373:272|343:256|304:259,1,120,4|4,0:3|0:3,0:0:0:0:
168,251,75401,2,0,L|234:202,1,60,12|0,0:3|0:0,0:0:0:0:
280,171,75707,5,4,0:3:0:0:
283,142,76013,2,0,B|265:123|252:90|252:90|222:103|185:102,1,120,4|4,0:3|0:3,0:0:0:0:
117,96,76473,1,0,0:0:0:0:
124,173,76626,2,0,L|195:194,1,60,12|0,0:3|0:0,0:0:0:0:
257,207,76932,6,0,B|236:243|200:272|200:272|245:287,1,120,4|4,0:3|0:3,0:0:0:0:
377,273,77544,1,4,0:3:0:0:
257,207,77850,2,0,L|314:238,1,60,12|0,0:3|0:0,0:0:0:0:
377,273,78156,5,4,0:3:0:0:
443,244,78309,1,0,0:0:0:0:
474,172,78462,2,0,P|430:146|357:148,1,120,4|0,0:1|0:0,0:0:0:0:
289,175,78922,2,0,P|244:192|173:180,1,120,12|0,0:3|0:0,0:0:0:0:
112,133,79381,1,12,0:3:0:0:
112,133,79534,1,8,0:3:0:0:
106,228,79687,6,0,P|66:208|28:201,2,60,4|0|0,0:3|0:0|0:0,0:0:0:0:
93,328,80299,2,0,L|176:308,1,60,12|0,0:3|0:0,0:0:0:0:
272,215,80758,1,0,0:0:0:0:
292,185,80911,6,0,B|324:184|332:201|332:201|358:200,2,60,10|0|0,3:3|3:0|3:3,0:0:0:0:
225,143,81371,1,0,3:0:0:0:
198,69,81524,2,0,B|166:67|166:67|153:52|127:46,2,60,10|0|0,3:3|3:3|3:0,0:0:0:0:
344,122,82136,6,0,P|338:87|339:42,2,60,4|0|0,0:3|0:0|0:0,0:0:0:0:
447,156,82748,2,0,L|405:206,1,60,12|0,0:3|0:0,0:0:0:0:
289,302,83207,1,0,0:0:0:0:
263,319,83360,6,0,B|220:276|255:235|199:198,1,120,2|0,0:3|0:0,0:0:0:0:
88,120,83973,2,0,B|131:163|96:204|152:241,1,120,10|0,0:3|0:0,0:0:0:0:
267,144,84585,6,0,P|286:166|298:194,2,60,4|0|0,0:3|0:0|0:0,0:0:0:0:
184,92,85197,2,0,L|247:66,1,60,12|0,0:3|0:0,0:0:0:0:
386,17,85656,1,0,0:0:0:0:
387,59,85809,6,0,B|406:62|428:63|428:63|438:83|455:94,2,60,10|0|0,3:3|3:0|3:3,0:0:0:0:
374,135,86268,1,0,3:0:0:0:
299,159,86422,2,0,B|283:135|283:135|266:132|257:123|257:123|246:97,2,60,10|0|0,3:3|3:3|3:0,0:0:0:0:
384,289,87034,6,0,P|429:302|451:323,2,60,4|0|0,0:3|0:0|0:0,0:0:0:0:
350,371,87646,2,0,L|299:331,1,60,12|0,0:3|0:0,0:0:0:0:
179,237,88105,1,0,0:0:0:0:
179,237,88258,1,8,0:3:0:0:
83,190,89483,6,0,B|104:157|104:105|104:105|151:99,1,120,4|0,1:3|0:0,0:0:0:0:
208,91,89942,1,0,0:0:0:0:
280,107,90095,2,0,L|281:47,1,60,8|0,3:3|3:0,0:0:0:0:
355,14,90401,2,0,P|361:43|360:73,1,60,0|0,3:0|3:0,0:0:0:0:
346,146,90707,2,0,P|332:172|312:194,1,60,0|0,3:0|3:0,0:0:0:0:
247,229,91013,1,0,3:0:0:0:
174,229,91166,1,0,3:0:0:0:
139,296,91320,2,0,L|197:311,1,60,8|0,3:3|3:0,0:0:0:0:
250,123,91932,6,0,P|291:163|292:231,1,120,0|0,3:0|3:0,0:0:0:0:
217,231,92391,1,0,3:0:0:0:
174,296,92544,2,0,L|237:324,1,60,8|0,3:3|3:0,0:0:0:0:
315,354,93003,5,0,3:0:0:0:
315,354,93156,2,0,P|320:301|307:274,1,60,0|0,3:0|3:0,0:0:0:0:
288,228,93462,2,0,P|269:194|258:159,1,60,0|0,3:0|3:0,0:0:0:0:
199,133,93768,2,0,L|244:78,1,60,8|0,3:3|3:0,0:0:0:0:
116,93,94228,1,0,3:0:0:0:
70,132,94381,6,0,B|135:142|109:179|179:186,1,120,0|0,0:0|0:0,0:0:0:0:
285,229,94993,1,8,0:3:0:0:
285,229,95146,1,0,3:0:0:0:
283,307,95452,5,0,3:0:0:0:
283,307,95605,2,0,P|253:314|224:318,2,60,0|0|0,3:0|3:0|3:0,0:0:0:0:
388,250,96217,1,8,3:3:0:0:
388,250,96371,1,0,3:0:0:0:
342,75,96830,6,0,P|308:123|232:127,1,120,0|0,0:0|0:0,0:0:0:0:
180,117,97289,1,0,0:0:0:0:
133,177,97442,2,0,L|186:204,1,60,8|0,0:3|3:0,0:0:0:0:
291,262,97901,1,0,0:0:0:0:
224,297,98054,1,8,0:3:0:0:
220,323,98666,5,4,2:0:0:0:
91,206,99279,5,0,0:0:0:0:
168,114,99585,1,0,0:0:0:0:
267,181,99891,2,0,L|249:111,1,60,8|0,0:3|3:0,0:0:0:0:
429,152,100503,5,0,0:0:0:0:
345,237,100809,1,0,0:0:0:0:
269,144,101115,2,0,L|266:222,1,60,8|0,0:3|3:0,0:0:0:0:
228,272,101422,2,0,P|198:238|187:208,1,60,0|0,2:0|2:0,0:0:0:0:
158,158,101728,5,0,0:0:0:0:
79,248,102034,1,0,0:0:0:0:
56,365,102340,2,0,L|121:322,1,60,8|0,0:3|3:0,0:0:0:0:
189,172,102952,6,0,P|223:208|254:221,2,60,0|0|0,0:0|0:0|0:0,0:0:0:0:
167,53,103564,2,0,P|226:53|251:47,1,60,8|0,0:3|0:0,0:0:0:0:
299,47,103871,1,0,0:0:0:0:
409,94,104177,6,0,P|404:144|364:215,1,120,0|0,0:0|0:0,0:0:0:0:
266,261,104789,2,0,L|287:185,1,60,8|0,0:3|3:0,0:0:0:0:
301,125,105095,2,0,P|243:134|222:146,1,60,0|0,2:0|2:0,0:0:0:0:
167,111,105401,5,0,0:0:0:0:
101,211,105707,1,0,0:0:0:0:
218,187,106013,2,0,L|184:247,1,60,8|0,0:3|3:0,0:0:0:0:
324,357,106626,5,0,0:0:0:0:
403,267,106932,1,0,0:0:0:0:
283,271,107238,2,0,L|318:223,1,60,8|0,0:3|3:0,0:0:0:0:
263,171,107544,2,0,P|282:138|283:103,1,60,0|0,2:0|2:0,0:0:0:0:
285,38,107850,6,0,P|217:60|168:60,1,120,0|0,0:0|0:0,0:0:0:0:
109,52,108309,1,0,0:0:0:0:
56,80,108462,2,0,P|56:132|105:185,1,120,8|0,0:3|3:0,0:0:0:0:
210,225,109075,5,4,3:1:0:0:
210,225,109228,2,0,P|163:199|149:179,2,60,0|0|0,2:0|2:0|2:0,0:0:0:0:
219,300,109687,2,0,P|265:284|291:208,1,120,8|0,2:2|2:0,0:0:0:0:
290,146,110146,1,0,2:0:0:0:
289,70,110299,2,0,P|335:82|358:114,1,60,8|0,2:2|2:0,0:0:0:0:
422,179,110758,1,0,2:0:0:0:
422,179,110911,2,0,P|437:216|431:247,1,60,8|0,2:2|2:0,0:0:0:0:
402,304,111217,1,0,2:0:0:0:
313,222,111524,5,8,2:2:0:0:
313,222,111677,2,0,P|364:239|385:258,2,60,0|0|0,2:0|2:0|2:0,0:0:0:0:
278,295,112136,2,0,P|245:264|241:190,1,120,8|0,2:2|2:0,0:0:0:0:
196,129,112595,1,0,2:0:0:0:
259,91,112748,2,0,P|302:78|334:76,1,60,8|0,2:2|2:0,0:0:0:0:
381,181,113207,1,0,2:0:0:0:
381,181,113360,2,0,P|335:198|301:204,1,60,8|0,2:2|2:0,0:0:0:0:
249,203,113666,1,0,2:2:0:0:
145,141,113973,6,0,B|139:177|113:210|113:210|138:233|150:252,1,120,8|0,2:2|2:0,0:0:0:0:
64,289,114585,2,0,B|84:331|134:338|134:338|180:314,1,120,8|0,2:2|2:0,0:0:0:0:
268,243,115197,2,0,P|276:286|295:315,2,60,8|0|0,2:2|2:0|2:0,0:0:0:0:
272,154,115809,2,0,P|219:171|185:233,1,120,8|0,2:2|2:0,0:0:0:0:
307,273,116422,6,0,P|342:236|404:196,1,120,8|0,2:2|2:0,0:0:0:0:
422,80,117034,2,0,P|350:101|284:103,1,120,8|0,2:2|2:0,0:0:0:0:
197,52,117646,2,0,P|201:119|186:172,1,120,8|0,2:2|2:0,0:0:0:0:
157,221,118105,1,0,3:0:0:0:
107,255,118258,2,0,L|165:293,1,60,8|0,3:2|3:0,0:0:0:0:
107,321,118564,2,0,L|166:357,1,60,0|0,3:0|3:0,0:0:0:0:
241,293,118871,5,8,3:2:0:0:
241,293,119024,2,0,P|251:336|269:369,2,60,0|0|0,2:0|3:0|2:0,0:0:0:0:
316,277,119483,2,0,P|303:231|248:151,1,120,8|0,3:2|3:0,0:0:0:0:
217,133,119942,1,0,2:0:0:0:
182,181,120095,2,0,P|155:166|132:130,2,60,8|0|0,3:2|2:0|3:0,0:0:0:0:
212,247,120554,1,0,2:0:0:0:
152,254,120707,2,0,P|121:249|84:226,2,60,8|0|0,3:2|2:0|2:0,0:0:0:0:
250,184,121320,5,8,3:2:0:0:
250,184,121473,2,0,P|292:171|330:170,2,60,0|0|0,2:0|3:0|2:0,0:0:0:0:
274,257,121932,2,0,P|227:268|130:261,1,120,8|0,3:2|3:0,0:0:0:0:
100,244,122391,1,0,2:0:0:0:
124,189,122544,2,0,P|97:173|54:171,2,60,8|0|0,3:2|2:0|3:0,0:0:0:0:
196,182,123003,1,0,2:0:0:0:
172,127,123156,2,0,P|152:103|113:82,2,60,8|0|0,3:2|2:0|3:0,0:0:0:0:
286,91,123768,5,8,3:2:0:0:
314,127,124075,2,0,B|382:113|339:80|406:56,2,120,0|8|0,3:0|3:2|3:0,0:0:0:0:
200,166,124993,2,0,P|240:207|314:217,1,120,8|0,3:2|3:0,0:0:0:0:
419,215,125605,2,0,P|397:272|343:311,1,120,8|0,3:2|3:0,0:0:0:0:
233,326,126217,2,0,P|153:303|121:260,1,120,8|0,3:2|3:0,0:0:0:0:
65,175,126830,2,0,P|39:202|13:219,2,60,8|0|0,3:2|2:0|3:0,0:0:0:0:
119,67,127442,6,0,L|154:119,1,60,8|0,3:3|3:0,0:0:0:0:
268,148,127901,2,0,L|230:98,2,60,0|8|0,3:0|3:3|3:0,0:0:0:0:
318,223,128360,5,0,3:0:0:0:
319,243,128513,1,0,3:0:0:0:
318,270,128666,2,0,P|276:282|242:282,1,60,4|0,0:3|0:0,0:0:0:0:
208,340,128973,2,0,P|185:304|175:265,1,60,4|0,0:3|0:0,0:0:0:0:
204,212,129279,2,0,L|123:180,1,60,12|0,0:3|0:0,0:0:0:0:
81,234,129585,6,0,P|70:184|78:149,1,60,4|0,0:3|0:0,0:0:0:0:
14,128,129891,2,0,P|42:83|41:58,1,60,4|0,0:3|0:0,0:0:0:0:
117,98,130197,2,0,P|138:46|162:30,1,60,4|0,0:3|0:0,0:0:0:0:
217,20,130503,2,0,L|242:80,1,60,12|0,0:3|0:0,0:0:0:0:
314,70,130809,5,4,0:3:0:0:
304,145,130962,1,0,0:0:0:0:
255,200,131115,2,0,P|222:220|144:207,1,120,4|4,0:3|0:3,0:0:0:0:
87,157,131575,1,0,0:0:0:0:
31,211,131728,2,0,L|66:262,1,60,12|0,0:3|0:0,0:0:0:0:
61,339,132034,6,0,P|117:319|134:299,1,60,4|0,0:3|0:0,0:0:0:0:
175,268,132340,1,4,0:3:0:0:
217,334,132493,2,0,P|240:314|257:290,1,60,0|4,0:0|0:3,0:0:0:0:
296,227,132799,1,0,0:0:0:0:
301,148,132952,2,0,L|223:168,1,60,12|0,0:3|0:0,0:0:0:0:
169,179,133258,5,4,0:3:0:0:
96,197,133411,1,4,0:3:0:0:
29,241,133564,2,0,P|16:185|29:123,1,120,4|4,0:1|0:3,0:0:0:0:
73,66,134024,1,0,0:0:0:0:
149,47,134177,2,0,P|167:91|184:111,1,60,12|0,0:3|0:0,0:0:0:0:
235,57,134483,2,0,P|268:75|293:79,1,60,4|0,0:3|0:0,0:0:0:0:
353,31,134789,6,0,P|373:78|344:143,1,120,4|4,0:3|0:3,0:0:0:0:
280,175,135248,1,0,0:0:0:0:
208,201,135401,2,0,P|230:235|241:275,1,60,12|0,0:3|0:0,0:0:0:0:
162,268,135707,2,0,P|144:305|114:328,1,60,4|0,0:3|0:0,0:0:0:0:
210,341,136013,6,0,P|255:332|339:337,1,120,4|4,0:3|0:3,0:0:0:0:
402,349,136473,1,0,0:0:0:0:
472,313,136626,2,0,L|421:265,1,60,12|0,0:3|0:0,0:0:0:0:
371,225,136932,1,4,0:3:0:0:
297,241,137085,2,0,B|293:201|293:201|236:182|242:119,1,120,0|0,0:0|0:0,0:0:0:0:
314,123,137544,5,4,0:3:0:0:
296,52,137697,1,0,0:0:0:0:
223,30,137850,2,0,L|183:79,1,60,12|8,0:3|0:3,0:0:0:0:
123,32,138156,2,0,P|105:79|106:104,1,60,4|0,0:3|0:0,0:0:0:0:
112,160,138462,2,0,B|118:203|110:245|110:245|80:240|49:241,1,120,4|4,0:1|0:3,0:0:0:0:
15,236,138922,1,0,0:0:0:0:
11,312,139075,2,0,L|92:307,1,60,12|0,0:3|0:0,0:0:0:0:
105,372,139381,6,0,P|137:356|152:321,1,60,4|0,0:3|0:0,0:0:0:0:
226,330,139687,2,0,P|203:278|137:256,1,120,4|4,0:3|0:3,0:0:0:0:
80,220,140146,1,0,0:0:0:0:
102,144,140299,2,0,L|159:180,1,60,12|0,0:3|0:0,0:0:0:0:
230,198,140605,6,0,P|226:156|233:120,1,60,4|0,0:3|0:0,0:0:0:0:
301,169,140911,2,0,P|315:124|380:91,1,120,4|4,0:3|0:3,0:0:0:0:
436,93,141371,1,0,0:0:0:0:
492,112,141524,2,0,B|501:161|453:171|457:227,1,120,12|4,0:3|0:3,0:0:0:0:
380,212,141983,1,0,0:0:0:0:
311,246,142136,2,0,P|350:284|377:291,1,60,4|0,0:3|0:0,0:0:0:0:
423,318,142442,1,4,0:3:0:0:
275,367,142748,1,12,0:3:0:0:
221,352,143054,6,0,P|219:314|176:232,1,120,4|4,0:3|0:1,0:0:0:0:
83,143,143666,1,4,0:3:0:0:
170,180,143820,1,0,0:0:0:0:
257,130,143973,2,0,L|188:105,1,60,12|0,0:3|0:0,0:0:0:0:
130,83,144279,1,4,0:3:0:0:
206,26,144585,6,0,P|285:28|333:62,1,120,4|4,0:3|0:3,0:0:0:0:
376,101,145044,1,0,0:0:0:0:
307,140,145197,2,0,L|351:186,1,60,12|0,0:3|0:0,0:0:0:0:
403,235,145503,1,4,0:3:0:0:
289,274,145809,6,0,P|235:292|164:246,1,120,4|4,0:3|0:3,0:0:0:0:
274,193,146422,2,0,L|189:188,1,60,12|0,0:3|0:0,0:0:0:0:
138,184,146728,1,4,0:3:0:0:
107,167,146881,6,0,P|133:140|137:93,1,60,10|4,0:3|0:3,0:0:0:0:
216,136,147187,2,0,P|203:75|190:57,1,60,0|12,0:0|0:3,0:0:0:0:
225,1,147493,2,0,P|269:31|285:55,1,60,0|4,0:0|0:3,0:0:0:0:
344,5,147799,2,0,P|348:62|337:85,1,60,0|10,0:0|0:3,0:0:0:0:
297,172,148258,1,0,0:0:0:0:
290,192,148871,6,0,P|283:240|124:252,2,240,4|0|4,2:3|2:0|2:3,0:0:0:0:
271,213,150707,6,0,P|194:184|186:82,1,180,0|0,2:0|2:0,0:0:0:0:
204,56,151320,1,4,2:3:0:0:
326,28,151626,2,0,B|322:67|297:95|297:95|332:147|332:147|272:139|233:163,1,240,0|0,2:0|2:0,0:0:0:0:
139,169,152544,1,4,2:3:0:0:
69,251,152850,5,0,2:0:0:0:
124,311,153156,2,0,P|185:283|203:232,1,120,0|0,2:0|2:0,0:0:0:0:
214,117,153768,2,0,P|209:66|136:28,1,120,4|0,2:3|2:0,0:0:0:0:
216,33,154228,2,0,P|262:38|394:16,1,180,0|0,2:0|2:0,0:0:0:0:
416,87,154993,1,4,2:3:0:0:
357,191,155299,6,0,P|392:232|402:308,2,120,0|0|0,2:0|2:0|2:0,0:0:0:0:
245,145,156217,1,4,2:3:0:0:
318,251,156524,1,0,2:0:0:0:
295,254,156677,2,0,B|249:250|204:259|204:259|196:212|153:190,1,180,0|0,2:0|2:0,0:0:0:0:
87,260,157442,2,0,P|53:200|81:135,1,120,4|0,2:3|2:0,0:0:0:0:
166,90,158054,5,8,2:2:0:0:
186,92,158666,2,0,B|242:89|341:124|341:124|332:63|313:21,2,240,10|8|10,2:2|2:2|2:2,0:0:0:0:
237,326,160503,2,0,P|208:273|41:222,1,240,8|10,2:2|2:2,0:0:0:0:
184,165,161422,1,0,2:0:0:0:
88,91,161728,1,8,2:2:0:0:
94,101,162340,5,10,2:2:0:0:
180,177,162646,1,0,2:0:0:0:
264,92,162952,2,0,P|306:161|294:219,1,120,8|0,2:2|2:0,0:0:0:0:
196,253,163564,1,10,2:2:0:0:
313,277,163871,1,0,2:0:0:0:
221,199,164177,2,0,P|202:165|82:246,2,240,8|10|8,2:2|2:2|3:2,0:0:0:0:
256,192,165478,12,0,167544,3:0:0:0:
402,144,167850,5,8,3:3:0:0:
288,105,168156,1,8,3:3:0:0:
324,219,168462,1,8,3:3:0:0:
212,174,168768,1,8,3:3:0:0:
238,291,169075,1,8,3:3:0:0:
130,238,169381,1,8,3:3:0:0:
249,228,169687,2,0,P|256:172|247:150,1,60,8|0,3:3|3:0,0:0:0:0:
240,111,169993,1,8,3:3:0:0:
211,58,170146,1,0,3:0:0:0:
149,104,170299,5,8,3:3:0:0:
33,136,170605,1,8,3:3:0:0:
16,254,170911,1,8,3:3:0:0:
139,155,171217,1,8,3:3:0:0:
143,275,171524,1,8,3:3:0:0:
264,184,171830,1,8,3:3:0:0:
186,92,172136,2,0,P|236:88|263:72,1,60,8|0,3:3|3:0,0:0:0:0:
295,53,172442,1,8,3:3:0:0:
353,40,172595,1,0,3:0:0:0:
425,83,172748,6,0,P|398:126|422:199,1,120,10|8,3:3|3:3,0:0:0:0:
499,274,173360,1,8,3:3:0:0:
383,306,173666,1,8,3:3:0:0:
266,335,173973,2,0,L|302:280,1,60,8|0,3:3|3:0,0:0:0:0:
231,260,174279,2,0,L|271:203,1,60,8|0,3:3|3:0,0:0:0:0:
306,150,174585,1,8,3:3:0:0:
196,199,174891,1,8,3:3:0:0:
87,147,175197,6,0,P|139:142|196:101,1,120,8|8,3:3|3:3,0:0:0:0:
303,56,175809,2,0,P|270:111|274:192,1,120,8|8,3:3|3:3,0:0:0:0:
345,256,176422,2,0,P|304:281|221:275,1,120,8|8,3:3|3:3,0:0:0:0:
177,258,176881,1,0,3:0:0:0:
128,222,177034,1,8,3:3:0:0:
98,338,177340,1,8,3:3:0:0:
91,173,177646,6,0,P|113:146|128:111,1,60,10|0,1:3|1:0,0:0:0:0:
146,67,177952,1,8,3:3:0:0:
265,58,178258,1,8,3:3:0:0:
214,166,178564,2,0,P|224:210|222:248,1,60,8|0,3:3|1:0,0:0:0:0:
295,197,178871,2,0,P|343:207|375:204,1,60,8|0,1:3|1:0,0:0:0:0:
422,188,179177,1,8,3:3:0:0:
447,70,179483,2,0,B|395:105|376:59|323:103,1,120,8|8,3:3|3:3,0:0:0:0:
244,176,180095,6,0,P|284:214|298:236,1,60,8|0,1:3|1:0,0:0:0:0:
322,266,180401,1,8,1:3:0:0:
207,302,180707,1,8,3:3:0:0:
137,204,181013,2,0,P|119:169|88:133,1,60,8|0,3:3|1:0,0:0:0:0:
185,141,181320,2,0,P|183:100|193:73,1,60,8|0,1:3|1:0,0:0:0:0:
219,30,181626,1,8,3:3:0:0:
336,55,181932,1,8,3:3:0:0:
426,134,182238,1,8,3:3:0:0:
334,210,182544,6,0,P|334:256|351:294,1,60,10|0,1:3|1:0,0:0:0:0:
369,319,182850,1,12,3:3:0:0:
264,260,183156,1,12,3:3:0:0:
245,378,183462,1,12,3:3:0:0:
192,348,183615,1,0,1:0:0:0:
171,283,183768,2,0,P|182:228|177:202,1,60,10|0,1:3|1:0,0:0:0:0:
161,167,184075,1,12,3:3:0:0:
273,125,184381,1,12,3:3:0:0:
155,99,184687,2,0,P|207:105|238:100,1,60,12|0,3:3|3:0,0:0:0:0:
287,102,184993,6,0,B|337:100|373:86|373:86|370:113|375:144,1,120,8|10,3:3|3:3,0:0:0:0:
380,191,185452,2,0,P|386:235|334:295,1,120,4|4,3:3|3:3,0:0:0:0:
283,345,185911,2,0,L|261:281,1,60,4|0,3:3|3:0,0:0:0:0:
199,186,186371,6,0,P|175:210|145:222,5,60,0|0|0|0|0|0,2:0|2:0|2:0|2:0|2:0|2:0,0:0:0:0:
199,106,188360,5,0,2:0:0:0:
204,130,188513,1,0,2:0:0:0:
212,151,188666,2,0,P|268:163|294:153,1,60,4|0,0:3|0:0,0:0:0:0:
329,111,188973,2,0,L|274:76,1,60,12|0,0:3|0:0,0:0:0:0:
209,41,189279,2,0,P|157:46|134:68,1,60,4|0,0:3|0:0,0:0:0:0:
193,115,189585,6,0,L|238:191,1,60,12|0,0:3|0:0,0:0:0:0:
299,182,189891,2,0,P|298:152|285:125,1,60,4|0,0:3|0:0,0:0:0:0:
361,108,190197,2,0,L|405:168,1,60,12|0,0:3|0:0,0:0:0:0:
367,228,190503,2,0,L|439:273,1,60,12|0,0:3|0:0,0:0:0:0:
410,338,190809,5,12,0:3:0:0:
332,329,190962,1,0,0:0:0:0:
256,347,191115,2,0,P|258:308|198:226,1,120,4|12,0:3|0:3,0:0:0:0:
171,301,191575,1,0,0:0:0:0:
93,291,191728,2,0,B|106:241|139:230|139:230|136:175,1,120,4|12,0:3|0:3,0:0:0:0:
81,134,192187,6,0,P|106:99|120:73,1,60,0|4,0:0|0:3,0:0:0:0:
191,94,192493,1,0,0:0:0:0:
257,134,192646,2,0,L|246:203,1,60,12|0,0:3|0:0,0:0:0:0:
324,205,192952,2,0,L|364:270,1,60,12|0,0:3|0:0,0:0:0:0:
421,214,193258,5,12,0:3:0:0:
404,137,193411,1,0,0:0:0:0:
399,59,193564,2,0,B|364:38|364:38|342:83|305:107,1,120,4|12,0:3|0:3,0:0:0:0:
247,138,194024,1,0,0:0:0:0:
238,215,194177,2,0,P|205:214|161:140,1,120,4|12,0:3|0:3,0:0:0:0:
156,69,194636,5,0,0:0:0:0:
233,62,194789,2,0,B|268:59|293:42|293:42|300:71|326:103,1,120,4|12,0:3|0:3,0:0:0:0:
362,155,195248,1,0,0:0:0:0:
437,173,195401,2,0,P|426:210|355:244,1,120,12|12,0:3|0:3,0:0:0:0:
282,222,195860,5,0,0:0:0:0:
265,145,196013,2,0,P|216:177|204:201,1,60,4|0,0:3|0:0,0:0:0:0:
176,245,196320,2,0,L|132:189,1,60,12|0,0:3|0:0,0:0:0:0:
32,177,196626,2,0,L|80:242,1,60,12|0,0:3|0:0,0:0:0:0:
120,282,196932,1,8,0:3:0:0:
231,245,197085,2,0,B|254:270|254:270|269:318|269:318|296:345,2,120,12|12|4,0:3|0:3|3:1,0:0:0:0:
231,91,198003,6,0,L|189:61,2,30,8|8|8,3:3|3:3|3:3,0:0:0:0:
292,138,198309,1,0,3:3:0:0:
339,199,198462,2,0,P|362:251|362:267,1,60,4|0,0:3|0:0,0:0:0:0:
284,253,198768,2,0,L|238:303,1,60,12|0,0:3|0:0,0:0:0:0:
189,239,199075,2,0,P|145:237|115:225,1,60,4|0,0:3|0:0,0:0:0:0:
164,162,199381,2,0,L|151:84,1,60,12|0,0:3|0:0,0:0:0:0:
227,75,199687,6,0,P|272:93|301:87,1,60,4|0,0:3|0:0,0:0:0:0:
360,97,199993,2,0,L|335:164,1,60,12|0,0:3|0:0,0:0:0:0:
268,185,200299,2,0,L|287:246,1,60,12|0,0:3|0:0,0:0:0:0:
272,319,200605,5,12,0:3:0:0:
200,351,200758,1,0,0:0:0:0:
194,271,200911,2,0,P|190:232|131:164,1,120,4|12,0:3|0:3,0:0:0:0:
137,91,201371,1,0,0:0:0:0:
213,78,201524,2,0,P|249:66|316:11,1,120,4|12,0:3|0:3,0:0:0:0:
360,77,201983,5,0,0:0:0:0:
360,154,202136,2,0,P|309:167|283:166,1,60,4|0,0:3|0:0,0:0:0:0:
237,211,202442,2,0,L|282:267,1,60,12|0,0:3|0:0,0:0:0:0:
211,304,202748,2,0,L|170:252,1,60,12|0,0:3|0:0,0:0:0:0:
128,193,203054,5,12,0:3:0:0:
281,164,203360,2,0,P|251:162|221:158,2,60,4|0|12,0:3|0:0|0:3,0:0:0:0:
139,98,203973,1,4,0:3:0:0:
284,42,204279,5,12,0:3:0:0:
226,186,204585,2,0,L|301:158,2,60,4|0|12,0:3|0:0|0:3,0:0:0:0:
150,205,205044,1,0,0:0:0:0:
109,138,205197,2,0,L|182:124,1,60,12|0,0:3|0:0,0:0:0:0:
244,113,205503,1,12,0:3:0:0:
377,193,205809,6,0,P|367:238|347:265,1,60,4|0,0:3|0:0,0:0:0:0:
290,216,206115,2,0,L|274:289,1,60,12|0,0:3|0:0,0:0:0:0:
199,282,206422,2,0,B|173:254|173:254|185:232|167:202|167:202|170:166,1,120,4|12,0:3|0:3,0:0:0:0:
76,49,207034,2,0,B|105:67|105:67|125:70|151:48|169:38|169:38|194:42,1,120,4|12,0:3|0:3,0:0:0:0:
337,60,207646,2,0,B|292:78|292:78|292:101|292:101|257:102|257:102|222:89,1,120,4|12,0:3|0:3,0:0:0:0:
173,63,208105,1,0,0:0:0:0:
93,137,208258,6,0,L|174:152,1,60,4|0,0:3|0:0,0:0:0:0:
114,216,208564,2,0,L|195:231,1,60,12|0,0:3|0:0,0:0:0:0:
132,293,208871,2,0,L|213:308,1,60,12|0,0:3|0:0,0:0:0:0:
268,300,209177,1,12,0:3:0:0:
328,251,209330,1,0,0:0:0:0:
310,175,209483,6,0,L|262:241,1,60,12|0,0:3|0:0,0:0:0:0:
226,161,209789,2,0,L|178:227,1,60,12|0,0:3|0:0,0:0:0:0:
145,145,210095,2,0,L|98:203,1,60,12|0,0:3|0:0,0:0:0:0:
48,140,210401,1,12,0:3:0:0:
65,64,210554,1,0,0:0:0:0:
131,23,210707,6,0,P|164:58|252:67,1,120,10|4,0:3|0:3,0:0:0:0:
176,153,211166,2,0,B|253:172|307:119,1,120,10|0,0:3|0:0,0:0:0:0:
306,230,211626,2,0,B|377:195|384:119,1,120,12|4,0:3|0:3,0:0:0:0:
444,213,212085,2,0,B|488:147|456:78,1,120,10|0,0:3|0:0,0:0:0:0:
400,54,212544,1,10,0:3:0:0:
325,29,212697,1,0,0:0:0:0:
248,46,212850,1,4,0:1:0:0:
187,95,213003,1,0,0:0:0:0:
155,166,213156,6,0,P|119:162|95:149,2,60,12|0|0,0:3|0:0|0:0,0:0:0:0:
306,127,213768,2,0,P|255:139|243:147,1,60,0|8,0:0|0:3,0:0:0:0:
135,249,214228,1,0,0:3:0:0:
187,307,214381,6,0,B|241:298|241:298|254:275|254:275|287:279|318:264,1,120,0|0,0:0|0:0,0:0:0:0:
342,213,214840,2,0,B|296:191|296:191|267:189|249:178|249:178|215:202,1,120,0|0,0:0|0:0,0:0:0:0:
159,201,215299,1,0,0:0:0:0:
287,112,215605,6,0,P|271:67|270:52,2,60,12|0|0,0:3|0:0|0:0,0:0:0:0:
346,255,216217,2,0,P|312:236|268:233,1,60,0|8,0:0|0:3,0:0:0:0:
135,222,216677,1,8,0:3:0:0:
