osu file format v14

[General]
AudioFilename: audio.mp3
AudioLeadIn: 0
PreviewTime: 65044
Countdown: 0
SampleSet: Normal
StackLeniency: 0.7
Mode: 3
LetterboxInBreaks: 0
SpecialStyle: 0
WidescreenStoryboard: 1

[Editor]
DistanceSpacing: 0.6
BeatDivisor: 4
GridSize: 4
TimelineZoom: 1.6

[Metadata]
Title:Imperfect Animals
TitleUnicode:インパーフェクトアニマルズ
Artist:Utsu-P-feat.GUMI
ArtistUnicode:鬱P feat. GUMI
Creator:nightcrawler11
Version:4K
Source:
Tags:Japanese GUMI Utsu-p Utsu p
BeatmapID:991403
BeatmapSetID:461660

[Difficulty]
HPDrainRate:7
CircleSize:4
OverallDifficulty:7
ApproachRate:5
SliderMultiplier:1.4
SliderTickRate:1

[Events]
//Background and Video events
0,0,"imperfect_animals_by_poisonicpen-d94jyjq.jpg",0,0
//Break Periods
//Storyboard Layer 0 (Background)
//Storyboard Layer 1 (Fail)
//Storyboard Layer 2 (Pass)
//Storyboard Layer 3 (Foreground)
//Storyboard Sound Samples

[TimingPoints]
1515,352.941176470588,4,1,0,50,1,0
6809,-66.6666666666667,4,1,0,50,0,0
7162,-100,4,1,0,50,0,0
12809,-100,4,1,0,50,0,0
18103,-50,4,1,0,50,0,0
18456,-100,4,1,0,50,0,0
35396,-100,4,1,0,50,0,0
52336,-100,4,1,0,50,0,0
57983,-100,4,1,0,50,0,0
60806,-200,4,1,0,50,0,0
61159,-100,4,1,0,50,0,0
61512,-200,4,1,0,50,0,0
61865,-100,4,1,0,50,0,0
62218,-200,4,1,0,50,0,0
62571,-100,4,1,0,50,0,0
62924,-200,4,1,0,50,0,0
63100,-100,4,1,0,50,0,0
63276,-200,4,1,0,50,0,0
63453,-100,4,1,0,50,0,0
63629,-100,4,1,0,50,0,0
65041,-100,4,1,0,50,0,0
66456,-100,4,1,0,50,0,1
76338,-100,4,1,0,50,0,0
77750,-100,4,1,0,50,0,1
86220,-100,4,1,0,50,0,0
90804,-1000,4,1,0,50,0,0
91157,-100,4,1,0,50,0,0
103156,-200,4,1,0,50,0,0
108450,-133.333333333333,4,1,0,50,0,0
115156,-111.111111111111,4,1,0,50,0,0
120097,-100,4,1,0,50,0,0
125743,-200,4,1,0,50,0,0
126361,-66.6666666666667,4,1,0,50,0,0
126449,-200,4,1,0,50,0,0
127067,-66.6666666666667,4,1,0,50,0,0
127155,-200,4,1,0,50,0,0
127773,-66.6666666666667,4,1,0,50,0,0
127861,-200,4,1,0,50,0,0
128478,-66.6666666666667,4,1,0,50,0,0
128567,-200,4,1,0,50,0,0
129890,-66.6666666666667,4,1,0,50,0,0
129978,-200,4,1,0,50,0,0
130684,-66.6666666666667,4,1,0,50,0,0
131390,-100,4,1,0,50,0,0
191034,-333.333333333333,4,1,0,50,0,0
191210,-100,4,1,0,50,0,0
192092,-100,4,1,0,50,0,0
216444,-133.333333333333,4,1,0,50,0,0
216797,-100,4,1,0,50,0,0
217503,-100,4,1,0,50,0,0

[HitObjects]
64,192,1515,5,0,0:0:0:0:
320,192,1515,1,0,0:0:0:0:
192,192,1691,1,0,0:0:0:0:
448,192,1867,1,0,0:0:0:0:
192,192,2044,1,0,0:0:0:0:
64,192,2132,1,0,0:0:0:0:
192,192,2220,1,0,0:0:0:0:
320,192,2397,1,0,0:0:0:0:
64,192,2573,1,0,0:0:0:0:
448,192,2573,1,0,0:0:0:0:
320,192,2750,1,0,0:0:0:0:
64,192,2926,1,0,0:0:0:0:
320,192,2926,1,0,0:0:0:0:
192,192,3103,1,0,0:0:0:0:
448,192,3279,1,0,0:0:0:0:
192,192,3456,1,0,0:0:0:0:
64,192,3544,1,0,0:0:0:0:
192,192,3632,1,0,0:0:0:0:
320,192,3809,1,0,0:0:0:0:
192,192,3985,1,0,0:0:0:0:
448,192,3985,1,0,0:0:0:0:
320,192,4073,1,0,0:0:0:0:
192,192,4162,1,0,0:0:0:0:
64,192,4338,1,0,0:0:0:0:
320,192,4338,1,0,0:0:0:0:
448,192,4338,128,0,7162:0:0:0:0:
192,192,4514,1,0,0:0:0:0:
320,192,4691,1,0,0:0:0:0:
320,192,4867,1,0,0:0:0:0:
192,192,4956,1,0,0:0:0:0:
64,192,5044,1,0,0:0:0:0:
192,192,5132,1,0,0:0:0:0:
64,192,5220,1,0,0:0:0:0:
192,192,5397,1,0,0:0:0:0:
320,192,5573,1,0,0:0:0:0:
64,192,5750,1,0,0:0:0:0:
320,192,5750,1,0,0:0:0:0:
192,192,5926,1,0,0:0:0:0:
64,192,6103,1,0,0:0:0:0:
192,192,6103,1,0,0:0:0:0:
192,192,6279,1,0,0:0:0:0:
320,192,6367,1,0,0:0:0:0:
192,192,6456,1,0,0:0:0:0:
64,192,6632,1,0,0:0:0:0:
320,192,6809,128,0,7162:0:0:0:0:
64,192,7162,1,0,0:0:0:0:
192,192,7162,1,0,0:0:0:0:
192,192,7426,1,0,0:0:0:0:
320,192,7426,1,0,0:0:0:0:
64,192,7691,1,0,0:0:0:0:
448,192,7691,1,0,0:0:0:0:
192,192,7956,1,0,0:0:0:0:
448,192,8220,1,0,0:0:0:0:
320,192,8220,1,0,0:0:0:0:
192,192,8220,1,0,0:0:0:0:
64,192,8397,1,0,0:0:0:0:
64,192,8573,1,0,0:0:0:0:
192,192,8573,1,0,0:0:0:0:
320,192,8838,1,0,0:0:0:0:
448,192,8838,1,0,0:0:0:0:
320,192,9103,1,0,0:0:0:0:
192,192,9103,1,0,0:0:0:0:
64,192,9103,1,0,0:0:0:0:
192,192,9456,1,0,0:0:0:0:
64,192,9632,1,0,0:0:0:0:
192,192,9632,1,0,0:0:0:0:
448,192,9632,1,0,0:0:0:0:
192,192,9809,1,0,0:0:0:0:
64,192,9985,1,0,0:0:0:0:
320,192,9985,1,0,0:0:0:0:
448,192,9985,1,0,0:0:0:0:
192,192,10250,1,0,0:0:0:0:
448,192,10250,1,0,0:0:0:0:
448,192,10514,1,0,0:0:0:0:
320,192,10514,1,0,0:0:0:0:
64,192,10514,1,0,0:0:0:0:
192,192,10867,1,0,0:0:0:0:
320,192,11044,1,0,0:0:0:0:
192,192,11044,1,0,0:0:0:0:
64,192,11044,1,0,0:0:0:0:
448,192,11220,1,0,0:0:0:0:
64,192,11397,1,0,0:0:0:0:
192,192,11397,1,0,0:0:0:0:
448,192,11397,1,0,0:0:0:0:
320,192,11662,1,0,0:0:0:0:
448,192,11662,1,0,0:0:0:0:
192,192,11926,1,0,0:0:0:0:
320,192,11926,1,0,0:0:0:0:
64,192,11926,1,0,0:0:0:0:
320,192,12279,1,0,0:0:0:0:
192,192,12456,1,0,0:0:0:0:
64,192,12544,1,0,0:0:0:0:
192,192,12632,1,0,0:0:0:0:
64,192,12720,1,0,0:0:0:0:
192,192,12809,1,0,0:0:0:0:
448,192,12809,1,0,0:0:0:0:
320,192,13073,1,0,0:0:0:0:
448,192,13073,1,0,0:0:0:0:
64,192,13338,1,0,0:0:0:0:
192,192,13338,1,0,0:0:0:0:
320,192,13338,1,0,0:0:0:0:
320,192,13691,1,0,0:0:0:0:
320,192,13867,1,0,0:0:0:0:
192,192,13867,1,0,0:0:0:0:
448,192,13867,1,0,0:0:0:0:
64,192,14044,1,0,0:0:0:0:
320,192,14220,1,0,0:0:0:0:
448,192,14220,1,0,0:0:0:0:
64,192,14220,1,0,0:0:0:0:
192,192,14485,1,0,0:0:0:0:
320,192,14485,1,0,0:0:0:0:
64,192,14750,1,0,0:0:0:0:
448,192,14750,1,0,0:0:0:0:
192,192,14750,1,0,0:0:0:0:
320,192,15103,1,0,0:0:0:0:
192,192,15279,1,0,0:0:0:0:
64,192,15279,1,0,0:0:0:0:
320,192,15279,1,0,0:0:0:0:
448,192,15456,1,0,0:0:0:0:
192,192,15632,1,0,0:0:0:0:
448,192,15632,1,0,0:0:0:0:
64,192,15632,1,0,0:0:0:0:
64,192,15897,1,0,0:0:0:0:
320,192,15897,1,0,0:0:0:0:
320,192,16162,1,0,0:0:0:0:
448,192,16162,1,0,0:0:0:0:
192,192,16162,1,0,0:0:0:0:
64,192,16514,1,0,0:0:0:0:
192,192,16691,1,0,0:0:0:0:
320,192,16691,1,0,0:0:0:0:
448,192,16691,1,0,0:0:0:0:
320,192,16867,1,0,0:0:0:0:
320,192,17044,1,0,0:0:0:0:
64,192,17044,1,0,0:0:0:0:
448,192,17044,1,0,0:0:0:0:
192,192,17309,1,0,0:0:0:0:
448,192,17309,1,0,0:0:0:0:
64,192,17573,1,0,0:0:0:0:
320,192,17573,1,0,0:0:0:0:
192,192,17573,1,0,0:0:0:0:
64,192,17926,1,0,0:0:0:0:
320,192,17926,1,0,0:0:0:0:
448,192,18103,128,0,18456:0:0:0:0:
320,192,18456,128,0,21279:0:0:0:0:
64,192,18456,128,0,21279:0:0:0:0:
192,192,18456,1,0,0:0:0:0:
448,192,18632,1,0,0:0:0:0:
192,192,18985,1,0,0:0:0:0:
448,192,19338,1,0,0:0:0:0:
192,192,19691,1,0,0:0:0:0:
448,192,20044,1,0,0:0:0:0:
192,192,20397,1,0,0:0:0:0:
448,192,20750,1,0,0:0:0:0:
192,192,21103,1,0,0:0:0:0:
448,192,21456,1,0,0:0:0:0:
320,192,21632,1,0,0:0:0:0:
64,192,21809,1,0,0:0:0:0:
448,192,21985,1,0,0:0:0:0:
192,192,22162,1,0,0:0:0:0:
320,192,22338,1,0,0:0:0:0:
192,192,22514,1,0,0:0:0:0:
192,192,22691,1,0,0:0:0:0:
320,192,22691,1,0,0:0:0:0:
64,192,22867,1,0,0:0:0:0:
192,192,22956,1,0,0:0:0:0:
320,192,23044,1,0,0:0:0:0:
448,192,23132,1,0,0:0:0:0:
192,192,23220,128,0,23573:0:0:0:0:
64,192,23573,1,0,0:0:0:0:
320,192,23750,1,0,0:0:0:0:
448,192,23838,1,0,0:0:0:0:
320,192,23926,1,0,0:0:0:0:
192,192,24014,1,0,0:0:0:0:
64,192,24103,1,0,0:0:0:0:
192,192,24279,1,0,0:0:0:0:
448,192,24456,1,0,0:0:0:0:
320,192,24632,1,0,0:0:0:0:
64,192,24809,1,0,0:0:0:0:
448,192,24985,1,0,0:0:0:0:
192,192,25162,1,0,0:0:0:0:
320,192,25338,1,0,0:0:0:0:
64,192,25514,1,0,0:0:0:0:
192,192,25691,1,0,0:0:0:0:
64,192,25867,1,0,0:0:0:0:
448,192,26044,1,0,0:0:0:0:
320,192,26220,1,0,0:0:0:0:
64,192,26397,1,0,0:0:0:0:
320,192,26573,1,0,0:0:0:0:
448,192,26750,1,0,0:0:0:0:
64,192,26926,1,0,0:0:0:0:
192,192,27103,1,0,0:0:0:0:
448,192,27279,1,0,0:0:0:0:
320,192,27456,1,0,0:0:0:0:
64,192,27632,1,0,0:0:0:0:
320,192,27809,1,0,0:0:0:0:
192,192,27985,1,0,0:0:0:0:
448,192,28162,1,0,0:0:0:0:
192,192,28338,1,0,0:0:0:0:
192,192,28514,1,0,0:0:0:0:
64,192,28603,1,0,0:0:0:0:
192,192,28691,1,0,0:0:0:0:
64,192,28779,1,0,0:0:0:0:
320,192,28867,1,0,0:0:0:0:
320,192,29044,1,0,0:0:0:0:
448,192,29132,1,0,0:0:0:0:
320,192,29220,1,0,0:0:0:0:
448,192,29309,1,0,0:0:0:0:
192,192,29397,128,0,29750:0:0:0:0:
320,192,29397,128,0,29750:0:0:0:0:
64,192,29750,1,0,0:0:0:0:
448,192,29750,1,0,0:0:0:0:
64,192,30103,1,0,0:0:0:0:
192,192,30103,1,0,0:0:0:0:
192,192,30456,1,0,0:0:0:0:
320,192,30456,1,0,0:0:0:0:
320,192,30809,1,0,0:0:0:0:
448,192,30809,1,0,0:0:0:0:
320,192,31162,1,0,0:0:0:0:
448,192,31162,1,0,0:0:0:0:
64,192,31514,1,0,0:0:0:0:
192,192,31514,1,0,0:0:0:0:
320,192,31867,1,0,0:0:0:0:
448,192,31867,1,0,0:0:0:0:
192,192,32220,1,0,0:0:0:0:
320,192,32220,1,0,0:0:0:0:
64,192,32573,1,0,0:0:0:0:
448,192,32573,1,0,0:0:0:0:
192,192,32926,1,0,0:0:0:0:
320,192,32926,1,0,0:0:0:0:
192,192,33279,1,0,0:0:0:0:
448,192,33279,1,0,0:0:0:0:
320,192,33632,1,0,0:0:0:0:
64,192,33632,1,0,0:0:0:0:
192,192,33985,1,0,0:0:0:0:
320,192,33985,1,0,0:0:0:0:
64,192,34338,1,0,0:0:0:0:
448,192,34338,1,0,0:0:0:0:
448,192,34691,1,0,0:0:0:0:
64,192,34691,1,0,0:0:0:0:
64,192,35044,1,0,0:0:0:0:
448,192,35044,1,0,0:0:0:0:
448,192,35397,128,0,35750:0:0:0:0:
320,192,35397,1,0,0:0:0:0:
64,192,35397,1,0,0:0:0:0:
64,192,35750,1,0,0:0:0:0:
320,192,35750,128,0,36103:0:0:0:0:
448,192,36103,128,0,36456:0:0:0:0:
192,192,36103,1,0,0:0:0:0:
320,192,36456,128,0,36809:0:0:0:0:
64,192,36456,1,0,0:0:0:0:
448,192,36809,128,0,37162:0:0:0:0:
192,192,36809,1,0,0:0:0:0:
320,192,37162,128,0,37514:0:0:0:0:
64,192,37162,1,0,0:0:0:0:
448,192,37514,128,0,37867:0:0:0:0:
192,192,37514,1,0,0:0:0:0:
320,192,37867,128,0,38220:0:0:0:0:
64,192,37867,1,0,0:0:0:0:
448,192,38220,1,0,0:0:0:0:
192,192,38220,1,0,0:0:0:0:
320,192,38397,1,0,0:0:0:0:
448,192,38573,1,0,0:0:0:0:
64,192,38573,1,0,0:0:0:0:
320,192,38750,1,0,0:0:0:0:
448,192,38926,1,0,0:0:0:0:
64,192,38926,1,0,0:0:0:0:
192,192,38926,1,0,0:0:0:0:
320,192,39103,1,0,0:0:0:0:
448,192,39279,1,0,0:0:0:0:
192,192,39279,1,0,0:0:0:0:
320,192,39456,1,0,0:0:0:0:
448,192,39632,1,0,0:0:0:0:
64,192,39632,1,0,0:0:0:0:
192,192,39632,1,0,0:0:0:0:
320,192,39720,1,0,0:0:0:0:
448,192,39809,1,0,0:0:0:0:
320,192,39897,1,0,0:0:0:0:
448,192,39985,1,0,0:0:0:0:
64,192,39985,1,0,0:0:0:0:
192,192,39985,1,0,0:0:0:0:
320,192,40073,1,0,0:0:0:0:
448,192,40162,1,0,0:0:0:0:
320,192,40250,1,0,0:0:0:0:
448,192,40338,128,0,41044:0:0:0:0:
64,192,40338,1,0,0:0:0:0:
192,192,40338,1,0,0:0:0:0:
192,192,40691,1,0,0:0:0:0:
64,192,40779,1,0,0:0:0:0:
320,192,40867,1,0,0:0:0:0:
192,192,40956,1,0,0:0:0:0:
64,192,41044,1,0,0:0:0:0:
320,192,41044,128,0,41750:0:0:0:0:
192,192,41220,1,0,0:0:0:0:
448,192,41220,1,0,0:0:0:0:
192,192,41573,1,0,0:0:0:0:
448,192,41573,1,0,0:0:0:0:
192,192,41926,1,0,0:0:0:0:
64,192,41926,1,0,0:0:0:0:
64,192,42279,1,0,0:0:0:0:
192,192,42279,1,0,0:0:0:0:
320,192,42456,128,0,42632:0:0:0:0:
448,192,42632,128,0,42985:0:0:0:0:
64,192,42632,1,0,0:0:0:0:
192,192,42632,1,0,0:0:0:0:
320,192,42985,128,0,43514:0:0:0:0:
64,192,42985,1,0,0:0:0:0:
192,192,42985,1,0,0:0:0:0:
448,192,43338,1,0,0:0:0:0:
192,192,43338,1,0,0:0:0:0:
64,192,43691,1,0,0:0:0:0:
448,192,43691,1,0,0:0:0:0:
320,192,44044,1,0,0:0:0:0:
64,192,44044,1,0,0:0:0:0:
192,192,44044,1,0,0:0:0:0:
448,192,44220,1,0,0:0:0:0:
320,192,44397,1,0,0:0:0:0:
64,192,44397,1,0,0:0:0:0:
448,192,44397,1,0,0:0:0:0:
192,192,44573,1,0,0:0:0:0:
320,192,44750,1,0,0:0:0:0:
64,192,44750,1,0,0:0:0:0:
448,192,44750,1,0,0:0:0:0:
320,192,44926,1,0,0:0:0:0:
64,192,45103,1,0,0:0:0:0:
192,192,45103,1,0,0:0:0:0:
448,192,45279,128,0,45809:0:0:0:0:
320,192,45809,1,0,0:0:0:0:
192,192,45809,1,0,0:0:0:0:
64,192,45809,128,0,46691:0:0:0:0:
192,192,46338,128,0,46691:0:0:0:0:
448,192,46691,1,0,0:0:0:0:
320,192,46691,128,0,47397:0:0:0:0:
64,192,47397,1,0,0:0:0:0:
192,192,47397,1,0,0:0:0:0:
320,192,47750,1,0,0:0:0:0:
320,192,47926,1,0,0:0:0:0:
192,192,48103,1,0,0:0:0:0:
448,192,48103,1,0,0:0:0:0:
320,192,48279,1,0,0:0:0:0:
192,192,48456,1,0,0:0:0:0:
64,192,48632,1,0,0:0:0:0:
320,192,48809,1,0,0:0:0:0:
448,192,48985,1,0,0:0:0:0:
320,192,49162,128,0,49514:0:0:0:0:
64,192,49514,1,0,0:0:0:0:
320,192,49867,128,0,50220:0:0:0:0:
192,192,50220,128,0,50573:0:0:0:0:
320,192,50573,128,0,50926:0:0:0:0:
448,192,50926,128,0,51632:0:0:0:0:
192,192,50926,1,0,0:0:0:0:
64,192,50926,1,0,0:0:0:0:
192,192,51103,1,0,0:0:0:0:
64,192,51191,1,0,0:0:0:0:
192,192,51456,1,0,0:0:0:0:
320,192,51544,1,0,0:0:0:0:
192,192,51632,1,0,0:0:0:0:
64,192,51632,128,0,52338:0:0:0:0:
320,192,52338,1,0,0:0:0:0:
448,192,52514,1,0,0:0:0:0:
64,192,52691,1,0,0:0:0:0:
448,192,52867,1,0,0:0:0:0:
192,192,53044,1,0,0:0:0:0:
320,192,53220,1,0,0:0:0:0:
64,192,53397,1,0,0:0:0:0:
448,192,53573,1,0,0:0:0:0:
192,192,53750,1,0,0:0:0:0:
320,192,53926,1,0,0:0:0:0:
64,192,54103,1,0,0:0:0:0:
192,192,54279,1,0,0:0:0:0:
448,192,54456,1,0,0:0:0:0:
320,192,54632,1,0,0:0:0:0:
192,192,54809,1,0,0:0:0:0:
320,192,54985,1,0,0:0:0:0:
64,192,55162,1,0,0:0:0:0:
320,192,55338,1,0,0:0:0:0:
448,192,55514,1,0,0:0:0:0:
192,192,55691,1,0,0:0:0:0:
64,192,55867,1,0,0:0:0:0:
448,192,56044,1,0,0:0:0:0:
192,192,56220,1,0,0:0:0:0:
448,192,56397,1,0,0:0:0:0:
320,192,56573,1,0,0:0:0:0:
448,192,56750,1,0,0:0:0:0:
64,192,56926,1,0,0:0:0:0:
448,192,57103,1,0,0:0:0:0:
320,192,57279,1,0,0:0:0:0:
320,192,57456,1,0,0:0:0:0:
192,192,57456,1,0,0:0:0:0:
448,192,57456,1,0,0:0:0:0:
192,192,57632,1,0,0:0:0:0:
320,192,57632,1,0,0:0:0:0:
64,192,57720,1,0,0:0:0:0:
192,192,57809,1,0,0:0:0:0:
448,192,57809,1,0,0:0:0:0:
64,192,57897,1,0,0:0:0:0:
192,192,57985,1,0,0:0:0:0:
320,192,57985,1,0,0:0:0:0:
64,192,58162,1,0,0:0:0:0:
192,192,58162,1,0,0:0:0:0:
448,192,58162,1,0,0:0:0:0:
320,192,58338,1,0,0:0:0:0:
320,192,58514,1,0,0:0:0:0:
192,192,58514,1,0,0:0:0:0:
448,192,58514,1,0,0:0:0:0:
64,192,58691,1,0,0:0:0:0:
64,192,58867,1,0,0:0:0:0:
192,192,58867,1,0,0:0:0:0:
448,192,58867,1,0,0:0:0:0:
320,192,59044,1,0,0:0:0:0:
64,192,59220,1,0,0:0:0:0:
192,192,59220,1,0,0:0:0:0:
320,192,59220,1,0,0:0:0:0:
448,192,59397,1,0,0:0:0:0:
192,192,59573,1,0,0:0:0:0:
64,192,59573,1,0,0:0:0:0:
448,192,59573,1,0,0:0:0:0:
320,192,59750,1,0,0:0:0:0:
64,192,59926,1,0,0:0:0:0:
320,192,59926,1,0,0:0:0:0:
448,192,59926,1,0,0:0:0:0:
192,192,60103,1,0,0:0:0:0:
320,192,60279,1,0,0:0:0:0:
192,192,60279,1,0,0:0:0:0:
448,192,60279,1,0,0:0:0:0:
64,192,60456,1,0,0:0:0:0:
64,192,60632,1,0,0:0:0:0:
192,192,60632,1,0,0:0:0:0:
448,192,60632,1,0,0:0:0:0:
320,192,60809,1,0,0:0:0:0:
192,192,60809,1,0,0:0:0:0:
192,192,61073,1,0,0:0:0:0:
320,192,61073,1,0,0:0:0:0:
192,192,61338,1,0,0:0:0:0:
64,192,61426,1,0,0:0:0:0:
192,192,61514,1,0,0:0:0:0:
320,192,61514,1,0,0:0:0:0:
192,192,61779,1,0,0:0:0:0:
320,192,61779,1,0,0:0:0:0:
320,192,62044,1,0,0:0:0:0:
448,192,62132,1,0,0:0:0:0:
192,192,62220,1,0,0:0:0:0:
320,192,62220,1,0,0:0:0:0:
192,192,62485,1,0,0:0:0:0:
320,192,62485,1,0,0:0:0:0:
64,192,62750,128,0,62926:0:0:0:0:
320,192,62926,1,0,0:0:0:0:
192,192,62926,1,0,0:0:0:0:
448,192,63191,1,0,0:0:0:0:
64,192,63191,1,0,0:0:0:0:
192,192,63456,1,0,0:0:0:0:
320,192,63456,1,0,0:0:0:0:
448,192,63632,128,0,64338:0:0:0:0:
320,192,63809,1,0,0:0:0:0:
192,192,64073,1,0,0:0:0:0:
64,192,64338,1,0,0:0:0:0:
320,192,64603,1,0,0:0:0:0:
192,192,64867,1,0,0:0:0:0:
64,192,65044,128,0,66456:0:0:0:0:
448,192,65397,1,0,0:0:0:0:
192,192,65750,1,0,0:0:0:0:
320,192,65926,1,0,0:0:0:0:
192,192,66014,1,0,0:0:0:0:
448,192,66103,128,0,66456:0:0:0:0:
320,192,66103,1,0,0:0:0:0:
192,192,66191,1,0,0:0:0:0:
320,192,66279,1,0,0:0:0:0:
192,192,66367,1,0,0:0:0:0:
320,192,66456,1,0,0:0:0:0:
192,192,66632,1,0,0:0:0:0:
448,192,66632,1,0,0:0:0:0:
320,192,66809,1,0,0:0:0:0:
448,192,66897,1,0,0:0:0:0:
64,192,66985,1,0,0:0:0:0:
192,192,66985,1,0,0:0:0:0:
448,192,67162,1,0,0:0:0:0:
64,192,67338,1,0,0:0:0:0:
320,192,67338,1,0,0:0:0:0:
192,192,67514,1,0,0:0:0:0:
64,192,67603,1,0,0:0:0:0:
320,192,67691,1,0,0:0:0:0:
448,192,67691,1,0,0:0:0:0:
192,192,67867,1,0,0:0:0:0:
64,192,68044,1,0,0:0:0:0:
192,192,68044,1,0,0:0:0:0:
320,192,68220,1,0,0:0:0:0:
64,192,68309,1,0,0:0:0:0:
192,192,68397,1,0,0:0:0:0:
320,192,68397,1,0,0:0:0:0:
320,192,68573,1,0,0:0:0:0:
64,192,68750,1,0,0:0:0:0:
448,192,68750,1,0,0:0:0:0:
320,192,68838,1,0,0:0:0:0:
192,192,68926,1,0,0:0:0:0:
64,192,69014,1,0,0:0:0:0:
320,192,69103,1,0,0:0:0:0:
448,192,69103,1,0,0:0:0:0:
64,192,69279,1,0,0:0:0:0:
192,192,69456,1,0,0:0:0:0:
448,192,69456,1,0,0:0:0:0:
320,192,69632,1,0,0:0:0:0:
192,192,69720,1,0,0:0:0:0:
320,192,69809,1,0,0:0:0:0:
64,192,69809,1,0,0:0:0:0:
192,192,69985,1,0,0:0:0:0:
320,192,70162,1,0,0:0:0:0:
192,192,70250,1,0,0:0:0:0:
64,192,70338,1,0,0:0:0:0:
320,192,70426,1,0,0:0:0:0:
64,192,70514,1,0,0:0:0:0:
448,192,70514,1,0,0:0:0:0:
320,192,70691,1,0,0:0:0:0:
192,192,70779,1,0,0:0:0:0:
64,192,70867,1,0,0:0:0:0:
192,192,70956,1,0,0:0:0:0:
320,192,71044,1,0,0:0:0:0:
448,192,71132,1,0,0:0:0:0:
320,192,71220,1,0,0:0:0:0:
192,192,71309,1,0,0:0:0:0:
64,192,71397,1,0,0:0:0:0:
192,192,71485,1,0,0:0:0:0:
64,192,71573,1,0,0:0:0:0:
192,192,71662,1,0,0:0:0:0:
320,192,71750,1,0,0:0:0:0:
448,192,71838,1,0,0:0:0:0:
320,192,71926,1,0,0:0:0:0:
192,192,72014,1,0,0:0:0:0:
64,192,72103,1,0,0:0:0:0:
448,192,72103,1,0,0:0:0:0:
448,192,72367,1,0,0:0:0:0:
64,192,72367,1,0,0:0:0:0:
192,192,72632,1,0,0:0:0:0:
320,192,72632,1,0,0:0:0:0:
64,192,72809,1,0,0:0:0:0:
448,192,72809,1,0,0:0:0:0:
192,192,73073,1,0,0:0:0:0:
320,192,73073,1,0,0:0:0:0:
192,192,73338,1,0,0:0:0:0:
64,192,73426,1,0,0:0:0:0:
192,192,73514,1,0,0:0:0:0:
448,192,73514,1,0,0:0:0:0:
320,192,73779,1,0,0:0:0:0:
64,192,73779,1,0,0:0:0:0:
192,192,74044,1,0,0:0:0:0:
320,192,74044,1,0,0:0:0:0:
192,192,74220,1,0,0:0:0:0:
320,192,74397,1,0,0:0:0:0:
448,192,74397,1,0,0:0:0:0:
64,192,74485,1,0,0:0:0:0:
320,192,74750,1,0,0:0:0:0:
448,192,74750,1,0,0:0:0:0:
192,192,75103,1,0,0:0:0:0:
64,192,75103,1,0,0:0:0:0:
320,192,75103,1,0,0:0:0:0:
448,192,75279,1,0,0:0:0:0:
320,192,75367,1,0,0:0:0:0:
64,192,75456,1,0,0:0:0:0:
192,192,75456,1,0,0:0:0:0:
448,192,75456,1,0,0:0:0:0:
320,192,75632,1,0,0:0:0:0:
192,192,75809,1,0,0:0:0:0:
320,192,75809,1,0,0:0:0:0:
64,192,75897,1,0,0:0:0:0:
320,192,76162,1,0,0:0:0:0:
448,192,76162,1,0,0:0:0:0:
64,192,76162,1,0,0:0:0:0:
192,192,76338,128,0,76691:0:0:0:0:
320,192,76691,1,0,0:0:0:0:
448,192,76691,1,0,0:0:0:0:
320,192,77044,1,0,0:0:0:0:
448,192,77044,1,0,0:0:0:0:
192,192,77220,1,0,0:0:0:0:
320,192,77220,1,0,0:0:0:0:
64,192,77397,1,0,0:0:0:0:
192,192,77397,1,0,0:0:0:0:
64,192,77750,1,0,0:0:0:0:
320,192,77750,1,0,0:0:0:0:
448,192,78014,1,0,0:0:0:0:
192,192,78014,1,0,0:0:0:0:
320,192,78279,1,0,0:0:0:0:
192,192,78279,1,0,0:0:0:0:
192,192,78632,128,0,78809:0:0:0:0:
64,192,78632,1,0,0:0:0:0:
448,192,78632,1,0,0:0:0:0:
320,192,78809,1,0,0:0:0:0:
448,192,78985,1,0,0:0:0:0:
64,192,78985,1,0,0:0:0:0:
192,192,78985,1,0,0:0:0:0:
320,192,79162,128,0,79338:0:0:0:0:
192,192,79338,1,0,0:0:0:0:
64,192,79338,1,0,0:0:0:0:
448,192,79426,1,0,0:0:0:0:
320,192,79691,128,0,80044:0:0:0:0:
64,192,79691,128,0,80044:0:0:0:0:
192,192,79691,1,0,0:0:0:0:
448,192,79691,1,0,0:0:0:0:
192,192,80044,1,0,0:0:0:0:
448,192,80044,1,0,0:0:0:0:
448,192,80220,128,0,80397:0:0:0:0:
192,192,80397,1,0,0:0:0:0:
320,192,80485,1,0,0:0:0:0:
64,192,80573,1,0,0:0:0:0:
192,192,80750,1,0,0:0:0:0:
320,192,80838,1,0,0:0:0:0:
448,192,81014,1,0,0:0:0:0:
320,192,81103,1,0,0:0:0:0:
64,192,81103,1,0,0:0:0:0:
192,192,81103,1,0,0:0:0:0:
192,192,81279,128,0,81544:0:0:0:0:
448,192,81456,1,0,0:0:0:0:
64,192,81456,1,0,0:0:0:0:
320,192,81544,128,0,81809:0:0:0:0:
192,192,81809,128,0,81985:0:0:0:0:
448,192,81809,1,0,0:0:0:0:
64,192,81809,1,0,0:0:0:0:
64,192,81985,128,0,82338:0:0:0:0:
320,192,82162,1,0,0:0:0:0:
448,192,82162,1,0,0:0:0:0:
192,192,82514,1,0,0:0:0:0:
320,192,82514,1,0,0:0:0:0:
192,192,82867,1,0,0:0:0:0:
448,192,82867,1,0,0:0:0:0:
64,192,82956,1,0,0:0:0:0:
192,192,83044,1,0,0:0:0:0:
320,192,83132,1,0,0:0:0:0:
448,192,83220,1,0,0:0:0:0:
320,192,83309,1,0,0:0:0:0:
64,192,83397,1,0,0:0:0:0:
448,192,83397,1,0,0:0:0:0:
320,192,83662,1,0,0:0:0:0:
192,192,83662,1,0,0:0:0:0:
192,192,83926,1,0,0:0:0:0:
448,192,83926,1,0,0:0:0:0:
64,192,84103,1,0,0:0:0:0:
320,192,84103,1,0,0:0:0:0:
64,192,84367,1,0,0:0:0:0:
192,192,84367,1,0,0:0:0:0:
320,192,84632,1,0,0:0:0:0:
448,192,84632,1,0,0:0:0:0:
192,192,84809,1,0,0:0:0:0:
320,192,84809,1,0,0:0:0:0:
64,192,85073,1,0,0:0:0:0:
448,192,85073,1,0,0:0:0:0:
320,192,85338,1,0,0:0:0:0:
192,192,85338,1,0,0:0:0:0:
64,192,85514,1,0,0:0:0:0:
192,192,85514,1,0,0:0:0:0:
448,192,85691,1,0,0:0:0:0:
320,192,85779,1,0,0:0:0:0:
192,192,85867,1,0,0:0:0:0:
64,192,85956,1,0,0:0:0:0:
192,192,86044,1,0,0:0:0:0:
320,192,86132,1,0,0:0:0:0:
448,192,86220,1,0,0:0:0:0:
64,192,86220,1,0,0:0:0:0:
320,192,86397,1,0,0:0:0:0:
192,192,86397,1,0,0:0:0:0:
192,192,86573,1,0,0:0:0:0:
64,192,86662,1,0,0:0:0:0:
320,192,86750,1,0,0:0:0:0:
448,192,86750,1,0,0:0:0:0:
64,192,86926,1,0,0:0:0:0:
192,192,86926,1,0,0:0:0:0:
320,192,87103,1,0,0:0:0:0:
448,192,87103,1,0,0:0:0:0:
320,192,87279,1,0,0:0:0:0:
192,192,87367,1,0,0:0:0:0:
64,192,87456,1,0,0:0:0:0:
448,192,87456,1,0,0:0:0:0:
320,192,87544,1,0,0:0:0:0:
64,192,87632,1,0,0:0:0:0:
448,192,87632,1,0,0:0:0:0:
320,192,87809,1,0,0:0:0:0:
192,192,87809,1,0,0:0:0:0:
192,192,87985,1,0,0:0:0:0:
448,192,88073,1,0,0:0:0:0:
320,192,88162,1,0,0:0:0:0:
64,192,88162,1,0,0:0:0:0:
192,192,88338,1,0,0:0:0:0:
320,192,88426,1,0,0:0:0:0:
192,192,88514,1,0,0:0:0:0:
64,192,88603,1,0,0:0:0:0:
192,192,88691,1,0,0:0:0:0:
320,192,88779,1,0,0:0:0:0:
64,192,88867,1,0,0:0:0:0:
192,192,88867,1,0,0:0:0:0:
448,192,89044,1,0,0:0:0:0:
320,192,89044,1,0,0:0:0:0:
192,192,89220,1,0,0:0:0:0:
320,192,89309,1,0,0:0:0:0:
448,192,89397,1,0,0:0:0:0:
320,192,89485,1,0,0:0:0:0:
64,192,89573,1,0,0:0:0:0:
192,192,89573,1,0,0:0:0:0:
320,192,89750,1,0,0:0:0:0:
448,192,89750,1,0,0:0:0:0:
320,192,90014,1,0,0:0:0:0:
192,192,90014,1,0,0:0:0:0:
192,192,90279,1,0,0:0:0:0:
448,192,90456,128,0,90809:0:0:0:0:
64,192,90456,128,0,90809:0:0:0:0:
320,192,90456,128,0,90809:0:0:0:0:
192,192,90809,1,0,0:0:0:0:
192,192,91162,1,0,0:0:0:0:
448,192,91162,1,0,0:0:0:0:
320,192,91426,1,0,0:0:0:0:
64,192,91426,1,0,0:0:0:0:
192,192,91691,1,0,0:0:0:0:
320,192,91691,1,0,0:0:0:0:
64,192,91867,1,0,0:0:0:0:
448,192,91867,1,0,0:0:0:0:
320,192,92132,1,0,0:0:0:0:
64,192,92132,1,0,0:0:0:0:
320,192,92397,128,0,92750:0:0:0:0:
192,192,92750,1,0,0:0:0:0:
64,192,92750,1,0,0:0:0:0:
448,192,92926,1,0,0:0:0:0:
320,192,93103,1,0,0:0:0:0:
64,192,93279,1,0,0:0:0:0:
448,192,93279,1,0,0:0:0:0:
192,192,93544,1,0,0:0:0:0:
320,192,93809,128,0,94162:0:0:0:0:
192,192,94162,1,0,0:0:0:0:
448,192,94338,1,0,0:0:0:0:
192,192,94514,1,0,0:0:0:0:
64,192,94691,1,0,0:0:0:0:
320,192,94691,1,0,0:0:0:0:
320,192,94956,1,0,0:0:0:0:
64,192,94956,1,0,0:0:0:0:
320,192,95220,128,0,95573:0:0:0:0:
192,192,95573,1,0,0:0:0:0:
64,192,95573,1,0,0:0:0:0:
448,192,95750,1,0,0:0:0:0:
320,192,95926,1,0,0:0:0:0:
64,192,96103,1,0,0:0:0:0:
448,192,96103,1,0,0:0:0:0:
192,192,96367,1,0,0:0:0:0:
320,192,96632,128,0,96985:0:0:0:0:
192,192,96985,1,0,0:0:0:0:
64,192,97162,1,0,0:0:0:0:
448,192,97162,1,0,0:0:0:0:
192,192,97250,1,0,0:0:0:0:
320,192,97250,1,0,0:0:0:0:
64,192,97338,1,0,0:0:0:0:
448,192,97338,1,0,0:0:0:0:
192,192,97426,1,0,0:0:0:0:
320,192,97426,1,0,0:0:0:0:
64,192,97514,1,0,0:0:0:0:
448,192,97514,1,0,0:0:0:0:
320,192,97779,1,0,0:0:0:0:
64,192,97779,1,0,0:0:0:0:
320,192,98044,128,0,98397:0:0:0:0:
192,192,98397,1,0,0:0:0:0:
64,192,98397,1,0,0:0:0:0:
448,192,98573,1,0,0:0:0:0:
320,192,98750,1,0,0:0:0:0:
64,192,98926,1,0,0:0:0:0:
448,192,98926,1,0,0:0:0:0:
192,192,99191,1,0,0:0:0:0:
320,192,99456,128,0,99809:0:0:0:0:
192,192,99809,1,0,0:0:0:0:
448,192,99985,1,0,0:0:0:0:
192,192,100162,1,0,0:0:0:0:
320,192,100338,1,0,0:0:0:0:
448,192,100338,1,0,0:0:0:0:
192,192,100603,1,0,0:0:0:0:
320,192,100603,1,0,0:0:0:0:
320,192,100867,128,0,101220:0:0:0:0:
192,192,101220,1,0,0:0:0:0:
448,192,101397,1,0,0:0:0:0:
320,192,101573,1,0,0:0:0:0:
64,192,101750,1,0,0:0:0:0:
192,192,101750,1,0,0:0:0:0:
192,192,102014,1,0,0:0:0:0:
320,192,102014,1,0,0:0:0:0:
192,192,102279,128,0,102632:0:0:0:0:
64,192,102632,1,0,0:0:0:0:
448,192,102809,1,0,0:0:0:0:
192,192,102985,1,0,0:0:0:0:
320,192,103162,128,0,114456:0:0:0:0:
64,192,103162,1,0,0:0:0:0:
448,192,103514,1,0,0:0:0:0:
448,192,103867,1,0,0:0:0:0:
448,192,104044,1,0,0:0:0:0:
192,192,104220,1,0,0:0:0:0:
64,192,104573,1,0,0:0:0:0:
448,192,104926,1,0,0:0:0:0:
448,192,105279,1,0,0:0:0:0:
448,192,105456,1,0,0:0:0:0:
192,192,105632,1,0,0:0:0:0:
64,192,105985,1,0,0:0:0:0:
448,192,106338,1,0,0:0:0:0:
448,192,106691,1,0,0:0:0:0:
448,192,106867,1,0,0:0:0:0:
192,192,107044,1,0,0:0:0:0:
64,192,107397,1,0,0:0:0:0:
448,192,107750,1,0,0:0:0:0:
448,192,108103,1,0,0:0:0:0:
448,192,108279,1,0,0:0:0:0:
192,192,108456,128,0,108809:0:0:0:0:
64,192,108809,128,0,109514:0:0:0:0:
192,192,109514,128,0,110220:0:0:0:0:
64,192,110220,128,0,110926:0:0:0:0:
192,192,110926,128,0,111632:0:0:0:0:
448,192,111632,128,0,112514:0:0:0:0:
192,192,112514,1,0,0:0:0:0:
192,192,112691,1,0,0:0:0:0:
64,192,112867,1,0,0:0:0:0:
64,192,113044,128,0,113750:0:0:0:0:
192,192,113926,1,0,0:0:0:0:
64,192,114103,1,0,0:0:0:0:
192,192,114279,1,0,0:0:0:0:
448,192,114456,128,0,120103:0:0:0:0:
192,192,114456,128,0,115162:0:0:0:0:
320,192,115162,128,0,115867:0:0:0:0:
64,192,115867,128,0,116573:0:0:0:0:
192,192,116573,128,0,117279:0:0:0:0:
64,192,117279,128,0,118162:0:0:0:0:
192,192,118162,128,0,118691:0:0:0:0:
320,192,118691,128,0,119750:0:0:0:0:
64,192,120103,1,0,0:0:0:0:
192,192,120103,1,0,0:0:0:0:
320,192,120103,1,0,0:0:0:0:
64,192,120367,1,0,0:0:0:0:
320,192,120367,1,0,0:0:0:0:
448,192,120367,1,0,0:0:0:0:
192,192,120632,1,0,0:0:0:0:
320,192,120632,1,0,0:0:0:0:
448,192,120632,1,0,0:0:0:0:
64,192,120809,1,0,0:0:0:0:
192,192,120809,1,0,0:0:0:0:
448,192,120809,1,0,0:0:0:0:
192,192,121073,1,0,0:0:0:0:
320,192,121073,1,0,0:0:0:0:
448,192,121073,1,0,0:0:0:0:
448,192,121338,1,0,0:0:0:0:
320,192,121338,1,0,0:0:0:0:
64,192,121338,1,0,0:0:0:0:
192,192,121514,1,0,0:0:0:0:
320,192,121514,1,0,0:0:0:0:
64,192,121514,1,0,0:0:0:0:
448,192,121779,1,0,0:0:0:0:
192,192,121779,1,0,0:0:0:0:
64,192,121779,1,0,0:0:0:0:
320,192,122044,1,0,0:0:0:0:
64,192,122044,1,0,0:0:0:0:
448,192,122044,1,0,0:0:0:0:
192,192,122220,1,0,0:0:0:0:
320,192,122220,1,0,0:0:0:0:
448,192,122220,1,0,0:0:0:0:
320,192,122485,1,0,0:0:0:0:
448,192,122485,1,0,0:0:0:0:
64,192,122485,1,0,0:0:0:0:
448,192,122750,1,0,0:0:0:0:
320,192,122750,1,0,0:0:0:0:
192,192,122750,1,0,0:0:0:0:
64,192,122926,1,0,0:0:0:0:
448,192,122926,1,0,0:0:0:0:
192,192,122926,1,0,0:0:0:0:
192,192,123191,1,0,0:0:0:0:
448,192,123191,1,0,0:0:0:0:
320,192,123191,1,0,0:0:0:0:
448,192,123456,1,0,0:0:0:0:
64,192,123456,1,0,0:0:0:0:
320,192,123456,1,0,0:0:0:0:
320,192,123632,1,0,0:0:0:0:
192,192,123632,1,0,0:0:0:0:
64,192,123632,1,0,0:0:0:0:
64,192,123897,1,0,0:0:0:0:
448,192,123897,1,0,0:0:0:0:
320,192,123897,1,0,0:0:0:0:
192,192,124162,1,0,0:0:0:0:
320,192,124162,1,0,0:0:0:0:
448,192,124162,1,0,0:0:0:0:
192,192,124338,1,0,0:0:0:0:
448,192,124338,1,0,0:0:0:0:
64,192,124338,1,0,0:0:0:0:
320,192,124603,1,0,0:0:0:0:
448,192,124603,1,0,0:0:0:0:
192,192,124603,1,0,0:0:0:0:
320,192,124867,1,0,0:0:0:0:
64,192,124867,1,0,0:0:0:0:
448,192,124867,1,0,0:0:0:0:
64,192,125044,1,0,0:0:0:0:
192,192,125044,1,0,0:0:0:0:
320,192,125044,1,0,0:0:0:0:
448,192,125220,1,0,0:0:0:0:
64,192,125220,1,0,0:0:0:0:
192,192,125220,1,0,0:0:0:0:
320,192,125397,1,0,0:0:0:0:
192,192,125573,1,0,0:0:0:0:
192,192,125750,128,0,126456:0:0:0:0:
64,192,125750,128,0,126456:0:0:0:0:
320,192,126456,128,0,127867:0:0:0:0:
448,192,126456,128,0,127162:0:0:0:0:
192,192,127162,128,0,127867:0:0:0:0:
64,192,127867,128,0,128573:0:0:0:0:
448,192,127867,128,0,129985:0:0:0:0:
192,192,128573,128,0,129985:0:0:0:0:
320,192,129985,128,0,130691:0:0:0:0:
64,192,129985,128,0,130691:0:0:0:0:
192,192,130250,1,0,0:0:0:0:
448,192,130514,1,0,0:0:0:0:
192,192,130691,1,0,0:0:0:0:
448,192,130691,128,0,131397:0:0:0:0:
192,192,131397,128,0,132809:0:0:0:0:
64,192,131397,1,0,0:0:0:0:
320,192,131750,1,0,0:0:0:0:
320,192,132456,1,0,0:0:0:0:
320,192,132809,128,0,134220:0:0:0:0:
64,192,133162,1,0,0:0:0:0:
448,192,133867,1,0,0:0:0:0:
64,192,134220,128,0,135632:0:0:0:0:
192,192,134573,1,0,0:0:0:0:
320,192,135279,1,0,0:0:0:0:
448,192,135632,128,0,137044:0:0:0:0:
192,192,135985,1,0,0:0:0:0:
192,192,136514,1,0,0:0:0:0:
64,192,136691,1,0,0:0:0:0:
192,192,136867,1,0,0:0:0:0:
64,192,136956,1,0,0:0:0:0:
192,192,137044,1,0,0:0:0:0:
320,192,137044,1,0,0:0:0:0:
192,192,137397,1,0,0:0:0:0:
448,192,137397,1,0,0:0:0:0:
192,192,137750,1,0,0:0:0:0:
320,192,138103,1,0,0:0:0:0:
64,192,138103,1,0,0:0:0:0:
448,192,138456,1,0,0:0:0:0:
192,192,138809,1,0,0:0:0:0:
64,192,138809,1,0,0:0:0:0:
192,192,139162,1,0,0:0:0:0:
320,192,139514,1,0,0:0:0:0:
448,192,139514,1,0,0:0:0:0:
64,192,139867,1,0,0:0:0:0:
448,192,139867,1,0,0:0:0:0:
192,192,140220,1,0,0:0:0:0:
448,192,140220,1,0,0:0:0:0:
192,192,140573,1,0,0:0:0:0:
320,192,140573,1,0,0:0:0:0:
64,192,140926,1,0,0:0:0:0:
192,192,140926,1,0,0:0:0:0:
64,192,141279,1,0,0:0:0:0:
320,192,141279,1,0,0:0:0:0:
448,192,141279,1,0,0:0:0:0:
448,192,141985,1,0,0:0:0:0:
192,192,141985,1,0,0:0:0:0:
64,192,142073,1,0,0:0:0:0:
320,192,142073,1,0,0:0:0:0:
448,192,142338,1,0,0:0:0:0:
192,192,142338,1,0,0:0:0:0:
320,192,142426,1,0,0:0:0:0:
64,192,142426,1,0,0:0:0:0:
64,192,142691,1,0,0:0:0:0:
192,192,142691,1,0,0:0:0:0:
320,192,142691,1,0,0:0:0:0:
448,192,142867,1,0,0:0:0:0:
320,192,143044,1,0,0:0:0:0:
64,192,143044,1,0,0:0:0:0:
448,192,143220,1,0,0:0:0:0:
320,192,143397,1,0,0:0:0:0:
320,192,143573,1,0,0:0:0:0:
64,192,143750,1,0,0:0:0:0:
448,192,143750,1,0,0:0:0:0:
448,192,143926,1,0,0:0:0:0:
320,192,144103,1,0,0:0:0:0:
192,192,144279,1,0,0:0:0:0:
448,192,144456,1,0,0:0:0:0:
192,192,144456,1,0,0:0:0:0:
64,192,144632,1,0,0:0:0:0:
448,192,144809,1,0,0:0:0:0:
320,192,144985,1,0,0:0:0:0:
448,192,145162,1,0,0:0:0:0:
192,192,145162,1,0,0:0:0:0:
64,192,145338,1,0,0:0:0:0:
320,192,145514,1,0,0:0:0:0:
192,192,145691,1,0,0:0:0:0:
448,192,145867,1,0,0:0:0:0:
320,192,145867,1,0,0:0:0:0:
64,192,146044,1,0,0:0:0:0:
320,192,146220,1,0,0:0:0:0:
192,192,146397,1,0,0:0:0:0:
64,192,146573,1,0,0:0:0:0:
320,192,146573,1,0,0:0:0:0:
448,192,146750,1,0,0:0:0:0:
192,192,146926,1,0,0:0:0:0:
448,192,147103,1,0,0:0:0:0:
64,192,147279,1,0,0:0:0:0:
320,192,147279,1,0,0:0:0:0:
192,192,147456,1,0,0:0:0:0:
448,192,147632,1,0,0:0:0:0:
192,192,147809,1,0,0:0:0:0:
320,192,147809,1,0,0:0:0:0:
64,192,147985,1,0,0:0:0:0:
320,192,148162,1,0,0:0:0:0:
64,192,148162,1,0,0:0:0:0:
192,192,148338,1,0,0:0:0:0:
320,192,148514,1,0,0:0:0:0:
64,192,148691,1,0,0:0:0:0:
448,192,148691,1,0,0:0:0:0:
448,192,148867,1,0,0:0:0:0:
320,192,149044,1,0,0:0:0:0:
320,192,149220,1,0,0:0:0:0:
64,192,149397,1,0,0:0:0:0:
448,192,149397,1,0,0:0:0:0:
448,192,149573,1,0,0:0:0:0:
320,192,149750,1,0,0:0:0:0:
192,192,149926,1,0,0:0:0:0:
448,192,150103,1,0,0:0:0:0:
192,192,150103,1,0,0:0:0:0:
64,192,150279,1,0,0:0:0:0:
448,192,150456,1,0,0:0:0:0:
320,192,150632,1,0,0:0:0:0:
448,192,150809,1,0,0:0:0:0:
192,192,150809,1,0,0:0:0:0:
64,192,150985,1,0,0:0:0:0:
448,192,151162,1,0,0:0:0:0:
192,192,151162,1,0,0:0:0:0:
192,192,151426,1,0,0:0:0:0:
448,192,151426,1,0,0:0:0:0:
448,192,151691,1,0,0:0:0:0:
64,192,151779,1,0,0:0:0:0:
192,192,151867,1,0,0:0:0:0:
320,192,151867,1,0,0:0:0:0:
192,192,152132,1,0,0:0:0:0:
320,192,152132,1,0,0:0:0:0:
320,192,152397,1,0,0:0:0:0:
448,192,152485,1,0,0:0:0:0:
192,192,152573,1,0,0:0:0:0:
64,192,152573,1,0,0:0:0:0:
64,192,152838,1,0,0:0:0:0:
192,192,152838,1,0,0:0:0:0:
320,192,153103,1,0,0:0:0:0:
64,192,153279,1,0,0:0:0:0:
448,192,153279,1,0,0:0:0:0:
64,192,153544,1,0,0:0:0:0:
320,192,153544,1,0,0:0:0:0:
192,192,153809,1,0,0:0:0:0:
448,192,153809,1,0,0:0:0:0:
320,192,153985,128,0,154691:0:0:0:0:
448,192,154162,1,0,0:0:0:0:
192,192,154426,1,0,0:0:0:0:
448,192,154691,1,0,0:0:0:0:
64,192,154691,1,0,0:0:0:0:
320,192,154956,1,0,0:0:0:0:
64,192,155220,1,0,0:0:0:0:
192,192,155397,128,0,159632:0:0:0:0:
320,192,155397,128,0,159632:0:0:0:0:
448,192,156103,1,0,0:0:0:0:
64,192,156103,1,0,0:0:0:0:
448,192,156367,1,0,0:0:0:0:
64,192,156367,1,0,0:0:0:0:
448,192,156632,1,0,0:0:0:0:
64,192,156632,1,0,0:0:0:0:
448,192,157514,1,0,0:0:0:0:
64,192,157514,1,0,0:0:0:0:
448,192,157779,1,0,0:0:0:0:
64,192,157779,1,0,0:0:0:0:
64,192,158044,1,0,0:0:0:0:
448,192,158044,1,0,0:0:0:0:
448,192,158926,1,0,0:0:0:0:
64,192,158926,1,0,0:0:0:0:
448,192,159191,1,0,0:0:0:0:
64,192,159191,1,0,0:0:0:0:
64,192,159456,1,0,0:0:0:0:
448,192,159632,1,0,0:0:0:0:
64,192,159985,1,0,0:0:0:0:
192,192,159985,1,0,0:0:0:0:
320,192,159985,1,0,0:0:0:0:
192,192,160338,1,0,0:0:0:0:
320,192,160338,1,0,0:0:0:0:
448,192,160338,1,0,0:0:0:0:
64,192,160691,1,0,0:0:0:0:
320,192,160691,1,0,0:0:0:0:
448,192,160691,1,0,0:0:0:0:
192,192,160779,1,0,0:0:0:0:
64,192,160867,1,0,0:0:0:0:
320,192,160956,1,0,0:0:0:0:
64,192,161044,1,0,0:0:0:0:
192,192,161044,128,0,162456:0:0:0:0:
320,192,161220,1,0,0:0:0:0:
448,192,161220,1,0,0:0:0:0:
320,192,161573,1,0,0:0:0:0:
64,192,161573,1,0,0:0:0:0:
448,192,161926,1,0,0:0:0:0:
320,192,161926,1,0,0:0:0:0:
64,192,162279,1,0,0:0:0:0:
448,192,162279,1,0,0:0:0:0:
320,192,162456,128,0,163867:0:0:0:0:
64,192,162632,1,0,0:0:0:0:
448,192,162632,1,0,0:0:0:0:
192,192,162985,1,0,0:0:0:0:
64,192,162985,1,0,0:0:0:0:
192,192,163338,1,0,0:0:0:0:
448,192,163338,1,0,0:0:0:0:
448,192,163691,1,0,0:0:0:0:
64,192,163691,1,0,0:0:0:0:
192,192,163867,128,0,164573:0:0:0:0:
64,192,164044,1,0,0:0:0:0:
448,192,164044,1,0,0:0:0:0:
320,192,164397,1,0,0:0:0:0:
448,192,164397,1,0,0:0:0:0:
64,192,164573,128,0,165279:0:0:0:0:
320,192,164750,1,0,0:0:0:0:
448,192,164750,1,0,0:0:0:0:
192,192,165103,1,0,0:0:0:0:
320,192,165103,1,0,0:0:0:0:
448,192,165279,128,0,166691:0:0:0:0:
192,192,165456,1,0,0:0:0:0:
320,192,165456,1,0,0:0:0:0:
64,192,165809,1,0,0:0:0:0:
192,192,165809,1,0,0:0:0:0:
320,192,166162,1,0,0:0:0:0:
64,192,166162,1,0,0:0:0:0:
320,192,166514,1,0,0:0:0:0:
64,192,166691,1,0,0:0:0:0:
192,192,166691,1,0,0:0:0:0:
320,192,166691,1,0,0:0:0:0:
64,192,166867,1,0,0:0:0:0:
320,192,166867,1,0,0:0:0:0:
448,192,167044,1,0,0:0:0:0:
320,192,167044,1,0,0:0:0:0:
192,192,167220,1,0,0:0:0:0:
64,192,167220,1,0,0:0:0:0:
320,192,167397,1,0,0:0:0:0:
448,192,167397,1,0,0:0:0:0:
192,192,167397,1,0,0:0:0:0:
320,192,167573,1,0,0:0:0:0:
192,192,167573,1,0,0:0:0:0:
64,192,167750,1,0,0:0:0:0:
448,192,167750,1,0,0:0:0:0:
64,192,167926,1,0,0:0:0:0:
320,192,167926,1,0,0:0:0:0:
64,192,168103,1,0,0:0:0:0:
320,192,168103,1,0,0:0:0:0:
448,192,168103,1,0,0:0:0:0:
320,192,168279,1,0,0:0:0:0:
192,192,168279,1,0,0:0:0:0:
192,192,168456,1,0,0:0:0:0:
64,192,168456,1,0,0:0:0:0:
320,192,168632,1,0,0:0:0:0:
448,192,168632,1,0,0:0:0:0:
192,192,168809,1,0,0:0:0:0:
448,192,168809,1,0,0:0:0:0:
192,192,168985,1,0,0:0:0:0:
64,192,168985,1,0,0:0:0:0:
320,192,169162,1,0,0:0:0:0:
448,192,169162,1,0,0:0:0:0:
192,192,169338,1,0,0:0:0:0:
64,192,169338,1,0,0:0:0:0:
320,192,169514,128,0,170926:0:0:0:0:
448,192,169691,1,0,0:0:0:0:
192,192,169691,1,0,0:0:0:0:
64,192,170044,1,0,0:0:0:0:
192,192,170044,1,0,0:0:0:0:
64,192,170397,1,0,0:0:0:0:
448,192,170397,1,0,0:0:0:0:
192,192,170750,1,0,0:0:0:0:
64,192,170750,1,0,0:0:0:0:
448,192,170926,128,0,172338:0:0:0:0:
64,192,170926,1,0,0:0:0:0:
192,192,171279,1,0,0:0:0:0:
64,192,171367,1,0,0:0:0:0:
192,192,171456,1,0,0:0:0:0:
320,192,171544,1,0,0:0:0:0:
192,192,171632,1,0,0:0:0:0:
64,192,171720,1,0,0:0:0:0:
192,192,171809,1,0,0:0:0:0:
320,192,171897,1,0,0:0:0:0:
192,192,171985,1,0,0:0:0:0:
64,192,172073,1,0,0:0:0:0:
192,192,172162,1,0,0:0:0:0:
64,192,172250,1,0,0:0:0:0:
320,192,172338,1,0,0:0:0:0:
64,192,172514,1,0,0:0:0:0:
192,192,172514,1,0,0:0:0:0:
320,192,172691,1,0,0:0:0:0:
320,192,172867,1,0,0:0:0:0:
448,192,172867,1,0,0:0:0:0:
64,192,173044,1,0,0:0:0:0:
192,192,173220,1,0,0:0:0:0:
320,192,173220,1,0,0:0:0:0:
448,192,173397,1,0,0:0:0:0:
448,192,173573,1,0,0:0:0:0:
192,192,173573,1,0,0:0:0:0:
320,192,173750,1,0,0:0:0:0:
320,192,173926,1,0,0:0:0:0:
64,192,173926,1,0,0:0:0:0:
192,192,174103,1,0,0:0:0:0:
64,192,174279,1,0,0:0:0:0:
448,192,174279,1,0,0:0:0:0:
320,192,174456,1,0,0:0:0:0:
64,192,174632,1,0,0:0:0:0:
192,192,174632,1,0,0:0:0:0:
448,192,174809,1,0,0:0:0:0:
320,192,174985,1,0,0:0:0:0:
448,192,174985,1,0,0:0:0:0:
64,192,175162,1,0,0:0:0:0:
192,192,175338,1,0,0:0:0:0:
320,192,175338,1,0,0:0:0:0:
64,192,175514,1,0,0:0:0:0:
192,192,175691,1,0,0:0:0:0:
448,192,175691,1,0,0:0:0:0:
320,192,175867,1,0,0:0:0:0:
64,192,176044,1,0,0:0:0:0:
320,192,176044,1,0,0:0:0:0:
192,192,176220,1,0,0:0:0:0:
64,192,176397,1,0,0:0:0:0:
448,192,176397,1,0,0:0:0:0:
320,192,176573,1,0,0:0:0:0:
320,192,176750,1,0,0:0:0:0:
448,192,176750,1,0,0:0:0:0:
320,192,176926,1,0,0:0:0:0:
64,192,177103,1,0,0:0:0:0:
192,192,177103,1,0,0:0:0:0:
448,192,177279,1,0,0:0:0:0:
192,192,177456,1,0,0:0:0:0:
320,192,177456,1,0,0:0:0:0:
192,192,177632,1,0,0:0:0:0:
320,192,177720,1,0,0:0:0:0:
192,192,177809,1,0,0:0:0:0:
64,192,177897,1,0,0:0:0:0:
192,192,177985,1,0,0:0:0:0:
320,192,177985,1,0,0:0:0:0:
192,192,178250,1,0,0:0:0:0:
320,192,178250,1,0,0:0:0:0:
64,192,178514,1,0,0:0:0:0:
320,192,178691,1,0,0:0:0:0:
448,192,178691,1,0,0:0:0:0:
320,192,178956,1,0,0:0:0:0:
448,192,178956,1,0,0:0:0:0:
192,192,179220,1,0,0:0:0:0:
64,192,179397,1,0,0:0:0:0:
448,192,179397,1,0,0:0:0:0:
448,192,179662,1,0,0:0:0:0:
64,192,179662,1,0,0:0:0:0:
192,192,179926,1,0,0:0:0:0:
320,192,179926,1,0,0:0:0:0:
448,192,180103,1,0,0:0:0:0:
64,192,180103,1,0,0:0:0:0:
192,192,180279,1,0,0:0:0:0:
64,192,180367,1,0,0:0:0:0:
192,192,180456,1,0,0:0:0:0:
448,192,180544,1,0,0:0:0:0:
320,192,180632,1,0,0:0:0:0:
64,192,180720,1,0,0:0:0:0:
448,192,180809,1,0,0:0:0:0:
192,192,180809,128,0,182220:0:0:0:0:
320,192,180809,1,0,0:0:0:0:
64,192,180985,1,0,0:0:0:0:
448,192,181338,1,0,0:0:0:0:
320,192,181691,1,0,0:0:0:0:
64,192,182044,1,0,0:0:0:0:
320,192,182220,128,0,183632:0:0:0:0:
448,192,182397,1,0,0:0:0:0:
64,192,182750,1,0,0:0:0:0:
192,192,183103,1,0,0:0:0:0:
64,192,183456,1,0,0:0:0:0:
448,192,183632,128,0,185044:0:0:0:0:
192,192,183809,1,0,0:0:0:0:
320,192,184162,5,0,0:0:0:0:
64,192,184514,1,0,0:0:0:0:
192,192,184867,1,0,0:0:0:0:
192,192,185044,5,0,0:0:0:0:
64,192,185044,1,0,0:0:0:0:
320,192,185044,1,0,0:0:0:0:
320,192,185397,1,0,0:0:0:0:
64,192,185397,1,0,0:0:0:0:
448,192,185397,1,0,0:0:0:0:
192,192,185750,1,0,0:0:0:0:
320,192,185750,1,0,0:0:0:0:
448,192,185750,1,0,0:0:0:0:
64,192,185926,1,0,0:0:0:0:
192,192,186103,1,0,0:0:0:0:
64,192,186103,1,0,0:0:0:0:
320,192,186103,1,0,0:0:0:0:
448,192,186103,128,0,186456:0:0:0:0:
192,192,186456,1,0,0:0:0:0:
64,192,186632,1,0,0:0:0:0:
320,192,186632,1,0,0:0:0:0:
192,192,186809,1,0,0:0:0:0:
320,192,186897,1,0,0:0:0:0:
448,192,186985,1,0,0:0:0:0:
64,192,186985,1,0,0:0:0:0:
192,192,187162,1,0,0:0:0:0:
320,192,187338,1,0,0:0:0:0:
64,192,187338,1,0,0:0:0:0:
192,192,187426,1,0,0:0:0:0:
320,192,187514,1,0,0:0:0:0:
448,192,187603,1,0,0:0:0:0:
192,192,187691,1,0,0:0:0:0:
64,192,187691,1,0,0:0:0:0:
320,192,187867,1,0,0:0:0:0:
192,192,188044,1,0,0:0:0:0:
64,192,188044,1,0,0:0:0:0:
320,192,188220,1,0,0:0:0:0:
448,192,188309,1,0,0:0:0:0:
64,192,188397,1,0,0:0:0:0:
192,192,188397,1,0,0:0:0:0:
448,192,188485,1,0,0:0:0:0:
320,192,188573,1,0,0:0:0:0:
192,192,188662,1,0,0:0:0:0:
320,192,188750,1,0,0:0:0:0:
448,192,188750,1,0,0:0:0:0:
192,192,188926,1,0,0:0:0:0:
320,192,189014,1,0,0:0:0:0:
64,192,189103,1,0,0:0:0:0:
448,192,189103,1,0,0:0:0:0:
320,192,189279,1,0,0:0:0:0:
192,192,189279,1,0,0:0:0:0:
64,192,189456,1,0,0:0:0:0:
448,192,189456,1,0,0:0:0:0:
320,192,189544,1,0,0:0:0:0:
192,192,189632,1,0,0:0:0:0:
64,192,189720,1,0,0:0:0:0:
320,192,189809,1,0,0:0:0:0:
448,192,189809,1,0,0:0:0:0:
192,192,189985,1,0,0:0:0:0:
64,192,189985,1,0,0:0:0:0:
320,192,190250,1,0,0:0:0:0:
448,192,190250,1,0,0:0:0:0:
320,192,190514,1,0,0:0:0:0:
64,192,190514,1,0,0:0:0:0:
448,192,190691,128,0,191044:0:0:0:0:
192,192,190691,128,0,191044:0:0:0:0:
320,192,191220,5,0,0:0:0:0:
192,192,191309,1,0,0:0:0:0:
320,192,191397,128,0,191573:0:0:0:0:
64,192,191573,128,0,191838:0:0:0:0:
192,192,191838,128,0,192103:0:0:0:0:
448,192,192103,128,0,192456:0:0:0:0:
320,192,192279,1,0,0:0:0:0:
192,192,192456,1,0,0:0:0:0:
448,192,192632,128,0,192985:0:0:0:0:
320,192,192809,1,0,0:0:0:0:
192,192,192985,1,0,0:0:0:0:
448,192,193162,128,0,193514:0:0:0:0:
320,192,193338,1,0,0:0:0:0:
192,192,193514,1,0,0:0:0:0:
448,192,193691,128,0,194044:0:0:0:0:
320,192,193867,1,0,0:0:0:0:
192,192,194044,1,0,0:0:0:0:
448,192,194220,128,0,194397:0:0:0:0:
192,192,194397,1,0,0:0:0:0:
320,192,194485,1,0,0:0:0:0:
192,192,194750,1,0,0:0:0:0:
64,192,195103,1,0,0:0:0:0:
320,192,195279,1,0,0:0:0:0:
192,192,195367,1,0,0:0:0:0:
448,192,195544,1,0,0:0:0:0:
192,192,195720,1,0,0:0:0:0:
320,192,195809,1,0,0:0:0:0:
320,192,195985,1,0,0:0:0:0:
192,192,196162,1,0,0:0:0:0:
320,192,196338,1,0,0:0:0:0:
320,192,196514,1,0,0:0:0:0:
448,192,196603,1,0,0:0:0:0:
192,192,196779,1,0,0:0:0:0:
320,192,196867,1,0,0:0:0:0:
64,192,197044,128,0,197750:0:0:0:0:
192,192,197750,128,0,198014:0:0:0:0:
320,192,198014,128,0,198279:0:0:0:0:
192,192,198279,128,0,198456:0:0:0:0:
320,192,198456,128,0,198720:0:0:0:0:
64,192,198720,128,0,198985:0:0:0:0:
192,192,198985,128,0,199162:0:0:0:0:
320,192,199162,128,0,199426:0:0:0:0:
192,192,199426,128,0,199691:0:0:0:0:
320,192,199691,128,0,199867:0:0:0:0:
448,192,199867,128,0,200132:0:0:0:0:
192,192,200132,128,0,200397:0:0:0:0:
320,192,200397,128,0,200573:0:0:0:0:
64,192,200573,1,0,0:0:0:0:
192,192,200750,128,0,201014:0:0:0:0:
192,192,201103,128,0,201191:0:0:0:0:
192,192,201279,128,0,201544:0:0:0:0:
320,192,201544,128,0,201985:0:0:0:0:
192,192,201809,1,0,0:0:0:0:
64,192,201985,128,0,203044:0:0:0:0:
192,192,203044,128,0,203397:0:0:0:0:
448,192,203397,1,0,0:0:0:0:
320,192,203485,1,0,0:0:0:0:
192,192,203573,1,0,0:0:0:0:
64,192,203662,1,0,0:0:0:0:
448,192,203750,1,0,0:0:0:0:
320,192,203838,1,0,0:0:0:0:
192,192,203926,1,0,0:0:0:0:
64,192,204014,1,0,0:0:0:0:
448,192,204103,1,0,0:0:0:0:
320,192,204191,1,0,0:0:0:0:
192,192,204279,1,0,0:0:0:0:
64,192,204367,1,0,0:0:0:0:
448,192,204456,1,0,0:0:0:0:
320,192,204544,1,0,0:0:0:0:
192,192,204632,1,0,0:0:0:0:
64,192,204720,1,0,0:0:0:0:
448,192,204809,1,0,0:0:0:0:
320,192,204897,1,0,0:0:0:0:
448,192,204985,1,0,0:0:0:0:
320,192,205073,1,0,0:0:0:0:
192,192,205162,1,0,0:0:0:0:
64,192,205250,1,0,0:0:0:0:
192,192,205338,1,0,0:0:0:0:
64,192,205426,1,0,0:0:0:0:
448,192,205514,1,0,0:0:0:0:
320,192,205603,1,0,0:0:0:0:
448,192,205691,1,0,0:0:0:0:
320,192,205779,1,0,0:0:0:0:
192,192,205867,1,0,0:0:0:0:
64,192,205956,1,0,0:0:0:0:
192,192,206044,1,0,0:0:0:0:
64,192,206132,1,0,0:0:0:0:
320,192,206220,1,0,0:0:0:0:
192,192,206309,1,0,0:0:0:0:
320,192,206397,1,0,0:0:0:0:
192,192,206485,1,0,0:0:0:0:
320,192,206573,1,0,0:0:0:0:
192,192,206662,1,0,0:0:0:0:
320,192,206750,1,0,0:0:0:0:
192,192,206838,1,0,0:0:0:0:
448,192,206926,1,0,0:0:0:0:
320,192,207014,1,0,0:0:0:0:
448,192,207103,1,0,0:0:0:0:
320,192,207191,1,0,0:0:0:0:
448,192,207279,1,0,0:0:0:0:
320,192,207367,1,0,0:0:0:0:
448,192,207456,1,0,0:0:0:0:
320,192,207544,1,0,0:0:0:0:
448,192,207632,128,0,207897:0:0:0:0:
320,192,207897,128,0,208162:0:0:0:0:
192,192,208162,128,0,208338:0:0:0:0:
448,192,208338,1,0,0:0:0:0:
320,192,208426,1,0,0:0:0:0:
64,192,208514,1,0,0:0:0:0:
320,192,208603,1,0,0:0:0:0:
192,192,208691,1,0,0:0:0:0:
64,192,208779,1,0,0:0:0:0:
192,192,208867,1,0,0:0:0:0:
64,192,208956,1,0,0:0:0:0:
448,192,209044,1,0,0:0:0:0:
448,192,209220,1,0,0:0:0:0:
320,192,209309,1,0,0:0:0:0:
320,192,209573,1,0,0:0:0:0:
320,192,209750,1,0,0:0:0:0:
320,192,209926,1,0,0:0:0:0:
192,192,210014,1,0,0:0:0:0:
192,192,210279,1,0,0:0:0:0:
192,192,210456,1,0,0:0:0:0:
192,192,210632,1,0,0:0:0:0:
64,192,210720,1,0,0:0:0:0:
192,192,210897,1,0,0:0:0:0:
64,192,210985,1,0,0:0:0:0:
64,192,211162,1,0,0:0:0:0:
64,192,211338,1,0,0:0:0:0:
192,192,211426,1,0,0:0:0:0:
320,192,211603,1,0,0:0:0:0:
192,192,211691,1,0,0:0:0:0:
448,192,212044,128,0,212309:0:0:0:0:
448,192,212397,128,0,212485:0:0:0:0:
448,192,212573,128,0,212750:0:0:0:0:
320,192,212750,128,0,213103:0:0:0:0:
192,192,213103,128,0,213279:0:0:0:0:
64,192,213279,1,0,0:0:0:0:
448,192,213456,128,0,213720:0:0:0:0:
448,192,213809,128,0,213897:0:0:0:0:
448,192,213985,128,0,214162:0:0:0:0:
320,192,214162,128,0,214514:0:0:0:0:
64,192,214514,128,0,214691:0:0:0:0:
192,192,214691,1,0,0:0:0:0:
448,192,214867,128,0,215132:0:0:0:0:
448,192,215220,128,0,215309:0:0:0:0:
448,192,215397,128,0,215573:0:0:0:0:
192,192,215573,128,0,215926:0:0:0:0:
64,192,215926,128,0,216103:0:0:0:0:
448,192,216103,128,0,216456:0:0:0:0:
320,192,216103,1,0,0:0:0:0:
192,192,216103,1,0,0:0:0:0:
448,192,216809,1,0,0:0:0:0:
320,192,216809,1,0,0:0:0:0:
192,192,216809,1,0,0:0:0:0:
320,192,217073,1,0,0:0:0:0:
192,192,217073,1,0,0:0:0:0:
64,192,217073,1,0,0:0:0:0:
192,192,217338,1,0,0:0:0:0:
64,192,217338,1,0,0:0:0:0:
64,192,217514,1,0,0:0:0:0:
192,192,217514,1,0,0:0:0:0:
320,192,217514,1,0,0:0:0:0:
448,192,217514,1,0,0:0:0:0:
