osu file format v14

[General]
AudioFilename: audio.mp3
AudioLeadIn: 0
PreviewTime: 182657
Countdown: 0
SampleSet: Soft
StackLeniency: 0.7
Mode: 3
LetterboxInBreaks: 0
SpecialStyle: 0
WidescreenStoryboard: 0

[Editor]
DistanceSpacing: 0.8
BeatDivisor: 4
GridSize: 8
TimelineZoom: 2.5

[Metadata]
Title:Ikiteru obake ha ikiteiru
TitleUnicode:生きてるおばけは生きている
Artist:Utsu-P feat.flower
ArtistUnicode:鬱P
Creator:Nagato
Version:7K
Source:
Tags:GARAPAGOS
BeatmapID:1723037
BeatmapSetID:822111

[Difficulty]
HPDrainRate:7
CircleSize:7
OverallDifficulty:7
ApproachRate:5
SliderMultiplier:1.7
SliderTickRate:2

[Events]
//Background and Video events
0,0,"QQ图片20180728213249.png",0,0
//Break Periods
//Storyboard Layer 0 (Background)
//Storyboard Layer 1 (Fail)
//Storyboard Layer 2 (Pass)
//Storyboard Layer 3 (Foreground)
//Storyboard Sound Samples

[TimingPoints]
1050,428.571428571429,4,2,0,30,1,0

[HitObjects]
36,192,1050,5,0,0:0:0:0:
329,192,1050,128,0,1907:0:0:0:0:
109,192,1157,1,0,0:0:0:0:
182,192,1264,1,0,0:0:0:0:
256,192,1371,1,0,0:0:0:0:
36,192,1478,1,0,0:0:0:0:
109,192,1585,1,0,0:0:0:0:
182,192,1692,1,0,0:0:0:0:
256,192,1800,1,0,0:0:0:0:
475,192,1907,1,0,0:0:0:0:
182,192,1907,128,0,2764:0:0:0:0:
402,192,2014,1,0,0:0:0:0:
329,192,2121,1,0,0:0:0:0:
256,192,2228,1,0,0:0:0:0:
475,192,2335,1,0,0:0:0:0:
402,192,2442,1,0,0:0:0:0:
329,192,2550,1,0,0:0:0:0:
256,192,2657,1,0,0:0:0:0:
36,192,2764,1,0,0:0:0:0:
329,192,2764,128,0,3621:0:0:0:0:
109,192,2871,1,0,0:0:0:0:
182,192,2978,1,0,0:0:0:0:
256,192,3085,1,0,0:0:0:0:
36,192,3192,1,0,0:0:0:0:
109,192,3300,1,0,0:0:0:0:
182,192,3407,1,0,0:0:0:0:
256,192,3514,1,0,0:0:0:0:
475,192,3621,1,0,0:0:0:0:
182,192,3621,128,0,4050:0:0:0:0:
402,192,3728,1,0,0:0:0:0:
329,192,3835,1,0,0:0:0:0:
256,192,3942,1,0,0:0:0:0:
475,192,4050,1,0,0:0:0:0:
109,192,4050,128,0,4478:0:0:0:0:
402,192,4157,1,0,0:0:0:0:
329,192,4264,1,0,0:0:0:0:
256,192,4371,1,0,0:0:0:0:
36,192,4478,1,0,0:0:0:0:
329,192,4478,128,0,5335:0:0:0:0:
109,192,4585,1,0,0:0:0:0:
182,192,4692,1,0,0:0:0:0:
109,192,4800,1,0,0:0:0:0:
36,192,4907,1,0,0:0:0:0:
109,192,5014,1,0,0:0:0:0:
182,192,5121,1,0,0:0:0:0:
109,192,5228,1,0,0:0:0:0:
475,192,5335,1,0,0:0:0:0:
182,192,5335,128,0,6192:0:0:0:0:
402,192,5442,1,0,0:0:0:0:
329,192,5550,1,0,0:0:0:0:
402,192,5657,1,0,0:0:0:0:
475,192,5764,1,0,0:0:0:0:
402,192,5871,1,0,0:0:0:0:
329,192,5978,1,0,0:0:0:0:
402,192,6085,1,0,0:0:0:0:
36,192,6192,1,0,0:0:0:0:
256,192,6192,128,0,6942:0:0:0:0:
109,192,6300,1,0,0:0:0:0:
182,192,6407,1,0,0:0:0:0:
36,192,6514,1,0,0:0:0:0:
109,192,6621,1,0,0:0:0:0:
182,192,6728,1,0,0:0:0:0:
36,192,6835,1,0,0:0:0:0:
182,192,6942,1,0,0:0:0:0:
475,192,7050,1,0,0:0:0:0:
256,192,7050,128,0,7907:0:0:0:0:
402,192,7157,1,0,0:0:0:0:
329,192,7264,1,0,0:0:0:0:
475,192,7371,1,0,0:0:0:0:
402,192,7478,1,0,0:0:0:0:
329,192,7585,1,0,0:0:0:0:
475,192,7692,1,0,0:0:0:0:
329,192,7800,1,0,0:0:0:0:
36,192,7907,5,0,0:0:0:0:
402,192,7907,128,0,8764:0:0:0:0:
475,192,7907,1,0,0:0:0:0:
109,192,8014,1,0,0:0:0:0:
182,192,8121,1,0,0:0:0:0:
256,192,8228,1,0,0:0:0:0:
36,192,8335,1,0,0:0:0:0:
475,192,8335,1,0,0:0:0:0:
109,192,8442,1,0,0:0:0:0:
182,192,8550,1,0,0:0:0:0:
256,192,8657,1,0,0:0:0:0:
109,192,8764,128,0,9621:0:0:0:0:
475,192,8764,1,0,0:0:0:0:
36,192,8764,1,0,0:0:0:0:
402,192,8871,1,0,0:0:0:0:
329,192,8978,1,0,0:0:0:0:
256,192,9085,1,0,0:0:0:0:
475,192,9192,1,0,0:0:0:0:
36,192,9192,1,0,0:0:0:0:
402,192,9300,1,0,0:0:0:0:
329,192,9407,1,0,0:0:0:0:
256,192,9514,1,0,0:0:0:0:
329,192,9621,128,0,10050:0:0:0:0:
36,192,9621,1,0,0:0:0:0:
475,192,9621,1,0,0:0:0:0:
109,192,9728,1,0,0:0:0:0:
182,192,9835,1,0,0:0:0:0:
256,192,9942,1,0,0:0:0:0:
36,192,10050,1,0,0:0:0:0:
475,192,10050,1,0,0:0:0:0:
402,192,10050,128,0,10478:0:0:0:0:
109,192,10157,1,0,0:0:0:0:
182,192,10264,1,0,0:0:0:0:
256,192,10371,1,0,0:0:0:0:
182,192,10478,128,0,11335:0:0:0:0:
475,192,10478,1,0,0:0:0:0:
36,192,10478,1,0,0:0:0:0:
402,192,10585,1,0,0:0:0:0:
329,192,10692,1,0,0:0:0:0:
256,192,10800,1,0,0:0:0:0:
475,192,10907,1,0,0:0:0:0:
36,192,10907,1,0,0:0:0:0:
402,192,11014,1,0,0:0:0:0:
329,192,11121,1,0,0:0:0:0:
256,192,11228,1,0,0:0:0:0:
329,192,11335,128,0,12192:0:0:0:0:
36,192,11335,1,0,0:0:0:0:
475,192,11335,1,0,0:0:0:0:
109,192,11442,1,0,0:0:0:0:
182,192,11550,1,0,0:0:0:0:
109,192,11657,1,0,0:0:0:0:
36,192,11764,1,0,0:0:0:0:
475,192,11764,1,0,0:0:0:0:
109,192,11871,1,0,0:0:0:0:
182,192,11978,1,0,0:0:0:0:
109,192,12085,1,0,0:0:0:0:
182,192,12192,128,0,13050:0:0:0:0:
475,192,12192,1,0,0:0:0:0:
36,192,12192,1,0,0:0:0:0:
402,192,12300,1,0,0:0:0:0:
329,192,12407,1,0,0:0:0:0:
402,192,12514,1,0,0:0:0:0:
475,192,12621,1,0,0:0:0:0:
36,192,12621,1,0,0:0:0:0:
109,192,12621,128,0,13050:0:0:0:0:
256,192,12621,128,0,13050:0:0:0:0:
402,192,12728,1,0,0:0:0:0:
329,192,12835,1,0,0:0:0:0:
402,192,12942,1,0,0:0:0:0:
475,192,13050,1,0,0:0:0:0:
329,192,13264,1,0,0:0:0:0:
182,192,13478,1,0,0:0:0:0:
36,192,13692,1,0,0:0:0:0:
256,192,13907,128,0,14335:0:0:0:0:
109,192,14335,1,0,0:0:0:0:
329,192,14335,1,0,0:0:0:0:
475,192,14335,1,0,0:0:0:0:
109,192,14442,1,0,0:0:0:0:
329,192,14442,1,0,0:0:0:0:
475,192,14442,1,0,0:0:0:0:
109,192,14550,1,0,0:0:0:0:
329,192,14550,1,0,0:0:0:0:
475,192,14550,1,0,0:0:0:0:
109,192,14657,1,0,0:0:0:0:
329,192,14657,1,0,0:0:0:0:
475,192,14657,1,0,0:0:0:0:
402,192,14764,128,0,15621:0:0:0:0:
36,192,14764,1,0,0:0:0:0:
182,192,14764,1,0,0:0:0:0:
256,192,14871,1,0,0:0:0:0:
475,192,14978,1,0,0:0:0:0:
36,192,14978,1,0,0:0:0:0:
329,192,14978,1,0,0:0:0:0:
109,192,15085,1,0,0:0:0:0:
256,192,15085,1,0,0:0:0:0:
182,192,15192,1,0,0:0:0:0:
109,192,15300,1,0,0:0:0:0:
256,192,15300,1,0,0:0:0:0:
36,192,15407,1,0,0:0:0:0:
475,192,15407,1,0,0:0:0:0:
329,192,15407,1,0,0:0:0:0:
256,192,15514,1,0,0:0:0:0:
36,192,15621,1,0,0:0:0:0:
109,192,15621,1,0,0:0:0:0:
329,192,15621,128,0,16478:0:0:0:0:
36,192,15728,1,0,0:0:0:0:
182,192,15728,1,0,0:0:0:0:
109,192,15835,1,0,0:0:0:0:
475,192,15835,1,0,0:0:0:0:
256,192,15835,1,0,0:0:0:0:
36,192,15942,1,0,0:0:0:0:
402,192,15942,1,0,0:0:0:0:
109,192,16050,1,0,0:0:0:0:
36,192,16157,1,0,0:0:0:0:
182,192,16157,1,0,0:0:0:0:
109,192,16264,1,0,0:0:0:0:
475,192,16264,1,0,0:0:0:0:
256,192,16264,1,0,0:0:0:0:
402,192,16371,1,0,0:0:0:0:
36,192,16478,1,0,0:0:0:0:
256,192,16478,128,0,17335:0:0:0:0:
109,192,16478,1,0,0:0:0:0:
182,192,16585,1,0,0:0:0:0:
36,192,16692,1,0,0:0:0:0:
475,192,16692,1,0,0:0:0:0:
329,192,16692,1,0,0:0:0:0:
109,192,16800,1,0,0:0:0:0:
402,192,16800,1,0,0:0:0:0:
182,192,16907,1,0,0:0:0:0:
109,192,17014,1,0,0:0:0:0:
329,192,17014,1,0,0:0:0:0:
36,192,17121,1,0,0:0:0:0:
475,192,17121,1,0,0:0:0:0:
402,192,17121,1,0,0:0:0:0:
329,192,17228,1,0,0:0:0:0:
36,192,17335,1,0,0:0:0:0:
182,192,17335,128,0,17764:0:0:0:0:
402,192,17335,1,0,0:0:0:0:
36,192,17442,1,0,0:0:0:0:
329,192,17442,1,0,0:0:0:0:
109,192,17550,1,0,0:0:0:0:
475,192,17550,1,0,0:0:0:0:
256,192,17550,1,0,0:0:0:0:
36,192,17657,1,0,0:0:0:0:
329,192,17657,1,0,0:0:0:0:
256,192,17764,128,0,18192:0:0:0:0:
402,192,17764,1,0,0:0:0:0:
36,192,17871,1,0,0:0:0:0:
329,192,17871,1,0,0:0:0:0:
109,192,17978,1,0,0:0:0:0:
475,192,17978,1,0,0:0:0:0:
402,192,17978,1,0,0:0:0:0:
329,192,18085,1,0,0:0:0:0:
36,192,18192,1,0,0:0:0:0:
182,192,18192,128,0,19050:0:0:0:0:
402,192,18192,1,0,0:0:0:0:
329,192,18300,1,0,0:0:0:0:
36,192,18407,1,0,0:0:0:0:
475,192,18407,1,0,0:0:0:0:
256,192,18407,1,0,0:0:0:0:
109,192,18514,1,0,0:0:0:0:
329,192,18514,1,0,0:0:0:0:
402,192,18621,1,0,0:0:0:0:
109,192,18728,1,0,0:0:0:0:
329,192,18728,1,0,0:0:0:0:
36,192,18835,1,0,0:0:0:0:
475,192,18835,1,0,0:0:0:0:
256,192,18835,1,0,0:0:0:0:
329,192,18942,1,0,0:0:0:0:
36,192,19050,1,0,0:0:0:0:
256,192,19050,128,0,19907:0:0:0:0:
402,192,19050,1,0,0:0:0:0:
36,192,19157,1,0,0:0:0:0:
329,192,19157,1,0,0:0:0:0:
109,192,19264,1,0,0:0:0:0:
475,192,19264,1,0,0:0:0:0:
182,192,19264,1,0,0:0:0:0:
36,192,19371,1,0,0:0:0:0:
329,192,19371,1,0,0:0:0:0:
402,192,19478,1,0,0:0:0:0:
36,192,19585,1,0,0:0:0:0:
329,192,19585,1,0,0:0:0:0:
109,192,19692,1,0,0:0:0:0:
475,192,19692,1,0,0:0:0:0:
182,192,19692,1,0,0:0:0:0:
402,192,19800,1,0,0:0:0:0:
36,192,19907,1,0,0:0:0:0:
329,192,19907,128,0,20764:0:0:0:0:
109,192,19907,1,0,0:0:0:0:
182,192,20014,1,0,0:0:0:0:
36,192,20121,1,0,0:0:0:0:
475,192,20121,1,0,0:0:0:0:
256,192,20121,1,0,0:0:0:0:
109,192,20228,1,0,0:0:0:0:
402,192,20228,1,0,0:0:0:0:
182,192,20335,1,0,0:0:0:0:
109,192,20442,1,0,0:0:0:0:
256,192,20442,1,0,0:0:0:0:
36,192,20550,1,0,0:0:0:0:
475,192,20550,1,0,0:0:0:0:
402,192,20550,1,0,0:0:0:0:
256,192,20657,1,0,0:0:0:0:
36,192,20764,1,0,0:0:0:0:
402,192,20764,128,0,21192:0:0:0:0:
182,192,20764,1,0,0:0:0:0:
36,192,20871,1,0,0:0:0:0:
256,192,20871,1,0,0:0:0:0:
109,192,20978,1,0,0:0:0:0:
475,192,20978,1,0,0:0:0:0:
329,192,20978,1,0,0:0:0:0:
36,192,21085,1,0,0:0:0:0:
256,192,21085,1,0,0:0:0:0:
329,192,21192,128,0,21621:0:0:0:0:
182,192,21192,1,0,0:0:0:0:
36,192,21300,1,0,0:0:0:0:
256,192,21300,1,0,0:0:0:0:
109,192,21407,1,0,0:0:0:0:
475,192,21407,1,0,0:0:0:0:
402,192,21407,1,0,0:0:0:0:
256,192,21514,1,0,0:0:0:0:
475,192,21621,1,0,0:0:0:0:
109,192,21621,128,0,22478:0:0:0:0:
182,192,21621,1,0,0:0:0:0:
256,192,21728,1,0,0:0:0:0:
475,192,21835,1,0,0:0:0:0:
36,192,21835,1,0,0:0:0:0:
329,192,21835,1,0,0:0:0:0:
402,192,21942,1,0,0:0:0:0:
256,192,21942,1,0,0:0:0:0:
182,192,22050,1,0,0:0:0:0:
402,192,22157,1,0,0:0:0:0:
256,192,22157,1,0,0:0:0:0:
475,192,22264,1,0,0:0:0:0:
36,192,22264,1,0,0:0:0:0:
329,192,22264,1,0,0:0:0:0:
256,192,22371,1,0,0:0:0:0:
475,192,22478,1,0,0:0:0:0:
182,192,22478,128,0,23335:0:0:0:0:
402,192,22478,1,0,0:0:0:0:
475,192,22585,1,0,0:0:0:0:
329,192,22585,1,0,0:0:0:0:
402,192,22692,1,0,0:0:0:0:
36,192,22692,1,0,0:0:0:0:
256,192,22692,1,0,0:0:0:0:
475,192,22800,1,0,0:0:0:0:
109,192,22800,1,0,0:0:0:0:
329,192,22907,1,0,0:0:0:0:
475,192,23014,1,0,0:0:0:0:
256,192,23014,1,0,0:0:0:0:
402,192,23121,1,0,0:0:0:0:
36,192,23121,1,0,0:0:0:0:
109,192,23121,1,0,0:0:0:0:
329,192,23228,1,0,0:0:0:0:
475,192,23335,1,0,0:0:0:0:
256,192,23335,128,0,24192:0:0:0:0:
109,192,23335,1,0,0:0:0:0:
329,192,23442,1,0,0:0:0:0:
475,192,23550,1,0,0:0:0:0:
36,192,23550,1,0,0:0:0:0:
182,192,23550,1,0,0:0:0:0:
402,192,23657,1,0,0:0:0:0:
109,192,23657,1,0,0:0:0:0:
182,192,23764,1,0,0:0:0:0:
402,192,23871,1,0,0:0:0:0:
329,192,23871,1,0,0:0:0:0:
475,192,23978,1,0,0:0:0:0:
36,192,23978,1,0,0:0:0:0:
182,192,23978,1,0,0:0:0:0:
109,192,24085,1,0,0:0:0:0:
475,192,24192,1,0,0:0:0:0:
329,192,24192,128,0,24621:0:0:0:0:
182,192,24192,1,0,0:0:0:0:
475,192,24300,1,0,0:0:0:0:
109,192,24300,1,0,0:0:0:0:
402,192,24407,1,0,0:0:0:0:
36,192,24407,1,0,0:0:0:0:
182,192,24407,1,0,0:0:0:0:
475,192,24514,1,0,0:0:0:0:
109,192,24514,1,0,0:0:0:0:
256,192,24621,128,0,25050:0:0:0:0:
182,192,24621,1,0,0:0:0:0:
475,192,24728,1,0,0:0:0:0:
109,192,24728,1,0,0:0:0:0:
402,192,24835,1,0,0:0:0:0:
36,192,24835,1,0,0:0:0:0:
182,192,24835,1,0,0:0:0:0:
109,192,24942,1,0,0:0:0:0:
475,192,25050,1,0,0:0:0:0:
329,192,25050,128,0,25907:0:0:0:0:
182,192,25050,1,0,0:0:0:0:
109,192,25157,1,0,0:0:0:0:
475,192,25264,1,0,0:0:0:0:
36,192,25264,1,0,0:0:0:0:
182,192,25264,1,0,0:0:0:0:
402,192,25371,1,0,0:0:0:0:
256,192,25371,1,0,0:0:0:0:
182,192,25478,1,0,0:0:0:0:
402,192,25585,1,0,0:0:0:0:
109,192,25585,1,0,0:0:0:0:
475,192,25692,1,0,0:0:0:0:
36,192,25692,1,0,0:0:0:0:
182,192,25692,1,0,0:0:0:0:
256,192,25800,1,0,0:0:0:0:
475,192,25907,1,0,0:0:0:0:
109,192,25907,1,0,0:0:0:0:
475,192,26014,1,0,0:0:0:0:
256,192,26014,1,0,0:0:0:0:
402,192,26121,1,0,0:0:0:0:
36,192,26121,1,0,0:0:0:0:
182,192,26121,1,0,0:0:0:0:
256,192,26228,1,0,0:0:0:0:
475,192,26228,1,0,0:0:0:0:
36,192,26228,1,0,0:0:0:0:
256,192,26335,1,0,0:0:0:0:
475,192,26335,1,0,0:0:0:0:
36,192,26335,1,0,0:0:0:0:
256,192,26442,1,0,0:0:0:0:
475,192,26442,1,0,0:0:0:0:
36,192,26442,1,0,0:0:0:0:
256,192,26550,1,0,0:0:0:0:
475,192,26550,1,0,0:0:0:0:
36,192,26550,1,0,0:0:0:0:
256,192,26657,1,0,0:0:0:0:
475,192,26657,1,0,0:0:0:0:
36,192,26657,1,0,0:0:0:0:
109,192,26764,1,0,0:0:0:0:
182,192,26764,1,0,0:0:0:0:
329,192,26764,1,0,0:0:0:0:
402,192,26764,1,0,0:0:0:0:
36,192,26978,1,0,0:0:0:0:
109,192,26978,1,0,0:0:0:0:
256,192,26978,1,0,0:0:0:0:
329,192,26978,1,0,0:0:0:0:
475,192,27192,1,0,0:0:0:0:
402,192,27192,1,0,0:0:0:0:
256,192,27192,1,0,0:0:0:0:
182,192,27192,1,0,0:0:0:0:
329,192,27407,1,0,0:0:0:0:
256,192,27407,1,0,0:0:0:0:
109,192,27407,1,0,0:0:0:0:
475,192,27407,1,0,0:0:0:0:
182,192,27621,1,0,0:0:0:0:
256,192,27621,1,0,0:0:0:0:
36,192,27621,128,0,28050:0:0:0:0:
402,192,27621,128,0,28050:0:0:0:0:
182,192,28050,1,0,0:0:0:0:
256,192,28050,1,0,0:0:0:0:
402,192,28478,128,0,28800:0:0:0:0:
475,192,28478,128,0,28800:0:0:0:0:
109,192,28478,1,0,0:0:0:0:
475,192,28907,128,0,29228:0:0:0:0:
402,192,28907,128,0,29228:0:0:0:0:
109,192,28907,1,0,0:0:0:0:
109,192,29335,1,0,0:0:0:0:
256,192,29335,128,0,29442:0:0:0:0:
475,192,29335,128,0,29442:0:0:0:0:
182,192,29550,1,0,0:0:0:0:
329,192,29550,128,0,29657:0:0:0:0:
402,192,29550,128,0,29657:0:0:0:0:
109,192,29657,1,0,0:0:0:0:
256,192,29764,128,0,29871:0:0:0:0:
475,192,29764,128,0,29871:0:0:0:0:
402,192,29871,128,0,30192:0:0:0:0:
109,192,29871,1,0,0:0:0:0:
329,192,29871,128,0,30192:0:0:0:0:
182,192,29978,1,0,0:0:0:0:
402,192,30407,128,0,30514:0:0:0:0:
475,192,30407,128,0,30514:0:0:0:0:
182,192,30407,1,0,0:0:0:0:
402,192,30621,128,0,30728:0:0:0:0:
475,192,30621,128,0,30728:0:0:0:0:
182,192,30621,1,0,0:0:0:0:
402,192,30835,128,0,30942:0:0:0:0:
475,192,30835,128,0,30942:0:0:0:0:
182,192,30835,1,0,0:0:0:0:
182,192,31050,1,0,0:0:0:0:
402,192,31050,128,0,31157:0:0:0:0:
329,192,31050,128,0,31157:0:0:0:0:
475,192,31157,128,0,31264:0:0:0:0:
256,192,31157,128,0,31264:0:0:0:0:
109,192,31157,1,0,0:0:0:0:
182,192,31264,1,0,0:0:0:0:
402,192,31264,128,0,31371:0:0:0:0:
329,192,31264,128,0,31371:0:0:0:0:
475,192,31371,128,0,31478:0:0:0:0:
256,192,31371,128,0,31478:0:0:0:0:
109,192,31371,1,0,0:0:0:0:
329,192,31478,128,0,31585:0:0:0:0:
182,192,31478,1,0,0:0:0:0:
402,192,31478,128,0,31585:0:0:0:0:
475,192,31585,128,0,31692:0:0:0:0:
256,192,31585,128,0,31692:0:0:0:0:
109,192,31585,1,0,0:0:0:0:
182,192,31692,1,0,0:0:0:0:
402,192,31692,128,0,31800:0:0:0:0:
329,192,31692,128,0,31800:0:0:0:0:
256,192,31800,128,0,31907:0:0:0:0:
109,192,31800,1,0,0:0:0:0:
475,192,31800,128,0,31907:0:0:0:0:
36,192,31907,128,0,32228:0:0:0:0:
109,192,31907,128,0,32228:0:0:0:0:
402,192,31907,1,0,0:0:0:0:
36,192,32335,128,0,32657:0:0:0:0:
109,192,32335,128,0,32657:0:0:0:0:
402,192,32335,1,0,0:0:0:0:
402,192,32764,1,0,0:0:0:0:
256,192,32764,128,0,32871:0:0:0:0:
36,192,32764,128,0,32871:0:0:0:0:
329,192,32978,1,0,0:0:0:0:
182,192,32978,128,0,33085:0:0:0:0:
109,192,32978,128,0,33085:0:0:0:0:
402,192,33085,1,0,0:0:0:0:
256,192,33192,128,0,33300:0:0:0:0:
36,192,33192,128,0,33300:0:0:0:0:
109,192,33300,128,0,33621:0:0:0:0:
402,192,33300,1,0,0:0:0:0:
182,192,33300,128,0,33621:0:0:0:0:
329,192,33407,1,0,0:0:0:0:
109,192,33835,128,0,33942:0:0:0:0:
36,192,33835,128,0,33942:0:0:0:0:
329,192,33835,1,0,0:0:0:0:
109,192,34050,128,0,34157:0:0:0:0:
36,192,34050,128,0,34157:0:0:0:0:
329,192,34050,1,0,0:0:0:0:
109,192,34264,128,0,34371:0:0:0:0:
36,192,34264,128,0,34371:0:0:0:0:
329,192,34264,1,0,0:0:0:0:
329,192,34478,1,0,0:0:0:0:
109,192,34478,128,0,34585:0:0:0:0:
182,192,34478,128,0,34585:0:0:0:0:
36,192,34585,128,0,34692:0:0:0:0:
256,192,34585,128,0,34692:0:0:0:0:
402,192,34585,1,0,0:0:0:0:
329,192,34692,1,0,0:0:0:0:
109,192,34692,128,0,34800:0:0:0:0:
182,192,34692,128,0,34800:0:0:0:0:
36,192,34800,128,0,34907:0:0:0:0:
256,192,34800,128,0,34907:0:0:0:0:
402,192,34800,1,0,0:0:0:0:
182,192,34907,128,0,35014:0:0:0:0:
329,192,34907,1,0,0:0:0:0:
109,192,34907,128,0,35014:0:0:0:0:
36,192,35014,128,0,35121:0:0:0:0:
256,192,35014,128,0,35121:0:0:0:0:
402,192,35014,1,0,0:0:0:0:
329,192,35121,1,0,0:0:0:0:
109,192,35121,128,0,35228:0:0:0:0:
182,192,35121,128,0,35228:0:0:0:0:
256,192,35228,128,0,35335:0:0:0:0:
402,192,35228,1,0,0:0:0:0:
36,192,35228,128,0,35335:0:0:0:0:
402,192,35335,128,0,35657:0:0:0:0:
475,192,35335,128,0,35657:0:0:0:0:
109,192,35335,1,0,0:0:0:0:
182,192,35335,1,0,0:0:0:0:
475,192,35764,128,0,36085:0:0:0:0:
402,192,35764,128,0,36085:0:0:0:0:
36,192,35764,1,0,0:0:0:0:
182,192,35764,1,0,0:0:0:0:
36,192,36192,1,0,0:0:0:0:
182,192,36192,1,0,0:0:0:0:
256,192,36192,128,0,36300:0:0:0:0:
475,192,36192,128,0,36300:0:0:0:0:
109,192,36407,1,0,0:0:0:0:
329,192,36407,128,0,36514:0:0:0:0:
402,192,36407,128,0,36514:0:0:0:0:
182,192,36514,1,0,0:0:0:0:
256,192,36621,128,0,36728:0:0:0:0:
475,192,36621,128,0,36728:0:0:0:0:
36,192,36621,1,0,0:0:0:0:
402,192,36728,128,0,37050:0:0:0:0:
182,192,36728,1,0,0:0:0:0:
329,192,36728,128,0,37050:0:0:0:0:
109,192,36835,1,0,0:0:0:0:
36,192,37050,1,0,0:0:0:0:
402,192,37264,128,0,37371:0:0:0:0:
475,192,37264,128,0,37371:0:0:0:0:
182,192,37264,1,0,0:0:0:0:
402,192,37478,128,0,37585:0:0:0:0:
475,192,37478,128,0,37585:0:0:0:0:
36,192,37478,1,0,0:0:0:0:
182,192,37478,1,0,0:0:0:0:
402,192,37692,128,0,37800:0:0:0:0:
475,192,37692,128,0,37800:0:0:0:0:
182,192,37692,1,0,0:0:0:0:
36,192,37907,1,0,0:0:0:0:
182,192,37907,1,0,0:0:0:0:
402,192,37907,128,0,38014:0:0:0:0:
329,192,37907,128,0,38014:0:0:0:0:
475,192,38014,128,0,38121:0:0:0:0:
256,192,38014,128,0,38121:0:0:0:0:
109,192,38014,1,0,0:0:0:0:
182,192,38121,1,0,0:0:0:0:
402,192,38121,128,0,38228:0:0:0:0:
329,192,38121,128,0,38228:0:0:0:0:
475,192,38228,128,0,38335:0:0:0:0:
256,192,38228,128,0,38335:0:0:0:0:
109,192,38228,1,0,0:0:0:0:
329,192,38335,128,0,38442:0:0:0:0:
36,192,38335,1,0,0:0:0:0:
182,192,38335,1,0,0:0:0:0:
402,192,38335,128,0,38442:0:0:0:0:
475,192,38442,128,0,38550:0:0:0:0:
256,192,38442,128,0,38550:0:0:0:0:
109,192,38442,1,0,0:0:0:0:
182,192,38550,1,0,0:0:0:0:
402,192,38550,128,0,38657:0:0:0:0:
329,192,38550,128,0,38657:0:0:0:0:
256,192,38657,128,0,38764:0:0:0:0:
109,192,38657,1,0,0:0:0:0:
475,192,38657,128,0,38764:0:0:0:0:
36,192,38764,128,0,39085:0:0:0:0:
109,192,38764,128,0,39085:0:0:0:0:
329,192,38764,1,0,0:0:0:0:
402,192,38764,1,0,0:0:0:0:
329,192,38871,1,0,0:0:0:0:
329,192,39085,1,0,0:0:0:0:
36,192,39192,128,0,39514:0:0:0:0:
109,192,39192,128,0,39514:0:0:0:0:
475,192,39192,1,0,0:0:0:0:
329,192,39192,1,0,0:0:0:0:
402,192,39300,1,0,0:0:0:0:
329,192,39514,1,0,0:0:0:0:
475,192,39621,1,0,0:0:0:0:
329,192,39621,1,0,0:0:0:0:
256,192,39621,128,0,39728:0:0:0:0:
36,192,39621,128,0,39728:0:0:0:0:
329,192,39728,1,0,0:0:0:0:
475,192,39728,1,0,0:0:0:0:
402,192,39835,1,0,0:0:0:0:
182,192,39835,128,0,39942:0:0:0:0:
109,192,39835,128,0,39942:0:0:0:0:
256,192,39835,1,0,0:0:0:0:
402,192,39942,1,0,0:0:0:0:
256,192,39942,1,0,0:0:0:0:
256,192,40050,128,0,40157:0:0:0:0:
36,192,40050,128,0,40157:0:0:0:0:
475,192,40050,1,0,0:0:0:0:
329,192,40050,1,0,0:0:0:0:
109,192,40157,128,0,40478:0:0:0:0:
475,192,40157,1,0,0:0:0:0:
182,192,40157,128,0,40478:0:0:0:0:
329,192,40157,1,0,0:0:0:0:
402,192,40264,1,0,0:0:0:0:
256,192,40264,1,0,0:0:0:0:
402,192,40371,1,0,0:0:0:0:
256,192,40371,1,0,0:0:0:0:
36,192,40692,128,0,40800:0:0:0:0:
256,192,40692,128,0,40800:0:0:0:0:
36,192,40907,128,0,41014:0:0:0:0:
256,192,40907,128,0,41014:0:0:0:0:
36,192,41121,128,0,41228:0:0:0:0:
256,192,41121,128,0,41228:0:0:0:0:
36,192,41335,128,0,41442:0:0:0:0:
256,192,41335,128,0,41442:0:0:0:0:
256,192,41550,128,0,41657:0:0:0:0:
36,192,41550,128,0,41657:0:0:0:0:
109,192,41764,128,0,42085:0:0:0:0:
475,192,41764,1,0,0:0:0:0:
182,192,41764,128,0,42085:0:0:0:0:
475,192,41871,1,0,0:0:0:0:
475,192,41978,1,0,0:0:0:0:
475,192,42085,1,0,0:0:0:0:
256,192,42085,128,0,42300:0:0:0:0:
36,192,42300,1,0,0:0:0:0:
109,192,42300,1,0,0:0:0:0:
329,192,42300,1,0,0:0:0:0:
475,192,42407,1,0,0:0:0:0:
256,192,42514,128,0,42728:0:0:0:0:
475,192,42621,1,0,0:0:0:0:
36,192,42728,1,0,0:0:0:0:
109,192,42728,1,0,0:0:0:0:
475,192,42728,1,0,0:0:0:0:
329,192,42835,1,0,0:0:0:0:
475,192,42942,1,0,0:0:0:0:
256,192,42942,128,0,43157:0:0:0:0:
36,192,43157,1,0,0:0:0:0:
329,192,43157,1,0,0:0:0:0:
109,192,43157,1,0,0:0:0:0:
475,192,43264,1,0,0:0:0:0:
256,192,43371,128,0,43585:0:0:0:0:
475,192,43478,1,0,0:0:0:0:
475,192,43585,1,0,0:0:0:0:
36,192,43585,1,0,0:0:0:0:
109,192,43585,1,0,0:0:0:0:
329,192,43692,1,0,0:0:0:0:
256,192,43800,128,0,44014:0:0:0:0:
475,192,43800,1,0,0:0:0:0:
36,192,44014,1,0,0:0:0:0:
109,192,44014,1,0,0:0:0:0:
475,192,44014,1,0,0:0:0:0:
329,192,44121,1,0,0:0:0:0:
256,192,44228,128,0,44442:0:0:0:0:
475,192,44335,1,0,0:0:0:0:
475,192,44442,1,0,0:0:0:0:
36,192,44442,1,0,0:0:0:0:
109,192,44442,1,0,0:0:0:0:
329,192,44550,1,0,0:0:0:0:
256,192,44657,128,0,44871:0:0:0:0:
475,192,44657,1,0,0:0:0:0:
36,192,44871,1,0,0:0:0:0:
109,192,44871,1,0,0:0:0:0:
475,192,44871,1,0,0:0:0:0:
329,192,44978,1,0,0:0:0:0:
256,192,45085,128,0,45300:0:0:0:0:
475,192,45192,1,0,0:0:0:0:
36,192,45300,1,0,0:0:0:0:
109,192,45300,1,0,0:0:0:0:
475,192,45300,1,0,0:0:0:0:
329,192,45407,1,0,0:0:0:0:
402,192,45514,128,0,45835:0:0:0:0:
475,192,45514,1,0,0:0:0:0:
36,192,45835,128,0,45942:0:0:0:0:
256,192,45835,128,0,45942:0:0:0:0:
109,192,45835,1,0,0:0:0:0:
329,192,45835,1,0,0:0:0:0:
182,192,45942,1,0,0:0:0:0:
475,192,45942,1,0,0:0:0:0:
329,192,46050,1,0,0:0:0:0:
109,192,46050,1,0,0:0:0:0:
36,192,46050,128,0,46157:0:0:0:0:
256,192,46050,128,0,46157:0:0:0:0:
182,192,46157,1,0,0:0:0:0:
475,192,46157,1,0,0:0:0:0:
109,192,46264,1,0,0:0:0:0:
329,192,46264,1,0,0:0:0:0:
36,192,46264,128,0,46371:0:0:0:0:
256,192,46264,128,0,46371:0:0:0:0:
182,192,46371,1,0,0:0:0:0:
475,192,46371,1,0,0:0:0:0:
109,192,46478,1,0,0:0:0:0:
329,192,46478,1,0,0:0:0:0:
36,192,46478,128,0,46585:0:0:0:0:
256,192,46478,128,0,46585:0:0:0:0:
182,192,46585,1,0,0:0:0:0:
475,192,46585,1,0,0:0:0:0:
256,192,46692,128,0,46800:0:0:0:0:
36,192,46692,128,0,46800:0:0:0:0:
109,192,46692,1,0,0:0:0:0:
329,192,46692,1,0,0:0:0:0:
182,192,46800,1,0,0:0:0:0:
475,192,46800,1,0,0:0:0:0:
329,192,46907,128,0,47228:0:0:0:0:
402,192,46907,128,0,47228:0:0:0:0:
109,192,46907,1,0,0:0:0:0:
256,192,46907,1,0,0:0:0:0:
36,192,47014,1,0,0:0:0:0:
182,192,47014,1,0,0:0:0:0:
109,192,47121,1,0,0:0:0:0:
256,192,47121,1,0,0:0:0:0:
182,192,47228,1,0,0:0:0:0:
36,192,47228,1,0,0:0:0:0:
182,192,47550,1,0,0:0:0:0:
475,192,47550,1,0,0:0:0:0:
256,192,47550,128,0,47657:0:0:0:0:
36,192,47550,128,0,47657:0:0:0:0:
109,192,47657,1,0,0:0:0:0:
329,192,47657,1,0,0:0:0:0:
182,192,47764,1,0,0:0:0:0:
475,192,47764,1,0,0:0:0:0:
256,192,47764,128,0,47871:0:0:0:0:
36,192,47764,128,0,47871:0:0:0:0:
109,192,47871,1,0,0:0:0:0:
329,192,47871,1,0,0:0:0:0:
182,192,47978,1,0,0:0:0:0:
475,192,47978,1,0,0:0:0:0:
256,192,47978,128,0,48085:0:0:0:0:
36,192,47978,128,0,48085:0:0:0:0:
109,192,48085,1,0,0:0:0:0:
329,192,48085,1,0,0:0:0:0:
256,192,48192,128,0,48300:0:0:0:0:
36,192,48192,128,0,48300:0:0:0:0:
182,192,48192,1,0,0:0:0:0:
475,192,48192,1,0,0:0:0:0:
109,192,48300,1,0,0:0:0:0:
329,192,48300,1,0,0:0:0:0:
182,192,48407,1,0,0:0:0:0:
475,192,48407,1,0,0:0:0:0:
36,192,48407,128,0,48514:0:0:0:0:
256,192,48407,128,0,48514:0:0:0:0:
109,192,48514,1,0,0:0:0:0:
329,192,48514,1,0,0:0:0:0:
402,192,48621,128,0,48942:0:0:0:0:
256,192,48621,1,0,0:0:0:0:
182,192,48621,1,0,0:0:0:0:
475,192,48621,128,0,48942:0:0:0:0:
109,192,48728,1,0,0:0:0:0:
182,192,48728,1,0,0:0:0:0:
36,192,48835,1,0,0:0:0:0:
109,192,48835,1,0,0:0:0:0:
36,192,48942,1,0,0:0:0:0:
256,192,48942,128,0,49157:0:0:0:0:
475,192,49157,1,0,0:0:0:0:
402,192,49157,1,0,0:0:0:0:
182,192,49157,1,0,0:0:0:0:
36,192,49264,1,0,0:0:0:0:
256,192,49371,128,0,49585:0:0:0:0:
36,192,49478,1,0,0:0:0:0:
402,192,49585,1,0,0:0:0:0:
475,192,49585,1,0,0:0:0:0:
36,192,49585,1,0,0:0:0:0:
182,192,49692,1,0,0:0:0:0:
256,192,49800,128,0,50014:0:0:0:0:
36,192,49800,1,0,0:0:0:0:
182,192,50014,1,0,0:0:0:0:
402,192,50014,1,0,0:0:0:0:
475,192,50014,1,0,0:0:0:0:
36,192,50121,1,0,0:0:0:0:
256,192,50228,128,0,50442:0:0:0:0:
36,192,50335,1,0,0:0:0:0:
475,192,50442,1,0,0:0:0:0:
402,192,50442,1,0,0:0:0:0:
36,192,50442,1,0,0:0:0:0:
182,192,50550,1,0,0:0:0:0:
256,192,50657,128,0,50871:0:0:0:0:
36,192,50657,1,0,0:0:0:0:
475,192,50871,1,0,0:0:0:0:
402,192,50871,1,0,0:0:0:0:
36,192,50871,1,0,0:0:0:0:
182,192,50978,1,0,0:0:0:0:
256,192,51085,128,0,51300:0:0:0:0:
36,192,51192,1,0,0:0:0:0:
402,192,51300,1,0,0:0:0:0:
36,192,51300,1,0,0:0:0:0:
475,192,51300,1,0,0:0:0:0:
182,192,51407,1,0,0:0:0:0:
256,192,51514,128,0,51728:0:0:0:0:
36,192,51514,1,0,0:0:0:0:
475,192,51728,1,0,0:0:0:0:
402,192,51728,1,0,0:0:0:0:
36,192,51728,1,0,0:0:0:0:
182,192,51835,1,0,0:0:0:0:
256,192,51942,128,0,52157:0:0:0:0:
36,192,52050,1,0,0:0:0:0:
475,192,52157,1,0,0:0:0:0:
402,192,52157,1,0,0:0:0:0:
36,192,52157,1,0,0:0:0:0:
182,192,52264,1,0,0:0:0:0:
109,192,52371,128,0,52692:0:0:0:0:
36,192,52371,1,0,0:0:0:0:
182,192,52692,1,0,0:0:0:0:
475,192,52692,128,0,52800:0:0:0:0:
256,192,52692,128,0,52800:0:0:0:0:
402,192,52692,1,0,0:0:0:0:
329,192,52800,1,0,0:0:0:0:
36,192,52800,1,0,0:0:0:0:
402,192,52907,1,0,0:0:0:0:
182,192,52907,1,0,0:0:0:0:
475,192,52907,128,0,53014:0:0:0:0:
256,192,52907,128,0,53014:0:0:0:0:
36,192,53014,1,0,0:0:0:0:
329,192,53014,1,0,0:0:0:0:
182,192,53121,1,0,0:0:0:0:
402,192,53121,1,0,0:0:0:0:
475,192,53121,128,0,53228:0:0:0:0:
256,192,53121,128,0,53228:0:0:0:0:
329,192,53228,1,0,0:0:0:0:
36,192,53228,1,0,0:0:0:0:
402,192,53335,1,0,0:0:0:0:
182,192,53335,1,0,0:0:0:0:
475,192,53335,128,0,53442:0:0:0:0:
256,192,53335,128,0,53442:0:0:0:0:
329,192,53442,1,0,0:0:0:0:
36,192,53442,1,0,0:0:0:0:
402,192,53550,1,0,0:0:0:0:
182,192,53550,1,0,0:0:0:0:
256,192,53550,128,0,53657:0:0:0:0:
475,192,53550,128,0,53657:0:0:0:0:
36,192,53657,1,0,0:0:0:0:
329,192,53657,1,0,0:0:0:0:
402,192,53764,1,0,0:0:0:0:
256,192,53764,1,0,0:0:0:0:
182,192,53764,128,0,54085:0:0:0:0:
109,192,53764,128,0,54085:0:0:0:0:
475,192,53871,1,0,0:0:0:0:
329,192,53871,1,0,0:0:0:0:
402,192,53978,1,0,0:0:0:0:
256,192,53978,1,0,0:0:0:0:
475,192,54085,1,0,0:0:0:0:
329,192,54085,1,0,0:0:0:0:
329,192,54407,1,0,0:0:0:0:
36,192,54407,1,0,0:0:0:0:
256,192,54407,128,0,54514:0:0:0:0:
475,192,54407,128,0,54514:0:0:0:0:
402,192,54514,1,0,0:0:0:0:
182,192,54514,1,0,0:0:0:0:
36,192,54621,1,0,0:0:0:0:
329,192,54621,1,0,0:0:0:0:
256,192,54621,128,0,54728:0:0:0:0:
475,192,54621,128,0,54728:0:0:0:0:
402,192,54728,1,0,0:0:0:0:
182,192,54728,1,0,0:0:0:0:
329,192,54835,1,0,0:0:0:0:
36,192,54835,1,0,0:0:0:0:
475,192,54835,128,0,54942:0:0:0:0:
256,192,54835,128,0,54942:0:0:0:0:
402,192,54942,1,0,0:0:0:0:
182,192,54942,1,0,0:0:0:0:
36,192,55050,1,0,0:0:0:0:
256,192,55050,128,0,55157:0:0:0:0:
475,192,55050,128,0,55157:0:0:0:0:
329,192,55050,1,0,0:0:0:0:
182,192,55157,1,0,0:0:0:0:
402,192,55157,1,0,0:0:0:0:
329,192,55264,1,0,0:0:0:0:
36,192,55264,1,0,0:0:0:0:
475,192,55264,128,0,55371:0:0:0:0:
256,192,55264,128,0,55371:0:0:0:0:
182,192,55371,1,0,0:0:0:0:
402,192,55371,1,0,0:0:0:0:
109,192,55478,128,0,55800:0:0:0:0:
36,192,55478,128,0,55800:0:0:0:0:
256,192,55478,1,0,0:0:0:0:
182,192,55478,1,0,0:0:0:0:
256,192,55585,1,0,0:0:0:0:
329,192,55585,1,0,0:0:0:0:
402,192,55692,1,0,0:0:0:0:
329,192,55692,1,0,0:0:0:0:
402,192,55800,1,0,0:0:0:0:
475,192,55800,1,0,0:0:0:0:
329,192,55907,128,0,59228:0:0:0:0:
182,192,55907,128,0,59228:0:0:0:0:
256,192,55907,1,0,0:0:0:0:
475,192,56121,1,0,0:0:0:0:
402,192,56228,1,0,0:0:0:0:
36,192,56335,1,0,0:0:0:0:
475,192,56442,1,0,0:0:0:0:
402,192,56550,1,0,0:0:0:0:
109,192,56657,1,0,0:0:0:0:
256,192,56764,1,0,0:0:0:0:
475,192,56978,1,0,0:0:0:0:
402,192,57085,1,0,0:0:0:0:
36,192,57192,1,0,0:0:0:0:
475,192,57300,1,0,0:0:0:0:
402,192,57407,1,0,0:0:0:0:
109,192,57514,1,0,0:0:0:0:
256,192,57621,1,0,0:0:0:0:
475,192,57835,1,0,0:0:0:0:
402,192,57942,1,0,0:0:0:0:
36,192,58050,1,0,0:0:0:0:
475,192,58157,1,0,0:0:0:0:
402,192,58264,1,0,0:0:0:0:
109,192,58371,1,0,0:0:0:0:
256,192,58478,1,0,0:0:0:0:
475,192,58692,1,0,0:0:0:0:
402,192,58800,1,0,0:0:0:0:
36,192,58907,1,0,0:0:0:0:
475,192,59014,1,0,0:0:0:0:
402,192,59121,1,0,0:0:0:0:
109,192,59228,128,0,59550:0:0:0:0:
475,192,59550,128,0,59657:0:0:0:0:
182,192,59550,1,0,0:0:0:0:
256,192,59550,128,0,59657:0:0:0:0:
402,192,59550,1,0,0:0:0:0:
36,192,59657,1,0,0:0:0:0:
329,192,59657,1,0,0:0:0:0:
402,192,59764,1,0,0:0:0:0:
256,192,59764,128,0,59871:0:0:0:0:
182,192,59764,1,0,0:0:0:0:
475,192,59764,128,0,59871:0:0:0:0:
329,192,59871,1,0,0:0:0:0:
36,192,59871,1,0,0:0:0:0:
256,192,59978,128,0,60085:0:0:0:0:
402,192,59978,1,0,0:0:0:0:
182,192,59978,1,0,0:0:0:0:
475,192,59978,128,0,60085:0:0:0:0:
36,192,60085,1,0,0:0:0:0:
329,192,60085,1,0,0:0:0:0:
402,192,60192,1,0,0:0:0:0:
182,192,60192,1,0,0:0:0:0:
475,192,60192,128,0,60300:0:0:0:0:
256,192,60192,128,0,60300:0:0:0:0:
329,192,60300,1,0,0:0:0:0:
36,192,60300,1,0,0:0:0:0:
182,192,60407,1,0,0:0:0:0:
256,192,60407,128,0,60514:0:0:0:0:
402,192,60407,1,0,0:0:0:0:
475,192,60407,128,0,60514:0:0:0:0:
36,192,60514,1,0,0:0:0:0:
329,192,60514,1,0,0:0:0:0:
402,192,60621,1,0,0:0:0:0:
256,192,60621,1,0,0:0:0:0:
182,192,60621,128,0,60942:0:0:0:0:
109,192,60621,128,0,60942:0:0:0:0:
475,192,60728,1,0,0:0:0:0:
329,192,60728,1,0,0:0:0:0:
256,192,60835,1,0,0:0:0:0:
402,192,60835,1,0,0:0:0:0:
329,192,60942,1,0,0:0:0:0:
475,192,60942,1,0,0:0:0:0:
256,192,61264,128,0,61371:0:0:0:0:
329,192,61264,1,0,0:0:0:0:
475,192,61264,128,0,61371:0:0:0:0:
36,192,61264,1,0,0:0:0:0:
402,192,61371,1,0,0:0:0:0:
182,192,61371,1,0,0:0:0:0:
36,192,61478,1,0,0:0:0:0:
329,192,61478,1,0,0:0:0:0:
256,192,61478,128,0,61585:0:0:0:0:
475,192,61478,128,0,61585:0:0:0:0:
402,192,61585,1,0,0:0:0:0:
182,192,61585,1,0,0:0:0:0:
329,192,61692,1,0,0:0:0:0:
36,192,61692,1,0,0:0:0:0:
475,192,61692,128,0,61800:0:0:0:0:
256,192,61692,128,0,61800:0:0:0:0:
402,192,61800,1,0,0:0:0:0:
182,192,61800,1,0,0:0:0:0:
36,192,61907,1,0,0:0:0:0:
256,192,61907,128,0,62014:0:0:0:0:
475,192,61907,128,0,62014:0:0:0:0:
329,192,61907,1,0,0:0:0:0:
182,192,62014,1,0,0:0:0:0:
402,192,62014,1,0,0:0:0:0:
329,192,62121,1,0,0:0:0:0:
36,192,62121,1,0,0:0:0:0:
475,192,62121,128,0,62228:0:0:0:0:
256,192,62121,128,0,62228:0:0:0:0:
182,192,62228,1,0,0:0:0:0:
402,192,62228,1,0,0:0:0:0:
109,192,62335,128,0,62657:0:0:0:0:
36,192,62335,128,0,62657:0:0:0:0:
256,192,62335,1,0,0:0:0:0:
182,192,62335,1,0,0:0:0:0:
256,192,62442,1,0,0:0:0:0:
329,192,62442,1,0,0:0:0:0:
402,192,62550,1,0,0:0:0:0:
329,192,62550,1,0,0:0:0:0:
402,192,62657,1,0,0:0:0:0:
475,192,62657,1,0,0:0:0:0:
329,192,62764,128,0,66192:0:0:0:0:
182,192,62764,128,0,66192:0:0:0:0:
256,192,62764,1,0,0:0:0:0:
475,192,62978,1,0,0:0:0:0:
402,192,63085,1,0,0:0:0:0:
36,192,63192,1,0,0:0:0:0:
475,192,63300,1,0,0:0:0:0:
402,192,63407,1,0,0:0:0:0:
109,192,63514,1,0,0:0:0:0:
256,192,63621,1,0,0:0:0:0:
475,192,63835,1,0,0:0:0:0:
402,192,63942,1,0,0:0:0:0:
36,192,64050,1,0,0:0:0:0:
475,192,64157,1,0,0:0:0:0:
402,192,64264,1,0,0:0:0:0:
109,192,64371,1,0,0:0:0:0:
256,192,64478,1,0,0:0:0:0:
475,192,64692,1,0,0:0:0:0:
402,192,64800,1,0,0:0:0:0:
36,192,64907,1,0,0:0:0:0:
475,192,65014,1,0,0:0:0:0:
402,192,65121,1,0,0:0:0:0:
109,192,65228,1,0,0:0:0:0:
256,192,65335,1,0,0:0:0:0:
475,192,65550,1,0,0:0:0:0:
402,192,65657,1,0,0:0:0:0:
36,192,65764,1,0,0:0:0:0:
475,192,65871,1,0,0:0:0:0:
402,192,65978,1,0,0:0:0:0:
109,192,66085,1,0,0:0:0:0:
256,192,66192,1,0,0:0:0:0:
36,192,66192,1,0,0:0:0:0:
402,192,66192,1,0,0:0:0:0:
36,192,66407,1,0,0:0:0:0:
182,192,66407,1,0,0:0:0:0:
329,192,66407,1,0,0:0:0:0:
475,192,66621,1,0,0:0:0:0:
109,192,66621,1,0,0:0:0:0:
329,192,66621,1,0,0:0:0:0:
402,192,66835,1,0,0:0:0:0:
36,192,66835,1,0,0:0:0:0:
256,192,66835,1,0,0:0:0:0:
475,192,67050,1,0,0:0:0:0:
182,192,67050,1,0,0:0:0:0:
329,192,67050,1,0,0:0:0:0:
36,192,67050,1,0,0:0:0:0:
475,192,67264,1,0,0:0:0:0:
329,192,67264,1,0,0:0:0:0:
256,192,67264,1,0,0:0:0:0:
109,192,67264,1,0,0:0:0:0:
475,192,67478,1,0,0:0:0:0:
329,192,67478,1,0,0:0:0:0:
36,192,67478,1,0,0:0:0:0:
182,192,67478,1,0,0:0:0:0:
475,192,67692,1,0,0:0:0:0:
329,192,67692,1,0,0:0:0:0:
182,192,67692,1,0,0:0:0:0:
256,192,67692,1,0,0:0:0:0:
475,192,67907,1,0,0:0:0:0:
36,192,67907,1,0,0:0:0:0:
109,192,67907,1,0,0:0:0:0:
182,192,67907,1,0,0:0:0:0:
329,192,67907,1,0,0:0:0:0:
402,192,68014,1,0,0:0:0:0:
256,192,68014,1,0,0:0:0:0:
329,192,68121,1,0,0:0:0:0:
36,192,68121,128,0,68335:0:0:0:0:
109,192,68121,128,0,68335:0:0:0:0:
182,192,68121,1,0,0:0:0:0:
475,192,68335,1,0,0:0:0:0:
329,192,68335,1,0,0:0:0:0:
402,192,68442,1,0,0:0:0:0:
256,192,68442,1,0,0:0:0:0:
329,192,68550,1,0,0:0:0:0:
36,192,68550,128,0,68871:0:0:0:0:
109,192,68550,128,0,68871:0:0:0:0:
182,192,68550,1,0,0:0:0:0:
36,192,68978,1,0,0:0:0:0:
109,192,68978,1,0,0:0:0:0:
256,192,69192,128,0,69621:0:0:0:0:
182,192,69192,128,0,69621:0:0:0:0:
329,192,69192,128,0,69621:0:0:0:0:
475,192,69621,1,0,0:0:0:0:
36,192,69621,1,0,0:0:0:0:
109,192,69621,1,0,0:0:0:0:
402,192,69621,128,0,70050:0:0:0:0:
182,192,69835,1,0,0:0:0:0:
256,192,69835,1,0,0:0:0:0:
329,192,70050,1,0,0:0:0:0:
475,192,70050,1,0,0:0:0:0:
109,192,70050,1,0,0:0:0:0:
36,192,70050,128,0,70478:0:0:0:0:
329,192,70264,1,0,0:0:0:0:
182,192,70264,1,0,0:0:0:0:
256,192,70264,1,0,0:0:0:0:
329,192,70371,1,0,0:0:0:0:
109,192,70478,1,0,0:0:0:0:
256,192,70478,1,0,0:0:0:0:
182,192,70478,1,0,0:0:0:0:
475,192,70478,128,0,70907:0:0:0:0:
402,192,70478,1,0,0:0:0:0:
402,192,70585,1,0,0:0:0:0:
329,192,70692,1,0,0:0:0:0:
109,192,70692,1,0,0:0:0:0:
182,192,70692,1,0,0:0:0:0:
329,192,70800,1,0,0:0:0:0:
256,192,70907,1,0,0:0:0:0:
36,192,70907,1,0,0:0:0:0:
109,192,70907,1,0,0:0:0:0:
182,192,70907,128,0,71335:0:0:0:0:
402,192,70907,1,0,0:0:0:0:
256,192,71014,1,0,0:0:0:0:
329,192,71121,1,0,0:0:0:0:
402,192,71121,1,0,0:0:0:0:
109,192,71335,1,0,0:0:0:0:
329,192,71335,1,0,0:0:0:0:
475,192,71335,1,0,0:0:0:0:
36,192,71335,128,0,71764:0:0:0:0:
182,192,71550,1,0,0:0:0:0:
256,192,71550,1,0,0:0:0:0:
109,192,71764,1,0,0:0:0:0:
256,192,71764,1,0,0:0:0:0:
402,192,71764,1,0,0:0:0:0:
329,192,71764,128,0,72192:0:0:0:0:
182,192,71978,1,0,0:0:0:0:
36,192,71978,1,0,0:0:0:0:
475,192,71978,1,0,0:0:0:0:
182,192,72085,1,0,0:0:0:0:
36,192,72192,1,0,0:0:0:0:
475,192,72192,1,0,0:0:0:0:
256,192,72192,1,0,0:0:0:0:
402,192,72192,128,0,72621:0:0:0:0:
109,192,72192,1,0,0:0:0:0:
109,192,72300,1,0,0:0:0:0:
182,192,72407,1,0,0:0:0:0:
36,192,72407,1,0,0:0:0:0:
475,192,72407,1,0,0:0:0:0:
182,192,72514,1,0,0:0:0:0:
256,192,72621,1,0,0:0:0:0:
475,192,72621,1,0,0:0:0:0:
329,192,72621,1,0,0:0:0:0:
36,192,72621,128,0,73050:0:0:0:0:
109,192,72621,1,0,0:0:0:0:
256,192,72728,1,0,0:0:0:0:
329,192,72835,1,0,0:0:0:0:
402,192,72835,1,0,0:0:0:0:
109,192,73050,1,0,0:0:0:0:
182,192,73050,1,0,0:0:0:0:
329,192,73050,1,0,0:0:0:0:
402,192,73050,128,0,73478:0:0:0:0:
182,192,73264,1,0,0:0:0:0:
256,192,73264,1,0,0:0:0:0:
256,192,73478,1,0,0:0:0:0:
475,192,73478,1,0,0:0:0:0:
36,192,73478,1,0,0:0:0:0:
109,192,73478,128,0,73907:0:0:0:0:
475,192,73692,1,0,0:0:0:0:
329,192,73692,1,0,0:0:0:0:
182,192,73692,1,0,0:0:0:0:
475,192,73800,1,0,0:0:0:0:
182,192,73907,1,0,0:0:0:0:
329,192,73907,1,0,0:0:0:0:
256,192,73907,1,0,0:0:0:0:
402,192,73907,128,0,74335:0:0:0:0:
36,192,73907,1,0,0:0:0:0:
36,192,74014,1,0,0:0:0:0:
109,192,74121,1,0,0:0:0:0:
256,192,74121,1,0,0:0:0:0:
329,192,74121,1,0,0:0:0:0:
109,192,74228,1,0,0:0:0:0:
329,192,74335,1,0,0:0:0:0:
475,192,74335,1,0,0:0:0:0:
182,192,74335,1,0,0:0:0:0:
36,192,74335,128,0,74764:0:0:0:0:
256,192,74335,1,0,0:0:0:0:
182,192,74442,1,0,0:0:0:0:
329,192,74550,1,0,0:0:0:0:
402,192,74550,1,0,0:0:0:0:
256,192,74764,1,0,0:0:0:0:
109,192,74764,1,0,0:0:0:0:
402,192,74764,1,0,0:0:0:0:
475,192,74764,128,0,75192:0:0:0:0:
182,192,74978,1,0,0:0:0:0:
256,192,74978,1,0,0:0:0:0:
182,192,75192,1,0,0:0:0:0:
36,192,75192,1,0,0:0:0:0:
329,192,75192,1,0,0:0:0:0:
402,192,75192,128,0,75621:0:0:0:0:
329,192,75407,1,0,0:0:0:0:
109,192,75407,1,0,0:0:0:0:
182,192,75407,1,0,0:0:0:0:
329,192,75514,1,0,0:0:0:0:
109,192,75621,1,0,0:0:0:0:
182,192,75621,1,0,0:0:0:0:
256,192,75621,1,0,0:0:0:0:
36,192,75621,128,0,76050:0:0:0:0:
475,192,75621,1,0,0:0:0:0:
475,192,75728,1,0,0:0:0:0:
402,192,75835,1,0,0:0:0:0:
182,192,75835,1,0,0:0:0:0:
256,192,75835,1,0,0:0:0:0:
402,192,75942,1,0,0:0:0:0:
182,192,76050,1,0,0:0:0:0:
329,192,76050,1,0,0:0:0:0:
256,192,76050,1,0,0:0:0:0:
475,192,76050,128,0,76478:0:0:0:0:
329,192,76157,1,0,0:0:0:0:
109,192,76264,1,0,0:0:0:0:
182,192,76264,1,0,0:0:0:0:
256,192,76478,1,0,0:0:0:0:
109,192,76478,1,0,0:0:0:0:
329,192,76478,1,0,0:0:0:0:
402,192,76478,128,0,76907:0:0:0:0:
109,192,76692,1,0,0:0:0:0:
182,192,76692,1,0,0:0:0:0:
182,192,76907,1,0,0:0:0:0:
329,192,76907,1,0,0:0:0:0:
36,192,76907,1,0,0:0:0:0:
256,192,76907,128,0,77335:0:0:0:0:
109,192,77121,1,0,0:0:0:0:
402,192,77121,1,0,0:0:0:0:
475,192,77121,1,0,0:0:0:0:
109,192,77228,1,0,0:0:0:0:
182,192,77335,1,0,0:0:0:0:
329,192,77335,1,0,0:0:0:0:
475,192,77335,1,0,0:0:0:0:
402,192,77335,128,0,77764:0:0:0:0:
36,192,77335,1,0,0:0:0:0:
36,192,77442,1,0,0:0:0:0:
109,192,77550,1,0,0:0:0:0:
256,192,77550,1,0,0:0:0:0:
329,192,77550,1,0,0:0:0:0:
109,192,77657,1,0,0:0:0:0:
182,192,77764,1,0,0:0:0:0:
256,192,77764,1,0,0:0:0:0:
329,192,77764,1,0,0:0:0:0:
475,192,77764,128,0,78192:0:0:0:0:
36,192,77764,1,0,0:0:0:0:
182,192,77871,1,0,0:0:0:0:
329,192,77978,1,0,0:0:0:0:
256,192,77978,1,0,0:0:0:0:
36,192,78192,1,0,0:0:0:0:
182,192,78192,1,0,0:0:0:0:
402,192,78192,1,0,0:0:0:0:
109,192,78192,128,0,78621:0:0:0:0:
256,192,78407,1,0,0:0:0:0:
329,192,78407,1,0,0:0:0:0:
402,192,78621,1,0,0:0:0:0:
256,192,78621,1,0,0:0:0:0:
329,192,78621,1,0,0:0:0:0:
36,192,78621,128,0,79050:0:0:0:0:
329,192,78835,1,0,0:0:0:0:
109,192,78835,1,0,0:0:0:0:
182,192,78835,1,0,0:0:0:0:
329,192,78942,1,0,0:0:0:0:
182,192,79050,1,0,0:0:0:0:
475,192,79050,1,0,0:0:0:0:
402,192,79050,1,0,0:0:0:0:
256,192,79050,128,0,79478:0:0:0:0:
109,192,79050,1,0,0:0:0:0:
402,192,79157,1,0,0:0:0:0:
329,192,79264,1,0,0:0:0:0:
109,192,79264,1,0,0:0:0:0:
36,192,79264,1,0,0:0:0:0:
329,192,79371,1,0,0:0:0:0:
36,192,79478,1,0,0:0:0:0:
109,192,79478,1,0,0:0:0:0:
402,192,79478,1,0,0:0:0:0:
475,192,79478,128,0,79907:0:0:0:0:
182,192,79478,1,0,0:0:0:0:
182,192,79585,1,0,0:0:0:0:
256,192,79692,1,0,0:0:0:0:
329,192,79692,1,0,0:0:0:0:
109,192,79907,1,0,0:0:0:0:
256,192,79907,1,0,0:0:0:0:
402,192,79907,1,0,0:0:0:0:
36,192,79907,128,0,80335:0:0:0:0:
182,192,80121,1,0,0:0:0:0:
256,192,80121,1,0,0:0:0:0:
182,192,80335,1,0,0:0:0:0:
256,192,80335,1,0,0:0:0:0:
329,192,80335,1,0,0:0:0:0:
475,192,80335,128,0,80764:0:0:0:0:
182,192,80550,1,0,0:0:0:0:
329,192,80550,1,0,0:0:0:0:
402,192,80550,1,0,0:0:0:0:
182,192,80657,1,0,0:0:0:0:
36,192,80764,1,0,0:0:0:0:
109,192,80764,1,0,0:0:0:0:
329,192,80764,1,0,0:0:0:0:
402,192,80764,128,0,81192:0:0:0:0:
256,192,80764,1,0,0:0:0:0:
256,192,80871,1,0,0:0:0:0:
182,192,80978,1,0,0:0:0:0:
36,192,80978,1,0,0:0:0:0:
109,192,80978,1,0,0:0:0:0:
182,192,81085,1,0,0:0:0:0:
475,192,81192,1,0,0:0:0:0:
256,192,81192,1,0,0:0:0:0:
36,192,81192,1,0,0:0:0:0:
329,192,81192,128,0,81621:0:0:0:0:
109,192,81192,1,0,0:0:0:0:
109,192,81300,1,0,0:0:0:0:
182,192,81407,1,0,0:0:0:0:
256,192,81407,1,0,0:0:0:0:
36,192,81621,1,0,0:0:0:0:
256,192,81621,1,0,0:0:0:0:
402,192,81621,1,0,0:0:0:0:
475,192,81621,128,0,81942:0:0:0:0:
182,192,81621,128,0,81942:0:0:0:0:
256,192,81942,1,0,0:0:0:0:
109,192,81942,1,0,0:0:0:0:
402,192,81942,1,0,0:0:0:0:
329,192,81942,128,0,82264:0:0:0:0:
36,192,81942,128,0,82264:0:0:0:0:
109,192,82264,1,0,0:0:0:0:
256,192,82264,1,0,0:0:0:0:
475,192,82264,1,0,0:0:0:0:
182,192,82264,128,0,82585:0:0:0:0:
402,192,82264,128,0,82585:0:0:0:0:
109,192,82692,1,0,0:0:0:0:
329,192,82692,1,0,0:0:0:0:
109,192,82800,1,0,0:0:0:0:
329,192,82800,1,0,0:0:0:0:
36,192,82907,1,0,0:0:0:0:
256,192,82907,1,0,0:0:0:0:
475,192,82907,1,0,0:0:0:0:
36,192,83014,1,0,0:0:0:0:
256,192,83014,1,0,0:0:0:0:
475,192,83014,1,0,0:0:0:0:
36,192,83121,1,0,0:0:0:0:
256,192,83121,1,0,0:0:0:0:
475,192,83121,1,0,0:0:0:0:
36,192,83228,1,0,0:0:0:0:
256,192,83228,1,0,0:0:0:0:
475,192,83228,1,0,0:0:0:0:
475,192,83335,1,0,0:0:0:0:
109,192,83335,1,0,0:0:0:0:
329,192,83335,1,0,0:0:0:0:
256,192,83442,1,0,0:0:0:0:
36,192,83442,1,0,0:0:0:0:
402,192,83550,1,0,0:0:0:0:
109,192,83550,1,0,0:0:0:0:
329,192,83550,1,0,0:0:0:0:
256,192,83657,1,0,0:0:0:0:
36,192,83657,1,0,0:0:0:0:
475,192,83764,1,0,0:0:0:0:
182,192,83764,1,0,0:0:0:0:
329,192,83764,1,0,0:0:0:0:
475,192,83871,1,0,0:0:0:0:
109,192,83871,1,0,0:0:0:0:
256,192,83871,1,0,0:0:0:0:
402,192,83978,1,0,0:0:0:0:
36,192,83978,1,0,0:0:0:0:
182,192,83978,1,0,0:0:0:0:
475,192,84085,1,0,0:0:0:0:
109,192,84085,1,0,0:0:0:0:
329,192,84085,1,0,0:0:0:0:
256,192,84192,1,0,0:0:0:0:
182,192,84192,1,0,0:0:0:0:
475,192,84300,1,0,0:0:0:0:
36,192,84300,1,0,0:0:0:0:
109,192,84300,1,0,0:0:0:0:
402,192,84407,1,0,0:0:0:0:
256,192,84407,1,0,0:0:0:0:
182,192,84407,1,0,0:0:0:0:
329,192,84514,1,0,0:0:0:0:
109,192,84514,1,0,0:0:0:0:
475,192,84621,1,0,0:0:0:0:
182,192,84621,1,0,0:0:0:0:
36,192,84621,1,0,0:0:0:0:
475,192,84728,1,0,0:0:0:0:
256,192,84728,1,0,0:0:0:0:
109,192,84728,1,0,0:0:0:0:
402,192,84835,1,0,0:0:0:0:
329,192,84835,1,0,0:0:0:0:
182,192,84835,1,0,0:0:0:0:
256,192,84942,1,0,0:0:0:0:
109,192,84942,1,0,0:0:0:0:
475,192,85050,1,0,0:0:0:0:
329,192,85050,1,0,0:0:0:0:
182,192,85050,1,0,0:0:0:0:
36,192,85157,1,0,0:0:0:0:
256,192,85157,1,0,0:0:0:0:
402,192,85264,1,0,0:0:0:0:
109,192,85264,1,0,0:0:0:0:
182,192,85264,1,0,0:0:0:0:
329,192,85371,1,0,0:0:0:0:
36,192,85371,1,0,0:0:0:0:
475,192,85478,1,0,0:0:0:0:
182,192,85478,1,0,0:0:0:0:
256,192,85478,1,0,0:0:0:0:
475,192,85585,1,0,0:0:0:0:
109,192,85585,1,0,0:0:0:0:
329,192,85585,1,0,0:0:0:0:
402,192,85692,1,0,0:0:0:0:
36,192,85692,1,0,0:0:0:0:
182,192,85692,1,0,0:0:0:0:
475,192,85800,1,0,0:0:0:0:
109,192,85800,1,0,0:0:0:0:
256,192,85800,1,0,0:0:0:0:
182,192,85907,1,0,0:0:0:0:
329,192,85907,1,0,0:0:0:0:
475,192,86014,1,0,0:0:0:0:
109,192,86014,1,0,0:0:0:0:
256,192,86014,1,0,0:0:0:0:
402,192,86121,1,0,0:0:0:0:
36,192,86121,1,0,0:0:0:0:
182,192,86121,1,0,0:0:0:0:
329,192,86228,1,0,0:0:0:0:
109,192,86228,1,0,0:0:0:0:
475,192,86335,1,0,0:0:0:0:
256,192,86335,1,0,0:0:0:0:
36,192,86335,1,0,0:0:0:0:
475,192,86442,1,0,0:0:0:0:
182,192,86442,1,0,0:0:0:0:
329,192,86442,1,0,0:0:0:0:
402,192,86550,1,0,0:0:0:0:
109,192,86550,1,0,0:0:0:0:
256,192,86550,1,0,0:0:0:0:
36,192,86657,1,0,0:0:0:0:
182,192,86657,1,0,0:0:0:0:
475,192,86764,1,0,0:0:0:0:
329,192,86764,1,0,0:0:0:0:
109,192,86764,1,0,0:0:0:0:
256,192,86871,1,0,0:0:0:0:
36,192,86871,1,0,0:0:0:0:
402,192,86978,1,0,0:0:0:0:
182,192,86978,1,0,0:0:0:0:
109,192,86978,1,0,0:0:0:0:
329,192,87085,1,0,0:0:0:0:
256,192,87085,1,0,0:0:0:0:
475,192,87192,1,0,0:0:0:0:
36,192,87192,1,0,0:0:0:0:
109,192,87192,1,0,0:0:0:0:
475,192,87300,1,0,0:0:0:0:
182,192,87300,1,0,0:0:0:0:
256,192,87300,1,0,0:0:0:0:
402,192,87407,1,0,0:0:0:0:
109,192,87407,1,0,0:0:0:0:
329,192,87407,1,0,0:0:0:0:
475,192,87514,1,0,0:0:0:0:
256,192,87514,1,0,0:0:0:0:
36,192,87514,1,0,0:0:0:0:
109,192,87621,1,0,0:0:0:0:
182,192,87621,1,0,0:0:0:0:
475,192,87728,1,0,0:0:0:0:
329,192,87728,1,0,0:0:0:0:
36,192,87728,1,0,0:0:0:0:
402,192,87835,1,0,0:0:0:0:
109,192,87835,1,0,0:0:0:0:
256,192,87835,1,0,0:0:0:0:
36,192,87942,1,0,0:0:0:0:
329,192,87942,1,0,0:0:0:0:
475,192,88050,1,0,0:0:0:0:
109,192,88050,1,0,0:0:0:0:
182,192,88050,1,0,0:0:0:0:
475,192,88157,1,0,0:0:0:0:
256,192,88157,1,0,0:0:0:0:
36,192,88157,1,0,0:0:0:0:
402,192,88264,1,0,0:0:0:0:
109,192,88264,1,0,0:0:0:0:
329,192,88264,1,0,0:0:0:0:
182,192,88371,1,0,0:0:0:0:
256,192,88371,1,0,0:0:0:0:
475,192,88478,1,0,0:0:0:0:
109,192,88478,1,0,0:0:0:0:
329,192,88478,1,0,0:0:0:0:
36,192,88585,1,0,0:0:0:0:
256,192,88585,1,0,0:0:0:0:
402,192,88692,1,0,0:0:0:0:
109,192,88692,1,0,0:0:0:0:
182,192,88692,1,0,0:0:0:0:
256,192,88800,1,0,0:0:0:0:
36,192,88800,1,0,0:0:0:0:
475,192,88907,1,0,0:0:0:0:
329,192,88907,1,0,0:0:0:0:
109,192,88907,1,0,0:0:0:0:
475,192,89014,1,0,0:0:0:0:
256,192,89014,1,0,0:0:0:0:
182,192,89014,1,0,0:0:0:0:
402,192,89121,1,0,0:0:0:0:
36,192,89121,1,0,0:0:0:0:
109,192,89121,1,0,0:0:0:0:
475,192,89228,1,0,0:0:0:0:
329,192,89228,1,0,0:0:0:0:
182,192,89228,1,0,0:0:0:0:
256,192,89335,1,0,0:0:0:0:
109,192,89335,1,0,0:0:0:0:
475,192,89442,1,0,0:0:0:0:
182,192,89442,1,0,0:0:0:0:
36,192,89442,1,0,0:0:0:0:
402,192,89550,1,0,0:0:0:0:
109,192,89550,1,0,0:0:0:0:
256,192,89550,1,0,0:0:0:0:
182,192,89657,1,0,0:0:0:0:
329,192,89657,1,0,0:0:0:0:
475,192,89764,1,0,0:0:0:0:
109,192,89764,1,0,0:0:0:0:
256,192,89764,1,0,0:0:0:0:
475,192,89871,1,0,0:0:0:0:
182,192,89871,1,0,0:0:0:0:
36,192,89871,1,0,0:0:0:0:
402,192,89978,1,0,0:0:0:0:
109,192,89978,1,0,0:0:0:0:
256,192,89978,1,0,0:0:0:0:
182,192,90085,1,0,0:0:0:0:
329,192,90085,1,0,0:0:0:0:
475,192,90192,1,0,0:0:0:0:
256,192,90192,1,0,0:0:0:0:
109,192,90192,1,0,0:0:0:0:
36,192,90300,1,0,0:0:0:0:
182,192,90300,1,0,0:0:0:0:
402,192,90407,1,0,0:0:0:0:
109,192,90407,1,0,0:0:0:0:
256,192,90407,1,0,0:0:0:0:
182,192,90514,1,0,0:0:0:0:
329,192,90514,1,0,0:0:0:0:
475,192,90621,1,0,0:0:0:0:
256,192,90621,1,0,0:0:0:0:
109,192,90621,1,0,0:0:0:0:
475,192,90728,1,0,0:0:0:0:
36,192,90728,1,0,0:0:0:0:
182,192,90728,1,0,0:0:0:0:
402,192,90835,1,0,0:0:0:0:
256,192,90835,1,0,0:0:0:0:
329,192,90835,1,0,0:0:0:0:
475,192,90942,1,0,0:0:0:0:
109,192,90942,1,0,0:0:0:0:
182,192,90942,1,0,0:0:0:0:
256,192,91050,1,0,0:0:0:0:
329,192,91050,1,0,0:0:0:0:
475,192,91157,1,0,0:0:0:0:
109,192,91157,1,0,0:0:0:0:
182,192,91157,1,0,0:0:0:0:
402,192,91264,1,0,0:0:0:0:
36,192,91264,1,0,0:0:0:0:
256,192,91264,1,0,0:0:0:0:
109,192,91371,1,0,0:0:0:0:
182,192,91371,1,0,0:0:0:0:
475,192,91478,1,0,0:0:0:0:
36,192,91478,1,0,0:0:0:0:
256,192,91478,1,0,0:0:0:0:
475,192,91585,1,0,0:0:0:0:
109,192,91585,1,0,0:0:0:0:
182,192,91585,1,0,0:0:0:0:
402,192,91692,1,0,0:0:0:0:
36,192,91692,1,0,0:0:0:0:
256,192,91692,1,0,0:0:0:0:
109,192,91800,1,0,0:0:0:0:
329,192,91800,1,0,0:0:0:0:
475,192,91907,1,0,0:0:0:0:
182,192,91907,1,0,0:0:0:0:
256,192,91907,1,0,0:0:0:0:
36,192,92014,1,0,0:0:0:0:
329,192,92014,1,0,0:0:0:0:
402,192,92121,1,0,0:0:0:0:
109,192,92121,1,0,0:0:0:0:
182,192,92121,1,0,0:0:0:0:
256,192,92228,1,0,0:0:0:0:
329,192,92228,1,0,0:0:0:0:
475,192,92335,1,0,0:0:0:0:
36,192,92335,1,0,0:0:0:0:
182,192,92335,1,0,0:0:0:0:
475,192,92442,1,0,0:0:0:0:
109,192,92442,1,0,0:0:0:0:
256,192,92442,1,0,0:0:0:0:
402,192,92550,1,0,0:0:0:0:
36,192,92550,1,0,0:0:0:0:
182,192,92550,1,0,0:0:0:0:
475,192,92657,1,0,0:0:0:0:
109,192,92657,1,0,0:0:0:0:
329,192,92657,1,0,0:0:0:0:
36,192,92764,1,0,0:0:0:0:
256,192,92764,1,0,0:0:0:0:
475,192,92871,1,0,0:0:0:0:
182,192,92871,1,0,0:0:0:0:
329,192,92871,1,0,0:0:0:0:
402,192,92978,1,0,0:0:0:0:
36,192,92978,1,0,0:0:0:0:
109,192,92978,1,0,0:0:0:0:
256,192,93085,1,0,0:0:0:0:
182,192,93085,1,0,0:0:0:0:
475,192,93192,1,0,0:0:0:0:
36,192,93192,1,0,0:0:0:0:
109,192,93192,1,0,0:0:0:0:
475,192,93300,1,0,0:0:0:0:
329,192,93300,1,0,0:0:0:0:
182,192,93300,1,0,0:0:0:0:
402,192,93407,1,0,0:0:0:0:
109,192,93407,1,0,0:0:0:0:
256,192,93407,1,0,0:0:0:0:
36,192,93407,1,0,0:0:0:0:
182,192,93514,1,0,0:0:0:0:
329,192,93514,1,0,0:0:0:0:
475,192,93621,1,0,0:0:0:0:
109,192,93621,1,0,0:0:0:0:
256,192,93621,1,0,0:0:0:0:
182,192,93728,1,0,0:0:0:0:
329,192,93728,1,0,0:0:0:0:
402,192,93835,1,0,0:0:0:0:
36,192,93835,1,0,0:0:0:0:
109,192,93835,1,0,0:0:0:0:
182,192,93942,1,0,0:0:0:0:
256,192,93942,1,0,0:0:0:0:
475,192,94050,1,0,0:0:0:0:
36,192,94050,1,0,0:0:0:0:
109,192,94050,1,0,0:0:0:0:
475,192,94157,1,0,0:0:0:0:
182,192,94157,1,0,0:0:0:0:
329,192,94157,1,0,0:0:0:0:
402,192,94264,1,0,0:0:0:0:
36,192,94264,1,0,0:0:0:0:
109,192,94264,1,0,0:0:0:0:
329,192,94371,1,0,0:0:0:0:
475,192,94371,1,0,0:0:0:0:
182,192,94371,1,0,0:0:0:0:
256,192,94478,1,0,0:0:0:0:
109,192,94478,1,0,0:0:0:0:
475,192,94585,1,0,0:0:0:0:
182,192,94585,1,0,0:0:0:0:
329,192,94585,1,0,0:0:0:0:
402,192,94692,1,0,0:0:0:0:
36,192,94692,1,0,0:0:0:0:
109,192,94692,1,0,0:0:0:0:
182,192,94800,1,0,0:0:0:0:
256,192,94800,1,0,0:0:0:0:
475,192,94907,1,0,0:0:0:0:
36,192,94907,1,0,0:0:0:0:
109,192,94907,1,0,0:0:0:0:
475,192,95014,1,0,0:0:0:0:
182,192,95014,1,0,0:0:0:0:
329,192,95014,1,0,0:0:0:0:
402,192,95121,1,0,0:0:0:0:
36,192,95121,1,0,0:0:0:0:
109,192,95121,1,0,0:0:0:0:
329,192,95228,1,0,0:0:0:0:
182,192,95228,1,0,0:0:0:0:
475,192,95335,1,0,0:0:0:0:
256,192,95335,1,0,0:0:0:0:
109,192,95335,1,0,0:0:0:0:
475,192,95550,1,0,0:0:0:0:
36,192,95550,1,0,0:0:0:0:
256,192,95550,1,0,0:0:0:0:
475,192,95657,1,0,0:0:0:0:
36,192,95657,1,0,0:0:0:0:
256,192,95657,1,0,0:0:0:0:
475,192,95764,1,0,0:0:0:0:
36,192,95764,1,0,0:0:0:0:
256,192,95764,1,0,0:0:0:0:
475,192,95871,1,0,0:0:0:0:
36,192,95871,1,0,0:0:0:0:
256,192,95871,1,0,0:0:0:0:
475,192,95978,1,0,0:0:0:0:
36,192,95978,1,0,0:0:0:0:
256,192,95978,1,0,0:0:0:0:
475,192,96085,1,0,0:0:0:0:
36,192,96085,1,0,0:0:0:0:
256,192,96085,1,0,0:0:0:0:
402,192,96192,128,0,96621:0:0:0:0:
109,192,96192,128,0,96621:0:0:0:0:
