osu file format v14

[General]
AudioFilename: audio.mp3
AudioLeadIn: 0
PreviewTime: 96064
Countdown: 0
SampleSet: Normal
StackLeniency: 0.7
Mode: 3
LetterboxInBreaks: 0
SpecialStyle: 0
WidescreenStoryboard: 0

[Editor]
DistanceSpacing: 1
BeatDivisor: 2
GridSize: 4
TimelineZoom: 1.4

[Metadata]
Title:Otona no Omocha
TitleUnicode:オトナのオモチャ
Artist:Utsu-P feat. Kagamine Rin
ArtistUnicode:鬱P feat. 鏡音リン
Creator:Hlimak
Version:Adult's Toy
Source:
Tags:
BeatmapID:1651628
BeatmapSetID:786511

[Difficulty]
HPDrainRate:8.2
CircleSize:4
OverallDifficulty:9
ApproachRate:5
SliderMultiplier:1.4
SliderTickRate:1

[Events]
//Background and Video events
0,0,"bg.jpg",0,0
//Break Periods
//Storyboard Layer 0 (Background)
//Storyboard Layer 1 (Fail)
//Storyboard Layer 2 (Pass)
//Storyboard Layer 3 (Foreground)
//Storyboard Sound Samples

[TimingPoints]
10775,214.285714285714,4,1,0,30,1,0
185203,214.285714285714,4,1,0,30,1,0
188203,214.285714285714,4,1,0,30,1,0
191203,214.285714285714,4,1,0,30,1,0
194203,214.285714285714,4,1,0,30,1,0
197203,214.285714285714,4,1,0,30,1,0
200203,214.285714285714,4,1,0,30,1,0
203203,214.285714285714,4,1,0,30,1,0
206203,214.285714285714,4,1,0,30,1,0

[HitObjects]
192,192,10775,5,0,0:0:0:0:
192,192,11632,1,0,0:0:0:0:
192,192,12489,1,0,0:0:0:0:
192,192,12917,1,0,0:0:0:0:
192,192,13346,1,0,0:0:0:0:
192,192,13560,1,0,0:0:0:0:
192,192,13775,1,0,0:0:0:0:
192,192,13989,1,0,0:0:0:0:
64,192,14203,1,0,0:0:0:0:
192,192,14203,1,0,0:0:0:0:
320,192,14203,1,0,0:0:0:0:
448,192,14203,1,0,0:0:0:0:
448,192,14310,1,0,0:0:0:0:
192,192,14310,1,0,0:0:0:0:
192,192,14417,1,0,0:0:0:0:
64,192,14525,1,0,0:0:0:0:
192,192,14525,1,0,0:0:0:0:
320,192,14525,1,0,0:0:0:0:
448,192,14525,1,0,0:0:0:0:
448,192,14632,1,0,0:0:0:0:
448,192,14739,1,0,0:0:0:0:
320,192,14739,1,0,0:0:0:0:
192,192,14739,1,0,0:0:0:0:
64,192,14739,1,0,0:0:0:0:
64,192,14846,1,0,0:0:0:0:
192,192,14953,1,0,0:0:0:0:
64,192,14953,1,0,0:0:0:0:
320,192,14953,1,0,0:0:0:0:
320,192,15060,1,0,0:0:0:0:
320,192,15167,1,0,0:0:0:0:
448,192,15167,1,0,0:0:0:0:
192,192,15167,1,0,0:0:0:0:
64,192,15167,1,0,0:0:0:0:
192,192,15275,1,0,0:0:0:0:
64,192,15382,1,0,0:0:0:0:
320,192,15382,1,0,0:0:0:0:
192,192,15382,1,0,0:0:0:0:
448,192,15382,1,0,0:0:0:0:
320,192,15489,1,0,0:0:0:0:
448,192,15596,1,0,0:0:0:0:
320,192,15596,1,0,0:0:0:0:
192,192,15596,1,0,0:0:0:0:
64,192,15596,1,0,0:0:0:0:
64,192,15703,1,0,0:0:0:0:
192,192,15810,1,0,0:0:0:0:
448,192,15810,1,0,0:0:0:0:
320,192,15810,1,0,0:0:0:0:
64,192,15810,1,0,0:0:0:0:
320,192,15917,1,0,0:0:0:0:
320,192,16025,1,0,0:0:0:0:
448,192,16025,1,0,0:0:0:0:
192,192,16025,1,0,0:0:0:0:
64,192,16025,1,0,0:0:0:0:
448,192,16132,1,0,0:0:0:0:
320,192,16239,1,0,0:0:0:0:
448,192,16239,1,0,0:0:0:0:
64,192,16239,1,0,0:0:0:0:
192,192,16239,1,0,0:0:0:0:
64,192,16346,1,0,0:0:0:0:
64,192,16453,1,0,0:0:0:0:
192,192,16453,1,0,0:0:0:0:
320,192,16453,1,0,0:0:0:0:
448,192,16453,1,0,0:0:0:0:
320,192,16560,1,0,0:0:0:0:
320,192,16667,1,0,0:0:0:0:
448,192,16667,1,0,0:0:0:0:
192,192,16667,1,0,0:0:0:0:
64,192,16667,1,0,0:0:0:0:
448,192,16775,1,0,0:0:0:0:
448,192,16882,1,0,0:0:0:0:
320,192,16882,1,0,0:0:0:0:
192,192,16882,1,0,0:0:0:0:
64,192,16882,1,0,0:0:0:0:
64,192,16989,1,0,0:0:0:0:
64,192,17096,1,0,0:0:0:0:
192,192,17096,1,0,0:0:0:0:
320,192,17096,1,0,0:0:0:0:
448,192,17096,1,0,0:0:0:0:
320,192,17203,1,0,0:0:0:0:
320,192,17310,1,0,0:0:0:0:
448,192,17310,1,0,0:0:0:0:
192,192,17310,1,0,0:0:0:0:
64,192,17310,1,0,0:0:0:0:
192,192,17417,1,0,0:0:0:0:
192,192,17525,1,0,0:0:0:0:
64,192,17525,1,0,0:0:0:0:
448,192,17525,1,0,0:0:0:0:
448,192,17632,1,0,0:0:0:0:
192,192,17632,1,0,0:0:0:0:
64,192,17632,1,0,0:0:0:0:
192,192,17739,1,0,0:0:0:0:
320,192,17739,1,0,0:0:0:0:
448,192,17739,1,0,0:0:0:0:
448,192,17846,1,0,0:0:0:0:
448,192,17953,1,0,0:0:0:0:
320,192,17953,1,0,0:0:0:0:
192,192,17953,1,0,0:0:0:0:
64,192,17953,1,0,0:0:0:0:
192,192,18060,1,0,0:0:0:0:
192,192,18167,1,0,0:0:0:0:
64,192,18167,1,0,0:0:0:0:
320,192,18167,1,0,0:0:0:0:
448,192,18167,1,0,0:0:0:0:
320,192,18274,1,0,0:0:0:0:
320,192,18382,1,0,0:0:0:0:
192,192,18382,1,0,0:0:0:0:
64,192,18382,1,0,0:0:0:0:
448,192,18382,1,0,0:0:0:0:
192,192,18489,1,0,0:0:0:0:
192,192,18596,1,0,0:0:0:0:
64,192,18596,1,0,0:0:0:0:
320,192,18596,1,0,0:0:0:0:
448,192,18596,1,0,0:0:0:0:
448,192,18703,1,0,0:0:0:0:
448,192,18810,1,0,0:0:0:0:
320,192,18810,1,0,0:0:0:0:
192,192,18810,1,0,0:0:0:0:
64,192,18810,1,0,0:0:0:0:
64,192,18917,1,0,0:0:0:0:
64,192,19024,1,0,0:0:0:0:
192,192,19024,1,0,0:0:0:0:
448,192,19024,1,0,0:0:0:0:
320,192,19024,1,0,0:0:0:0:
320,192,19132,1,0,0:0:0:0:
320,192,19239,1,0,0:0:0:0:
448,192,19239,1,0,0:0:0:0:
192,192,19239,1,0,0:0:0:0:
64,192,19239,1,0,0:0:0:0:
192,192,19346,1,0,0:0:0:0:
192,192,19453,1,0,0:0:0:0:
64,192,19453,1,0,0:0:0:0:
320,192,19453,1,0,0:0:0:0:
448,192,19453,1,0,0:0:0:0:
448,192,19560,1,0,0:0:0:0:
448,192,19667,1,0,0:0:0:0:
320,192,19667,1,0,0:0:0:0:
192,192,19667,1,0,0:0:0:0:
64,192,19667,1,0,0:0:0:0:
192,192,19774,1,0,0:0:0:0:
192,192,19882,1,0,0:0:0:0:
64,192,19882,1,0,0:0:0:0:
320,192,19882,1,0,0:0:0:0:
448,192,19882,1,0,0:0:0:0:
448,192,19989,1,0,0:0:0:0:
320,192,20096,1,0,0:0:0:0:
448,192,20096,1,0,0:0:0:0:
192,192,20096,1,0,0:0:0:0:
64,192,20096,1,0,0:0:0:0:
64,192,20203,1,0,0:0:0:0:
64,192,20310,1,0,0:0:0:0:
320,192,20310,1,0,0:0:0:0:
192,192,20310,1,0,0:0:0:0:
448,192,20310,1,0,0:0:0:0:
320,192,20417,1,0,0:0:0:0:
320,192,20524,1,0,0:0:0:0:
448,192,20524,1,0,0:0:0:0:
192,192,20524,1,0,0:0:0:0:
64,192,20524,1,0,0:0:0:0:
448,192,20632,1,0,0:0:0:0:
448,192,20739,1,0,0:0:0:0:
320,192,20739,1,0,0:0:0:0:
192,192,20739,1,0,0:0:0:0:
64,192,20739,1,0,0:0:0:0:
192,192,20846,1,0,0:0:0:0:
192,192,20953,1,0,0:0:0:0:
320,192,20953,1,0,0:0:0:0:
448,192,20953,1,0,0:0:0:0:
448,192,21060,1,0,0:0:0:0:
320,192,21060,1,0,0:0:0:0:
192,192,21060,1,0,0:0:0:0:
448,192,21167,1,0,0:0:0:0:
192,192,21167,1,0,0:0:0:0:
64,192,21167,1,0,0:0:0:0:
448,192,21274,1,0,0:0:0:0:
448,192,21382,1,0,0:0:0:0:
320,192,21382,1,0,0:0:0:0:
64,192,21382,1,0,0:0:0:0:
192,192,21382,1,0,0:0:0:0:
192,192,21489,1,0,0:0:0:0:
192,192,21596,1,0,0:0:0:0:
64,192,21596,1,0,0:0:0:0:
320,192,21596,1,0,0:0:0:0:
448,192,21596,1,0,0:0:0:0:
320,192,21703,1,0,0:0:0:0:
320,192,21810,1,0,0:0:0:0:
448,192,21810,1,0,0:0:0:0:
192,192,21810,1,0,0:0:0:0:
64,192,21810,1,0,0:0:0:0:
192,192,21917,1,0,0:0:0:0:
192,192,22024,1,0,0:0:0:0:
64,192,22024,1,0,0:0:0:0:
320,192,22024,1,0,0:0:0:0:
448,192,22024,1,0,0:0:0:0:
448,192,22132,1,0,0:0:0:0:
448,192,22239,1,0,0:0:0:0:
320,192,22239,1,0,0:0:0:0:
192,192,22239,1,0,0:0:0:0:
64,192,22239,1,0,0:0:0:0:
64,192,22346,1,0,0:0:0:0:
64,192,22453,1,0,0:0:0:0:
192,192,22453,1,0,0:0:0:0:
320,192,22453,1,0,0:0:0:0:
448,192,22453,1,0,0:0:0:0:
320,192,22560,1,0,0:0:0:0:
320,192,22667,1,0,0:0:0:0:
448,192,22667,1,0,0:0:0:0:
192,192,22667,1,0,0:0:0:0:
64,192,22667,1,0,0:0:0:0:
192,192,22774,1,0,0:0:0:0:
192,192,22882,1,0,0:0:0:0:
64,192,22882,1,0,0:0:0:0:
320,192,22882,1,0,0:0:0:0:
448,192,22882,1,0,0:0:0:0:
448,192,22989,1,0,0:0:0:0:
448,192,23096,1,0,0:0:0:0:
320,192,23096,1,0,0:0:0:0:
192,192,23096,1,0,0:0:0:0:
64,192,23096,1,0,0:0:0:0:
192,192,23203,1,0,0:0:0:0:
192,192,23310,1,0,0:0:0:0:
64,192,23310,1,0,0:0:0:0:
320,192,23310,1,0,0:0:0:0:
448,192,23310,1,0,0:0:0:0:
64,192,23417,1,0,0:0:0:0:
64,192,23524,1,0,0:0:0:0:
192,192,23524,1,0,0:0:0:0:
320,192,23524,1,0,0:0:0:0:
448,192,23524,1,0,0:0:0:0:
448,192,23632,1,0,0:0:0:0:
448,192,23739,1,0,0:0:0:0:
320,192,23739,1,0,0:0:0:0:
192,192,23739,1,0,0:0:0:0:
64,192,23739,1,0,0:0:0:0:
192,192,23846,1,0,0:0:0:0:
192,192,23953,1,0,0:0:0:0:
64,192,23953,1,0,0:0:0:0:
320,192,23953,1,0,0:0:0:0:
448,192,23953,1,0,0:0:0:0:
448,192,24060,1,0,0:0:0:0:
448,192,24167,1,0,0:0:0:0:
320,192,24167,1,0,0:0:0:0:
192,192,24167,1,0,0:0:0:0:
64,192,24167,1,0,0:0:0:0:
192,192,24274,1,0,0:0:0:0:
192,192,24382,1,0,0:0:0:0:
64,192,24382,1,0,0:0:0:0:
448,192,24382,1,0,0:0:0:0:
64,192,24489,1,0,0:0:0:0:
192,192,24489,1,0,0:0:0:0:
448,192,24489,1,0,0:0:0:0:
448,192,24596,1,0,0:0:0:0:
320,192,24596,1,0,0:0:0:0:
64,192,24596,1,0,0:0:0:0:
320,192,24703,1,0,0:0:0:0:
448,192,24810,1,0,0:0:0:0:
320,192,24810,1,0,0:0:0:0:
192,192,24810,1,0,0:0:0:0:
64,192,24810,1,0,0:0:0:0:
448,192,24917,1,0,0:0:0:0:
448,192,25024,1,0,0:0:0:0:
320,192,25024,1,0,0:0:0:0:
192,192,25024,1,0,0:0:0:0:
64,192,25024,1,0,0:0:0:0:
64,192,25132,1,0,0:0:0:0:
64,192,25239,1,0,0:0:0:0:
320,192,25239,1,0,0:0:0:0:
192,192,25239,1,0,0:0:0:0:
448,192,25239,1,0,0:0:0:0:
320,192,25346,1,0,0:0:0:0:
320,192,25453,1,0,0:0:0:0:
448,192,25453,1,0,0:0:0:0:
192,192,25453,1,0,0:0:0:0:
64,192,25453,1,0,0:0:0:0:
192,192,25560,1,0,0:0:0:0:
192,192,25667,1,0,0:0:0:0:
64,192,25667,1,0,0:0:0:0:
320,192,25667,1,0,0:0:0:0:
448,192,25667,1,0,0:0:0:0:
448,192,25774,1,0,0:0:0:0:
448,192,25882,1,0,0:0:0:0:
320,192,25882,1,0,0:0:0:0:
192,192,25882,1,0,0:0:0:0:
64,192,25882,1,0,0:0:0:0:
64,192,25989,1,0,0:0:0:0:
192,192,26096,1,0,0:0:0:0:
64,192,26096,1,0,0:0:0:0:
320,192,26096,1,0,0:0:0:0:
448,192,26096,1,0,0:0:0:0:
320,192,26203,1,0,0:0:0:0:
448,192,26310,1,0,0:0:0:0:
320,192,26310,1,0,0:0:0:0:
192,192,26310,1,0,0:0:0:0:
64,192,26310,1,0,0:0:0:0:
192,192,26417,1,0,0:0:0:0:
192,192,26524,1,0,0:0:0:0:
64,192,26524,1,0,0:0:0:0:
320,192,26524,1,0,0:0:0:0:
448,192,26524,1,0,0:0:0:0:
448,192,26632,1,0,0:0:0:0:
448,192,26739,1,0,0:0:0:0:
320,192,26739,1,0,0:0:0:0:
192,192,26739,1,0,0:0:0:0:
64,192,26739,1,0,0:0:0:0:
192,192,26846,1,0,0:0:0:0:
192,192,26953,1,0,0:0:0:0:
64,192,26953,1,0,0:0:0:0:
320,192,26953,1,0,0:0:0:0:
448,192,26953,1,0,0:0:0:0:
448,192,27060,1,0,0:0:0:0:
448,192,27167,1,0,0:0:0:0:
320,192,27167,1,0,0:0:0:0:
192,192,27167,1,0,0:0:0:0:
64,192,27167,1,0,0:0:0:0:
64,192,27274,1,0,0:0:0:0:
64,192,27382,1,0,0:0:0:0:
192,192,27382,1,0,0:0:0:0:
448,192,27382,1,0,0:0:0:0:
64,192,27489,1,0,0:0:0:0:
448,192,27489,1,0,0:0:0:0:
320,192,27489,1,0,0:0:0:0:
320,192,27596,1,0,0:0:0:0:
448,192,27703,1,0,0:0:0:0:
320,192,27703,1,0,0:0:0:0:
192,192,27703,1,0,0:0:0:0:
64,192,27703,1,0,0:0:0:0:
192,192,27810,1,0,0:0:0:0:
64,192,27917,1,0,0:0:0:0:
192,192,27917,1,0,0:0:0:0:
320,192,27917,1,0,0:0:0:0:
448,192,27917,1,0,0:0:0:0:
448,192,28024,1,0,0:0:0:0:
320,192,28024,1,0,0:0:0:0:
64,192,28024,1,0,0:0:0:0:
192,192,28132,1,0,0:0:0:0:
320,192,28132,1,0,0:0:0:0:
448,192,28239,1,0,0:0:0:0:
320,192,28239,1,0,0:0:0:0:
64,192,28239,1,0,0:0:0:0:
192,192,28239,1,0,0:0:0:0:
192,192,28346,1,0,0:0:0:0:
64,192,28346,1,0,0:0:0:0:
64,192,28453,1,0,0:0:0:0:
192,192,28453,1,0,0:0:0:0:
320,192,28453,1,0,0:0:0:0:
448,192,28453,1,0,0:0:0:0:
320,192,28560,1,0,0:0:0:0:
448,192,28560,1,0,0:0:0:0:
448,192,28667,1,0,0:0:0:0:
320,192,28667,1,0,0:0:0:0:
192,192,28667,1,0,0:0:0:0:
64,192,28667,1,0,0:0:0:0:
192,192,28774,1,0,0:0:0:0:
320,192,28774,1,0,0:0:0:0:
64,192,28882,1,0,0:0:0:0:
192,192,28882,1,0,0:0:0:0:
320,192,28882,1,0,0:0:0:0:
448,192,28882,1,0,0:0:0:0:
320,192,28989,1,0,0:0:0:0:
448,192,28989,1,0,0:0:0:0:
448,192,29096,1,0,0:0:0:0:
320,192,29096,1,0,0:0:0:0:
192,192,29096,1,0,0:0:0:0:
64,192,29096,1,0,0:0:0:0:
64,192,29203,1,0,0:0:0:0:
192,192,29203,1,0,0:0:0:0:
448,192,29310,1,0,0:0:0:0:
320,192,29310,1,0,0:0:0:0:
192,192,29310,1,0,0:0:0:0:
320,192,29417,1,0,0:0:0:0:
448,192,29417,1,0,0:0:0:0:
448,192,29524,1,0,0:0:0:0:
320,192,29524,1,0,0:0:0:0:
192,192,29524,1,0,0:0:0:0:
64,192,29524,1,0,0:0:0:0:
320,192,29632,1,0,0:0:0:0:
64,192,29632,1,0,0:0:0:0:
448,192,29739,1,0,0:0:0:0:
192,192,29739,1,0,0:0:0:0:
320,192,29739,1,0,0:0:0:0:
64,192,29739,1,0,0:0:0:0:
192,192,29846,1,0,0:0:0:0:
448,192,29846,1,0,0:0:0:0:
448,192,29953,1,0,0:0:0:0:
320,192,29953,1,0,0:0:0:0:
192,192,29953,1,0,0:0:0:0:
64,192,29953,1,0,0:0:0:0:
448,192,30060,1,0,0:0:0:0:
64,192,30060,1,0,0:0:0:0:
192,192,30167,1,0,0:0:0:0:
64,192,30167,1,0,0:0:0:0:
320,192,30167,1,0,0:0:0:0:
448,192,30167,1,0,0:0:0:0:
64,192,30274,1,0,0:0:0:0:
320,192,30274,1,0,0:0:0:0:
448,192,30382,1,0,0:0:0:0:
192,192,30382,1,0,0:0:0:0:
320,192,30382,1,0,0:0:0:0:
64,192,30382,1,0,0:0:0:0:
192,192,30489,1,0,0:0:0:0:
320,192,30489,1,0,0:0:0:0:
448,192,30596,1,0,0:0:0:0:
320,192,30596,1,0,0:0:0:0:
192,192,30596,1,0,0:0:0:0:
64,192,30596,1,0,0:0:0:0:
64,192,30703,1,0,0:0:0:0:
448,192,30703,1,0,0:0:0:0:
448,192,30810,1,0,0:0:0:0:
320,192,30810,1,0,0:0:0:0:
192,192,30810,1,0,0:0:0:0:
64,192,30810,1,0,0:0:0:0:
448,192,30917,1,0,0:0:0:0:
192,192,30917,1,0,0:0:0:0:
64,192,31024,1,0,0:0:0:0:
192,192,31024,1,0,0:0:0:0:
320,192,31024,1,0,0:0:0:0:
448,192,31024,1,0,0:0:0:0:
64,192,31132,1,0,0:0:0:0:
320,192,31132,1,0,0:0:0:0:
448,192,31239,1,0,0:0:0:0:
320,192,31239,1,0,0:0:0:0:
192,192,31239,1,0,0:0:0:0:
64,192,31239,1,0,0:0:0:0:
320,192,31346,1,0,0:0:0:0:
192,192,31346,1,0,0:0:0:0:
448,192,31453,1,0,0:0:0:0:
320,192,31453,1,0,0:0:0:0:
192,192,31453,1,0,0:0:0:0:
64,192,31453,1,0,0:0:0:0:
192,192,31560,1,0,0:0:0:0:
448,192,31560,1,0,0:0:0:0:
448,192,31667,1,0,0:0:0:0:
320,192,31667,1,0,0:0:0:0:
192,192,31667,1,0,0:0:0:0:
64,192,31667,1,0,0:0:0:0:
320,192,31774,1,0,0:0:0:0:
448,192,31774,1,0,0:0:0:0:
448,192,31882,1,0,0:0:0:0:
320,192,31882,1,0,0:0:0:0:
192,192,31882,1,0,0:0:0:0:
64,192,31882,1,0,0:0:0:0:
64,192,31989,1,0,0:0:0:0:
192,192,31989,1,0,0:0:0:0:
64,192,32096,1,0,0:0:0:0:
192,192,32096,1,0,0:0:0:0:
320,192,32096,1,0,0:0:0:0:
448,192,32096,1,0,0:0:0:0:
320,192,32203,1,0,0:0:0:0:
192,192,32203,1,0,0:0:0:0:
448,192,32310,1,0,0:0:0:0:
320,192,32310,1,0,0:0:0:0:
192,192,32310,1,0,0:0:0:0:
64,192,32310,1,0,0:0:0:0:
448,192,32417,1,0,0:0:0:0:
192,192,32417,1,0,0:0:0:0:
448,192,32524,1,0,0:0:0:0:
320,192,32524,1,0,0:0:0:0:
192,192,32524,1,0,0:0:0:0:
64,192,32524,1,0,0:0:0:0:
64,192,32632,1,0,0:0:0:0:
448,192,32632,1,0,0:0:0:0:
448,192,32739,1,0,0:0:0:0:
320,192,32739,1,0,0:0:0:0:
192,192,32739,1,0,0:0:0:0:
64,192,32739,1,0,0:0:0:0:
320,192,32846,1,0,0:0:0:0:
192,192,32846,1,0,0:0:0:0:
448,192,32953,1,0,0:0:0:0:
320,192,32953,1,0,0:0:0:0:
192,192,32953,1,0,0:0:0:0:
64,192,32953,1,0,0:0:0:0:
192,192,33060,1,0,0:0:0:0:
320,192,33060,1,0,0:0:0:0:
448,192,33167,1,0,0:0:0:0:
320,192,33167,1,0,0:0:0:0:
192,192,33167,1,0,0:0:0:0:
64,192,33167,1,0,0:0:0:0:
64,192,33274,1,0,0:0:0:0:
192,192,33274,1,0,0:0:0:0:
448,192,33382,1,0,0:0:0:0:
320,192,33382,1,0,0:0:0:0:
192,192,33382,1,0,0:0:0:0:
64,192,33382,1,0,0:0:0:0:
448,192,33489,1,0,0:0:0:0:
192,192,33489,1,0,0:0:0:0:
448,192,33596,1,0,0:0:0:0:
320,192,33596,1,0,0:0:0:0:
64,192,33596,1,0,0:0:0:0:
192,192,33596,1,0,0:0:0:0:
448,192,33703,1,0,0:0:0:0:
320,192,33703,1,0,0:0:0:0:
448,192,33810,1,0,0:0:0:0:
320,192,33810,1,0,0:0:0:0:
192,192,33810,1,0,0:0:0:0:
64,192,33810,1,0,0:0:0:0:
320,192,33917,1,0,0:0:0:0:
64,192,33917,1,0,0:0:0:0:
448,192,34024,1,0,0:0:0:0:
320,192,34024,1,0,0:0:0:0:
192,192,34024,1,0,0:0:0:0:
64,192,34024,1,0,0:0:0:0:
192,192,34132,1,0,0:0:0:0:
320,192,34132,1,0,0:0:0:0:
448,192,34239,1,0,0:0:0:0:
320,192,34239,1,0,0:0:0:0:
192,192,34239,1,0,0:0:0:0:
64,192,34239,1,0,0:0:0:0:
192,192,34346,1,0,0:0:0:0:
448,192,34346,1,0,0:0:0:0:
448,192,34453,1,0,0:0:0:0:
320,192,34453,1,0,0:0:0:0:
192,192,34453,1,0,0:0:0:0:
64,192,34453,1,0,0:0:0:0:
320,192,34560,1,0,0:0:0:0:
192,192,34560,1,0,0:0:0:0:
64,192,34667,1,0,0:0:0:0:
192,192,34667,1,0,0:0:0:0:
320,192,34667,1,0,0:0:0:0:
448,192,34667,1,0,0:0:0:0:
448,192,34774,1,0,0:0:0:0:
192,192,34774,1,0,0:0:0:0:
64,192,34882,1,0,0:0:0:0:
192,192,34882,1,0,0:0:0:0:
320,192,34882,1,0,0:0:0:0:
448,192,34882,1,0,0:0:0:0:
448,192,34989,1,0,0:0:0:0:
320,192,34989,1,0,0:0:0:0:
64,192,35096,1,0,0:0:0:0:
192,192,35096,1,0,0:0:0:0:
320,192,35096,1,0,0:0:0:0:
448,192,35096,1,0,0:0:0:0:
64,192,35203,1,0,0:0:0:0:
320,192,35203,1,0,0:0:0:0:
448,192,35310,1,0,0:0:0:0:
320,192,35310,1,0,0:0:0:0:
192,192,35310,1,0,0:0:0:0:
64,192,35310,1,0,0:0:0:0:
192,192,35417,1,0,0:0:0:0:
320,192,35417,1,0,0:0:0:0:
448,192,35524,1,0,0:0:0:0:
320,192,35524,1,0,0:0:0:0:
192,192,35524,1,0,0:0:0:0:
64,192,35524,1,0,0:0:0:0:
320,192,35632,1,0,0:0:0:0:
64,192,35632,1,0,0:0:0:0:
64,192,35739,1,0,0:0:0:0:
192,192,35739,1,0,0:0:0:0:
320,192,35739,1,0,0:0:0:0:
448,192,35739,1,0,0:0:0:0:
320,192,35846,1,0,0:0:0:0:
448,192,35846,1,0,0:0:0:0:
448,192,35953,1,0,0:0:0:0:
320,192,35953,1,0,0:0:0:0:
192,192,35953,1,0,0:0:0:0:
64,192,35953,1,0,0:0:0:0:
448,192,36060,1,0,0:0:0:0:
64,192,36060,1,0,0:0:0:0:
448,192,36167,1,0,0:0:0:0:
320,192,36167,1,0,0:0:0:0:
192,192,36167,1,0,0:0:0:0:
64,192,36167,1,0,0:0:0:0:
192,192,36274,1,0,0:0:0:0:
320,192,36274,1,0,0:0:0:0:
64,192,36382,1,0,0:0:0:0:
192,192,36382,1,0,0:0:0:0:
320,192,36382,1,0,0:0:0:0:
448,192,36382,1,0,0:0:0:0:
64,192,36489,1,0,0:0:0:0:
448,192,36489,1,0,0:0:0:0:
448,192,36596,1,0,0:0:0:0:
320,192,36596,1,0,0:0:0:0:
192,192,36596,1,0,0:0:0:0:
64,192,36596,1,0,0:0:0:0:
448,192,36703,1,0,0:0:0:0:
320,192,36703,1,0,0:0:0:0:
64,192,36810,1,0,0:0:0:0:
192,192,36810,1,0,0:0:0:0:
320,192,36810,1,0,0:0:0:0:
448,192,36810,1,0,0:0:0:0:
192,192,36917,1,0,0:0:0:0:
64,192,36917,1,0,0:0:0:0:
448,192,37024,1,0,0:0:0:0:
320,192,37024,1,0,0:0:0:0:
192,192,37024,1,0,0:0:0:0:
64,192,37024,1,0,0:0:0:0:
192,192,37132,1,0,0:0:0:0:
448,192,37132,1,0,0:0:0:0:
320,192,37239,1,0,0:0:0:0:
448,192,37239,1,0,0:0:0:0:
192,192,37239,1,0,0:0:0:0:
64,192,37239,1,0,0:0:0:0:
320,192,37346,1,0,0:0:0:0:
448,192,37346,1,0,0:0:0:0:
448,192,37453,1,0,0:0:0:0:
320,192,37453,1,0,0:0:0:0:
192,192,37453,1,0,0:0:0:0:
64,192,37453,1,0,0:0:0:0:
64,192,37560,1,0,0:0:0:0:
320,192,37560,1,0,0:0:0:0:
448,192,37667,1,0,0:0:0:0:
320,192,37667,1,0,0:0:0:0:
192,192,37667,1,0,0:0:0:0:
64,192,37667,1,0,0:0:0:0:
448,192,37774,1,0,0:0:0:0:
192,192,37774,1,0,0:0:0:0:
448,192,37882,1,0,0:0:0:0:
320,192,37882,1,0,0:0:0:0:
192,192,37882,1,0,0:0:0:0:
64,192,37882,1,0,0:0:0:0:
192,192,37989,1,0,0:0:0:0:
320,192,37989,1,0,0:0:0:0:
448,192,38096,1,0,0:0:0:0:
320,192,38096,1,0,0:0:0:0:
192,192,38096,1,0,0:0:0:0:
64,192,38096,1,0,0:0:0:0:
64,192,38203,1,0,0:0:0:0:
320,192,38203,1,0,0:0:0:0:
448,192,38203,1,0,0:0:0:0:
64,192,38310,1,0,0:0:0:0:
192,192,38310,1,0,0:0:0:0:
320,192,38310,1,0,0:0:0:0:
64,192,38417,1,0,0:0:0:0:
320,192,38417,1,0,0:0:0:0:
64,192,38524,1,0,0:0:0:0:
192,192,38524,1,0,0:0:0:0:
448,192,38524,1,0,0:0:0:0:
64,192,38632,1,0,0:0:0:0:
320,192,38632,1,0,0:0:0:0:
64,192,38739,1,0,0:0:0:0:
192,192,38739,1,0,0:0:0:0:
448,192,38739,1,0,0:0:0:0:
64,192,38846,1,0,0:0:0:0:
320,192,38846,1,0,0:0:0:0:
64,192,38953,1,0,0:0:0:0:
320,192,38953,1,0,0:0:0:0:
192,192,38953,1,0,0:0:0:0:
64,192,39060,1,0,0:0:0:0:
448,192,39060,1,0,0:0:0:0:
64,192,39167,1,0,0:0:0:0:
448,192,39167,1,0,0:0:0:0:
192,192,39167,1,0,0:0:0:0:
64,192,39274,1,0,0:0:0:0:
320,192,39274,1,0,0:0:0:0:
64,192,39382,1,0,0:0:0:0:
320,192,39382,1,0,0:0:0:0:
192,192,39382,1,0,0:0:0:0:
64,192,39489,1,0,0:0:0:0:
448,192,39489,1,0,0:0:0:0:
64,192,39596,1,0,0:0:0:0:
448,192,39596,1,0,0:0:0:0:
192,192,39596,1,0,0:0:0:0:
64,192,39703,1,0,0:0:0:0:
320,192,39703,1,0,0:0:0:0:
64,192,39810,1,0,0:0:0:0:
192,192,39810,1,0,0:0:0:0:
320,192,39810,1,0,0:0:0:0:
64,192,39917,1,0,0:0:0:0:
320,192,39917,1,0,0:0:0:0:
64,192,40024,1,0,0:0:0:0:
192,192,40024,1,0,0:0:0:0:
448,192,40024,1,0,0:0:0:0:
64,192,40132,1,0,0:0:0:0:
320,192,40132,1,0,0:0:0:0:
64,192,40239,1,0,0:0:0:0:
192,192,40239,1,0,0:0:0:0:
320,192,40239,1,0,0:0:0:0:
64,192,40346,1,0,0:0:0:0:
448,192,40346,1,0,0:0:0:0:
64,192,40453,1,0,0:0:0:0:
192,192,40453,1,0,0:0:0:0:
448,192,40453,1,0,0:0:0:0:
64,192,40560,1,0,0:0:0:0:
320,192,40560,1,0,0:0:0:0:
64,192,40667,1,0,0:0:0:0:
192,192,40667,1,0,0:0:0:0:
320,192,40667,1,0,0:0:0:0:
64,192,40774,1,0,0:0:0:0:
320,192,40774,1,0,0:0:0:0:
64,192,40882,1,0,0:0:0:0:
192,192,40882,1,0,0:0:0:0:
448,192,40882,1,0,0:0:0:0:
64,192,40989,1,0,0:0:0:0:
448,192,40989,1,0,0:0:0:0:
64,192,41096,1,0,0:0:0:0:
192,192,41096,1,0,0:0:0:0:
320,192,41096,1,0,0:0:0:0:
448,192,41203,1,0,0:0:0:0:
320,192,41203,1,0,0:0:0:0:
192,192,41203,1,0,0:0:0:0:
192,192,41310,1,0,0:0:0:0:
320,192,41310,1,0,0:0:0:0:
64,192,41310,1,0,0:0:0:0:
448,192,41417,1,0,0:0:0:0:
320,192,41417,1,0,0:0:0:0:
64,192,41417,1,0,0:0:0:0:
192,192,41524,1,0,0:0:0:0:
64,192,41524,1,0,0:0:0:0:
448,192,41524,1,0,0:0:0:0:
448,192,41632,1,0,0:0:0:0:
320,192,41632,1,0,0:0:0:0:
192,192,41632,1,0,0:0:0:0:
64,192,41632,1,0,0:0:0:0:
64,192,41739,1,0,0:0:0:0:
64,192,41846,1,0,0:0:0:0:
64,192,41953,1,0,0:0:0:0:
64,192,42060,1,0,0:0:0:0:
320,192,42060,1,0,0:0:0:0:
64,192,42167,1,0,0:0:0:0:
64,192,42274,1,0,0:0:0:0:
64,192,42382,1,0,0:0:0:0:
448,192,42489,128,0,42596:0:0:0:0:
64,192,42596,1,0,0:0:0:0:
64,192,42703,1,0,0:0:0:0:
64,192,42810,1,0,0:0:0:0:
64,192,42917,1,0,0:0:0:0:
320,192,42917,1,0,0:0:0:0:
64,192,43024,1,0,0:0:0:0:
64,192,43132,1,0,0:0:0:0:
64,192,43239,1,0,0:0:0:0:
448,192,43346,128,0,43560:0:0:0:0:
64,192,43560,1,0,0:0:0:0:
64,192,43667,1,0,0:0:0:0:
64,192,43774,1,0,0:0:0:0:
320,192,43774,1,0,0:0:0:0:
64,192,43882,1,0,0:0:0:0:
64,192,43989,1,0,0:0:0:0:
64,192,44096,1,0,0:0:0:0:
448,192,44203,128,0,44417:0:0:0:0:
192,192,44203,128,0,44417:0:0:0:0:
320,192,44417,128,0,44632:0:0:0:0:
64,192,44417,128,0,44632:0:0:0:0:
192,192,44632,128,0,44953:0:0:0:0:
448,192,44632,128,0,44953:0:0:0:0:
320,192,44846,1,0,0:0:0:0:
192,192,45060,1,0,0:0:0:0:
64,192,45060,1,0,0:0:0:0:
448,192,45060,128,0,45274:0:0:0:0:
320,192,45274,1,0,0:0:0:0:
320,192,45382,1,0,0:0:0:0:
192,192,45489,1,0,0:0:0:0:
64,192,45489,1,0,0:0:0:0:
320,192,45489,1,0,0:0:0:0:
320,192,45596,1,0,0:0:0:0:
320,192,45703,1,0,0:0:0:0:
320,192,45810,1,0,0:0:0:0:
192,192,45917,1,0,0:0:0:0:
64,192,45917,1,0,0:0:0:0:
448,192,45917,128,0,46132:0:0:0:0:
320,192,46132,1,0,0:0:0:0:
320,192,46239,1,0,0:0:0:0:
192,192,46346,1,0,0:0:0:0:
64,192,46346,1,0,0:0:0:0:
320,192,46346,1,0,0:0:0:0:
320,192,46453,1,0,0:0:0:0:
320,192,46560,1,0,0:0:0:0:
320,192,46667,1,0,0:0:0:0:
192,192,46774,1,0,0:0:0:0:
64,192,46774,1,0,0:0:0:0:
448,192,46774,128,0,46989:0:0:0:0:
320,192,46989,1,0,0:0:0:0:
192,192,46989,1,0,0:0:0:0:
64,192,46989,1,0,0:0:0:0:
320,192,47096,1,0,0:0:0:0:
320,192,47203,1,0,0:0:0:0:
192,192,47203,1,0,0:0:0:0:
64,192,47203,1,0,0:0:0:0:
320,192,47310,1,0,0:0:0:0:
320,192,47417,1,0,0:0:0:0:
192,192,47417,1,0,0:0:0:0:
64,192,47417,1,0,0:0:0:0:
320,192,47524,1,0,0:0:0:0:
64,192,47632,1,0,0:0:0:0:
448,192,47632,1,0,0:0:0:0:
192,192,47685,1,0,0:0:0:0:
320,192,47739,1,0,0:0:0:0:
448,192,47792,1,0,0:0:0:0:
64,192,47846,1,0,0:0:0:0:
320,192,47846,1,0,0:0:0:0:
192,192,47899,1,0,0:0:0:0:
448,192,47953,1,0,0:0:0:0:
320,192,48007,1,0,0:0:0:0:
448,192,48060,1,0,0:0:0:0:
64,192,48060,1,0,0:0:0:0:
320,192,48114,1,0,0:0:0:0:
192,192,48167,1,0,0:0:0:0:
64,192,48167,1,0,0:0:0:0:
448,192,48221,1,0,0:0:0:0:
192,192,48274,1,0,0:0:0:0:
320,192,48274,1,0,0:0:0:0:
448,192,48328,1,0,0:0:0:0:
192,192,48382,1,0,0:0:0:0:
64,192,48382,1,0,0:0:0:0:
320,192,48435,1,0,0:0:0:0:
448,192,48435,1,0,0:0:0:0:
64,192,48489,1,0,0:0:0:0:
192,192,48489,1,0,0:0:0:0:
320,192,48596,1,0,0:0:0:0:
320,192,48703,1,0,0:0:0:0:
448,192,48703,1,0,0:0:0:0:
64,192,48703,1,0,0:0:0:0:
448,192,48810,1,0,0:0:0:0:
192,192,48810,1,0,0:0:0:0:
320,192,48917,1,0,0:0:0:0:
64,192,48917,1,0,0:0:0:0:
192,192,49024,1,0,0:0:0:0:
192,192,49132,1,0,0:0:0:0:
448,192,49132,1,0,0:0:0:0:
320,192,49132,1,0,0:0:0:0:
64,192,49239,1,0,0:0:0:0:
64,192,49346,1,0,0:0:0:0:
320,192,49346,1,0,0:0:0:0:
192,192,49346,1,0,0:0:0:0:
448,192,49453,1,0,0:0:0:0:
448,192,49560,1,0,0:0:0:0:
320,192,49560,1,0,0:0:0:0:
192,192,49560,1,0,0:0:0:0:
64,192,49667,1,0,0:0:0:0:
320,192,49667,1,0,0:0:0:0:
192,192,49774,1,0,0:0:0:0:
448,192,49882,1,0,0:0:0:0:
448,192,49989,1,0,0:0:0:0:
192,192,49989,1,0,0:0:0:0:
64,192,49989,1,0,0:0:0:0:
320,192,50096,1,0,0:0:0:0:
448,192,50096,1,0,0:0:0:0:
64,192,50203,1,0,0:0:0:0:
192,192,50203,1,0,0:0:0:0:
320,192,50203,1,0,0:0:0:0:
64,192,50310,1,0,0:0:0:0:
192,192,50417,1,0,0:0:0:0:
320,192,50417,1,0,0:0:0:0:
448,192,50417,1,0,0:0:0:0:
64,192,50524,1,0,0:0:0:0:
320,192,50524,1,0,0:0:0:0:
448,192,50632,1,0,0:0:0:0:
192,192,50632,1,0,0:0:0:0:
448,192,50739,1,0,0:0:0:0:
192,192,50739,1,0,0:0:0:0:
64,192,50846,1,0,0:0:0:0:
192,192,50846,1,0,0:0:0:0:
320,192,50846,1,0,0:0:0:0:
320,192,50953,1,0,0:0:0:0:
448,192,50953,1,0,0:0:0:0:
192,192,51060,1,0,0:0:0:0:
448,192,51060,1,0,0:0:0:0:
64,192,51060,1,0,0:0:0:0:
320,192,51167,1,0,0:0:0:0:
192,192,51167,1,0,0:0:0:0:
64,192,51274,1,0,0:0:0:0:
320,192,51274,1,0,0:0:0:0:
448,192,51274,1,0,0:0:0:0:
192,192,51382,1,0,0:0:0:0:
320,192,51382,1,0,0:0:0:0:
64,192,51489,1,0,0:0:0:0:
192,192,51489,1,0,0:0:0:0:
448,192,51596,1,0,0:0:0:0:
320,192,51596,1,0,0:0:0:0:
448,192,51703,1,0,0:0:0:0:
320,192,51703,1,0,0:0:0:0:
64,192,51703,1,0,0:0:0:0:
64,192,51810,1,0,0:0:0:0:
192,192,51810,1,0,0:0:0:0:
320,192,51810,1,0,0:0:0:0:
448,192,51917,1,0,0:0:0:0:
320,192,51917,1,0,0:0:0:0:
192,192,51917,1,0,0:0:0:0:
192,192,52024,1,0,0:0:0:0:
64,192,52132,1,0,0:0:0:0:
320,192,52132,1,0,0:0:0:0:
448,192,52132,1,0,0:0:0:0:
192,192,52239,1,0,0:0:0:0:
320,192,52239,1,0,0:0:0:0:
64,192,52346,1,0,0:0:0:0:
192,192,52346,1,0,0:0:0:0:
448,192,52453,1,0,0:0:0:0:
320,192,52453,1,0,0:0:0:0:
64,192,52453,1,0,0:0:0:0:
192,192,52560,1,0,0:0:0:0:
320,192,52560,1,0,0:0:0:0:
448,192,52560,1,0,0:0:0:0:
448,192,52667,1,0,0:0:0:0:
320,192,52667,1,0,0:0:0:0:
192,192,52667,1,0,0:0:0:0:
64,192,52774,1,0,0:0:0:0:
192,192,52774,1,0,0:0:0:0:
320,192,52774,1,0,0:0:0:0:
448,192,52882,1,0,0:0:0:0:
64,192,52989,1,0,0:0:0:0:
448,192,52989,1,0,0:0:0:0:
192,192,52989,1,0,0:0:0:0:
64,192,53096,1,0,0:0:0:0:
448,192,53096,1,0,0:0:0:0:
320,192,53096,1,0,0:0:0:0:
192,192,53203,1,0,0:0:0:0:
448,192,53310,1,0,0:0:0:0:
320,192,53417,1,0,0:0:0:0:
64,192,53417,1,0,0:0:0:0:
192,192,53417,1,0,0:0:0:0:
320,192,53524,1,0,0:0:0:0:
448,192,53524,1,0,0:0:0:0:
64,192,53524,1,0,0:0:0:0:
64,192,53632,1,0,0:0:0:0:
192,192,53632,1,0,0:0:0:0:
320,192,53632,1,0,0:0:0:0:
448,192,53739,1,0,0:0:0:0:
448,192,53846,1,0,0:0:0:0:
320,192,53846,1,0,0:0:0:0:
192,192,53846,1,0,0:0:0:0:
64,192,53953,1,0,0:0:0:0:
192,192,53953,1,0,0:0:0:0:
320,192,53953,1,0,0:0:0:0:
448,192,54060,1,0,0:0:0:0:
448,192,54167,1,0,0:0:0:0:
320,192,54274,1,0,0:0:0:0:
192,192,54274,1,0,0:0:0:0:
64,192,54274,1,0,0:0:0:0:
320,192,54382,1,0,0:0:0:0:
448,192,54382,1,0,0:0:0:0:
64,192,54489,1,0,0:0:0:0:
192,192,54489,1,0,0:0:0:0:
320,192,54560,1,0,0:0:0:0:
192,192,54632,1,0,0:0:0:0:
64,192,54703,1,0,0:0:0:0:
448,192,54703,1,0,0:0:0:0:
320,192,54774,1,0,0:0:0:0:
192,192,54846,1,0,0:0:0:0:
64,192,54917,1,0,0:0:0:0:
320,192,54917,1,0,0:0:0:0:
448,192,54989,1,0,0:0:0:0:
320,192,55060,1,0,0:0:0:0:
64,192,55132,1,0,0:0:0:0:
192,192,55132,1,0,0:0:0:0:
320,192,55203,1,0,0:0:0:0:
448,192,55203,1,0,0:0:0:0:
64,192,55274,1,0,0:0:0:0:
192,192,55274,1,0,0:0:0:0:
320,192,55346,1,0,0:0:0:0:
448,192,55346,1,0,0:0:0:0:
192,192,55453,1,0,0:0:0:0:
448,192,55560,1,0,0:0:0:0:
64,192,55560,1,0,0:0:0:0:
192,192,55560,1,0,0:0:0:0:
320,192,55667,1,0,0:0:0:0:
64,192,55667,1,0,0:0:0:0:
448,192,55774,1,0,0:0:0:0:
192,192,55774,1,0,0:0:0:0:
320,192,55882,1,0,0:0:0:0:
192,192,55989,1,0,0:0:0:0:
64,192,55989,1,0,0:0:0:0:
320,192,55989,1,0,0:0:0:0:
448,192,56096,1,0,0:0:0:0:
320,192,56203,1,0,0:0:0:0:
192,192,56203,1,0,0:0:0:0:
448,192,56203,1,0,0:0:0:0:
64,192,56310,1,0,0:0:0:0:
320,192,56417,1,0,0:0:0:0:
192,192,56417,1,0,0:0:0:0:
64,192,56417,1,0,0:0:0:0:
192,192,56524,1,0,0:0:0:0:
448,192,56524,1,0,0:0:0:0:
320,192,56632,1,0,0:0:0:0:
64,192,56739,1,0,0:0:0:0:
448,192,56846,1,0,0:0:0:0:
320,192,56846,1,0,0:0:0:0:
64,192,56846,1,0,0:0:0:0:
64,192,56953,1,0,0:0:0:0:
192,192,56953,1,0,0:0:0:0:
192,192,57060,1,0,0:0:0:0:
320,192,57060,1,0,0:0:0:0:
448,192,57060,1,0,0:0:0:0:
448,192,57167,1,0,0:0:0:0:
64,192,57274,1,0,0:0:0:0:
192,192,57274,1,0,0:0:0:0:
320,192,57274,1,0,0:0:0:0:
192,192,57382,1,0,0:0:0:0:
448,192,57382,1,0,0:0:0:0:
320,192,57489,1,0,0:0:0:0:
64,192,57489,1,0,0:0:0:0:
320,192,57596,1,0,0:0:0:0:
64,192,57596,1,0,0:0:0:0:
192,192,57703,1,0,0:0:0:0:
320,192,57703,1,0,0:0:0:0:
448,192,57703,1,0,0:0:0:0:
64,192,57810,1,0,0:0:0:0:
192,192,57810,1,0,0:0:0:0:
448,192,57917,1,0,0:0:0:0:
64,192,57917,1,0,0:0:0:0:
320,192,57917,1,0,0:0:0:0:
320,192,58024,1,0,0:0:0:0:
192,192,58024,1,0,0:0:0:0:
64,192,58132,1,0,0:0:0:0:
192,192,58132,1,0,0:0:0:0:
448,192,58132,1,0,0:0:0:0:
192,192,58239,1,0,0:0:0:0:
320,192,58239,1,0,0:0:0:0:
320,192,58346,1,0,0:0:0:0:
448,192,58346,1,0,0:0:0:0:
192,192,58453,1,0,0:0:0:0:
64,192,58453,1,0,0:0:0:0:
448,192,58560,1,0,0:0:0:0:
192,192,58560,1,0,0:0:0:0:
64,192,58560,1,0,0:0:0:0:
192,192,58667,1,0,0:0:0:0:
320,192,58667,1,0,0:0:0:0:
448,192,58667,1,0,0:0:0:0:
320,192,58774,1,0,0:0:0:0:
192,192,58774,1,0,0:0:0:0:
64,192,58774,1,0,0:0:0:0:
320,192,58882,1,0,0:0:0:0:
64,192,58989,1,0,0:0:0:0:
192,192,58989,1,0,0:0:0:0:
448,192,58989,1,0,0:0:0:0:
192,192,59096,1,0,0:0:0:0:
320,192,59096,1,0,0:0:0:0:
320,192,59203,1,0,0:0:0:0:
448,192,59203,1,0,0:0:0:0:
448,192,59310,1,0,0:0:0:0:
192,192,59310,1,0,0:0:0:0:
64,192,59310,1,0,0:0:0:0:
64,192,59417,1,0,0:0:0:0:
192,192,59417,1,0,0:0:0:0:
320,192,59417,1,0,0:0:0:0:
320,192,59524,1,0,0:0:0:0:
192,192,59524,1,0,0:0:0:0:
64,192,59524,1,0,0:0:0:0:
192,192,59632,1,0,0:0:0:0:
320,192,59632,1,0,0:0:0:0:
448,192,59632,1,0,0:0:0:0:
64,192,59739,1,0,0:0:0:0:
320,192,59846,1,0,0:0:0:0:
64,192,59846,1,0,0:0:0:0:
448,192,59846,1,0,0:0:0:0:
192,192,59953,1,0,0:0:0:0:
64,192,59953,1,0,0:0:0:0:
448,192,59953,1,0,0:0:0:0:
320,192,60060,1,0,0:0:0:0:
64,192,60167,1,0,0:0:0:0:
320,192,60274,1,0,0:0:0:0:
448,192,60274,1,0,0:0:0:0:
192,192,60274,1,0,0:0:0:0:
448,192,60382,1,0,0:0:0:0:
64,192,60382,1,0,0:0:0:0:
192,192,60382,1,0,0:0:0:0:
192,192,60489,1,0,0:0:0:0:
320,192,60489,1,0,0:0:0:0:
448,192,60489,1,0,0:0:0:0:
64,192,60596,1,0,0:0:0:0:
320,192,60703,1,0,0:0:0:0:
192,192,60703,1,0,0:0:0:0:
64,192,60703,1,0,0:0:0:0:
192,192,60810,1,0,0:0:0:0:
320,192,60810,1,0,0:0:0:0:
448,192,60810,1,0,0:0:0:0:
64,192,60917,1,0,0:0:0:0:
64,192,61024,1,0,0:0:0:0:
448,192,61132,1,0,0:0:0:0:
320,192,61132,1,0,0:0:0:0:
192,192,61132,1,0,0:0:0:0:
64,192,61239,1,0,0:0:0:0:
192,192,61239,1,0,0:0:0:0:
320,192,61346,1,0,0:0:0:0:
448,192,61346,1,0,0:0:0:0:
192,192,61417,1,0,0:0:0:0:
320,192,61489,1,0,0:0:0:0:
64,192,61560,1,0,0:0:0:0:
448,192,61560,1,0,0:0:0:0:
192,192,61632,1,0,0:0:0:0:
320,192,61703,1,0,0:0:0:0:
192,192,61774,1,0,0:0:0:0:
448,192,61774,1,0,0:0:0:0:
64,192,61846,1,0,0:0:0:0:
192,192,61917,1,0,0:0:0:0:
320,192,61989,1,0,0:0:0:0:
448,192,61989,1,0,0:0:0:0:
64,192,62060,1,0,0:0:0:0:
192,192,62060,1,0,0:0:0:0:
320,192,62132,1,0,0:0:0:0:
448,192,62132,1,0,0:0:0:0:
192,192,62203,1,0,0:0:0:0:
64,192,62203,1,0,0:0:0:0:
320,192,62203,1,0,0:0:0:0:
448,192,62203,1,0,0:0:0:0:
64,192,62417,1,0,0:0:0:0:
320,192,62417,1,0,0:0:0:0:
448,192,62524,1,0,0:0:0:0:
320,192,62524,1,0,0:0:0:0:
192,192,62524,1,0,0:0:0:0:
64,192,62524,1,0,0:0:0:0:
320,192,62739,1,0,0:0:0:0:
192,192,62846,1,0,0:0:0:0:
192,192,62953,1,0,0:0:0:0:
64,192,63060,1,0,0:0:0:0:
320,192,63060,1,0,0:0:0:0:
448,192,63060,1,0,0:0:0:0:
192,192,63274,1,0,0:0:0:0:
448,192,63274,1,0,0:0:0:0:
448,192,63382,1,0,0:0:0:0:
320,192,63382,1,0,0:0:0:0:
192,192,63596,1,0,0:0:0:0:
64,192,63703,1,0,0:0:0:0:
320,192,63703,1,0,0:0:0:0:
64,192,63810,1,0,0:0:0:0:
320,192,63810,1,0,0:0:0:0:
64,192,63917,1,0,0:0:0:0:
192,192,63917,1,0,0:0:0:0:
320,192,63917,1,0,0:0:0:0:
448,192,64132,1,0,0:0:0:0:
192,192,64132,1,0,0:0:0:0:
448,192,64239,1,0,0:0:0:0:
320,192,64239,1,0,0:0:0:0:
192,192,64239,1,0,0:0:0:0:
64,192,64239,1,0,0:0:0:0:
192,192,64453,1,0,0:0:0:0:
64,192,64560,1,0,0:0:0:0:
64,192,64667,1,0,0:0:0:0:
64,192,64774,1,0,0:0:0:0:
192,192,64774,1,0,0:0:0:0:
320,192,64774,1,0,0:0:0:0:
448,192,64774,1,0,0:0:0:0:
64,192,64989,1,0,0:0:0:0:
192,192,64989,1,0,0:0:0:0:
320,192,64989,1,0,0:0:0:0:
448,192,65096,1,0,0:0:0:0:
320,192,65096,1,0,0:0:0:0:
192,192,65096,1,0,0:0:0:0:
64,192,65417,1,0,0:0:0:0:
192,192,65417,1,0,0:0:0:0:
448,192,65417,1,0,0:0:0:0:
64,192,65632,1,0,0:0:0:0:
192,192,65632,1,0,0:0:0:0:
320,192,65632,1,0,0:0:0:0:
448,192,65632,1,0,0:0:0:0:
192,192,65846,1,0,0:0:0:0:
448,192,65846,1,0,0:0:0:0:
448,192,65953,1,0,0:0:0:0:
320,192,65953,1,0,0:0:0:0:
192,192,65953,1,0,0:0:0:0:
64,192,65953,1,0,0:0:0:0:
192,192,66167,1,0,0:0:0:0:
320,192,66274,1,0,0:0:0:0:
320,192,66382,1,0,0:0:0:0:
64,192,66489,1,0,0:0:0:0:
192,192,66489,1,0,0:0:0:0:
448,192,66489,1,0,0:0:0:0:
192,192,66703,1,0,0:0:0:0:
320,192,66703,1,0,0:0:0:0:
64,192,66810,1,0,0:0:0:0:
320,192,66810,1,0,0:0:0:0:
320,192,67024,1,0,0:0:0:0:
192,192,67132,1,0,0:0:0:0:
448,192,67132,1,0,0:0:0:0:
320,192,67239,1,0,0:0:0:0:
64,192,67346,1,0,0:0:0:0:
192,192,67346,1,0,0:0:0:0:
448,192,67346,1,0,0:0:0:0:
320,192,67560,1,0,0:0:0:0:
192,192,67560,1,0,0:0:0:0:
448,192,67667,1,0,0:0:0:0:
320,192,67667,1,0,0:0:0:0:
192,192,67667,1,0,0:0:0:0:
64,192,67667,1,0,0:0:0:0:
64,192,67882,1,0,0:0:0:0:
64,192,67989,1,0,0:0:0:0:
320,192,67989,1,0,0:0:0:0:
448,192,67989,1,0,0:0:0:0:
192,192,68096,1,0,0:0:0:0:
64,192,68203,1,0,0:0:0:0:
192,192,68203,1,0,0:0:0:0:
320,192,68203,1,0,0:0:0:0:
448,192,68203,1,0,0:0:0:0:
192,192,68417,1,0,0:0:0:0:
320,192,68417,1,0,0:0:0:0:
448,192,68524,1,0,0:0:0:0:
320,192,68524,1,0,0:0:0:0:
192,192,68524,1,0,0:0:0:0:
192,192,68632,1,0,0:0:0:0:
64,192,68632,1,0,0:0:0:0:
448,192,68632,1,0,0:0:0:0:
64,192,68739,1,0,0:0:0:0:
192,192,68739,1,0,0:0:0:0:
448,192,68739,1,0,0:0:0:0:
64,192,68846,1,0,0:0:0:0:
192,192,68846,1,0,0:0:0:0:
448,192,68846,1,0,0:0:0:0:
448,192,68953,1,0,0:0:0:0:
192,192,68953,1,0,0:0:0:0:
64,192,68953,1,0,0:0:0:0:
64,192,69060,1,0,0:0:0:0:
192,192,69060,1,0,0:0:0:0:
320,192,69060,1,0,0:0:0:0:
448,192,69060,1,0,0:0:0:0:
320,192,69167,1,0,0:0:0:0:
64,192,69274,1,0,0:0:0:0:
192,192,69274,1,0,0:0:0:0:
448,192,69382,1,0,0:0:0:0:
64,192,69382,1,0,0:0:0:0:
320,192,69489,1,0,0:0:0:0:
192,192,69489,1,0,0:0:0:0:
192,192,69596,1,0,0:0:0:0:
448,192,69703,1,0,0:0:0:0:
320,192,69703,1,0,0:0:0:0:
448,192,69810,1,0,0:0:0:0:
64,192,69917,1,0,0:0:0:0:
192,192,69917,1,0,0:0:0:0:
320,192,69917,1,0,0:0:0:0:
192,192,70024,1,0,0:0:0:0:
448,192,70132,1,0,0:0:0:0:
320,192,70132,1,0,0:0:0:0:
64,192,70132,1,0,0:0:0:0:
320,192,70239,1,0,0:0:0:0:
448,192,70346,1,0,0:0:0:0:
192,192,70346,1,0,0:0:0:0:
64,192,70346,1,0,0:0:0:0:
64,192,70453,1,0,0:0:0:0:
192,192,70560,1,0,0:0:0:0:
448,192,70560,1,0,0:0:0:0:
320,192,70560,1,0,0:0:0:0:
192,192,70667,1,0,0:0:0:0:
320,192,70774,1,0,0:0:0:0:
448,192,70774,1,0,0:0:0:0:
64,192,70774,1,0,0:0:0:0:
448,192,70882,1,0,0:0:0:0:
320,192,70989,1,0,0:0:0:0:
64,192,70989,1,0,0:0:0:0:
320,192,71096,1,0,0:0:0:0:
192,192,71203,1,0,0:0:0:0:
448,192,71203,1,0,0:0:0:0:
448,192,71310,1,0,0:0:0:0:
192,192,71417,1,0,0:0:0:0:
64,192,71417,1,0,0:0:0:0:
192,192,71524,1,0,0:0:0:0:
64,192,71632,1,0,0:0:0:0:
448,192,71632,1,0,0:0:0:0:
320,192,71632,1,0,0:0:0:0:
320,192,71739,1,0,0:0:0:0:
448,192,71846,1,0,0:0:0:0:
192,192,71846,1,0,0:0:0:0:
64,192,71846,1,0,0:0:0:0:
192,192,71953,1,0,0:0:0:0:
64,192,72060,1,0,0:0:0:0:
320,192,72060,1,0,0:0:0:0:
448,192,72060,1,0,0:0:0:0:
64,192,72167,1,0,0:0:0:0:
448,192,72274,1,0,0:0:0:0:
320,192,72274,1,0,0:0:0:0:
192,192,72274,1,0,0:0:0:0:
320,192,72382,1,0,0:0:0:0:
192,192,72489,1,0,0:0:0:0:
448,192,72489,1,0,0:0:0:0:
64,192,72489,1,0,0:0:0:0:
192,192,72596,1,0,0:0:0:0:
64,192,72703,1,0,0:0:0:0:
448,192,72703,1,0,0:0:0:0:
448,192,72810,1,0,0:0:0:0:
320,192,72917,1,0,0:0:0:0:
192,192,72917,1,0,0:0:0:0:
320,192,73024,1,0,0:0:0:0:
64,192,73132,1,0,0:0:0:0:
192,192,73132,1,0,0:0:0:0:
64,192,73239,1,0,0:0:0:0:
192,192,73346,1,0,0:0:0:0:
448,192,73346,1,0,0:0:0:0:
320,192,73346,1,0,0:0:0:0:
192,192,73453,1,0,0:0:0:0:
448,192,73560,1,0,0:0:0:0:
320,192,73560,1,0,0:0:0:0:
64,192,73560,1,0,0:0:0:0:
320,192,73667,1,0,0:0:0:0:
192,192,73774,1,0,0:0:0:0:
64,192,73774,1,0,0:0:0:0:
448,192,73774,1,0,0:0:0:0:
192,192,73882,1,0,0:0:0:0:
448,192,73989,1,0,0:0:0:0:
64,192,73989,1,0,0:0:0:0:
320,192,73989,1,0,0:0:0:0:
448,192,74096,1,0,0:0:0:0:
320,192,74203,1,0,0:0:0:0:
64,192,74203,1,0,0:0:0:0:
192,192,74203,1,0,0:0:0:0:
192,192,74310,1,0,0:0:0:0:
448,192,74417,1,0,0:0:0:0:
64,192,74417,1,0,0:0:0:0:
448,192,74524,1,0,0:0:0:0:
64,192,74632,1,0,0:0:0:0:
192,192,74632,1,0,0:0:0:0:
192,192,74739,1,0,0:0:0:0:
64,192,74846,1,0,0:0:0:0:
320,192,74846,1,0,0:0:0:0:
320,192,74953,1,0,0:0:0:0:
448,192,75060,1,0,0:0:0:0:
192,192,75060,1,0,0:0:0:0:
64,192,75060,1,0,0:0:0:0:
64,192,75167,1,0,0:0:0:0:
192,192,75274,1,0,0:0:0:0:
320,192,75274,1,0,0:0:0:0:
448,192,75274,1,0,0:0:0:0:
320,192,75382,1,0,0:0:0:0:
64,192,75489,1,0,0:0:0:0:
192,192,75489,1,0,0:0:0:0:
448,192,75489,1,0,0:0:0:0:
448,192,75596,1,0,0:0:0:0:
320,192,75703,1,0,0:0:0:0:
192,192,75703,1,0,0:0:0:0:
192,192,75810,1,0,0:0:0:0:
64,192,75917,1,0,0:0:0:0:
192,192,75917,1,0,0:0:0:0:
320,192,75917,1,0,0:0:0:0:
448,192,75917,1,0,0:0:0:0:
320,192,76024,1,0,0:0:0:0:
64,192,76132,1,0,0:0:0:0:
192,192,76132,1,0,0:0:0:0:
448,192,76239,1,0,0:0:0:0:
64,192,76239,1,0,0:0:0:0:
320,192,76346,1,0,0:0:0:0:
192,192,76346,1,0,0:0:0:0:
192,192,76453,1,0,0:0:0:0:
448,192,76560,1,0,0:0:0:0:
320,192,76560,1,0,0:0:0:0:
448,192,76667,1,0,0:0:0:0:
64,192,76774,1,0,0:0:0:0:
192,192,76774,1,0,0:0:0:0:
320,192,76774,1,0,0:0:0:0:
192,192,76882,1,0,0:0:0:0:
448,192,76989,1,0,0:0:0:0:
320,192,76989,1,0,0:0:0:0:
64,192,76989,1,0,0:0:0:0:
320,192,77096,1,0,0:0:0:0:
448,192,77203,1,0,0:0:0:0:
192,192,77203,1,0,0:0:0:0:
64,192,77203,1,0,0:0:0:0:
64,192,77310,1,0,0:0:0:0:
192,192,77417,1,0,0:0:0:0:
448,192,77417,1,0,0:0:0:0:
320,192,77417,1,0,0:0:0:0:
192,192,77524,1,0,0:0:0:0:
320,192,77632,1,0,0:0:0:0:
448,192,77632,1,0,0:0:0:0:
64,192,77632,1,0,0:0:0:0:
448,192,77739,1,0,0:0:0:0:
320,192,77846,1,0,0:0:0:0:
64,192,77846,1,0,0:0:0:0:
320,192,77953,1,0,0:0:0:0:
192,192,78060,1,0,0:0:0:0:
448,192,78060,1,0,0:0:0:0:
448,192,78167,1,0,0:0:0:0:
192,192,78274,1,0,0:0:0:0:
64,192,78274,1,0,0:0:0:0:
192,192,78382,1,0,0:0:0:0:
64,192,78489,1,0,0:0:0:0:
448,192,78489,1,0,0:0:0:0:
320,192,78489,1,0,0:0:0:0:
320,192,78596,1,0,0:0:0:0:
448,192,78703,1,0,0:0:0:0:
192,192,78703,1,0,0:0:0:0:
64,192,78703,1,0,0:0:0:0:
192,192,78810,1,0,0:0:0:0:
64,192,78917,1,0,0:0:0:0:
320,192,78917,1,0,0:0:0:0:
448,192,78917,1,0,0:0:0:0:
64,192,79024,1,0,0:0:0:0:
448,192,79132,1,0,0:0:0:0:
320,192,79132,1,0,0:0:0:0:
192,192,79132,1,0,0:0:0:0:
320,192,79239,1,0,0:0:0:0:
192,192,79346,1,0,0:0:0:0:
448,192,79346,1,0,0:0:0:0:
64,192,79346,1,0,0:0:0:0:
192,192,79453,1,0,0:0:0:0:
64,192,79560,1,0,0:0:0:0:
448,192,79560,1,0,0:0:0:0:
448,192,79667,1,0,0:0:0:0:
320,192,79774,1,0,0:0:0:0:
192,192,79774,1,0,0:0:0:0:
320,192,79882,1,0,0:0:0:0:
64,192,79989,1,0,0:0:0:0:
192,192,79989,1,0,0:0:0:0:
64,192,80096,1,0,0:0:0:0:
192,192,80203,1,0,0:0:0:0:
448,192,80203,1,0,0:0:0:0:
320,192,80203,1,0,0:0:0:0:
192,192,80310,1,0,0:0:0:0:
448,192,80417,1,0,0:0:0:0:
320,192,80417,1,0,0:0:0:0:
64,192,80417,1,0,0:0:0:0:
320,192,80524,1,0,0:0:0:0:
192,192,80632,1,0,0:0:0:0:
64,192,80632,1,0,0:0:0:0:
448,192,80632,1,0,0:0:0:0:
192,192,80739,1,0,0:0:0:0:
448,192,80846,1,0,0:0:0:0:
64,192,80846,1,0,0:0:0:0:
320,192,80846,1,0,0:0:0:0:
448,192,80953,1,0,0:0:0:0:
64,192,81060,1,0,0:0:0:0:
192,192,81060,1,0,0:0:0:0:
320,192,81060,1,0,0:0:0:0:
192,192,81167,1,0,0:0:0:0:
448,192,81274,1,0,0:0:0:0:
64,192,81274,1,0,0:0:0:0:
448,192,81382,1,0,0:0:0:0:
64,192,81489,1,0,0:0:0:0:
192,192,81489,1,0,0:0:0:0:
192,192,81596,1,0,0:0:0:0:
64,192,81703,1,0,0:0:0:0:
320,192,81703,1,0,0:0:0:0:
320,192,81810,1,0,0:0:0:0:
192,192,81917,1,0,0:0:0:0:
448,192,81917,1,0,0:0:0:0:
64,192,81917,1,0,0:0:0:0:
320,192,81917,1,0,0:0:0:0:
64,192,82132,1,0,0:0:0:0:
192,192,82132,1,0,0:0:0:0:
320,192,82132,1,0,0:0:0:0:
448,192,82132,1,0,0:0:0:0:
448,192,82346,1,0,0:0:0:0:
320,192,82346,1,0,0:0:0:0:
192,192,82346,1,0,0:0:0:0:
64,192,82560,1,0,0:0:0:0:
192,192,82560,1,0,0:0:0:0:
320,192,82560,1,0,0:0:0:0:
448,192,82774,1,0,0:0:0:0:
320,192,82774,1,0,0:0:0:0:
192,192,82774,1,0,0:0:0:0:
64,192,82774,1,0,0:0:0:0:
448,192,82882,1,0,0:0:0:0:
320,192,82882,1,0,0:0:0:0:
64,192,82989,1,0,0:0:0:0:
320,192,82989,1,0,0:0:0:0:
320,192,83096,1,0,0:0:0:0:
64,192,83096,1,0,0:0:0:0:
64,192,83203,1,0,0:0:0:0:
192,192,83203,1,0,0:0:0:0:
320,192,83203,1,0,0:0:0:0:
192,192,83417,1,0,0:0:0:0:
192,192,83632,1,0,0:0:0:0:
320,192,83632,1,0,0:0:0:0:
448,192,83739,1,0,0:0:0:0:
320,192,83739,1,0,0:0:0:0:
64,192,83739,1,0,0:0:0:0:
192,192,83953,1,0,0:0:0:0:
320,192,83953,1,0,0:0:0:0:
64,192,83953,1,0,0:0:0:0:
64,192,84167,1,0,0:0:0:0:
320,192,84167,1,0,0:0:0:0:
448,192,84167,1,0,0:0:0:0:
192,192,84274,1,0,0:0:0:0:
448,192,84274,1,0,0:0:0:0:
448,192,84703,1,0,0:0:0:0:
320,192,84703,1,0,0:0:0:0:
64,192,84703,1,0,0:0:0:0:
64,192,84810,1,0,0:0:0:0:
192,192,84810,1,0,0:0:0:0:
192,192,84917,1,0,0:0:0:0:
320,192,84917,1,0,0:0:0:0:
448,192,84917,1,0,0:0:0:0:
448,192,85132,1,0,0:0:0:0:
320,192,85132,1,0,0:0:0:0:
64,192,85132,1,0,0:0:0:0:
320,192,85346,1,0,0:0:0:0:
192,192,85346,1,0,0:0:0:0:
64,192,85346,1,0,0:0:0:0:
192,192,85560,1,0,0:0:0:0:
320,192,85560,1,0,0:0:0:0:
448,192,85560,1,0,0:0:0:0:
320,192,85774,1,0,0:0:0:0:
192,192,85774,1,0,0:0:0:0:
64,192,85774,1,0,0:0:0:0:
192,192,85989,1,0,0:0:0:0:
320,192,85989,1,0,0:0:0:0:
448,192,85989,1,0,0:0:0:0:
448,192,86417,1,0,0:0:0:0:
192,192,86417,1,0,0:0:0:0:
64,192,86417,1,0,0:0:0:0:
64,192,86524,1,0,0:0:0:0:
192,192,86524,1,0,0:0:0:0:
192,192,86632,1,0,0:0:0:0:
320,192,86632,1,0,0:0:0:0:
448,192,86632,1,0,0:0:0:0:
448,192,86846,1,0,0:0:0:0:
192,192,86846,1,0,0:0:0:0:
64,192,86846,1,0,0:0:0:0:
448,192,87060,1,0,0:0:0:0:
320,192,87060,1,0,0:0:0:0:
64,192,87167,1,0,0:0:0:0:
192,192,87167,1,0,0:0:0:0:
320,192,87167,1,0,0:0:0:0:
448,192,87382,1,0,0:0:0:0:
64,192,87382,1,0,0:0:0:0:
448,192,87596,1,0,0:0:0:0:
320,192,87596,1,0,0:0:0:0:
64,192,87596,1,0,0:0:0:0:
192,192,87703,1,0,0:0:0:0:
320,192,87703,1,0,0:0:0:0:
192,192,88132,1,0,0:0:0:0:
64,192,88132,1,0,0:0:0:0:
448,192,88132,1,0,0:0:0:0:
320,192,88239,1,0,0:0:0:0:
64,192,88239,1,0,0:0:0:0:
320,192,88346,1,0,0:0:0:0:
192,192,88346,1,0,0:0:0:0:
448,192,88346,1,0,0:0:0:0:
192,192,88560,1,0,0:0:0:0:
320,192,88560,1,0,0:0:0:0:
320,192,88774,128,0,88882:0:0:0:0:
64,192,88774,1,0,0:0:0:0:
448,192,88774,1,0,0:0:0:0:
192,192,88989,128,0,89096:0:0:0:0:
448,192,88989,1,0,0:0:0:0:
64,192,88989,1,0,0:0:0:0:
320,192,89203,128,0,89310:0:0:0:0:
64,192,89203,1,0,0:0:0:0:
448,192,89203,1,0,0:0:0:0:
192,192,89417,128,0,89524:0:0:0:0:
448,192,89417,1,0,0:0:0:0:
64,192,89417,1,0,0:0:0:0:
448,192,89632,1,0,0:0:0:0:
320,192,89632,1,0,0:0:0:0:
64,192,89632,1,0,0:0:0:0:
64,192,89739,1,0,0:0:0:0:
320,192,89739,1,0,0:0:0:0:
320,192,89846,1,0,0:0:0:0:
64,192,89846,1,0,0:0:0:0:
320,192,89953,1,0,0:0:0:0:
192,192,89953,1,0,0:0:0:0:
320,192,90060,1,0,0:0:0:0:
192,192,90060,1,0,0:0:0:0:
64,192,90060,1,0,0:0:0:0:
320,192,90489,1,0,0:0:0:0:
448,192,90489,1,0,0:0:0:0:
64,192,90596,1,0,0:0:0:0:
320,192,90596,1,0,0:0:0:0:
448,192,90596,1,0,0:0:0:0:
192,192,90810,1,0,0:0:0:0:
64,192,90810,1,0,0:0:0:0:
320,192,90810,1,0,0:0:0:0:
192,192,91024,1,0,0:0:0:0:
320,192,91024,1,0,0:0:0:0:
448,192,91024,1,0,0:0:0:0:
64,192,91132,1,0,0:0:0:0:
192,192,91132,1,0,0:0:0:0:
192,192,91346,1,0,0:0:0:0:
448,192,91346,1,0,0:0:0:0:
192,192,91560,1,0,0:0:0:0:
64,192,91560,1,0,0:0:0:0:
320,192,91560,1,0,0:0:0:0:
448,192,91667,1,0,0:0:0:0:
192,192,91667,1,0,0:0:0:0:
64,192,91774,1,0,0:0:0:0:
192,192,91774,1,0,0:0:0:0:
320,192,91774,1,0,0:0:0:0:
192,192,91989,1,0,0:0:0:0:
320,192,91989,1,0,0:0:0:0:
448,192,91989,1,0,0:0:0:0:
64,192,92203,1,0,0:0:0:0:
320,192,92203,1,0,0:0:0:0:
448,192,92203,1,0,0:0:0:0:
448,192,92417,1,0,0:0:0:0:
192,192,92417,1,0,0:0:0:0:
64,192,92417,1,0,0:0:0:0:
64,192,92632,1,0,0:0:0:0:
320,192,92632,1,0,0:0:0:0:
448,192,92632,1,0,0:0:0:0:
448,192,92846,1,0,0:0:0:0:
192,192,92846,1,0,0:0:0:0:
64,192,92846,1,0,0:0:0:0:
64,192,93060,1,0,0:0:0:0:
448,192,93060,1,0,0:0:0:0:
320,192,93060,1,0,0:0:0:0:
192,192,93060,1,0,0:0:0:0:
192,192,93274,1,0,0:0:0:0:
448,192,93274,1,0,0:0:0:0:
448,192,93382,1,0,0:0:0:0:
320,192,93382,1,0,0:0:0:0:
448,192,93489,1,0,0:0:0:0:
64,192,93489,1,0,0:0:0:0:
192,192,93489,1,0,0:0:0:0:
448,192,93703,1,0,0:0:0:0:
192,192,93703,1,0,0:0:0:0:
64,192,93703,1,0,0:0:0:0:
192,192,93917,1,0,0:0:0:0:
320,192,93917,1,0,0:0:0:0:
448,192,93917,1,0,0:0:0:0:
64,192,94132,1,0,0:0:0:0:
192,192,94132,1,0,0:0:0:0:
448,192,94132,1,0,0:0:0:0:
192,192,94346,1,0,0:0:0:0:
64,192,94346,1,0,0:0:0:0:
448,192,94346,1,0,0:0:0:0:
192,192,94453,1,0,0:0:0:0:
320,192,94453,1,0,0:0:0:0:
192,192,94560,1,0,0:0:0:0:
448,192,94560,1,0,0:0:0:0:
64,192,94774,1,0,0:0:0:0:
320,192,94774,1,0,0:0:0:0:
448,192,94774,1,0,0:0:0:0:
192,192,94882,1,0,0:0:0:0:
320,192,94989,1,0,0:0:0:0:
448,192,94989,1,0,0:0:0:0:
192,192,95096,1,0,0:0:0:0:
64,192,95096,1,0,0:0:0:0:
192,192,95203,1,0,0:0:0:0:
320,192,95203,1,0,0:0:0:0:
448,192,95203,1,0,0:0:0:0:
64,192,95310,5,0,0:0:0:0:
448,192,95417,1,0,0:0:0:0:
320,192,95417,1,0,0:0:0:0:
192,192,95524,1,0,0:0:0:0:
64,192,95524,1,0,0:0:0:0:
64,192,95632,1,0,0:0:0:0:
192,192,95632,1,0,0:0:0:0:
320,192,95632,1,0,0:0:0:0:
448,192,95632,1,0,0:0:0:0:
64,192,96489,5,0,0:0:0:0:
192,192,96489,1,0,0:0:0:0:
320,192,96489,1,0,0:0:0:0:
448,192,96489,1,0,0:0:0:0:
64,192,96596,1,0,0:0:0:0:
192,192,96596,1,0,0:0:0:0:
320,192,96596,1,0,0:0:0:0:
448,192,96703,1,0,0:0:0:0:
320,192,96703,1,0,0:0:0:0:
192,192,96703,1,0,0:0:0:0:
64,192,96703,1,0,0:0:0:0:
192,192,96810,1,0,0:0:0:0:
448,192,96810,1,0,0:0:0:0:
320,192,96810,1,0,0:0:0:0:
448,192,96917,1,0,0:0:0:0:
192,192,96917,1,0,0:0:0:0:
64,192,96917,1,0,0:0:0:0:
64,192,97024,1,0,0:0:0:0:
320,192,97024,1,0,0:0:0:0:
448,192,97024,1,0,0:0:0:0:
448,192,97132,1,0,0:0:0:0:
320,192,97132,1,0,0:0:0:0:
192,192,97132,1,0,0:0:0:0:
64,192,97132,1,0,0:0:0:0:
64,192,97239,1,0,0:0:0:0:
192,192,97239,1,0,0:0:0:0:
448,192,97239,1,0,0:0:0:0:
448,192,97346,1,0,0:0:0:0:
320,192,97346,1,0,0:0:0:0:
64,192,97346,1,0,0:0:0:0:
64,192,97453,1,0,0:0:0:0:
192,192,97453,1,0,0:0:0:0:
320,192,97453,1,0,0:0:0:0:
448,192,97560,1,0,0:0:0:0:
320,192,97560,1,0,0:0:0:0:
192,192,97560,1,0,0:0:0:0:
64,192,97560,1,0,0:0:0:0:
448,192,97667,1,0,0:0:0:0:
320,192,97667,1,0,0:0:0:0:
192,192,97667,1,0,0:0:0:0:
64,192,97774,1,0,0:0:0:0:
192,192,97774,1,0,0:0:0:0:
448,192,97774,1,0,0:0:0:0:
320,192,97882,1,0,0:0:0:0:
192,192,97882,1,0,0:0:0:0:
64,192,97882,1,0,0:0:0:0:
448,192,97989,1,0,0:0:0:0:
320,192,97989,1,0,0:0:0:0:
192,192,97989,1,0,0:0:0:0:
64,192,97989,1,0,0:0:0:0:
64,192,98096,1,0,0:0:0:0:
320,192,98096,1,0,0:0:0:0:
448,192,98096,1,0,0:0:0:0:
64,192,98203,1,0,0:0:0:0:
448,192,98203,1,0,0:0:0:0:
192,192,98203,1,0,0:0:0:0:
192,192,98310,1,0,0:0:0:0:
448,192,98310,1,0,0:0:0:0:
320,192,98310,1,0,0:0:0:0:
64,192,98417,1,0,0:0:0:0:
192,192,98417,1,0,0:0:0:0:
448,192,98417,1,0,0:0:0:0:
320,192,98417,1,0,0:0:0:0:
64,192,98524,1,0,0:0:0:0:
320,192,98524,1,0,0:0:0:0:
192,192,98524,1,0,0:0:0:0:
448,192,98632,1,0,0:0:0:0:
192,192,98632,1,0,0:0:0:0:
64,192,98632,1,0,0:0:0:0:
192,192,98739,1,0,0:0:0:0:
320,192,98739,1,0,0:0:0:0:
448,192,98739,1,0,0:0:0:0:
64,192,98846,1,0,0:0:0:0:
192,192,98846,1,0,0:0:0:0:
320,192,98846,1,0,0:0:0:0:
448,192,98846,1,0,0:0:0:0:
192,192,98953,1,0,0:0:0:0:
320,192,98953,1,0,0:0:0:0:
64,192,98953,1,0,0:0:0:0:
448,192,99060,1,0,0:0:0:0:
320,192,99060,1,0,0:0:0:0:
64,192,99060,1,0,0:0:0:0:
64,192,99167,1,0,0:0:0:0:
192,192,99167,1,0,0:0:0:0:
320,192,99167,1,0,0:0:0:0:
448,192,99274,1,0,0:0:0:0:
320,192,99274,1,0,0:0:0:0:
192,192,99274,1,0,0:0:0:0:
64,192,99274,1,0,0:0:0:0:
192,192,99382,1,0,0:0:0:0:
320,192,99382,1,0,0:0:0:0:
448,192,99382,1,0,0:0:0:0:
64,192,99489,1,0,0:0:0:0:
320,192,99489,1,0,0:0:0:0:
448,192,99489,1,0,0:0:0:0:
192,192,99596,1,0,0:0:0:0:
320,192,99596,1,0,0:0:0:0:
448,192,99596,1,0,0:0:0:0:
448,192,99703,1,0,0:0:0:0:
320,192,99703,1,0,0:0:0:0:
192,192,99703,1,0,0:0:0:0:
64,192,99703,1,0,0:0:0:0:
64,192,99810,1,0,0:0:0:0:
192,192,99810,1,0,0:0:0:0:
448,192,99810,1,0,0:0:0:0:
64,192,99917,1,0,0:0:0:0:
192,192,99917,1,0,0:0:0:0:
320,192,99917,1,0,0:0:0:0:
448,192,99917,1,0,0:0:0:0:
64,192,100024,1,0,0:0:0:0:
448,192,100024,1,0,0:0:0:0:
320,192,100024,1,0,0:0:0:0:
448,192,100132,1,0,0:0:0:0:
320,192,100132,1,0,0:0:0:0:
192,192,100132,1,0,0:0:0:0:
64,192,100132,1,0,0:0:0:0:
320,192,100239,1,0,0:0:0:0:
192,192,100239,1,0,0:0:0:0:
64,192,100239,1,0,0:0:0:0:
320,192,100346,1,0,0:0:0:0:
64,192,100346,1,0,0:0:0:0:
448,192,100346,1,0,0:0:0:0:
64,192,100453,1,0,0:0:0:0:
192,192,100453,1,0,0:0:0:0:
448,192,100453,1,0,0:0:0:0:
64,192,100560,1,0,0:0:0:0:
192,192,100560,1,0,0:0:0:0:
320,192,100560,1,0,0:0:0:0:
448,192,100560,1,0,0:0:0:0:
448,192,100667,1,0,0:0:0:0:
320,192,100667,1,0,0:0:0:0:
192,192,100667,1,0,0:0:0:0:
320,192,100774,1,0,0:0:0:0:
192,192,100774,1,0,0:0:0:0:
64,192,100774,1,0,0:0:0:0:
448,192,100882,1,0,0:0:0:0:
320,192,100882,1,0,0:0:0:0:
64,192,100882,1,0,0:0:0:0:
64,192,100989,1,0,0:0:0:0:
192,192,100989,1,0,0:0:0:0:
320,192,100989,1,0,0:0:0:0:
448,192,100989,1,0,0:0:0:0:
192,192,101096,1,0,0:0:0:0:
320,192,101096,1,0,0:0:0:0:
64,192,101096,1,0,0:0:0:0:
64,192,101203,1,0,0:0:0:0:
192,192,101203,1,0,0:0:0:0:
448,192,101203,1,0,0:0:0:0:
448,192,101310,1,0,0:0:0:0:
320,192,101310,1,0,0:0:0:0:
192,192,101310,1,0,0:0:0:0:
448,192,101417,1,0,0:0:0:0:
320,192,101417,1,0,0:0:0:0:
192,192,101417,1,0,0:0:0:0:
64,192,101417,1,0,0:0:0:0:
64,192,101524,1,0,0:0:0:0:
192,192,101524,1,0,0:0:0:0:
320,192,101524,1,0,0:0:0:0:
64,192,101632,1,0,0:0:0:0:
192,192,101632,1,0,0:0:0:0:
448,192,101632,1,0,0:0:0:0:
64,192,101739,1,0,0:0:0:0:
320,192,101739,1,0,0:0:0:0:
448,192,101739,1,0,0:0:0:0:
320,192,101846,1,0,0:0:0:0:
448,192,101846,1,0,0:0:0:0:
192,192,101846,1,0,0:0:0:0:
64,192,101846,1,0,0:0:0:0:
192,192,101953,1,0,0:0:0:0:
320,192,101953,1,0,0:0:0:0:
448,192,101953,1,0,0:0:0:0:
320,192,102060,1,0,0:0:0:0:
192,192,102060,1,0,0:0:0:0:
64,192,102060,1,0,0:0:0:0:
192,192,102167,1,0,0:0:0:0:
448,192,102167,1,0,0:0:0:0:
64,192,102167,1,0,0:0:0:0:
64,192,102274,1,0,0:0:0:0:
192,192,102274,1,0,0:0:0:0:
320,192,102274,1,0,0:0:0:0:
448,192,102274,1,0,0:0:0:0:
320,192,102382,1,0,0:0:0:0:
448,192,102382,1,0,0:0:0:0:
64,192,102382,1,0,0:0:0:0:
320,192,102489,1,0,0:0:0:0:
192,192,102489,1,0,0:0:0:0:
64,192,102489,1,0,0:0:0:0:
448,192,102596,1,0,0:0:0:0:
320,192,102596,1,0,0:0:0:0:
64,192,102596,1,0,0:0:0:0:
64,192,102703,1,0,0:0:0:0:
192,192,102703,1,0,0:0:0:0:
320,192,102703,1,0,0:0:0:0:
448,192,102703,1,0,0:0:0:0:
448,192,102810,1,0,0:0:0:0:
64,192,102810,1,0,0:0:0:0:
192,192,102810,1,0,0:0:0:0:
448,192,102917,1,0,0:0:0:0:
320,192,102917,1,0,0:0:0:0:
64,192,102917,1,0,0:0:0:0:
448,192,103024,1,0,0:0:0:0:
320,192,103024,1,0,0:0:0:0:
192,192,103024,1,0,0:0:0:0:
64,192,103132,1,0,0:0:0:0:
192,192,103132,1,0,0:0:0:0:
448,192,103132,1,0,0:0:0:0:
192,192,103239,1,0,0:0:0:0:
320,192,103239,1,0,0:0:0:0:
64,192,103239,1,0,0:0:0:0:
64,192,103346,5,0,0:0:0:0:
320,192,103346,1,0,0:0:0:0:
192,192,103346,1,0,0:0:0:0:
448,192,103346,1,0,0:0:0:0:
64,192,103453,1,0,0:0:0:0:
192,192,103453,1,0,0:0:0:0:
320,192,103453,1,0,0:0:0:0:
448,192,103560,1,0,0:0:0:0:
320,192,103560,1,0,0:0:0:0:
192,192,103560,1,0,0:0:0:0:
64,192,103560,1,0,0:0:0:0:
192,192,103667,1,0,0:0:0:0:
448,192,103667,1,0,0:0:0:0:
320,192,103667,1,0,0:0:0:0:
320,192,103774,1,0,0:0:0:0:
192,192,103774,1,0,0:0:0:0:
64,192,103774,1,0,0:0:0:0:
64,192,103882,1,0,0:0:0:0:
320,192,103882,1,0,0:0:0:0:
448,192,103882,1,0,0:0:0:0:
448,192,103989,1,0,0:0:0:0:
320,192,103989,1,0,0:0:0:0:
192,192,103989,1,0,0:0:0:0:
64,192,104096,1,0,0:0:0:0:
192,192,104096,1,0,0:0:0:0:
448,192,104096,1,0,0:0:0:0:
448,192,104203,1,0,0:0:0:0:
320,192,104203,1,0,0:0:0:0:
64,192,104203,1,0,0:0:0:0:
64,192,104310,1,0,0:0:0:0:
192,192,104310,1,0,0:0:0:0:
320,192,104310,1,0,0:0:0:0:
448,192,104417,1,0,0:0:0:0:
320,192,104417,1,0,0:0:0:0:
192,192,104417,1,0,0:0:0:0:
64,192,104417,1,0,0:0:0:0:
448,192,104524,1,0,0:0:0:0:
320,192,104524,1,0,0:0:0:0:
192,192,104524,1,0,0:0:0:0:
64,192,104632,1,0,0:0:0:0:
192,192,104632,1,0,0:0:0:0:
448,192,104632,1,0,0:0:0:0:
320,192,104739,1,0,0:0:0:0:
192,192,104739,1,0,0:0:0:0:
64,192,104739,1,0,0:0:0:0:
448,192,104846,1,0,0:0:0:0:
320,192,104846,1,0,0:0:0:0:
192,192,104846,1,0,0:0:0:0:
64,192,104846,1,0,0:0:0:0:
64,192,104953,1,0,0:0:0:0:
320,192,104953,1,0,0:0:0:0:
448,192,104953,1,0,0:0:0:0:
64,192,105060,1,0,0:0:0:0:
192,192,105060,1,0,0:0:0:0:
448,192,105060,1,0,0:0:0:0:
192,192,105167,1,0,0:0:0:0:
448,192,105167,1,0,0:0:0:0:
320,192,105167,1,0,0:0:0:0:
64,192,105274,1,0,0:0:0:0:
192,192,105274,1,0,0:0:0:0:
448,192,105274,1,0,0:0:0:0:
320,192,105274,1,0,0:0:0:0:
64,192,105382,1,0,0:0:0:0:
320,192,105382,1,0,0:0:0:0:
192,192,105382,1,0,0:0:0:0:
448,192,105489,1,0,0:0:0:0:
192,192,105489,1,0,0:0:0:0:
64,192,105489,1,0,0:0:0:0:
192,192,105596,1,0,0:0:0:0:
320,192,105596,1,0,0:0:0:0:
64,192,105703,1,0,0:0:0:0:
192,192,105703,1,0,0:0:0:0:
320,192,105703,1,0,0:0:0:0:
448,192,105703,1,0,0:0:0:0:
448,192,105810,1,0,0:0:0:0:
64,192,105810,1,0,0:0:0:0:
192,192,105917,1,0,0:0:0:0:
448,192,105917,1,0,0:0:0:0:
320,192,105917,1,0,0:0:0:0:
64,192,106024,1,0,0:0:0:0:
192,192,106024,1,0,0:0:0:0:
448,192,106132,1,0,0:0:0:0:
320,192,106132,1,0,0:0:0:0:
192,192,106132,1,0,0:0:0:0:
64,192,106132,1,0,0:0:0:0:
320,192,106239,1,0,0:0:0:0:
448,192,106239,1,0,0:0:0:0:
192,192,106346,1,0,0:0:0:0:
64,192,106346,1,0,0:0:0:0:
320,192,106346,1,0,0:0:0:0:
192,192,106453,1,0,0:0:0:0:
448,192,106453,1,0,0:0:0:0:
448,192,106560,1,0,0:0:0:0:
320,192,106560,1,0,0:0:0:0:
192,192,106560,1,0,0:0:0:0:
64,192,106560,1,0,0:0:0:0:
192,192,106667,1,0,0:0:0:0:
320,192,106667,1,0,0:0:0:0:
64,192,106774,1,0,0:0:0:0:
192,192,106774,1,0,0:0:0:0:
320,192,106774,1,0,0:0:0:0:
448,192,106774,1,0,0:0:0:0:
448,192,106882,1,0,0:0:0:0:
320,192,106882,1,0,0:0:0:0:
448,192,106989,1,0,0:0:0:0:
320,192,106989,1,0,0:0:0:0:
192,192,106989,1,0,0:0:0:0:
64,192,106989,1,0,0:0:0:0:
192,192,107096,1,0,0:0:0:0:
64,192,107096,1,0,0:0:0:0:
192,192,107203,1,0,0:0:0:0:
320,192,107203,1,0,0:0:0:0:
448,192,107203,1,0,0:0:0:0:
192,192,107310,1,0,0:0:0:0:
448,192,107310,1,0,0:0:0:0:
64,192,107417,1,0,0:0:0:0:
192,192,107417,1,0,0:0:0:0:
320,192,107417,1,0,0:0:0:0:
448,192,107417,1,0,0:0:0:0:
448,192,107524,1,0,0:0:0:0:
64,192,107524,1,0,0:0:0:0:
320,192,107632,1,0,0:0:0:0:
192,192,107632,1,0,0:0:0:0:
64,192,107632,1,0,0:0:0:0:
320,192,107739,1,0,0:0:0:0:
64,192,107739,1,0,0:0:0:0:
64,192,107846,1,0,0:0:0:0:
192,192,107846,1,0,0:0:0:0:
320,192,107846,1,0,0:0:0:0:
448,192,107846,1,0,0:0:0:0:
192,192,107953,1,0,0:0:0:0:
320,192,107953,1,0,0:0:0:0:
64,192,108060,1,0,0:0:0:0:
192,192,108060,1,0,0:0:0:0:
448,192,108060,1,0,0:0:0:0:
320,192,108167,1,0,0:0:0:0:
192,192,108167,1,0,0:0:0:0:
448,192,108274,1,0,0:0:0:0:
320,192,108274,1,0,0:0:0:0:
192,192,108274,1,0,0:0:0:0:
64,192,108274,1,0,0:0:0:0:
64,192,108382,1,0,0:0:0:0:
320,192,108382,1,0,0:0:0:0:
64,192,108489,1,0,0:0:0:0:
192,192,108489,1,0,0:0:0:0:
448,192,108489,1,0,0:0:0:0:
64,192,108596,1,0,0:0:0:0:
320,192,108596,1,0,0:0:0:0:
320,192,108703,1,0,0:0:0:0:
448,192,108703,1,0,0:0:0:0:
192,192,108703,1,0,0:0:0:0:
64,192,108703,1,0,0:0:0:0:
320,192,108810,1,0,0:0:0:0:
448,192,108810,1,0,0:0:0:0:
320,192,108917,1,0,0:0:0:0:
192,192,108917,1,0,0:0:0:0:
64,192,108917,1,0,0:0:0:0:
192,192,109024,1,0,0:0:0:0:
448,192,109024,1,0,0:0:0:0:
64,192,109132,1,0,0:0:0:0:
192,192,109132,1,0,0:0:0:0:
320,192,109132,1,0,0:0:0:0:
448,192,109132,1,0,0:0:0:0:
320,192,109239,1,0,0:0:0:0:
64,192,109239,1,0,0:0:0:0:
448,192,109346,1,0,0:0:0:0:
192,192,109346,1,0,0:0:0:0:
64,192,109346,1,0,0:0:0:0:
448,192,109453,1,0,0:0:0:0:
64,192,109453,1,0,0:0:0:0:
64,192,109560,1,0,0:0:0:0:
192,192,109560,1,0,0:0:0:0:
320,192,109560,1,0,0:0:0:0:
448,192,109560,1,0,0:0:0:0:
448,192,109667,1,0,0:0:0:0:
192,192,109667,1,0,0:0:0:0:
192,192,109774,1,0,0:0:0:0:
320,192,109774,1,0,0:0:0:0:
64,192,109774,1,0,0:0:0:0:
64,192,109882,1,0,0:0:0:0:
448,192,109882,1,0,0:0:0:0:
320,192,109989,1,0,0:0:0:0:
64,192,109989,1,0,0:0:0:0:
192,192,109989,1,0,0:0:0:0:
448,192,109989,1,0,0:0:0:0:
192,192,110096,1,0,0:0:0:0:
320,192,110096,1,0,0:0:0:0:
448,192,110203,1,0,0:0:0:0:
320,192,110203,1,0,0:0:0:0:
192,192,110203,1,0,0:0:0:0:
64,192,110203,1,0,0:0:0:0:
192,192,110310,1,0,0:0:0:0:
64,192,110310,1,0,0:0:0:0:
64,192,110417,1,0,0:0:0:0:
192,192,110417,1,0,0:0:0:0:
320,192,110417,1,0,0:0:0:0:
448,192,110417,1,0,0:0:0:0:
448,192,110524,1,0,0:0:0:0:
192,192,110524,1,0,0:0:0:0:
320,192,110632,1,0,0:0:0:0:
192,192,110632,1,0,0:0:0:0:
64,192,110632,1,0,0:0:0:0:
64,192,110739,1,0,0:0:0:0:
448,192,110739,1,0,0:0:0:0:
64,192,110846,1,0,0:0:0:0:
192,192,110846,1,0,0:0:0:0:
320,192,110846,1,0,0:0:0:0:
448,192,110846,1,0,0:0:0:0:
320,192,110953,1,0,0:0:0:0:
448,192,110953,1,0,0:0:0:0:
192,192,111060,1,0,0:0:0:0:
448,192,111060,1,0,0:0:0:0:
320,192,111060,1,0,0:0:0:0:
64,192,111060,1,0,0:0:0:0:
192,192,111167,1,0,0:0:0:0:
64,192,111167,1,0,0:0:0:0:
448,192,111274,1,0,0:0:0:0:
320,192,111274,1,0,0:0:0:0:
192,192,111274,1,0,0:0:0:0:
64,192,111274,1,0,0:0:0:0:
320,192,111382,1,0,0:0:0:0:
448,192,111382,1,0,0:0:0:0:
320,192,111489,1,0,0:0:0:0:
64,192,111489,1,0,0:0:0:0:
448,192,111489,1,0,0:0:0:0:
320,192,111596,1,0,0:0:0:0:
64,192,111596,1,0,0:0:0:0:
448,192,111703,1,0,0:0:0:0:
320,192,111703,1,0,0:0:0:0:
192,192,111703,1,0,0:0:0:0:
64,192,111703,1,0,0:0:0:0:
192,192,111810,1,0,0:0:0:0:
448,192,111810,1,0,0:0:0:0:
320,192,111917,1,0,0:0:0:0:
192,192,111917,1,0,0:0:0:0:
64,192,111917,1,0,0:0:0:0:
448,192,111917,1,0,0:0:0:0:
320,192,112024,1,0,0:0:0:0:
64,192,112024,1,0,0:0:0:0:
448,192,112132,1,0,0:0:0:0:
320,192,112132,1,0,0:0:0:0:
192,192,112132,1,0,0:0:0:0:
64,192,112132,1,0,0:0:0:0:
320,192,112239,1,0,0:0:0:0:
448,192,112239,1,0,0:0:0:0:
320,192,112346,1,0,0:0:0:0:
448,192,112346,1,0,0:0:0:0:
192,192,112346,1,0,0:0:0:0:
64,192,112453,1,0,0:0:0:0:
192,192,112453,1,0,0:0:0:0:
448,192,112560,1,0,0:0:0:0:
320,192,112560,1,0,0:0:0:0:
192,192,112560,1,0,0:0:0:0:
64,192,112560,1,0,0:0:0:0:
320,192,112667,1,0,0:0:0:0:
192,192,112667,1,0,0:0:0:0:
192,192,112774,1,0,0:0:0:0:
64,192,112774,1,0,0:0:0:0:
320,192,112774,1,0,0:0:0:0:
448,192,112774,1,0,0:0:0:0:
64,192,112882,1,0,0:0:0:0:
448,192,112882,1,0,0:0:0:0:
448,192,112989,1,0,0:0:0:0:
320,192,112989,1,0,0:0:0:0:
64,192,112989,1,0,0:0:0:0:
192,192,112989,1,0,0:0:0:0:
64,192,113096,1,0,0:0:0:0:
192,192,113096,1,0,0:0:0:0:
320,192,113096,1,0,0:0:0:0:
448,192,113096,1,0,0:0:0:0:
192,192,113203,1,0,0:0:0:0:
320,192,113203,1,0,0:0:0:0:
448,192,113203,1,0,0:0:0:0:
64,192,113310,1,0,0:0:0:0:
448,192,113310,1,0,0:0:0:0:
192,192,113417,1,0,0:0:0:0:
320,192,113417,1,0,0:0:0:0:
448,192,113417,1,0,0:0:0:0:
320,192,113524,1,0,0:0:0:0:
64,192,113524,1,0,0:0:0:0:
64,192,113632,1,0,0:0:0:0:
192,192,113632,1,0,0:0:0:0:
320,192,113632,1,0,0:0:0:0:
448,192,113632,1,0,0:0:0:0:
64,192,113846,1,0,0:0:0:0:
192,192,113846,1,0,0:0:0:0:
320,192,113846,1,0,0:0:0:0:
448,192,113846,1,0,0:0:0:0:
192,192,114060,1,0,0:0:0:0:
320,192,114060,1,0,0:0:0:0:
448,192,114060,1,0,0:0:0:0:
320,192,114274,1,0,0:0:0:0:
192,192,114274,1,0,0:0:0:0:
64,192,114274,1,0,0:0:0:0:
448,192,114489,1,0,0:0:0:0:
320,192,114489,1,0,0:0:0:0:
64,192,114489,1,0,0:0:0:0:
64,192,114703,1,0,0:0:0:0:
192,192,114703,1,0,0:0:0:0:
448,192,114703,1,0,0:0:0:0:
320,192,114917,1,0,0:0:0:0:
192,192,114917,1,0,0:0:0:0:
448,192,114917,1,0,0:0:0:0:
64,192,115132,1,0,0:0:0:0:
320,192,115132,1,0,0:0:0:0:
192,192,115132,1,0,0:0:0:0:
192,192,115239,1,0,0:0:0:0:
320,192,115239,1,0,0:0:0:0:
448,192,115346,1,0,0:0:0:0:
64,192,115346,1,0,0:0:0:0:
320,192,115417,1,0,0:0:0:0:
192,192,115417,1,0,0:0:0:0:
64,192,115489,1,0,0:0:0:0:
448,192,115489,1,0,0:0:0:0:
320,192,115560,1,0,0:0:0:0:
192,192,115560,1,0,0:0:0:0:
64,192,115632,1,0,0:0:0:0:
192,192,115703,1,0,0:0:0:0:
448,192,115774,1,0,0:0:0:0:
320,192,115774,1,0,0:0:0:0:
192,192,115846,1,0,0:0:0:0:
448,192,115917,1,0,0:0:0:0:
64,192,115917,1,0,0:0:0:0:
320,192,115989,1,0,0:0:0:0:
192,192,115989,1,0,0:0:0:0:
448,192,116060,1,0,0:0:0:0:
320,192,116132,1,0,0:0:0:0:
448,192,116203,1,0,0:0:0:0:
192,192,116203,1,0,0:0:0:0:
64,192,116203,1,0,0:0:0:0:
192,192,116632,1,0,0:0:0:0:
64,192,117060,128,0,117274:0:0:0:0:
448,192,117060,1,0,0:0:0:0:
320,192,117060,1,0,0:0:0:0:
192,192,117060,1,0,0:0:0:0:
192,192,117274,1,0,0:0:0:0:
192,192,117382,1,0,0:0:0:0:
192,192,117489,1,0,0:0:0:0:
192,192,117596,1,0,0:0:0:0:
192,192,117703,1,0,0:0:0:0:
192,192,117810,1,0,0:0:0:0:
448,192,117917,128,0,118132:0:0:0:0:
320,192,118132,1,0,0:0:0:0:
320,192,118239,1,0,0:0:0:0:
320,192,118346,1,0,0:0:0:0:
320,192,118453,1,0,0:0:0:0:
320,192,118560,1,0,0:0:0:0:
320,192,118667,1,0,0:0:0:0:
64,192,118774,128,0,118989:0:0:0:0:
192,192,118989,1,0,0:0:0:0:
192,192,119096,1,0,0:0:0:0:
192,192,119203,1,0,0:0:0:0:
192,192,119310,1,0,0:0:0:0:
192,192,119417,1,0,0:0:0:0:
192,192,119524,1,0,0:0:0:0:
64,192,119632,1,0,0:0:0:0:
448,192,119632,1,0,0:0:0:0:
192,192,119703,1,0,0:0:0:0:
320,192,119774,1,0,0:0:0:0:
448,192,119846,1,0,0:0:0:0:
64,192,119846,1,0,0:0:0:0:
192,192,119917,1,0,0:0:0:0:
64,192,119989,1,0,0:0:0:0:
448,192,120060,1,0,0:0:0:0:
320,192,120060,1,0,0:0:0:0:
192,192,120132,1,0,0:0:0:0:
64,192,120203,1,0,0:0:0:0:
448,192,120274,1,0,0:0:0:0:
320,192,120274,1,0,0:0:0:0:
192,192,120274,1,0,0:0:0:0:
64,192,120382,1,0,0:0:0:0:
192,192,120382,1,0,0:0:0:0:
320,192,120382,1,0,0:0:0:0:
320,192,120489,1,0,0:0:0:0:
448,192,120489,1,0,0:0:0:0:
64,192,120489,1,0,0:0:0:0:
192,192,120489,1,0,0:0:0:0:
320,192,120596,1,0,0:0:0:0:
320,192,120703,1,0,0:0:0:0:
448,192,120703,1,0,0:0:0:0:
64,192,120703,1,0,0:0:0:0:
448,192,120810,1,0,0:0:0:0:
192,192,120810,1,0,0:0:0:0:
320,192,120917,1,0,0:0:0:0:
64,192,120917,1,0,0:0:0:0:
192,192,121024,1,0,0:0:0:0:
192,192,121132,1,0,0:0:0:0:
448,192,121132,1,0,0:0:0:0:
320,192,121132,1,0,0:0:0:0:
64,192,121239,1,0,0:0:0:0:
64,192,121346,1,0,0:0:0:0:
320,192,121346,1,0,0:0:0:0:
192,192,121346,1,0,0:0:0:0:
448,192,121453,1,0,0:0:0:0:
448,192,121560,1,0,0:0:0:0:
320,192,121560,1,0,0:0:0:0:
192,192,121560,1,0,0:0:0:0:
64,192,121667,1,0,0:0:0:0:
320,192,121667,1,0,0:0:0:0:
192,192,121774,1,0,0:0:0:0:
448,192,121882,1,0,0:0:0:0:
448,192,121989,1,0,0:0:0:0:
192,192,121989,1,0,0:0:0:0:
64,192,121989,1,0,0:0:0:0:
320,192,122096,1,0,0:0:0:0:
448,192,122096,1,0,0:0:0:0:
64,192,122203,1,0,0:0:0:0:
192,192,122203,1,0,0:0:0:0:
320,192,122203,1,0,0:0:0:0:
64,192,122310,1,0,0:0:0:0:
192,192,122417,1,0,0:0:0:0:
320,192,122417,1,0,0:0:0:0:
448,192,122417,1,0,0:0:0:0:
64,192,122524,1,0,0:0:0:0:
320,192,122524,1,0,0:0:0:0:
448,192,122632,1,0,0:0:0:0:
192,192,122632,1,0,0:0:0:0:
448,192,122739,1,0,0:0:0:0:
192,192,122739,1,0,0:0:0:0:
64,192,122846,1,0,0:0:0:0:
192,192,122846,1,0,0:0:0:0:
320,192,122846,1,0,0:0:0:0:
320,192,122953,1,0,0:0:0:0:
448,192,122953,1,0,0:0:0:0:
192,192,123060,1,0,0:0:0:0:
448,192,123060,1,0,0:0:0:0:
64,192,123060,1,0,0:0:0:0:
320,192,123167,1,0,0:0:0:0:
192,192,123167,1,0,0:0:0:0:
64,192,123274,1,0,0:0:0:0:
320,192,123274,1,0,0:0:0:0:
448,192,123274,1,0,0:0:0:0:
192,192,123382,1,0,0:0:0:0:
320,192,123382,1,0,0:0:0:0:
64,192,123489,1,0,0:0:0:0:
192,192,123489,1,0,0:0:0:0:
448,192,123596,1,0,0:0:0:0:
320,192,123596,1,0,0:0:0:0:
448,192,123703,1,0,0:0:0:0:
320,192,123703,1,0,0:0:0:0:
64,192,123703,1,0,0:0:0:0:
64,192,123810,1,0,0:0:0:0:
192,192,123810,1,0,0:0:0:0:
320,192,123810,1,0,0:0:0:0:
448,192,123917,1,0,0:0:0:0:
320,192,123917,1,0,0:0:0:0:
192,192,123917,1,0,0:0:0:0:
192,192,124024,1,0,0:0:0:0:
64,192,124132,1,0,0:0:0:0:
320,192,124132,1,0,0:0:0:0:
448,192,124132,1,0,0:0:0:0:
192,192,124239,1,0,0:0:0:0:
320,192,124239,1,0,0:0:0:0:
64,192,124346,1,0,0:0:0:0:
192,192,124346,1,0,0:0:0:0:
448,192,124453,1,0,0:0:0:0:
320,192,124453,1,0,0:0:0:0:
64,192,124453,1,0,0:0:0:0:
192,192,124560,1,0,0:0:0:0:
320,192,124560,1,0,0:0:0:0:
448,192,124560,1,0,0:0:0:0:
448,192,124667,1,0,0:0:0:0:
320,192,124667,1,0,0:0:0:0:
192,192,124667,1,0,0:0:0:0:
64,192,124774,1,0,0:0:0:0:
192,192,124774,1,0,0:0:0:0:
320,192,124774,1,0,0:0:0:0:
448,192,124882,1,0,0:0:0:0:
64,192,124989,1,0,0:0:0:0:
448,192,124989,1,0,0:0:0:0:
192,192,124989,1,0,0:0:0:0:
64,192,125096,1,0,0:0:0:0:
448,192,125096,1,0,0:0:0:0:
320,192,125096,1,0,0:0:0:0:
192,192,125203,1,0,0:0:0:0:
448,192,125310,1,0,0:0:0:0:
320,192,125417,1,0,0:0:0:0:
64,192,125417,1,0,0:0:0:0:
192,192,125417,1,0,0:0:0:0:
320,192,125524,1,0,0:0:0:0:
448,192,125524,1,0,0:0:0:0:
64,192,125524,1,0,0:0:0:0:
64,192,125632,1,0,0:0:0:0:
192,192,125632,1,0,0:0:0:0:
320,192,125632,1,0,0:0:0:0:
448,192,125739,1,0,0:0:0:0:
448,192,125846,1,0,0:0:0:0:
320,192,125846,1,0,0:0:0:0:
192,192,125846,1,0,0:0:0:0:
64,192,125953,1,0,0:0:0:0:
192,192,125953,1,0,0:0:0:0:
320,192,125953,1,0,0:0:0:0:
448,192,126060,1,0,0:0:0:0:
448,192,126167,1,0,0:0:0:0:
320,192,126274,1,0,0:0:0:0:
192,192,126274,1,0,0:0:0:0:
64,192,126274,1,0,0:0:0:0:
320,192,126382,1,0,0:0:0:0:
448,192,126382,1,0,0:0:0:0:
64,192,126489,1,0,0:0:0:0:
192,192,126489,1,0,0:0:0:0:
320,192,126560,1,0,0:0:0:0:
192,192,126632,1,0,0:0:0:0:
64,192,126703,1,0,0:0:0:0:
448,192,126703,1,0,0:0:0:0:
320,192,126774,1,0,0:0:0:0:
192,192,126846,1,0,0:0:0:0:
64,192,126917,1,0,0:0:0:0:
320,192,126917,1,0,0:0:0:0:
448,192,126989,1,0,0:0:0:0:
320,192,127060,1,0,0:0:0:0:
64,192,127132,1,0,0:0:0:0:
192,192,127132,1,0,0:0:0:0:
320,192,127203,1,0,0:0:0:0:
448,192,127203,1,0,0:0:0:0:
64,192,127274,1,0,0:0:0:0:
192,192,127274,1,0,0:0:0:0:
320,192,127346,1,0,0:0:0:0:
448,192,127346,1,0,0:0:0:0:
192,192,127346,1,0,0:0:0:0:
64,192,127346,1,0,0:0:0:0:
192,192,127453,1,0,0:0:0:0:
448,192,127560,1,0,0:0:0:0:
64,192,127560,1,0,0:0:0:0:
192,192,127560,1,0,0:0:0:0:
320,192,127667,1,0,0:0:0:0:
64,192,127667,1,0,0:0:0:0:
448,192,127774,1,0,0:0:0:0:
192,192,127774,1,0,0:0:0:0:
320,192,127882,1,0,0:0:0:0:
192,192,127989,1,0,0:0:0:0:
64,192,127989,1,0,0:0:0:0:
320,192,127989,1,0,0:0:0:0:
448,192,128096,1,0,0:0:0:0:
320,192,128203,1,0,0:0:0:0:
192,192,128203,1,0,0:0:0:0:
448,192,128203,1,0,0:0:0:0:
64,192,128310,1,0,0:0:0:0:
320,192,128417,1,0,0:0:0:0:
192,192,128417,1,0,0:0:0:0:
64,192,128417,1,0,0:0:0:0:
192,192,128524,1,0,0:0:0:0:
448,192,128524,1,0,0:0:0:0:
320,192,128632,1,0,0:0:0:0:
64,192,128739,1,0,0:0:0:0:
448,192,128846,1,0,0:0:0:0:
320,192,128846,1,0,0:0:0:0:
64,192,128846,1,0,0:0:0:0:
64,192,128953,1,0,0:0:0:0:
192,192,128953,1,0,0:0:0:0:
192,192,129060,1,0,0:0:0:0:
320,192,129060,1,0,0:0:0:0:
448,192,129060,1,0,0:0:0:0:
448,192,129167,1,0,0:0:0:0:
64,192,129274,1,0,0:0:0:0:
192,192,129274,1,0,0:0:0:0:
320,192,129274,1,0,0:0:0:0:
192,192,129382,1,0,0:0:0:0:
448,192,129382,1,0,0:0:0:0:
320,192,129489,1,0,0:0:0:0:
64,192,129489,1,0,0:0:0:0:
320,192,129596,1,0,0:0:0:0:
64,192,129596,1,0,0:0:0:0:
192,192,129703,1,0,0:0:0:0:
320,192,129703,1,0,0:0:0:0:
448,192,129703,1,0,0:0:0:0:
64,192,129810,1,0,0:0:0:0:
192,192,129810,1,0,0:0:0:0:
448,192,129917,1,0,0:0:0:0:
64,192,129917,1,0,0:0:0:0:
320,192,129917,1,0,0:0:0:0:
320,192,130024,1,0,0:0:0:0:
192,192,130024,1,0,0:0:0:0:
64,192,130132,1,0,0:0:0:0:
192,192,130132,1,0,0:0:0:0:
448,192,130132,1,0,0:0:0:0:
192,192,130239,1,0,0:0:0:0:
320,192,130239,1,0,0:0:0:0:
320,192,130346,1,0,0:0:0:0:
448,192,130346,1,0,0:0:0:0:
192,192,130453,1,0,0:0:0:0:
64,192,130453,1,0,0:0:0:0:
448,192,130560,1,0,0:0:0:0:
192,192,130560,1,0,0:0:0:0:
64,192,130560,1,0,0:0:0:0:
192,192,130667,1,0,0:0:0:0:
320,192,130667,1,0,0:0:0:0:
448,192,130667,1,0,0:0:0:0:
320,192,130774,1,0,0:0:0:0:
192,192,130774,1,0,0:0:0:0:
64,192,130774,1,0,0:0:0:0:
320,192,130882,1,0,0:0:0:0:
64,192,130989,1,0,0:0:0:0:
192,192,130989,1,0,0:0:0:0:
448,192,130989,1,0,0:0:0:0:
192,192,131096,1,0,0:0:0:0:
320,192,131096,1,0,0:0:0:0:
320,192,131203,1,0,0:0:0:0:
448,192,131203,1,0,0:0:0:0:
448,192,131310,1,0,0:0:0:0:
192,192,131310,1,0,0:0:0:0:
64,192,131310,1,0,0:0:0:0:
64,192,131417,1,0,0:0:0:0:
192,192,131417,1,0,0:0:0:0:
320,192,131417,1,0,0:0:0:0:
320,192,131524,1,0,0:0:0:0:
192,192,131524,1,0,0:0:0:0:
64,192,131524,1,0,0:0:0:0:
192,192,131632,1,0,0:0:0:0:
320,192,131632,1,0,0:0:0:0:
448,192,131632,1,0,0:0:0:0:
64,192,131739,1,0,0:0:0:0:
320,192,131846,1,0,0:0:0:0:
64,192,131846,1,0,0:0:0:0:
448,192,131846,1,0,0:0:0:0:
192,192,131953,1,0,0:0:0:0:
64,192,131953,1,0,0:0:0:0:
448,192,131953,1,0,0:0:0:0:
320,192,132060,1,0,0:0:0:0:
64,192,132167,1,0,0:0:0:0:
320,192,132274,1,0,0:0:0:0:
448,192,132274,1,0,0:0:0:0:
192,192,132274,1,0,0:0:0:0:
448,192,132382,1,0,0:0:0:0:
64,192,132382,1,0,0:0:0:0:
192,192,132382,1,0,0:0:0:0:
192,192,132489,1,0,0:0:0:0:
320,192,132489,1,0,0:0:0:0:
448,192,132489,1,0,0:0:0:0:
64,192,132596,1,0,0:0:0:0:
320,192,132703,1,0,0:0:0:0:
192,192,132703,1,0,0:0:0:0:
64,192,132703,1,0,0:0:0:0:
192,192,132810,1,0,0:0:0:0:
320,192,132810,1,0,0:0:0:0:
448,192,132810,1,0,0:0:0:0:
64,192,132917,1,0,0:0:0:0:
64,192,133024,1,0,0:0:0:0:
448,192,133132,1,0,0:0:0:0:
320,192,133132,1,0,0:0:0:0:
192,192,133132,1,0,0:0:0:0:
64,192,133239,1,0,0:0:0:0:
192,192,133239,1,0,0:0:0:0:
320,192,133346,1,0,0:0:0:0:
448,192,133346,1,0,0:0:0:0:
192,192,133417,1,0,0:0:0:0:
320,192,133489,1,0,0:0:0:0:
64,192,133560,1,0,0:0:0:0:
448,192,133560,1,0,0:0:0:0:
192,192,133632,1,0,0:0:0:0:
320,192,133703,1,0,0:0:0:0:
192,192,133774,1,0,0:0:0:0:
448,192,133774,1,0,0:0:0:0:
64,192,133846,1,0,0:0:0:0:
192,192,133917,1,0,0:0:0:0:
320,192,133989,1,0,0:0:0:0:
448,192,133989,1,0,0:0:0:0:
64,192,134060,1,0,0:0:0:0:
192,192,134060,1,0,0:0:0:0:
320,192,134132,1,0,0:0:0:0:
448,192,134132,1,0,0:0:0:0:
192,192,134203,1,0,0:0:0:0:
64,192,134203,1,0,0:0:0:0:
320,192,134203,1,0,0:0:0:0:
448,192,134203,1,0,0:0:0:0:
448,192,134417,1,0,0:0:0:0:
192,192,134417,1,0,0:0:0:0:
64,192,134524,1,0,0:0:0:0:
192,192,134524,1,0,0:0:0:0:
320,192,134524,1,0,0:0:0:0:
448,192,134524,1,0,0:0:0:0:
192,192,134739,1,0,0:0:0:0:
320,192,134846,1,0,0:0:0:0:
320,192,134953,1,0,0:0:0:0:
448,192,135060,1,0,0:0:0:0:
192,192,135060,1,0,0:0:0:0:
64,192,135060,1,0,0:0:0:0:
320,192,135274,1,0,0:0:0:0:
64,192,135274,1,0,0:0:0:0:
64,192,135382,1,0,0:0:0:0:
192,192,135382,1,0,0:0:0:0:
320,192,135596,1,0,0:0:0:0:
448,192,135703,1,0,0:0:0:0:
192,192,135703,1,0,0:0:0:0:
448,192,135810,1,0,0:0:0:0:
192,192,135810,1,0,0:0:0:0:
448,192,135917,1,0,0:0:0:0:
320,192,135917,1,0,0:0:0:0:
192,192,135917,1,0,0:0:0:0:
64,192,136132,1,0,0:0:0:0:
320,192,136132,1,0,0:0:0:0:
64,192,136239,1,0,0:0:0:0:
192,192,136239,1,0,0:0:0:0:
320,192,136239,1,0,0:0:0:0:
448,192,136239,1,0,0:0:0:0:
320,192,136453,1,0,0:0:0:0:
448,192,136560,1,0,0:0:0:0:
448,192,136667,1,0,0:0:0:0:
448,192,136774,1,0,0:0:0:0:
320,192,136774,1,0,0:0:0:0:
192,192,136774,1,0,0:0:0:0:
64,192,136774,1,0,0:0:0:0:
448,192,136989,1,0,0:0:0:0:
320,192,136989,1,0,0:0:0:0:
192,192,136989,1,0,0:0:0:0:
64,192,137096,1,0,0:0:0:0:
192,192,137096,1,0,0:0:0:0:
320,192,137096,1,0,0:0:0:0:
448,192,137417,1,0,0:0:0:0:
320,192,137417,1,0,0:0:0:0:
64,192,137417,1,0,0:0:0:0:
448,192,137632,1,0,0:0:0:0:
320,192,137632,1,0,0:0:0:0:
192,192,137632,1,0,0:0:0:0:
64,192,137632,1,0,0:0:0:0:
320,192,137846,1,0,0:0:0:0:
64,192,137846,1,0,0:0:0:0:
64,192,137953,1,0,0:0:0:0:
192,192,137953,1,0,0:0:0:0:
320,192,137953,1,0,0:0:0:0:
448,192,137953,1,0,0:0:0:0:
320,192,138167,1,0,0:0:0:0:
192,192,138274,1,0,0:0:0:0:
192,192,138382,1,0,0:0:0:0:
448,192,138489,1,0,0:0:0:0:
320,192,138489,1,0,0:0:0:0:
64,192,138489,1,0,0:0:0:0:
320,192,138703,1,0,0:0:0:0:
192,192,138703,1,0,0:0:0:0:
448,192,138810,1,0,0:0:0:0:
192,192,138810,1,0,0:0:0:0:
192,192,139024,1,0,0:0:0:0:
320,192,139132,1,0,0:0:0:0:
64,192,139132,1,0,0:0:0:0:
192,192,139239,1,0,0:0:0:0:
448,192,139346,1,0,0:0:0:0:
320,192,139346,1,0,0:0:0:0:
64,192,139346,1,0,0:0:0:0:
192,192,139560,1,0,0:0:0:0:
320,192,139560,1,0,0:0:0:0:
64,192,139667,1,0,0:0:0:0:
192,192,139667,1,0,0:0:0:0:
320,192,139667,1,0,0:0:0:0:
448,192,139667,1,0,0:0:0:0:
448,192,139882,1,0,0:0:0:0:
448,192,139989,1,0,0:0:0:0:
192,192,139989,1,0,0:0:0:0:
64,192,139989,1,0,0:0:0:0:
320,192,140096,1,0,0:0:0:0:
448,192,140203,1,0,0:0:0:0:
320,192,140203,1,0,0:0:0:0:
192,192,140203,1,0,0:0:0:0:
64,192,140203,1,0,0:0:0:0:
320,192,140417,1,0,0:0:0:0:
192,192,140417,1,0,0:0:0:0:
64,192,140524,1,0,0:0:0:0:
192,192,140524,1,0,0:0:0:0:
320,192,140524,1,0,0:0:0:0:
320,192,140632,1,0,0:0:0:0:
448,192,140632,1,0,0:0:0:0:
64,192,140632,1,0,0:0:0:0:
448,192,140739,1,0,0:0:0:0:
320,192,140739,1,0,0:0:0:0:
64,192,140739,1,0,0:0:0:0:
448,192,140846,1,0,0:0:0:0:
320,192,140846,1,0,0:0:0:0:
64,192,140846,1,0,0:0:0:0:
64,192,140953,1,0,0:0:0:0:
320,192,140953,1,0,0:0:0:0:
448,192,140953,1,0,0:0:0:0:
448,192,141060,1,0,0:0:0:0:
320,192,141060,1,0,0:0:0:0:
192,192,141060,1,0,0:0:0:0:
64,192,141060,1,0,0:0:0:0:
192,192,141167,1,0,0:0:0:0:
448,192,141274,1,0,0:0:0:0:
320,192,141274,1,0,0:0:0:0:
64,192,141382,1,0,0:0:0:0:
448,192,141382,1,0,0:0:0:0:
192,192,141489,1,0,0:0:0:0:
320,192,141489,1,0,0:0:0:0:
320,192,141596,1,0,0:0:0:0:
64,192,141703,1,0,0:0:0:0:
192,192,141703,1,0,0:0:0:0:
64,192,141810,1,0,0:0:0:0:
448,192,141917,1,0,0:0:0:0:
320,192,141917,1,0,0:0:0:0:
192,192,141917,1,0,0:0:0:0:
320,192,142024,1,0,0:0:0:0:
64,192,142132,1,0,0:0:0:0:
192,192,142132,1,0,0:0:0:0:
448,192,142132,1,0,0:0:0:0:
192,192,142239,1,0,0:0:0:0:
64,192,142346,1,0,0:0:0:0:
320,192,142346,1,0,0:0:0:0:
448,192,142346,1,0,0:0:0:0:
448,192,142453,1,0,0:0:0:0:
320,192,142560,1,0,0:0:0:0:
64,192,142560,1,0,0:0:0:0:
192,192,142560,1,0,0:0:0:0:
320,192,142667,1,0,0:0:0:0:
192,192,142774,1,0,0:0:0:0:
64,192,142774,1,0,0:0:0:0:
448,192,142774,1,0,0:0:0:0:
64,192,142882,1,0,0:0:0:0:
192,192,142989,1,0,0:0:0:0:
448,192,142989,1,0,0:0:0:0:
192,192,143096,1,0,0:0:0:0:
320,192,143203,1,0,0:0:0:0:
64,192,143203,1,0,0:0:0:0:
64,192,143310,1,0,0:0:0:0:
320,192,143417,1,0,0:0:0:0:
448,192,143417,1,0,0:0:0:0:
320,192,143524,1,0,0:0:0:0:
448,192,143632,1,0,0:0:0:0:
64,192,143632,1,0,0:0:0:0:
192,192,143632,1,0,0:0:0:0:
192,192,143739,1,0,0:0:0:0:
64,192,143846,1,0,0:0:0:0:
320,192,143846,1,0,0:0:0:0:
448,192,143846,1,0,0:0:0:0:
320,192,143953,1,0,0:0:0:0:
448,192,144060,1,0,0:0:0:0:
192,192,144060,1,0,0:0:0:0:
64,192,144060,1,0,0:0:0:0:
448,192,144167,1,0,0:0:0:0:
64,192,144274,1,0,0:0:0:0:
192,192,144274,1,0,0:0:0:0:
320,192,144274,1,0,0:0:0:0:
192,192,144382,1,0,0:0:0:0:
320,192,144489,1,0,0:0:0:0:
64,192,144489,1,0,0:0:0:0:
448,192,144489,1,0,0:0:0:0:
192,192,144489,1,0,0:0:0:0:
320,192,144596,1,0,0:0:0:0:
448,192,144703,1,0,0:0:0:0:
64,192,144703,1,0,0:0:0:0:
64,192,144810,1,0,0:0:0:0:
192,192,144917,1,0,0:0:0:0:
320,192,144917,1,0,0:0:0:0:
192,192,145024,1,0,0:0:0:0:
448,192,145132,1,0,0:0:0:0:
320,192,145132,1,0,0:0:0:0:
448,192,145239,1,0,0:0:0:0:
320,192,145346,1,0,0:0:0:0:
64,192,145346,1,0,0:0:0:0:
192,192,145346,1,0,0:0:0:0:
320,192,145453,1,0,0:0:0:0:
64,192,145560,1,0,0:0:0:0:
192,192,145560,1,0,0:0:0:0:
448,192,145560,1,0,0:0:0:0:
192,192,145667,1,0,0:0:0:0:
320,192,145774,1,0,0:0:0:0:
448,192,145774,1,0,0:0:0:0:
64,192,145774,1,0,0:0:0:0:
320,192,145882,1,0,0:0:0:0:
64,192,145989,1,0,0:0:0:0:
448,192,145989,1,0,0:0:0:0:
192,192,145989,1,0,0:0:0:0:
64,192,146096,1,0,0:0:0:0:
192,192,146203,1,0,0:0:0:0:
448,192,146203,1,0,0:0:0:0:
320,192,146203,1,0,0:0:0:0:
320,192,146310,1,0,0:0:0:0:
64,192,146417,1,0,0:0:0:0:
448,192,146417,1,0,0:0:0:0:
64,192,146524,1,0,0:0:0:0:
448,192,146632,1,0,0:0:0:0:
320,192,146632,1,0,0:0:0:0:
320,192,146739,1,0,0:0:0:0:
448,192,146846,1,0,0:0:0:0:
192,192,146846,1,0,0:0:0:0:
192,192,146953,1,0,0:0:0:0:
64,192,147060,1,0,0:0:0:0:
320,192,147060,1,0,0:0:0:0:
448,192,147060,1,0,0:0:0:0:
448,192,147167,1,0,0:0:0:0:
320,192,147274,1,0,0:0:0:0:
192,192,147274,1,0,0:0:0:0:
64,192,147274,1,0,0:0:0:0:
192,192,147382,1,0,0:0:0:0:
448,192,147489,1,0,0:0:0:0:
320,192,147489,1,0,0:0:0:0:
64,192,147489,1,0,0:0:0:0:
64,192,147596,1,0,0:0:0:0:
192,192,147703,1,0,0:0:0:0:
320,192,147703,1,0,0:0:0:0:
320,192,147810,1,0,0:0:0:0:
448,192,147917,1,0,0:0:0:0:
320,192,147917,1,0,0:0:0:0:
192,192,147917,1,0,0:0:0:0:
64,192,147917,1,0,0:0:0:0:
192,192,148024,1,0,0:0:0:0:
448,192,148132,1,0,0:0:0:0:
320,192,148132,1,0,0:0:0:0:
64,192,148239,1,0,0:0:0:0:
448,192,148239,1,0,0:0:0:0:
192,192,148346,1,0,0:0:0:0:
320,192,148346,1,0,0:0:0:0:
320,192,148453,1,0,0:0:0:0:
64,192,148560,1,0,0:0:0:0:
192,192,148560,1,0,0:0:0:0:
64,192,148667,1,0,0:0:0:0:
448,192,148774,1,0,0:0:0:0:
320,192,148774,1,0,0:0:0:0:
192,192,148774,1,0,0:0:0:0:
320,192,148882,1,0,0:0:0:0:
64,192,148989,1,0,0:0:0:0:
192,192,148989,1,0,0:0:0:0:
448,192,148989,1,0,0:0:0:0:
192,192,149096,1,0,0:0:0:0:
64,192,149203,1,0,0:0:0:0:
320,192,149203,1,0,0:0:0:0:
448,192,149203,1,0,0:0:0:0:
448,192,149310,1,0,0:0:0:0:
320,192,149417,1,0,0:0:0:0:
64,192,149417,1,0,0:0:0:0:
192,192,149417,1,0,0:0:0:0:
320,192,149524,1,0,0:0:0:0:
192,192,149632,1,0,0:0:0:0:
64,192,149632,1,0,0:0:0:0:
448,192,149632,1,0,0:0:0:0:
64,192,149739,1,0,0:0:0:0:
192,192,149846,1,0,0:0:0:0:
448,192,149846,1,0,0:0:0:0:
192,192,149953,1,0,0:0:0:0:
320,192,150060,1,0,0:0:0:0:
64,192,150060,1,0,0:0:0:0:
64,192,150167,1,0,0:0:0:0:
320,192,150274,1,0,0:0:0:0:
448,192,150274,1,0,0:0:0:0:
320,192,150382,1,0,0:0:0:0:
448,192,150489,1,0,0:0:0:0:
64,192,150489,1,0,0:0:0:0:
192,192,150489,1,0,0:0:0:0:
192,192,150596,1,0,0:0:0:0:
64,192,150703,1,0,0:0:0:0:
320,192,150703,1,0,0:0:0:0:
448,192,150703,1,0,0:0:0:0:
320,192,150810,1,0,0:0:0:0:
448,192,150917,1,0,0:0:0:0:
192,192,150917,1,0,0:0:0:0:
64,192,150917,1,0,0:0:0:0:
448,192,151024,1,0,0:0:0:0:
64,192,151132,1,0,0:0:0:0:
192,192,151132,1,0,0:0:0:0:
320,192,151132,1,0,0:0:0:0:
192,192,151239,1,0,0:0:0:0:
320,192,151346,1,0,0:0:0:0:
64,192,151346,1,0,0:0:0:0:
448,192,151346,1,0,0:0:0:0:
192,192,151346,1,0,0:0:0:0:
320,192,151453,1,0,0:0:0:0:
448,192,151560,1,0,0:0:0:0:
64,192,151560,1,0,0:0:0:0:
64,192,151667,1,0,0:0:0:0:
192,192,151774,1,0,0:0:0:0:
320,192,151774,1,0,0:0:0:0:
192,192,151882,1,0,0:0:0:0:
448,192,151989,1,0,0:0:0:0:
320,192,151989,1,0,0:0:0:0:
448,192,152096,1,0,0:0:0:0:
320,192,152203,1,0,0:0:0:0:
64,192,152203,1,0,0:0:0:0:
192,192,152203,1,0,0:0:0:0:
320,192,152310,1,0,0:0:0:0:
64,192,152417,1,0,0:0:0:0:
192,192,152417,1,0,0:0:0:0:
448,192,152417,1,0,0:0:0:0:
192,192,152524,1,0,0:0:0:0:
320,192,152632,1,0,0:0:0:0:
448,192,152632,1,0,0:0:0:0:
64,192,152632,1,0,0:0:0:0:
320,192,152739,1,0,0:0:0:0:
64,192,152846,1,0,0:0:0:0:
448,192,152846,1,0,0:0:0:0:
192,192,152846,1,0,0:0:0:0:
64,192,152953,1,0,0:0:0:0:
448,192,153060,1,0,0:0:0:0:
320,192,153060,1,0,0:0:0:0:
192,192,153060,1,0,0:0:0:0:
320,192,153167,1,0,0:0:0:0:
64,192,153274,1,0,0:0:0:0:
448,192,153274,1,0,0:0:0:0:
64,192,153382,1,0,0:0:0:0:
448,192,153489,1,0,0:0:0:0:
320,192,153489,1,0,0:0:0:0:
320,192,153596,1,0,0:0:0:0:
448,192,153703,1,0,0:0:0:0:
192,192,153703,1,0,0:0:0:0:
192,192,153810,1,0,0:0:0:0:
320,192,153917,1,0,0:0:0:0:
320,192,154132,1,0,0:0:0:0:
320,192,154346,1,0,0:0:0:0:
320,192,154560,1,0,0:0:0:0:
64,192,154774,1,0,0:0:0:0:
192,192,154774,1,0,0:0:0:0:
320,192,154774,1,0,0:0:0:0:
448,192,154774,1,0,0:0:0:0:
64,192,154882,1,0,0:0:0:0:
192,192,154882,1,0,0:0:0:0:
448,192,154989,1,0,0:0:0:0:
192,192,154989,1,0,0:0:0:0:
192,192,155096,1,0,0:0:0:0:
448,192,155096,1,0,0:0:0:0:
448,192,155203,1,0,0:0:0:0:
320,192,155203,1,0,0:0:0:0:
192,192,155203,1,0,0:0:0:0:
320,192,155417,1,0,0:0:0:0:
320,192,155632,1,0,0:0:0:0:
192,192,155632,1,0,0:0:0:0:
64,192,155739,1,0,0:0:0:0:
192,192,155739,1,0,0:0:0:0:
448,192,155739,1,0,0:0:0:0:
320,192,155953,1,0,0:0:0:0:
192,192,155953,1,0,0:0:0:0:
448,192,155953,1,0,0:0:0:0:
448,192,156167,1,0,0:0:0:0:
192,192,156167,1,0,0:0:0:0:
64,192,156167,1,0,0:0:0:0:
320,192,156274,1,0,0:0:0:0:
64,192,156274,1,0,0:0:0:0:
64,192,156703,1,0,0:0:0:0:
192,192,156703,1,0,0:0:0:0:
448,192,156703,1,0,0:0:0:0:
448,192,156810,1,0,0:0:0:0:
320,192,156810,1,0,0:0:0:0:
320,192,156917,1,0,0:0:0:0:
192,192,156917,1,0,0:0:0:0:
64,192,156917,1,0,0:0:0:0:
64,192,157132,1,0,0:0:0:0:
192,192,157132,1,0,0:0:0:0:
448,192,157132,1,0,0:0:0:0:
192,192,157346,1,0,0:0:0:0:
320,192,157346,1,0,0:0:0:0:
448,192,157346,1,0,0:0:0:0:
320,192,157560,1,0,0:0:0:0:
192,192,157560,1,0,0:0:0:0:
64,192,157560,1,0,0:0:0:0:
192,192,157774,1,0,0:0:0:0:
320,192,157774,1,0,0:0:0:0:
448,192,157774,1,0,0:0:0:0:
320,192,157989,1,0,0:0:0:0:
192,192,157989,1,0,0:0:0:0:
64,192,157989,1,0,0:0:0:0:
64,192,158417,1,0,0:0:0:0:
320,192,158417,1,0,0:0:0:0:
448,192,158417,1,0,0:0:0:0:
448,192,158524,1,0,0:0:0:0:
320,192,158524,1,0,0:0:0:0:
320,192,158632,1,0,0:0:0:0:
192,192,158632,1,0,0:0:0:0:
64,192,158632,1,0,0:0:0:0:
64,192,158846,1,0,0:0:0:0:
320,192,158846,1,0,0:0:0:0:
448,192,158846,1,0,0:0:0:0:
64,192,159060,1,0,0:0:0:0:
192,192,159060,1,0,0:0:0:0:
448,192,159167,1,0,0:0:0:0:
320,192,159167,1,0,0:0:0:0:
192,192,159167,1,0,0:0:0:0:
64,192,159382,1,0,0:0:0:0:
448,192,159382,1,0,0:0:0:0:
64,192,159596,1,0,0:0:0:0:
192,192,159596,1,0,0:0:0:0:
448,192,159596,1,0,0:0:0:0:
320,192,159703,1,0,0:0:0:0:
192,192,159703,1,0,0:0:0:0:
320,192,160132,1,0,0:0:0:0:
448,192,160132,1,0,0:0:0:0:
64,192,160132,1,0,0:0:0:0:
192,192,160239,1,0,0:0:0:0:
448,192,160239,1,0,0:0:0:0:
192,192,160346,1,0,0:0:0:0:
320,192,160346,1,0,0:0:0:0:
64,192,160346,1,0,0:0:0:0:
320,192,160560,1,0,0:0:0:0:
192,192,160560,1,0,0:0:0:0:
192,192,160774,128,0,160882:0:0:0:0:
448,192,160774,1,0,0:0:0:0:
64,192,160774,1,0,0:0:0:0:
320,192,160989,128,0,161096:0:0:0:0:
64,192,160989,1,0,0:0:0:0:
448,192,160989,1,0,0:0:0:0:
192,192,161203,128,0,161310:0:0:0:0:
448,192,161203,1,0,0:0:0:0:
64,192,161203,1,0,0:0:0:0:
320,192,161417,128,0,161524:0:0:0:0:
64,192,161417,1,0,0:0:0:0:
448,192,161417,1,0,0:0:0:0:
64,192,161632,1,0,0:0:0:0:
192,192,161632,1,0,0:0:0:0:
448,192,161632,1,0,0:0:0:0:
448,192,161739,1,0,0:0:0:0:
192,192,161739,1,0,0:0:0:0:
192,192,161846,1,0,0:0:0:0:
448,192,161846,1,0,0:0:0:0:
192,192,161953,1,0,0:0:0:0:
320,192,161953,1,0,0:0:0:0:
192,192,162060,1,0,0:0:0:0:
320,192,162060,1,0,0:0:0:0:
448,192,162060,1,0,0:0:0:0:
192,192,162489,1,0,0:0:0:0:
64,192,162489,1,0,0:0:0:0:
448,192,162596,1,0,0:0:0:0:
192,192,162596,1,0,0:0:0:0:
64,192,162596,1,0,0:0:0:0:
320,192,162810,1,0,0:0:0:0:
448,192,162810,1,0,0:0:0:0:
192,192,162810,1,0,0:0:0:0:
320,192,163024,1,0,0:0:0:0:
192,192,163024,1,0,0:0:0:0:
64,192,163024,1,0,0:0:0:0:
448,192,163132,1,0,0:0:0:0:
320,192,163132,1,0,0:0:0:0:
320,192,163346,1,0,0:0:0:0:
64,192,163346,1,0,0:0:0:0:
320,192,163560,1,0,0:0:0:0:
448,192,163560,1,0,0:0:0:0:
192,192,163560,1,0,0:0:0:0:
64,192,163667,1,0,0:0:0:0:
320,192,163667,1,0,0:0:0:0:
448,192,163774,1,0,0:0:0:0:
320,192,163774,1,0,0:0:0:0:
192,192,163774,1,0,0:0:0:0:
320,192,163989,1,0,0:0:0:0:
192,192,163989,1,0,0:0:0:0:
64,192,163989,1,0,0:0:0:0:
448,192,164203,1,0,0:0:0:0:
192,192,164203,1,0,0:0:0:0:
64,192,164203,1,0,0:0:0:0:
64,192,164417,1,0,0:0:0:0:
320,192,164417,1,0,0:0:0:0:
448,192,164417,1,0,0:0:0:0:
448,192,164632,1,0,0:0:0:0:
192,192,164632,1,0,0:0:0:0:
64,192,164632,1,0,0:0:0:0:
64,192,164846,1,0,0:0:0:0:
320,192,164846,1,0,0:0:0:0:
448,192,164846,1,0,0:0:0:0:
448,192,165060,1,0,0:0:0:0:
64,192,165060,1,0,0:0:0:0:
192,192,165060,1,0,0:0:0:0:
320,192,165060,1,0,0:0:0:0:
320,192,165274,1,0,0:0:0:0:
64,192,165274,1,0,0:0:0:0:
64,192,165382,1,0,0:0:0:0:
192,192,165382,1,0,0:0:0:0:
64,192,165489,1,0,0:0:0:0:
448,192,165489,1,0,0:0:0:0:
320,192,165489,1,0,0:0:0:0:
64,192,165703,1,0,0:0:0:0:
320,192,165703,1,0,0:0:0:0:
448,192,165703,1,0,0:0:0:0:
320,192,165917,1,0,0:0:0:0:
192,192,165917,1,0,0:0:0:0:
64,192,165917,1,0,0:0:0:0:
448,192,166132,1,0,0:0:0:0:
320,192,166132,1,0,0:0:0:0:
64,192,166132,1,0,0:0:0:0:
320,192,166346,1,0,0:0:0:0:
448,192,166346,1,0,0:0:0:0:
64,192,166346,1,0,0:0:0:0:
320,192,166453,1,0,0:0:0:0:
192,192,166453,1,0,0:0:0:0:
320,192,166560,1,0,0:0:0:0:
64,192,166560,1,0,0:0:0:0:
448,192,166774,1,0,0:0:0:0:
192,192,166774,1,0,0:0:0:0:
64,192,166774,1,0,0:0:0:0:
320,192,166882,1,0,0:0:0:0:
192,192,166989,1,0,0:0:0:0:
64,192,166989,1,0,0:0:0:0:
320,192,167096,1,0,0:0:0:0:
448,192,167096,1,0,0:0:0:0:
192,192,167096,1,0,0:0:0:0:
320,192,167203,1,0,0:0:0:0:
192,192,167203,1,0,0:0:0:0:
64,192,167203,1,0,0:0:0:0:
448,192,167310,5,0,0:0:0:0:
320,192,167310,1,0,0:0:0:0:
64,192,167310,1,0,0:0:0:0:
192,192,167417,1,0,0:0:0:0:
448,192,167417,1,0,0:0:0:0:
320,192,167417,1,0,0:0:0:0:
448,192,167524,1,0,0:0:0:0:
64,192,167524,1,0,0:0:0:0:
448,192,167632,1,0,0:0:0:0:
320,192,167632,1,0,0:0:0:0:
192,192,167632,1,0,0:0:0:0:
64,192,167632,1,0,0:0:0:0:
448,192,167846,1,0,0:0:0:0:
320,192,167846,1,0,0:0:0:0:
192,192,167846,1,0,0:0:0:0:
64,192,167953,1,0,0:0:0:0:
192,192,167953,1,0,0:0:0:0:
448,192,167953,1,0,0:0:0:0:
64,192,168167,1,0,0:0:0:0:
320,192,168167,1,0,0:0:0:0:
448,192,168167,1,0,0:0:0:0:
192,192,168274,1,0,0:0:0:0:
320,192,168274,1,0,0:0:0:0:
448,192,168274,1,0,0:0:0:0:
192,192,168489,1,0,0:0:0:0:
320,192,168489,1,0,0:0:0:0:
448,192,168489,128,0,171846:0:0:0:0:
64,192,168489,128,0,170132:0:0:0:0:
320,192,169132,1,0,0:0:0:0:
192,192,169346,1,0,0:0:0:0:
320,192,169989,1,0,0:0:0:0:
64,192,170203,128,0,170417:0:0:0:0:
320,192,170203,1,0,0:0:0:0:
64,192,170489,128,0,170703:0:0:0:0:
320,192,170632,1,0,0:0:0:0:
64,192,170774,128,0,170989:0:0:0:0:
64,192,171060,128,0,171274:0:0:0:0:
192,192,171060,1,0,0:0:0:0:
64,192,171346,128,0,171560:0:0:0:0:
64,192,171632,128,0,171846:0:0:0:0:
448,192,171917,128,0,175274:0:0:0:0:
64,192,171917,128,0,173560:0:0:0:0:
320,192,171917,1,0,0:0:0:0:
192,192,171917,1,0,0:0:0:0:
320,192,172560,1,0,0:0:0:0:
192,192,172774,1,0,0:0:0:0:
320,192,173417,1,0,0:0:0:0:
64,192,173632,128,0,173846:0:0:0:0:
320,192,173632,1,0,0:0:0:0:
64,192,173917,128,0,174132:0:0:0:0:
320,192,174060,1,0,0:0:0:0:
64,192,174203,128,0,174417:0:0:0:0:
64,192,174489,128,0,174703:0:0:0:0:
192,192,174489,1,0,0:0:0:0:
64,192,174774,128,0,174989:0:0:0:0:
320,192,174917,1,0,0:0:0:0:
64,192,175060,128,0,175274:0:0:0:0:
64,192,175346,128,0,176989:0:0:0:0:
448,192,175346,128,0,178703:0:0:0:0:
320,192,175346,1,0,0:0:0:0:
192,192,175346,1,0,0:0:0:0:
320,192,175989,1,0,0:0:0:0:
192,192,176203,1,0,0:0:0:0:
320,192,176846,1,0,0:0:0:0:
64,192,177060,128,0,177274:0:0:0:0:
320,192,177060,1,0,0:0:0:0:
64,192,177346,128,0,177560:0:0:0:0:
320,192,177489,1,0,0:0:0:0:
64,192,177632,128,0,177846:0:0:0:0:
192,192,177917,1,0,0:0:0:0:
64,192,177917,128,0,178132:0:0:0:0:
64,192,178203,128,0,178417:0:0:0:0:
64,192,178489,128,0,178703:0:0:0:0:
64,192,178774,128,0,180417:0:0:0:0:
320,192,178774,1,0,0:0:0:0:
192,192,178774,1,0,0:0:0:0:
448,192,178774,128,0,181274:0:0:0:0:
320,192,179417,1,0,0:0:0:0:
192,192,179632,1,0,0:0:0:0:
320,192,180274,1,0,0:0:0:0:
64,192,180489,128,0,180703:0:0:0:0:
320,192,180489,1,0,0:0:0:0:
192,192,180703,1,0,0:0:0:0:
64,192,180774,128,0,180989:0:0:0:0:
320,192,180917,1,0,0:0:0:0:
64,192,181060,128,0,181274:0:0:0:0:
64,192,181346,1,0,0:0:0:0:
192,192,181346,1,0,0:0:0:0:
320,192,181346,1,0,0:0:0:0:
448,192,181346,1,0,0:0:0:0:
448,192,181560,1,0,0:0:0:0:
192,192,181560,1,0,0:0:0:0:
64,192,181560,1,0,0:0:0:0:
64,192,181774,1,0,0:0:0:0:
192,192,181774,1,0,0:0:0:0:
320,192,181774,1,0,0:0:0:0:
448,192,182203,1,0,0:0:0:0:
192,192,182203,128,0,182524:0:0:0:0:
64,192,182203,1,0,0:0:0:0:
320,192,182524,1,0,0:0:0:0:
64,192,182524,128,0,182846:0:0:0:0:
192,192,182846,1,0,0:0:0:0:
320,192,182846,128,0,183060:0:0:0:0:
448,192,183060,128,0,183382:0:0:0:0:
64,192,183060,1,0,0:0:0:0:
192,192,183382,1,0,0:0:0:0:
320,192,183382,128,0,183703:0:0:0:0:
192,192,183703,1,0,0:0:0:0:
64,192,183703,128,0,183917:0:0:0:0:
448,192,183917,1,0,0:0:0:0:
320,192,183917,128,0,184239:0:0:0:0:
192,192,183917,1,0,0:0:0:0:
64,192,184239,1,0,0:0:0:0:
192,192,184239,128,0,184560:0:0:0:0:
448,192,184560,1,0,0:0:0:0:
320,192,184560,128,0,184774:0:0:0:0:
64,192,184774,1,0,0:0:0:0:
448,192,184774,128,0,184989:0:0:0:0:
192,192,184989,1,0,0:0:0:0:
320,192,184989,128,0,185203:0:0:0:0:
192,192,185203,1,0,0:0:0:0:
64,192,185203,128,0,185524:0:0:0:0:
448,192,185203,1,0,0:0:0:0:
320,192,185524,1,0,0:0:0:0:
192,192,185524,128,0,185845:0:0:0:0:
320,192,185845,1,0,0:0:0:0:
448,192,185845,128,0,186060:0:0:0:0:
320,192,186060,1,0,0:0:0:0:
64,192,186060,128,0,186381:0:0:0:0:
192,192,186381,1,0,0:0:0:0:
320,192,186381,128,0,186703:0:0:0:0:
192,192,186703,1,0,0:0:0:0:
448,192,186703,128,0,186917:0:0:0:0:
320,192,186917,1,0,0:0:0:0:
64,192,186917,128,0,187238:0:0:0:0:
192,192,186917,1,0,0:0:0:0:
320,192,187238,1,0,0:0:0:0:
192,192,187238,128,0,187560:0:0:0:0:
64,192,187560,1,0,0:0:0:0:
320,192,187560,128,0,187774:0:0:0:0:
192,192,187774,1,0,0:0:0:0:
64,192,187774,128,0,187988:0:0:0:0:
448,192,187988,1,0,0:0:0:0:
320,192,187988,128,0,188203:0:0:0:0:
192,192,188203,1,0,0:0:0:0:
448,192,188203,128,0,188524:0:0:0:0:
64,192,188203,1,0,0:0:0:0:
64,192,188524,1,0,0:0:0:0:
192,192,188524,128,0,188845:0:0:0:0:
448,192,188845,1,0,0:0:0:0:
320,192,188845,128,0,189060:0:0:0:0:
64,192,189060,1,0,0:0:0:0:
192,192,189060,128,0,189381:0:0:0:0:
320,192,189381,1,0,0:0:0:0:
448,192,189381,128,0,189703:0:0:0:0:
320,192,189703,1,0,0:0:0:0:
192,192,189703,128,0,189917:0:0:0:0:
448,192,189917,1,0,0:0:0:0:
64,192,189917,128,0,190238:0:0:0:0:
320,192,189917,1,0,0:0:0:0:
320,192,190238,1,0,0:0:0:0:
448,192,190238,128,0,190560:0:0:0:0:
64,192,190560,128,0,190774:0:0:0:0:
192,192,190560,1,0,0:0:0:0:
448,192,190774,1,0,0:0:0:0:
320,192,190774,128,0,190988:0:0:0:0:
64,192,190988,1,0,0:0:0:0:
192,192,190988,128,0,191203:0:0:0:0:
320,192,191203,1,0,0:0:0:0:
64,192,191203,128,0,191524:0:0:0:0:
448,192,191203,1,0,0:0:0:0:
192,192,191524,128,0,191845:0:0:0:0:
320,192,191524,1,0,0:0:0:0:
448,192,191845,128,0,192060:0:0:0:0:
320,192,191845,1,0,0:0:0:0:
320,192,192060,1,0,0:0:0:0:
192,192,192060,128,0,192381:0:0:0:0:
64,192,192060,1,0,0:0:0:0:
320,192,192381,1,0,0:0:0:0:
64,192,192381,128,0,192703:0:0:0:0:
192,192,192703,1,0,0:0:0:0:
448,192,192703,128,0,192917:0:0:0:0:
320,192,192917,1,0,0:0:0:0:
64,192,192917,128,0,193238:0:0:0:0:
192,192,192917,1,0,0:0:0:0:
320,192,193238,1,0,0:0:0:0:
192,192,193238,128,0,193560:0:0:0:0:
320,192,193560,1,0,0:0:0:0:
448,192,193560,128,0,193774:0:0:0:0:
64,192,193774,1,0,0:0:0:0:
192,192,193774,1,0,0:0:0:0:
320,192,193988,1,0,0:0:0:0:
192,192,193988,1,0,0:0:0:0:
64,192,194203,1,0,0:0:0:0:
192,192,194203,1,0,0:0:0:0:
320,192,194274,1,0,0:0:0:0:
192,192,194345,1,0,0:0:0:0:
320,192,194417,1,0,0:0:0:0:
192,192,194488,1,0,0:0:0:0:
320,192,194560,1,0,0:0:0:0:
192,192,194631,1,0,0:0:0:0:
320,192,194703,1,0,0:0:0:0:
192,192,194774,1,0,0:0:0:0:
320,192,194845,1,0,0:0:0:0:
192,192,194917,1,0,0:0:0:0:
320,192,194988,1,0,0:0:0:0:
192,192,195060,1,0,0:0:0:0:
320,192,195131,1,0,0:0:0:0:
192,192,195203,1,0,0:0:0:0:
320,192,195274,1,0,0:0:0:0:
192,192,195345,1,0,0:0:0:0:
320,192,195417,1,0,0:0:0:0:
192,192,195488,1,0,0:0:0:0:
320,192,195560,1,0,0:0:0:0:
192,192,195631,1,0,0:0:0:0:
320,192,195703,1,0,0:0:0:0:
192,192,195774,1,0,0:0:0:0:
320,192,195845,1,0,0:0:0:0:
64,192,195917,1,0,0:0:0:0:
192,192,195917,1,0,0:0:0:0:
320,192,195988,1,0,0:0:0:0:
64,192,196060,1,0,0:0:0:0:
320,192,196131,1,0,0:0:0:0:
64,192,196203,1,0,0:0:0:0:
320,192,196274,1,0,0:0:0:0:
64,192,196345,1,0,0:0:0:0:
320,192,196417,1,0,0:0:0:0:
64,192,196488,1,0,0:0:0:0:
320,192,196560,1,0,0:0:0:0:
64,192,196631,1,0,0:0:0:0:
320,192,196703,1,0,0:0:0:0:
448,192,196774,1,0,0:0:0:0:
64,192,196774,1,0,0:0:0:0:
320,192,196845,1,0,0:0:0:0:
448,192,196917,1,0,0:0:0:0:
320,192,196988,1,0,0:0:0:0:
64,192,196988,1,0,0:0:0:0:
192,192,197060,1,0,0:0:0:0:
64,192,197131,1,0,0:0:0:0:
192,192,197203,1,0,0:0:0:0:
320,192,197274,1,0,0:0:0:0:
192,192,197345,1,0,0:0:0:0:
320,192,197417,1,0,0:0:0:0:
192,192,197488,1,0,0:0:0:0:
320,192,197560,1,0,0:0:0:0:
192,192,197631,1,0,0:0:0:0:
320,192,197703,1,0,0:0:0:0:
192,192,197774,1,0,0:0:0:0:
320,192,197845,1,0,0:0:0:0:
192,192,197917,1,0,0:0:0:0:
320,192,197988,1,0,0:0:0:0:
192,192,198060,1,0,0:0:0:0:
320,192,198131,1,0,0:0:0:0:
192,192,198203,1,0,0:0:0:0:
320,192,198274,1,0,0:0:0:0:
192,192,198345,1,0,0:0:0:0:
320,192,198417,1,0,0:0:0:0:
192,192,198488,1,0,0:0:0:0:
320,192,198560,1,0,0:0:0:0:
192,192,198631,1,0,0:0:0:0:
320,192,198703,1,0,0:0:0:0:
192,192,198774,1,0,0:0:0:0:
320,192,198845,1,0,0:0:0:0:
192,192,198917,1,0,0:0:0:0:
64,192,198917,1,0,0:0:0:0:
448,192,198988,1,0,0:0:0:0:
192,192,199060,1,0,0:0:0:0:
448,192,199131,1,0,0:0:0:0:
192,192,199203,1,0,0:0:0:0:
448,192,199274,1,0,0:0:0:0:
192,192,199345,1,0,0:0:0:0:
448,192,199417,1,0,0:0:0:0:
192,192,199488,1,0,0:0:0:0:
448,192,199560,1,0,0:0:0:0:
192,192,199631,1,0,0:0:0:0:
448,192,199703,1,0,0:0:0:0:
320,192,199774,1,0,0:0:0:0:
64,192,199845,1,0,0:0:0:0:
320,192,199917,1,0,0:0:0:0:
64,192,199988,1,0,0:0:0:0:
320,192,200060,1,0,0:0:0:0:
64,192,200131,1,0,0:0:0:0:
192,192,200203,1,0,0:0:0:0:
320,192,200274,1,0,0:0:0:0:
192,192,200345,1,0,0:0:0:0:
320,192,200417,1,0,0:0:0:0:
192,192,200488,1,0,0:0:0:0:
320,192,200560,1,0,0:0:0:0:
192,192,200631,1,0,0:0:0:0:
320,192,200703,1,0,0:0:0:0:
192,192,200774,1,0,0:0:0:0:
320,192,200845,1,0,0:0:0:0:
192,192,200917,1,0,0:0:0:0:
320,192,200988,1,0,0:0:0:0:
192,192,201060,1,0,0:0:0:0:
320,192,201131,1,0,0:0:0:0:
192,192,201203,1,0,0:0:0:0:
320,192,201274,1,0,0:0:0:0:
192,192,201345,1,0,0:0:0:0:
320,192,201417,1,0,0:0:0:0:
192,192,201488,1,0,0:0:0:0:
320,192,201560,1,0,0:0:0:0:
192,192,201631,1,0,0:0:0:0:
320,192,201703,1,0,0:0:0:0:
192,192,201774,1,0,0:0:0:0:
320,192,201845,1,0,0:0:0:0:
64,192,201917,1,0,0:0:0:0:
320,192,201988,1,0,0:0:0:0:
448,192,201988,1,0,0:0:0:0:
192,192,202060,1,0,0:0:0:0:
320,192,202131,1,0,0:0:0:0:
448,192,202131,1,0,0:0:0:0:
192,192,202203,1,0,0:0:0:0:
320,192,202274,1,0,0:0:0:0:
448,192,202274,1,0,0:0:0:0:
192,192,202345,1,0,0:0:0:0:
320,192,202417,1,0,0:0:0:0:
448,192,202417,1,0,0:0:0:0:
192,192,202488,1,0,0:0:0:0:
320,192,202560,1,0,0:0:0:0:
448,192,202560,1,0,0:0:0:0:
192,192,202631,1,0,0:0:0:0:
448,192,202703,1,0,0:0:0:0:
320,192,202703,1,0,0:0:0:0:
64,192,202774,1,0,0:0:0:0:
192,192,202845,1,0,0:0:0:0:
64,192,202917,1,0,0:0:0:0:
192,192,202988,1,0,0:0:0:0:
320,192,202988,1,0,0:0:0:0:
448,192,203060,1,0,0:0:0:0:
320,192,203131,1,0,0:0:0:0:
192,192,203203,1,0,0:0:0:0:
320,192,203274,1,0,0:0:0:0:
192,192,203345,1,0,0:0:0:0:
320,192,203417,1,0,0:0:0:0:
192,192,203488,1,0,0:0:0:0:
320,192,203560,1,0,0:0:0:0:
192,192,203631,1,0,0:0:0:0:
320,192,203703,1,0,0:0:0:0:
192,192,203774,1,0,0:0:0:0:
320,192,203845,1,0,0:0:0:0:
192,192,203917,1,0,0:0:0:0:
320,192,203988,1,0,0:0:0:0:
192,192,204060,1,0,0:0:0:0:
320,192,204131,1,0,0:0:0:0:
192,192,204203,1,0,0:0:0:0:
320,192,204274,1,0,0:0:0:0:
192,192,204345,1,0,0:0:0:0:
320,192,204417,1,0,0:0:0:0:
192,192,204488,1,0,0:0:0:0:
320,192,204560,1,0,0:0:0:0:
192,192,204631,1,0,0:0:0:0:
320,192,204703,1,0,0:0:0:0:
192,192,204774,1,0,0:0:0:0:
320,192,204845,1,0,0:0:0:0:
192,192,204917,1,0,0:0:0:0:
64,192,204917,1,0,0:0:0:0:
320,192,204988,1,0,0:0:0:0:
192,192,205060,5,0,0:0:0:0:
64,192,205060,1,0,0:0:0:0:
320,192,205131,1,0,0:0:0:0:
192,192,205203,1,0,0:0:0:0:
64,192,205203,1,0,0:0:0:0:
320,192,205274,1,0,0:0:0:0:
192,192,205345,1,0,0:0:0:0:
64,192,205345,1,0,0:0:0:0:
320,192,205417,1,0,0:0:0:0:
192,192,205488,1,0,0:0:0:0:
64,192,205488,1,0,0:0:0:0:
320,192,205560,1,0,0:0:0:0:
192,192,205631,1,0,0:0:0:0:
64,192,205631,1,0,0:0:0:0:
320,192,205703,1,0,0:0:0:0:
192,192,205774,1,0,0:0:0:0:
64,192,205774,1,0,0:0:0:0:
448,192,205774,1,0,0:0:0:0:
320,192,205988,1,0,0:0:0:0:
192,192,205988,1,0,0:0:0:0:
448,192,205988,1,0,0:0:0:0:
448,192,206203,5,0,0:0:0:0:
320,192,206203,1,0,0:0:0:0:
64,192,206203,1,0,0:0:0:0:
192,192,206203,128,0,207060:0:0:0:0:
320,192,206845,1,0,0:0:0:0:
448,192,207060,1,0,0:0:0:0:
192,192,207381,1,0,0:0:0:0:
320,192,207703,1,0,0:0:0:0:
320,192,207917,1,0,0:0:0:0:
320,192,208560,1,0,0:0:0:0:
448,192,208774,1,0,0:0:0:0:
64,192,208774,1,0,0:0:0:0:
320,192,208988,1,0,0:0:0:0:
192,192,209203,1,0,0:0:0:0:
320,192,209845,1,0,0:0:0:0:
448,192,210060,1,0,0:0:0:0:
192,192,210381,1,0,0:0:0:0:
320,192,210703,1,0,0:0:0:0:
320,192,210917,1,0,0:0:0:0:
320,192,211560,1,0,0:0:0:0:
448,192,211774,1,0,0:0:0:0:
64,192,211774,1,0,0:0:0:0:
320,192,211988,1,0,0:0:0:0:
192,192,212203,1,0,0:0:0:0:
192,192,212845,1,0,0:0:0:0:
320,192,213060,1,0,0:0:0:0:
64,192,213381,1,0,0:0:0:0:
192,192,213703,1,0,0:0:0:0:
192,192,213917,1,0,0:0:0:0:
192,192,214560,1,0,0:0:0:0:
448,192,214774,1,0,0:0:0:0:
64,192,214774,1,0,0:0:0:0:
320,192,214988,1,0,0:0:0:0:
64,192,215203,1,0,0:0:0:0:
192,192,215845,1,0,0:0:0:0:
320,192,216060,1,0,0:0:0:0:
64,192,216381,1,0,0:0:0:0:
192,192,216703,1,0,0:0:0:0:
192,192,216917,1,0,0:0:0:0:
192,192,217560,1,0,0:0:0:0:
448,192,217774,1,0,0:0:0:0:
64,192,217774,1,0,0:0:0:0:
320,192,217988,1,0,0:0:0:0:
64,192,218202,1,0,0:0:0:0:
320,192,218845,1,0,0:0:0:0:
448,192,219060,1,0,0:0:0:0:
192,192,219381,1,0,0:0:0:0:
320,192,219702,1,0,0:0:0:0:
320,192,219917,1,0,0:0:0:0:
320,192,220560,1,0,0:0:0:0:
448,192,220774,1,0,0:0:0:0:
64,192,220774,1,0,0:0:0:0:
320,192,220988,1,0,0:0:0:0:
192,192,221202,1,0,0:0:0:0:
320,192,221845,1,0,0:0:0:0:
448,192,222060,1,0,0:0:0:0:
192,192,222381,1,0,0:0:0:0:
320,192,222702,1,0,0:0:0:0:
320,192,222917,1,0,0:0:0:0:
320,192,223560,1,0,0:0:0:0:
448,192,223774,1,0,0:0:0:0:
64,192,223774,1,0,0:0:0:0:
320,192,223988,1,0,0:0:0:0:
192,192,224202,1,0,0:0:0:0:
192,192,224845,1,0,0:0:0:0:
320,192,225060,1,0,0:0:0:0:
64,192,225381,1,0,0:0:0:0:
192,192,225702,1,0,0:0:0:0:
192,192,225917,1,0,0:0:0:0:
192,192,226560,1,0,0:0:0:0:
448,192,226774,1,0,0:0:0:0:
64,192,226774,1,0,0:0:0:0:
320,192,226988,1,0,0:0:0:0:
64,192,227202,1,0,0:0:0:0:
192,192,227845,1,0,0:0:0:0:
320,192,228060,1,0,0:0:0:0:
64,192,228381,1,0,0:0:0:0:
192,192,228702,1,0,0:0:0:0:
192,192,228917,1,0,0:0:0:0:
192,192,229560,1,0,0:0:0:0:
320,192,229774,1,0,0:0:0:0:
448,192,229774,1,0,0:0:0:0:
320,192,233631,5,0,0:0:0:0:
192,192,233738,1,0,0:0:0:0:
320,192,233845,1,0,0:0:0:0:
192,192,233952,1,0,0:0:0:0:
320,192,234060,1,0,0:0:0:0:
192,192,234167,1,0,0:0:0:0:
320,192,234274,1,0,0:0:0:0:
192,192,234381,1,0,0:0:0:0:
192,192,234488,1,0,0:0:0:0:
320,192,234488,1,0,0:0:0:0:
320,192,234595,1,0,0:0:0:0:
192,192,234595,1,0,0:0:0:0:
192,192,234702,1,0,0:0:0:0:
320,192,234702,1,0,0:0:0:0:
320,192,234810,1,0,0:0:0:0:
192,192,234810,1,0,0:0:0:0:
192,192,234917,1,0,0:0:0:0:
320,192,234917,1,0,0:0:0:0:
320,192,235024,1,0,0:0:0:0:
192,192,235024,1,0,0:0:0:0:
192,192,235131,1,0,0:0:0:0:
320,192,235131,1,0,0:0:0:0:
192,192,235238,1,0,0:0:0:0:
320,192,235238,1,0,0:0:0:0:
320,192,235345,1,0,0:0:0:0:
448,192,235345,1,0,0:0:0:0:
192,192,235345,1,0,0:0:0:0:
64,192,235345,1,0,0:0:0:0:
192,192,235452,1,0,0:0:0:0:
320,192,235452,1,0,0:0:0:0:
320,192,235560,1,0,0:0:0:0:
192,192,235560,1,0,0:0:0:0:
192,192,235667,1,0,0:0:0:0:
320,192,235667,1,0,0:0:0:0:
448,192,235774,1,0,0:0:0:0:
320,192,235774,1,0,0:0:0:0:
64,192,235774,1,0,0:0:0:0:
192,192,235774,1,0,0:0:0:0:
192,192,235881,1,0,0:0:0:0:
320,192,235881,1,0,0:0:0:0:
320,192,235988,1,0,0:0:0:0:
192,192,235988,1,0,0:0:0:0:
192,192,236095,1,0,0:0:0:0:
320,192,236095,1,0,0:0:0:0:
448,192,236202,1,0,0:0:0:0:
320,192,236202,1,0,0:0:0:0:
64,192,236202,1,0,0:0:0:0:
192,192,236202,1,0,0:0:0:0:
192,192,236417,1,0,0:0:0:0:
64,192,236417,1,0,0:0:0:0:
64,192,236524,1,0,0:0:0:0:
192,192,236524,1,0,0:0:0:0:
320,192,236631,1,0,0:0:0:0:
192,192,236631,1,0,0:0:0:0:
448,192,236631,1,0,0:0:0:0:
64,192,236631,1,0,0:0:0:0:
320,192,236845,1,0,0:0:0:0:
448,192,236845,1,0,0:0:0:0:
448,192,236952,1,0,0:0:0:0:
320,192,236952,1,0,0:0:0:0:
64,192,237060,5,0,0:0:0:0:
320,192,237060,1,0,0:0:0:0:
192,192,237060,1,0,0:0:0:0:
448,192,237060,1,0,0:0:0:0:
64,192,237167,1,0,0:0:0:0:
192,192,237167,1,0,0:0:0:0:
320,192,237167,1,0,0:0:0:0:
448,192,237274,1,0,0:0:0:0:
320,192,237274,1,0,0:0:0:0:
192,192,237274,1,0,0:0:0:0:
64,192,237274,1,0,0:0:0:0:
192,192,237381,1,0,0:0:0:0:
448,192,237381,1,0,0:0:0:0:
320,192,237381,1,0,0:0:0:0:
448,192,237488,1,0,0:0:0:0:
192,192,237488,1,0,0:0:0:0:
64,192,237488,1,0,0:0:0:0:
64,192,237595,1,0,0:0:0:0:
320,192,237595,1,0,0:0:0:0:
448,192,237595,1,0,0:0:0:0:
448,192,237702,1,0,0:0:0:0:
320,192,237702,1,0,0:0:0:0:
192,192,237702,1,0,0:0:0:0:
64,192,237702,1,0,0:0:0:0:
64,192,237810,1,0,0:0:0:0:
192,192,237810,1,0,0:0:0:0:
448,192,237810,1,0,0:0:0:0:
448,192,237917,1,0,0:0:0:0:
320,192,237917,1,0,0:0:0:0:
64,192,237917,1,0,0:0:0:0:
64,192,238024,1,0,0:0:0:0:
192,192,238024,1,0,0:0:0:0:
320,192,238024,1,0,0:0:0:0:
448,192,238131,1,0,0:0:0:0:
320,192,238131,1,0,0:0:0:0:
192,192,238131,1,0,0:0:0:0:
64,192,238131,1,0,0:0:0:0:
448,192,238238,1,0,0:0:0:0:
320,192,238238,1,0,0:0:0:0:
192,192,238238,1,0,0:0:0:0:
64,192,238345,1,0,0:0:0:0:
192,192,238345,1,0,0:0:0:0:
448,192,238345,1,0,0:0:0:0:
320,192,238452,1,0,0:0:0:0:
192,192,238452,1,0,0:0:0:0:
64,192,238452,1,0,0:0:0:0:
448,192,238560,1,0,0:0:0:0:
320,192,238560,1,0,0:0:0:0:
192,192,238560,1,0,0:0:0:0:
64,192,238560,1,0,0:0:0:0:
64,192,238667,1,0,0:0:0:0:
320,192,238667,1,0,0:0:0:0:
448,192,238667,1,0,0:0:0:0:
64,192,238774,1,0,0:0:0:0:
448,192,238774,1,0,0:0:0:0:
192,192,238774,1,0,0:0:0:0:
192,192,238881,1,0,0:0:0:0:
448,192,238881,1,0,0:0:0:0:
320,192,238881,1,0,0:0:0:0:
64,192,238988,1,0,0:0:0:0:
192,192,238988,1,0,0:0:0:0:
448,192,238988,1,0,0:0:0:0:
320,192,238988,1,0,0:0:0:0:
64,192,239095,1,0,0:0:0:0:
320,192,239095,1,0,0:0:0:0:
192,192,239095,1,0,0:0:0:0:
448,192,239202,1,0,0:0:0:0:
192,192,239202,1,0,0:0:0:0:
64,192,239202,1,0,0:0:0:0:
192,192,239310,1,0,0:0:0:0:
320,192,239310,1,0,0:0:0:0:
448,192,239310,1,0,0:0:0:0:
64,192,239417,1,0,0:0:0:0:
192,192,239417,1,0,0:0:0:0:
320,192,239417,1,0,0:0:0:0:
448,192,239417,1,0,0:0:0:0:
192,192,239524,1,0,0:0:0:0:
320,192,239524,1,0,0:0:0:0:
64,192,239524,1,0,0:0:0:0:
448,192,239631,1,0,0:0:0:0:
320,192,239631,1,0,0:0:0:0:
64,192,239631,1,0,0:0:0:0:
64,192,239738,1,0,0:0:0:0:
192,192,239738,1,0,0:0:0:0:
320,192,239738,1,0,0:0:0:0:
448,192,239845,1,0,0:0:0:0:
320,192,239845,1,0,0:0:0:0:
192,192,239845,1,0,0:0:0:0:
64,192,239845,1,0,0:0:0:0:
192,192,239952,1,0,0:0:0:0:
320,192,239952,1,0,0:0:0:0:
448,192,239952,1,0,0:0:0:0:
64,192,240060,1,0,0:0:0:0:
320,192,240060,1,0,0:0:0:0:
448,192,240060,1,0,0:0:0:0:
192,192,240167,1,0,0:0:0:0:
320,192,240167,1,0,0:0:0:0:
448,192,240167,1,0,0:0:0:0:
448,192,240274,1,0,0:0:0:0:
320,192,240274,1,0,0:0:0:0:
192,192,240274,1,0,0:0:0:0:
64,192,240274,1,0,0:0:0:0:
64,192,240381,1,0,0:0:0:0:
192,192,240381,1,0,0:0:0:0:
448,192,240381,1,0,0:0:0:0:
64,192,240488,1,0,0:0:0:0:
192,192,240488,1,0,0:0:0:0:
320,192,240488,1,0,0:0:0:0:
448,192,240488,1,0,0:0:0:0:
64,192,240595,1,0,0:0:0:0:
448,192,240595,1,0,0:0:0:0:
320,192,240595,1,0,0:0:0:0:
448,192,240702,1,0,0:0:0:0:
320,192,240702,1,0,0:0:0:0:
192,192,240702,1,0,0:0:0:0:
64,192,240702,1,0,0:0:0:0:
320,192,240810,1,0,0:0:0:0:
192,192,240810,1,0,0:0:0:0:
64,192,240810,1,0,0:0:0:0:
320,192,240917,1,0,0:0:0:0:
64,192,240917,1,0,0:0:0:0:
448,192,240917,1,0,0:0:0:0:
64,192,241024,1,0,0:0:0:0:
192,192,241024,1,0,0:0:0:0:
448,192,241024,1,0,0:0:0:0:
64,192,241131,1,0,0:0:0:0:
192,192,241131,1,0,0:0:0:0:
320,192,241131,1,0,0:0:0:0:
448,192,241131,1,0,0:0:0:0:
448,192,241238,1,0,0:0:0:0:
320,192,241238,1,0,0:0:0:0:
192,192,241238,1,0,0:0:0:0:
320,192,241345,1,0,0:0:0:0:
192,192,241345,1,0,0:0:0:0:
64,192,241345,1,0,0:0:0:0:
448,192,241452,1,0,0:0:0:0:
320,192,241452,1,0,0:0:0:0:
64,192,241452,1,0,0:0:0:0:
64,192,241560,1,0,0:0:0:0:
192,192,241560,1,0,0:0:0:0:
320,192,241560,1,0,0:0:0:0:
448,192,241560,1,0,0:0:0:0:
192,192,241667,1,0,0:0:0:0:
320,192,241667,1,0,0:0:0:0:
64,192,241667,1,0,0:0:0:0:
64,192,241774,1,0,0:0:0:0:
192,192,241774,1,0,0:0:0:0:
448,192,241774,1,0,0:0:0:0:
448,192,241881,1,0,0:0:0:0:
320,192,241881,1,0,0:0:0:0:
192,192,241881,1,0,0:0:0:0:
448,192,241988,1,0,0:0:0:0:
320,192,241988,1,0,0:0:0:0:
192,192,241988,1,0,0:0:0:0:
64,192,241988,1,0,0:0:0:0:
64,192,242095,1,0,0:0:0:0:
192,192,242095,1,0,0:0:0:0:
320,192,242095,1,0,0:0:0:0:
64,192,242202,1,0,0:0:0:0:
192,192,242202,1,0,0:0:0:0:
448,192,242202,1,0,0:0:0:0:
64,192,242310,1,0,0:0:0:0:
320,192,242310,1,0,0:0:0:0:
448,192,242310,1,0,0:0:0:0:
320,192,242417,1,0,0:0:0:0:
448,192,242417,1,0,0:0:0:0:
192,192,242417,1,0,0:0:0:0:
64,192,242417,1,0,0:0:0:0:
192,192,242524,1,0,0:0:0:0:
320,192,242524,1,0,0:0:0:0:
448,192,242524,1,0,0:0:0:0:
320,192,242631,1,0,0:0:0:0:
192,192,242631,1,0,0:0:0:0:
64,192,242631,1,0,0:0:0:0:
192,192,242738,1,0,0:0:0:0:
448,192,242738,1,0,0:0:0:0:
64,192,242738,1,0,0:0:0:0:
64,192,242845,1,0,0:0:0:0:
192,192,242845,1,0,0:0:0:0:
320,192,242845,1,0,0:0:0:0:
448,192,242845,1,0,0:0:0:0:
320,192,242952,1,0,0:0:0:0:
448,192,242952,1,0,0:0:0:0:
64,192,242952,1,0,0:0:0:0:
320,192,243060,1,0,0:0:0:0:
192,192,243060,1,0,0:0:0:0:
64,192,243060,1,0,0:0:0:0:
448,192,243167,1,0,0:0:0:0:
320,192,243167,1,0,0:0:0:0:
64,192,243167,1,0,0:0:0:0:
64,192,243274,1,0,0:0:0:0:
192,192,243274,1,0,0:0:0:0:
320,192,243274,1,0,0:0:0:0:
448,192,243274,1,0,0:0:0:0:
448,192,243381,1,0,0:0:0:0:
64,192,243381,1,0,0:0:0:0:
192,192,243381,1,0,0:0:0:0:
448,192,243488,1,0,0:0:0:0:
320,192,243488,1,0,0:0:0:0:
64,192,243488,1,0,0:0:0:0:
448,192,243595,1,0,0:0:0:0:
320,192,243595,1,0,0:0:0:0:
192,192,243595,1,0,0:0:0:0:
64,192,243702,1,0,0:0:0:0:
192,192,243702,1,0,0:0:0:0:
448,192,243702,1,0,0:0:0:0:
192,192,243810,1,0,0:0:0:0:
320,192,243810,1,0,0:0:0:0:
64,192,243810,1,0,0:0:0:0:
64,192,243917,5,0,0:0:0:0:
192,192,243917,1,0,0:0:0:0:
320,192,243917,1,0,0:0:0:0:
448,192,243917,1,0,0:0:0:0:
64,192,244024,1,0,0:0:0:0:
192,192,244024,1,0,0:0:0:0:
320,192,244024,1,0,0:0:0:0:
448,192,244131,1,0,0:0:0:0:
320,192,244131,1,0,0:0:0:0:
192,192,244131,1,0,0:0:0:0:
64,192,244131,1,0,0:0:0:0:
192,192,244238,1,0,0:0:0:0:
448,192,244238,1,0,0:0:0:0:
320,192,244238,1,0,0:0:0:0:
320,192,244345,1,0,0:0:0:0:
192,192,244345,1,0,0:0:0:0:
64,192,244345,1,0,0:0:0:0:
64,192,244452,1,0,0:0:0:0:
320,192,244452,1,0,0:0:0:0:
448,192,244452,1,0,0:0:0:0:
448,192,244560,1,0,0:0:0:0:
320,192,244560,1,0,0:0:0:0:
192,192,244560,1,0,0:0:0:0:
64,192,244667,1,0,0:0:0:0:
192,192,244667,1,0,0:0:0:0:
448,192,244667,1,0,0:0:0:0:
448,192,244774,1,0,0:0:0:0:
320,192,244774,1,0,0:0:0:0:
64,192,244774,1,0,0:0:0:0:
64,192,244881,1,0,0:0:0:0:
192,192,244881,1,0,0:0:0:0:
320,192,244881,1,0,0:0:0:0:
448,192,244988,1,0,0:0:0:0:
320,192,244988,1,0,0:0:0:0:
192,192,244988,1,0,0:0:0:0:
64,192,244988,1,0,0:0:0:0:
448,192,245095,1,0,0:0:0:0:
320,192,245095,1,0,0:0:0:0:
192,192,245095,1,0,0:0:0:0:
64,192,245202,1,0,0:0:0:0:
192,192,245202,1,0,0:0:0:0:
448,192,245202,1,0,0:0:0:0:
320,192,245310,1,0,0:0:0:0:
192,192,245310,1,0,0:0:0:0:
64,192,245310,1,0,0:0:0:0:
448,192,245417,1,0,0:0:0:0:
320,192,245417,1,0,0:0:0:0:
192,192,245417,1,0,0:0:0:0:
64,192,245417,1,0,0:0:0:0:
64,192,245524,1,0,0:0:0:0:
320,192,245524,1,0,0:0:0:0:
448,192,245524,1,0,0:0:0:0:
64,192,245631,1,0,0:0:0:0:
192,192,245631,1,0,0:0:0:0:
448,192,245631,1,0,0:0:0:0:
192,192,245738,1,0,0:0:0:0:
448,192,245738,1,0,0:0:0:0:
320,192,245738,1,0,0:0:0:0:
64,192,245845,1,0,0:0:0:0:
192,192,245845,1,0,0:0:0:0:
448,192,245845,1,0,0:0:0:0:
320,192,245845,1,0,0:0:0:0:
64,192,245952,1,0,0:0:0:0:
320,192,245952,1,0,0:0:0:0:
192,192,245952,1,0,0:0:0:0:
448,192,246060,1,0,0:0:0:0:
192,192,246060,1,0,0:0:0:0:
64,192,246060,1,0,0:0:0:0:
192,192,246167,1,0,0:0:0:0:
320,192,246167,1,0,0:0:0:0:
64,192,246274,1,0,0:0:0:0:
192,192,246274,1,0,0:0:0:0:
320,192,246274,1,0,0:0:0:0:
448,192,246274,1,0,0:0:0:0:
448,192,246381,1,0,0:0:0:0:
64,192,246381,1,0,0:0:0:0:
192,192,246488,1,0,0:0:0:0:
448,192,246488,1,0,0:0:0:0:
320,192,246488,1,0,0:0:0:0:
64,192,246595,1,0,0:0:0:0:
192,192,246595,1,0,0:0:0:0:
448,192,246702,1,0,0:0:0:0:
320,192,246702,1,0,0:0:0:0:
192,192,246702,1,0,0:0:0:0:
64,192,246702,1,0,0:0:0:0:
320,192,246810,1,0,0:0:0:0:
448,192,246810,1,0,0:0:0:0:
192,192,246917,1,0,0:0:0:0:
64,192,246917,1,0,0:0:0:0:
320,192,246917,1,0,0:0:0:0:
192,192,247024,1,0,0:0:0:0:
448,192,247024,1,0,0:0:0:0:
448,192,247131,1,0,0:0:0:0:
320,192,247131,1,0,0:0:0:0:
192,192,247131,1,0,0:0:0:0:
64,192,247131,1,0,0:0:0:0:
192,192,247238,1,0,0:0:0:0:
320,192,247238,1,0,0:0:0:0:
64,192,247345,1,0,0:0:0:0:
192,192,247345,1,0,0:0:0:0:
320,192,247345,1,0,0:0:0:0:
448,192,247345,1,0,0:0:0:0:
448,192,247452,1,0,0:0:0:0:
320,192,247452,1,0,0:0:0:0:
448,192,247560,1,0,0:0:0:0:
320,192,247560,1,0,0:0:0:0:
192,192,247560,1,0,0:0:0:0:
64,192,247560,1,0,0:0:0:0:
192,192,247667,1,0,0:0:0:0:
64,192,247667,1,0,0:0:0:0:
192,192,247774,1,0,0:0:0:0:
320,192,247774,1,0,0:0:0:0:
448,192,247774,1,0,0:0:0:0:
192,192,247881,1,0,0:0:0:0:
448,192,247881,1,0,0:0:0:0:
64,192,247988,1,0,0:0:0:0:
192,192,247988,1,0,0:0:0:0:
320,192,247988,1,0,0:0:0:0:
448,192,247988,1,0,0:0:0:0:
448,192,248095,1,0,0:0:0:0:
64,192,248095,1,0,0:0:0:0:
320,192,248202,1,0,0:0:0:0:
192,192,248202,1,0,0:0:0:0:
64,192,248202,1,0,0:0:0:0:
320,192,248310,1,0,0:0:0:0:
64,192,248310,1,0,0:0:0:0:
64,192,248417,1,0,0:0:0:0:
192,192,248417,1,0,0:0:0:0:
320,192,248417,1,0,0:0:0:0:
448,192,248417,1,0,0:0:0:0:
192,192,248524,1,0,0:0:0:0:
320,192,248524,1,0,0:0:0:0:
64,192,248631,1,0,0:0:0:0:
192,192,248631,1,0,0:0:0:0:
448,192,248631,1,0,0:0:0:0:
320,192,248738,1,0,0:0:0:0:
192,192,248738,1,0,0:0:0:0:
448,192,248845,1,0,0:0:0:0:
320,192,248845,1,0,0:0:0:0:
192,192,248845,1,0,0:0:0:0:
64,192,248845,1,0,0:0:0:0:
64,192,248952,1,0,0:0:0:0:
320,192,248952,1,0,0:0:0:0:
64,192,249060,1,0,0:0:0:0:
192,192,249060,1,0,0:0:0:0:
448,192,249060,1,0,0:0:0:0:
64,192,249167,1,0,0:0:0:0:
320,192,249167,1,0,0:0:0:0:
320,192,249274,1,0,0:0:0:0:
448,192,249274,1,0,0:0:0:0:
192,192,249274,1,0,0:0:0:0:
64,192,249274,1,0,0:0:0:0:
320,192,249381,1,0,0:0:0:0:
448,192,249381,1,0,0:0:0:0:
320,192,249488,1,0,0:0:0:0:
192,192,249488,1,0,0:0:0:0:
64,192,249488,1,0,0:0:0:0:
192,192,249595,1,0,0:0:0:0:
448,192,249595,1,0,0:0:0:0:
64,192,249702,1,0,0:0:0:0:
192,192,249702,1,0,0:0:0:0:
320,192,249702,1,0,0:0:0:0:
448,192,249702,1,0,0:0:0:0:
320,192,249810,1,0,0:0:0:0:
64,192,249810,1,0,0:0:0:0:
448,192,249917,1,0,0:0:0:0:
192,192,249917,1,0,0:0:0:0:
64,192,249917,1,0,0:0:0:0:
448,192,250024,1,0,0:0:0:0:
64,192,250024,1,0,0:0:0:0:
64,192,250131,1,0,0:0:0:0:
192,192,250131,1,0,0:0:0:0:
320,192,250131,1,0,0:0:0:0:
448,192,250131,1,0,0:0:0:0:
448,192,250238,1,0,0:0:0:0:
192,192,250238,1,0,0:0:0:0:
192,192,250345,1,0,0:0:0:0:
320,192,250345,1,0,0:0:0:0:
64,192,250345,1,0,0:0:0:0:
64,192,250452,1,0,0:0:0:0:
448,192,250452,1,0,0:0:0:0:
320,192,250560,1,0,0:0:0:0:
64,192,250560,1,0,0:0:0:0:
192,192,250560,1,0,0:0:0:0:
448,192,250560,1,0,0:0:0:0:
192,192,250667,1,0,0:0:0:0:
320,192,250667,1,0,0:0:0:0:
448,192,250774,1,0,0:0:0:0:
320,192,250774,1,0,0:0:0:0:
192,192,250774,1,0,0:0:0:0:
64,192,250774,1,0,0:0:0:0:
192,192,250881,1,0,0:0:0:0:
64,192,250881,1,0,0:0:0:0:
64,192,250988,1,0,0:0:0:0:
192,192,250988,1,0,0:0:0:0:
320,192,250988,1,0,0:0:0:0:
448,192,250988,1,0,0:0:0:0:
448,192,251095,1,0,0:0:0:0:
192,192,251095,1,0,0:0:0:0:
320,192,251202,1,0,0:0:0:0:
192,192,251202,1,0,0:0:0:0:
64,192,251202,1,0,0:0:0:0:
64,192,251310,1,0,0:0:0:0:
448,192,251310,1,0,0:0:0:0:
64,192,251417,1,0,0:0:0:0:
192,192,251417,1,0,0:0:0:0:
320,192,251417,1,0,0:0:0:0:
448,192,251417,1,0,0:0:0:0:
320,192,251524,1,0,0:0:0:0:
448,192,251524,1,0,0:0:0:0:
192,192,251631,1,0,0:0:0:0:
448,192,251631,1,0,0:0:0:0:
320,192,251631,1,0,0:0:0:0:
64,192,251631,1,0,0:0:0:0:
192,192,251738,1,0,0:0:0:0:
64,192,251738,1,0,0:0:0:0:
448,192,251845,1,0,0:0:0:0:
320,192,251845,1,0,0:0:0:0:
192,192,251845,1,0,0:0:0:0:
64,192,251845,1,0,0:0:0:0:
320,192,251952,1,0,0:0:0:0:
448,192,251952,1,0,0:0:0:0:
320,192,252060,1,0,0:0:0:0:
64,192,252060,1,0,0:0:0:0:
448,192,252060,1,0,0:0:0:0:
320,192,252167,1,0,0:0:0:0:
64,192,252167,1,0,0:0:0:0:
448,192,252274,1,0,0:0:0:0:
320,192,252274,1,0,0:0:0:0:
192,192,252274,1,0,0:0:0:0:
64,192,252274,1,0,0:0:0:0:
192,192,252381,1,0,0:0:0:0:
448,192,252381,1,0,0:0:0:0:
320,192,252488,1,0,0:0:0:0:
192,192,252488,1,0,0:0:0:0:
64,192,252488,1,0,0:0:0:0:
448,192,252488,1,0,0:0:0:0:
320,192,252595,1,0,0:0:0:0:
64,192,252595,1,0,0:0:0:0:
448,192,252702,1,0,0:0:0:0:
320,192,252702,1,0,0:0:0:0:
192,192,252702,1,0,0:0:0:0:
64,192,252702,1,0,0:0:0:0:
320,192,252810,1,0,0:0:0:0:
448,192,252810,1,0,0:0:0:0:
320,192,252917,1,0,0:0:0:0:
448,192,252917,1,0,0:0:0:0:
192,192,252917,1,0,0:0:0:0:
64,192,253024,1,0,0:0:0:0:
192,192,253024,1,0,0:0:0:0:
448,192,253131,1,0,0:0:0:0:
320,192,253131,1,0,0:0:0:0:
192,192,253131,1,0,0:0:0:0:
64,192,253131,1,0,0:0:0:0:
320,192,253238,1,0,0:0:0:0:
192,192,253238,1,0,0:0:0:0:
192,192,253345,1,0,0:0:0:0:
64,192,253345,1,0,0:0:0:0:
320,192,253345,1,0,0:0:0:0:
448,192,253345,1,0,0:0:0:0:
448,192,253560,1,0,0:0:0:0:
320,192,253560,1,0,0:0:0:0:
64,192,253560,1,0,0:0:0:0:
64,192,253667,1,0,0:0:0:0:
192,192,253667,1,0,0:0:0:0:
320,192,253667,1,0,0:0:0:0:
192,192,253774,1,0,0:0:0:0:
320,192,253774,1,0,0:0:0:0:
448,192,253774,1,0,0:0:0:0:
64,192,253774,1,0,0:0:0:0:
320,192,253988,1,0,0:0:0:0:
448,192,253988,1,0,0:0:0:0:
64,192,253988,1,0,0:0:0:0:
64,192,254095,1,0,0:0:0:0:
192,192,254095,1,0,0:0:0:0:
448,192,254095,1,0,0:0:0:0:
64,192,254202,1,0,0:0:0:0:
192,192,254202,1,0,0:0:0:0:
320,192,254202,1,0,0:0:0:0:
448,192,254202,1,0,0:0:0:0:
64,192,254310,1,0,0:0:0:0:
320,192,254310,1,0,0:0:0:0:
448,192,254310,1,0,0:0:0:0:
64,192,254417,1,0,0:0:0:0:
192,192,254417,1,0,0:0:0:0:
320,192,254417,1,0,0:0:0:0:
448,192,254417,1,0,0:0:0:0:
64,192,254524,1,0,0:0:0:0:
192,192,254524,1,0,0:0:0:0:
320,192,254524,1,0,0:0:0:0:
448,192,254631,1,0,0:0:0:0:
320,192,254631,1,0,0:0:0:0:
192,192,254631,1,0,0:0:0:0:
64,192,254738,1,0,0:0:0:0:
320,192,254738,1,0,0:0:0:0:
448,192,254738,1,0,0:0:0:0:
192,192,254845,1,0,0:0:0:0:
64,192,254845,1,0,0:0:0:0:
320,192,254845,1,0,0:0:0:0:
64,192,254952,1,0,0:0:0:0:
192,192,254952,1,0,0:0:0:0:
448,192,254952,1,0,0:0:0:0:
64,192,255060,1,0,0:0:0:0:
192,192,255060,1,0,0:0:0:0:
448,192,255060,1,0,0:0:0:0:
320,192,255060,1,0,0:0:0:0:
448,192,255167,1,0,0:0:0:0:
320,192,255167,1,0,0:0:0:0:
64,192,255167,1,0,0:0:0:0:
64,192,255274,1,0,0:0:0:0:
192,192,255274,1,0,0:0:0:0:
320,192,255274,1,0,0:0:0:0:
448,192,255274,1,0,0:0:0:0:
448,192,255381,1,0,0:0:0:0:
64,192,255381,1,0,0:0:0:0:
192,192,255381,1,0,0:0:0:0:
192,192,255488,1,0,0:0:0:0:
320,192,255488,1,0,0:0:0:0:
448,192,255488,1,0,0:0:0:0:
64,192,255595,1,0,0:0:0:0:
320,192,255595,1,0,0:0:0:0:
448,192,255595,1,0,0:0:0:0:
64,192,255702,1,0,0:0:0:0:
320,192,255702,1,0,0:0:0:0:
192,192,255702,1,0,0:0:0:0:
448,192,255702,1,0,0:0:0:0:
64,192,255810,1,0,0:0:0:0:
192,192,255810,1,0,0:0:0:0:
448,192,255810,1,0,0:0:0:0:
448,192,255917,1,0,0:0:0:0:
320,192,255917,1,0,0:0:0:0:
192,192,255917,1,0,0:0:0:0:
64,192,255917,1,0,0:0:0:0:
192,192,256024,1,0,0:0:0:0:
320,192,256024,1,0,0:0:0:0:
64,192,256024,1,0,0:0:0:0:
448,192,256131,1,0,0:0:0:0:
320,192,256131,1,0,0:0:0:0:
64,192,256131,1,0,0:0:0:0:
192,192,256131,1,0,0:0:0:0:
448,192,256238,1,0,0:0:0:0:
320,192,256238,1,0,0:0:0:0:
64,192,256238,1,0,0:0:0:0:
448,192,256345,1,0,0:0:0:0:
320,192,256345,1,0,0:0:0:0:
192,192,256345,1,0,0:0:0:0:
64,192,256452,1,0,0:0:0:0:
192,192,256452,1,0,0:0:0:0:
320,192,256452,1,0,0:0:0:0:
448,192,256560,1,0,0:0:0:0:
320,192,256560,1,0,0:0:0:0:
64,192,256560,1,0,0:0:0:0:
64,192,256667,1,0,0:0:0:0:
192,192,256667,1,0,0:0:0:0:
448,192,256667,1,0,0:0:0:0:
192,192,256774,1,0,0:0:0:0:
320,192,256774,1,0,0:0:0:0:
448,192,256774,1,0,0:0:0:0:
64,192,256774,1,0,0:0:0:0:
192,192,256988,1,0,0:0:0:0:
64,192,256988,1,0,0:0:0:0:
320,192,256988,1,0,0:0:0:0:
64,192,257095,1,0,0:0:0:0:
192,192,257095,1,0,0:0:0:0:
448,192,257095,1,0,0:0:0:0:
448,192,257202,1,0,0:0:0:0:
320,192,257202,1,0,0:0:0:0:
192,192,257202,1,0,0:0:0:0:
64,192,257202,1,0,0:0:0:0:
64,192,257417,1,0,0:0:0:0:
192,192,257417,1,0,0:0:0:0:
448,192,257417,1,0,0:0:0:0:
448,192,257524,1,0,0:0:0:0:
320,192,257524,1,0,0:0:0:0:
192,192,257524,1,0,0:0:0:0:
64,192,257631,1,0,0:0:0:0:
192,192,257631,1,0,0:0:0:0:
320,192,257631,1,0,0:0:0:0:
448,192,257631,1,0,0:0:0:0:
64,192,257738,1,0,0:0:0:0:
192,192,257738,1,0,0:0:0:0:
448,192,257738,1,0,0:0:0:0:
448,192,257845,1,0,0:0:0:0:
320,192,257845,1,0,0:0:0:0:
192,192,257845,1,0,0:0:0:0:
64,192,257845,1,0,0:0:0:0:
192,192,257952,1,0,0:0:0:0:
320,192,257952,1,0,0:0:0:0:
448,192,257952,1,0,0:0:0:0:
64,192,258060,1,0,0:0:0:0:
192,192,258060,1,0,0:0:0:0:
320,192,258060,1,0,0:0:0:0:
64,192,258167,1,0,0:0:0:0:
320,192,258167,1,0,0:0:0:0:
448,192,258167,1,0,0:0:0:0:
448,192,258274,1,0,0:0:0:0:
320,192,258274,1,0,0:0:0:0:
192,192,258274,1,0,0:0:0:0:
64,192,258274,1,0,0:0:0:0:
64,192,258381,1,0,0:0:0:0:
192,192,258381,1,0,0:0:0:0:
448,192,258381,1,0,0:0:0:0:
64,192,258488,1,0,0:0:0:0:
192,192,258488,1,0,0:0:0:0:
320,192,258488,1,0,0:0:0:0:
448,192,258488,1,0,0:0:0:0:
192,192,258595,1,0,0:0:0:0:
320,192,258595,1,0,0:0:0:0:
448,192,258595,1,0,0:0:0:0:
448,192,258702,1,0,0:0:0:0:
320,192,258702,1,0,0:0:0:0:
192,192,258702,1,0,0:0:0:0:
64,192,258702,1,0,0:0:0:0:
64,192,258810,1,0,0:0:0:0:
192,192,258810,1,0,0:0:0:0:
320,192,258810,1,0,0:0:0:0:
64,192,258917,1,0,0:0:0:0:
320,192,258917,1,0,0:0:0:0:
448,192,258917,1,0,0:0:0:0:
320,192,259024,1,0,0:0:0:0:
192,192,259024,1,0,0:0:0:0:
64,192,259024,1,0,0:0:0:0:
448,192,259131,1,0,0:0:0:0:
320,192,259131,1,0,0:0:0:0:
192,192,259131,1,0,0:0:0:0:
64,192,259131,1,0,0:0:0:0:
448,192,259238,1,0,0:0:0:0:
192,192,259238,1,0,0:0:0:0:
64,192,259238,1,0,0:0:0:0:
64,192,259345,1,0,0:0:0:0:
192,192,259345,1,0,0:0:0:0:
320,192,259345,1,0,0:0:0:0:
448,192,259345,1,0,0:0:0:0:
192,192,259452,1,0,0:0:0:0:
320,192,259452,1,0,0:0:0:0:
448,192,259452,1,0,0:0:0:0:
448,192,259560,1,0,0:0:0:0:
320,192,259560,1,0,0:0:0:0:
192,192,259560,1,0,0:0:0:0:
64,192,259560,1,0,0:0:0:0:
64,192,259667,1,0,0:0:0:0:
320,192,259667,1,0,0:0:0:0:
448,192,259667,1,0,0:0:0:0:
448,192,259774,1,0,0:0:0:0:
64,192,259774,1,0,0:0:0:0:
192,192,259774,1,0,0:0:0:0:
64,192,259881,1,0,0:0:0:0:
320,192,259881,1,0,0:0:0:0:
448,192,259881,1,0,0:0:0:0:
192,192,259988,1,0,0:0:0:0:
64,192,259988,1,0,0:0:0:0:
448,192,259988,1,0,0:0:0:0:
192,192,260095,1,0,0:0:0:0:
320,192,260095,1,0,0:0:0:0:
448,192,260095,1,0,0:0:0:0:
64,192,260202,1,0,0:0:0:0:
320,192,260202,1,0,0:0:0:0:
448,192,260202,1,0,0:0:0:0:
192,192,260202,1,0,0:0:0:0:
320,192,260417,1,0,0:0:0:0:
448,192,260417,1,0,0:0:0:0:
64,192,260417,1,0,0:0:0:0:
64,192,260524,1,0,0:0:0:0:
192,192,260524,1,0,0:0:0:0:
448,192,260524,1,0,0:0:0:0:
448,192,260631,1,0,0:0:0:0:
320,192,260631,1,0,0:0:0:0:
192,192,260631,1,0,0:0:0:0:
64,192,260631,1,0,0:0:0:0:
448,192,261060,1,0,0:0:0:0:
320,192,261060,1,0,0:0:0:0:
192,192,261060,1,0,0:0:0:0:
64,192,261060,1,0,0:0:0:0:
64,192,261167,1,0,0:0:0:0:
320,192,261167,1,0,0:0:0:0:
448,192,261167,1,0,0:0:0:0:
64,192,261274,1,0,0:0:0:0:
192,192,261274,1,0,0:0:0:0:
320,192,261274,1,0,0:0:0:0:
448,192,261381,1,0,0:0:0:0:
192,192,261381,1,0,0:0:0:0:
64,192,261381,1,0,0:0:0:0:
448,192,261488,1,0,0:0:0:0:
320,192,261488,1,0,0:0:0:0:
192,192,261488,1,0,0:0:0:0:
64,192,261488,1,0,0:0:0:0:
64,192,261595,1,0,0:0:0:0:
192,192,261595,1,0,0:0:0:0:
320,192,261595,1,0,0:0:0:0:
448,192,261702,1,0,0:0:0:0:
320,192,261702,1,0,0:0:0:0:
192,192,261702,1,0,0:0:0:0:
64,192,261810,1,0,0:0:0:0:
320,192,261810,1,0,0:0:0:0:
448,192,261810,1,0,0:0:0:0:
448,192,261917,1,0,0:0:0:0:
320,192,261917,1,0,0:0:0:0:
192,192,261917,1,0,0:0:0:0:
64,192,261917,1,0,0:0:0:0:
64,192,262024,1,0,0:0:0:0:
192,192,262024,1,0,0:0:0:0:
320,192,262024,1,0,0:0:0:0:
448,192,262131,1,0,0:0:0:0:
320,192,262131,1,0,0:0:0:0:
64,192,262131,1,0,0:0:0:0:
192,192,262131,1,0,0:0:0:0:
448,192,262238,1,0,0:0:0:0:
192,192,262238,1,0,0:0:0:0:
64,192,262238,1,0,0:0:0:0:
64,192,262345,1,0,0:0:0:0:
192,192,262345,1,0,0:0:0:0:
320,192,262345,1,0,0:0:0:0:
448,192,262345,1,0,0:0:0:0:
448,192,262452,1,0,0:0:0:0:
320,192,262452,1,0,0:0:0:0:
192,192,262452,1,0,0:0:0:0:
448,192,262560,1,0,0:0:0:0:
320,192,262560,1,0,0:0:0:0:
192,192,262560,1,0,0:0:0:0:
64,192,262560,1,0,0:0:0:0:
64,192,262667,1,0,0:0:0:0:
192,192,262667,1,0,0:0:0:0:
320,192,262774,1,0,0:0:0:0:
448,192,262774,1,0,0:0:0:0:
64,192,262845,1,0,0:0:0:0:
192,192,262845,1,0,0:0:0:0:
448,192,262917,1,0,0:0:0:0:
320,192,262917,1,0,0:0:0:0:
192,192,262988,1,0,0:0:0:0:
64,192,262988,1,0,0:0:0:0:
448,192,263060,1,0,0:0:0:0:
320,192,263060,1,0,0:0:0:0:
192,192,263131,1,0,0:0:0:0:
64,192,263131,1,0,0:0:0:0:
320,192,263202,1,0,0:0:0:0:
448,192,263202,1,0,0:0:0:0:
192,192,263274,1,0,0:0:0:0:
64,192,263274,1,0,0:0:0:0:
320,192,263345,1,0,0:0:0:0:
448,192,263345,1,0,0:0:0:0:
192,192,263417,1,0,0:0:0:0:
64,192,263417,1,0,0:0:0:0:
320,192,263488,1,0,0:0:0:0:
448,192,263488,1,0,0:0:0:0:
192,192,263560,1,0,0:0:0:0:
64,192,263560,1,0,0:0:0:0:
320,192,263631,1,0,0:0:0:0:
448,192,263631,1,0,0:0:0:0:
192,192,263631,1,0,0:0:0:0:
64,192,263631,1,0,0:0:0:0:
448,192,264488,1,0,0:0:0:0:
320,192,264488,1,0,0:0:0:0:
192,192,264488,1,0,0:0:0:0:
64,192,264488,1,0,0:0:0:0:
448,192,264595,1,0,0:0:0:0:
320,192,264595,1,0,0:0:0:0:
64,192,264595,1,0,0:0:0:0:
192,192,264595,1,0,0:0:0:0:
64,192,264702,1,0,0:0:0:0:
192,192,264702,1,0,0:0:0:0:
320,192,264702,1,0,0:0:0:0:
448,192,264810,1,0,0:0:0:0:
320,192,264810,1,0,0:0:0:0:
192,192,264810,1,0,0:0:0:0:
64,192,264810,1,0,0:0:0:0:
64,192,264917,1,0,0:0:0:0:
192,192,264917,1,0,0:0:0:0:
320,192,264917,1,0,0:0:0:0:
448,192,264917,1,0,0:0:0:0:
448,192,265024,1,0,0:0:0:0:
192,192,265024,1,0,0:0:0:0:
64,192,265024,1,0,0:0:0:0:
320,192,265131,1,0,0:0:0:0:
192,192,265131,1,0,0:0:0:0:
448,192,265131,1,0,0:0:0:0:
64,192,265131,1,0,0:0:0:0:
448,192,265238,1,0,0:0:0:0:
192,192,265238,1,0,0:0:0:0:
64,192,265238,1,0,0:0:0:0:
320,192,265238,1,0,0:0:0:0:
64,192,265345,1,0,0:0:0:0:
320,192,265345,1,0,0:0:0:0:
448,192,265345,1,0,0:0:0:0:
64,192,265452,1,0,0:0:0:0:
320,192,265452,1,0,0:0:0:0:
192,192,265452,1,0,0:0:0:0:
448,192,265452,1,0,0:0:0:0:
64,192,265560,1,0,0:0:0:0:
320,192,265560,1,0,0:0:0:0:
448,192,265560,1,0,0:0:0:0:
192,192,265560,1,0,0:0:0:0:
192,192,265667,1,0,0:0:0:0:
448,192,265667,1,0,0:0:0:0:
320,192,265667,1,0,0:0:0:0:
448,192,265774,1,0,0:0:0:0:
64,192,265774,1,0,0:0:0:0:
320,192,265774,1,0,0:0:0:0:
192,192,265774,1,0,0:0:0:0:
64,192,265881,1,0,0:0:0:0:
320,192,265881,1,0,0:0:0:0:
448,192,265881,1,0,0:0:0:0:
192,192,265881,1,0,0:0:0:0:
192,192,265988,1,0,0:0:0:0:
320,192,265988,1,0,0:0:0:0:
64,192,265988,1,0,0:0:0:0:
192,192,266095,1,0,0:0:0:0:
448,192,266095,1,0,0:0:0:0:
64,192,266095,1,0,0:0:0:0:
320,192,266095,1,0,0:0:0:0:
448,192,266202,1,0,0:0:0:0:
192,192,266202,1,0,0:0:0:0:
64,192,266202,1,0,0:0:0:0:
320,192,266202,1,0,0:0:0:0:
64,192,266310,1,0,0:0:0:0:
448,192,266310,1,0,0:0:0:0:
192,192,266310,1,0,0:0:0:0:
320,192,266417,1,0,0:0:0:0:
192,192,266417,1,0,0:0:0:0:
448,192,266417,1,0,0:0:0:0:
64,192,266417,1,0,0:0:0:0:
448,192,266524,1,0,0:0:0:0:
192,192,266524,1,0,0:0:0:0:
64,192,266524,1,0,0:0:0:0:
320,192,266524,1,0,0:0:0:0:
64,192,266631,1,0,0:0:0:0:
320,192,266631,1,0,0:0:0:0:
192,192,266631,1,0,0:0:0:0:
64,192,266738,1,0,0:0:0:0:
320,192,266738,1,0,0:0:0:0:
192,192,266738,1,0,0:0:0:0:
448,192,266738,1,0,0:0:0:0:
64,192,266845,1,0,0:0:0:0:
320,192,266845,1,0,0:0:0:0:
448,192,266845,1,0,0:0:0:0:
192,192,266845,1,0,0:0:0:0:
320,192,266952,1,0,0:0:0:0:
448,192,266952,1,0,0:0:0:0:
64,192,266952,1,0,0:0:0:0:
448,192,267060,1,0,0:0:0:0:
64,192,267060,1,0,0:0:0:0:
320,192,267060,1,0,0:0:0:0:
192,192,267060,1,0,0:0:0:0:
64,192,267167,1,0,0:0:0:0:
320,192,267167,1,0,0:0:0:0:
448,192,267167,1,0,0:0:0:0:
192,192,267167,1,0,0:0:0:0:
192,192,267274,1,0,0:0:0:0:
320,192,267274,1,0,0:0:0:0:
448,192,267274,1,0,0:0:0:0:
192,192,267381,1,0,0:0:0:0:
448,192,267381,1,0,0:0:0:0:
64,192,267381,1,0,0:0:0:0:
320,192,267381,1,0,0:0:0:0:
448,192,267488,1,0,0:0:0:0:
192,192,267488,1,0,0:0:0:0:
64,192,267488,1,0,0:0:0:0:
320,192,267488,1,0,0:0:0:0:
64,192,267595,1,0,0:0:0:0:
320,192,267595,1,0,0:0:0:0:
192,192,267595,1,0,0:0:0:0:
320,192,267702,1,0,0:0:0:0:
192,192,267702,1,0,0:0:0:0:
448,192,267702,1,0,0:0:0:0:
64,192,267702,1,0,0:0:0:0:
448,192,267810,1,0,0:0:0:0:
192,192,267810,1,0,0:0:0:0:
64,192,267810,1,0,0:0:0:0:
320,192,267810,1,0,0:0:0:0:
448,192,267917,1,0,0:0:0:0:
320,192,267917,1,0,0:0:0:0:
192,192,267917,1,0,0:0:0:0:
64,192,268024,1,0,0:0:0:0:
320,192,268024,1,0,0:0:0:0:
192,192,268024,1,0,0:0:0:0:
448,192,268024,1,0,0:0:0:0:
64,192,268131,1,0,0:0:0:0:
320,192,268131,1,0,0:0:0:0:
448,192,268131,1,0,0:0:0:0:
192,192,268131,1,0,0:0:0:0:
192,192,268238,1,0,0:0:0:0:
448,192,268238,1,0,0:0:0:0:
64,192,268238,1,0,0:0:0:0:
448,192,268345,1,0,0:0:0:0:
64,192,268345,1,0,0:0:0:0:
320,192,268345,1,0,0:0:0:0:
192,192,268345,1,0,0:0:0:0:
64,192,268452,1,0,0:0:0:0:
320,192,268452,1,0,0:0:0:0:
448,192,268452,1,0,0:0:0:0:
192,192,268452,1,0,0:0:0:0:
192,192,268560,1,0,0:0:0:0:
320,192,268560,1,0,0:0:0:0:
64,192,268560,1,0,0:0:0:0:
192,192,268667,1,0,0:0:0:0:
448,192,268667,1,0,0:0:0:0:
64,192,268667,1,0,0:0:0:0:
320,192,268667,1,0,0:0:0:0:
448,192,268774,1,0,0:0:0:0:
192,192,268774,1,0,0:0:0:0:
64,192,268774,1,0,0:0:0:0:
320,192,268774,1,0,0:0:0:0:
64,192,268881,1,0,0:0:0:0:
448,192,268881,1,0,0:0:0:0:
320,192,268881,1,0,0:0:0:0:
320,192,268988,1,0,0:0:0:0:
192,192,268988,1,0,0:0:0:0:
448,192,268988,1,0,0:0:0:0:
64,192,268988,1,0,0:0:0:0:
448,192,269095,1,0,0:0:0:0:
192,192,269095,1,0,0:0:0:0:
64,192,269095,1,0,0:0:0:0:
320,192,269095,1,0,0:0:0:0:
64,192,269202,1,0,0:0:0:0:
448,192,269202,1,0,0:0:0:0:
192,192,269202,1,0,0:0:0:0:
64,192,269310,1,0,0:0:0:0:
320,192,269310,1,0,0:0:0:0:
192,192,269310,1,0,0:0:0:0:
448,192,269310,1,0,0:0:0:0:
64,192,269417,1,0,0:0:0:0:
320,192,269417,1,0,0:0:0:0:
448,192,269417,1,0,0:0:0:0:
192,192,269417,1,0,0:0:0:0:
192,192,269524,1,0,0:0:0:0:
448,192,269524,1,0,0:0:0:0:
320,192,269524,1,0,0:0:0:0:
448,192,269631,1,0,0:0:0:0:
64,192,269631,1,0,0:0:0:0:
320,192,269631,1,0,0:0:0:0:
192,192,269631,1,0,0:0:0:0:
64,192,269738,1,0,0:0:0:0:
320,192,269738,1,0,0:0:0:0:
448,192,269738,1,0,0:0:0:0:
192,192,269738,1,0,0:0:0:0:
192,192,269845,1,0,0:0:0:0:
320,192,269845,1,0,0:0:0:0:
64,192,269845,1,0,0:0:0:0:
192,192,269952,1,0,0:0:0:0:
448,192,269952,1,0,0:0:0:0:
64,192,269952,1,0,0:0:0:0:
320,192,269952,1,0,0:0:0:0:
448,192,270060,1,0,0:0:0:0:
192,192,270060,1,0,0:0:0:0:
64,192,270060,1,0,0:0:0:0:
320,192,270060,1,0,0:0:0:0:
64,192,270167,1,0,0:0:0:0:
448,192,270167,1,0,0:0:0:0:
320,192,270167,1,0,0:0:0:0:
320,192,270274,1,0,0:0:0:0:
192,192,270274,1,0,0:0:0:0:
448,192,270274,1,0,0:0:0:0:
64,192,270274,1,0,0:0:0:0:
448,192,270381,1,0,0:0:0:0:
192,192,270381,1,0,0:0:0:0:
64,192,270381,1,0,0:0:0:0:
320,192,270381,1,0,0:0:0:0:
64,192,270488,1,0,0:0:0:0:
448,192,270488,1,0,0:0:0:0:
192,192,270488,1,0,0:0:0:0:
64,192,270595,1,0,0:0:0:0:
320,192,270595,1,0,0:0:0:0:
192,192,270595,1,0,0:0:0:0:
448,192,270595,1,0,0:0:0:0:
64,192,270702,1,0,0:0:0:0:
320,192,270702,1,0,0:0:0:0:
448,192,270702,1,0,0:0:0:0:
192,192,270702,1,0,0:0:0:0:
192,192,270810,1,0,0:0:0:0:
448,192,270810,1,0,0:0:0:0:
320,192,270810,1,0,0:0:0:0:
448,192,270917,1,0,0:0:0:0:
64,192,270917,1,0,0:0:0:0:
320,192,270917,1,0,0:0:0:0:
192,192,270917,1,0,0:0:0:0:
64,192,271024,1,0,0:0:0:0:
320,192,271024,1,0,0:0:0:0:
448,192,271024,1,0,0:0:0:0:
192,192,271024,1,0,0:0:0:0:
192,192,271131,1,0,0:0:0:0:
320,192,271131,1,0,0:0:0:0:
64,192,271131,1,0,0:0:0:0:
192,192,271238,1,0,0:0:0:0:
448,192,271238,1,0,0:0:0:0:
64,192,271238,1,0,0:0:0:0:
320,192,271238,1,0,0:0:0:0:
64,192,271345,1,0,0:0:0:0:
320,192,271345,1,0,0:0:0:0:
448,192,271345,1,0,0:0:0:0:
192,192,271345,128,0,273006:0:0:0:0:
64,192,273060,1,0,0:0:0:0:
320,192,273060,1,0,0:0:0:0:
448,192,273060,1,0,0:0:0:0:
192,192,273060,128,0,275095:0:0:0:0:
64,192,276060,1,0,0:0:0:0:
