osu file format v14

[General]
AudioFilename: audio120.mp3
AudioLeadIn: 0
PreviewTime: 80053
Countdown: 0
SampleSet: Normal
StackLeniency: 0.7
Mode: 3
LetterboxInBreaks: 0
SpecialStyle: 0
WidescreenStoryboard: 0

[Editor]
DistanceSpacing: 1
BeatDivisor: 2
GridSize: 4
TimelineZoom: 1.7

[Metadata]
Title:Otona no Omocha
TitleUnicode:オトナのオモチャ
Artist:Utsu-P feat. Kagamine Rin
ArtistUnicode:鬱P feat. 鏡音リン
Creator:Hlimak
Version:Adult's Toy 1.2
Source:
Tags:
BeatmapID:1651627
BeatmapSetID:786511

[Difficulty]
HPDrainRate:8.2
CircleSize:4
OverallDifficulty:9
ApproachRate:5
SliderMultiplier:1.4
SliderTickRate:1

[Events]
//Background and Video events
0,0,"bg.jpg",0,0
//Break Periods
//Storyboard Layer 0 (Background)
//Storyboard Layer 1 (Fail)
//Storyboard Layer 2 (Pass)
//Storyboard Layer 3 (Foreground)
//Storyboard Sound Samples

[TimingPoints]
9024,178.571428571428,4,1,0,30,1,0
154381,178.571428571428,4,1,0,30,1,0
156881,178.571428571428,4,1,0,30,1,0
159381,178.571428571428,4,1,0,30,1,0
161881,178.571428571428,4,1,0,30,1,0
164381,178.571428571428,4,1,0,30,1,0
166881,178.571428571428,4,1,0,30,1,0
169381,178.571428571428,4,1,0,30,1,0
171881,178.571428571428,4,1,0,30,1,0

[HitObjects]
192,192,9024,5,0,0:0:0:0:
192,192,9738,1,0,0:0:0:0:
192,192,10452,1,0,0:0:0:0:
192,192,10809,1,0,0:0:0:0:
192,192,11166,1,0,0:0:0:0:
192,192,11345,1,0,0:0:0:0:
192,192,11524,1,0,0:0:0:0:
192,192,11702,1,0,0:0:0:0:
64,192,11881,1,0,0:0:0:0:
192,192,11881,1,0,0:0:0:0:
320,192,11881,1,0,0:0:0:0:
448,192,11881,1,0,0:0:0:0:
448,192,11970,1,0,0:0:0:0:
192,192,11970,1,0,0:0:0:0:
192,192,12059,1,0,0:0:0:0:
448,192,12149,1,0,0:0:0:0:
320,192,12149,1,0,0:0:0:0:
192,192,12149,1,0,0:0:0:0:
64,192,12149,1,0,0:0:0:0:
448,192,12238,1,0,0:0:0:0:
448,192,12327,1,0,0:0:0:0:
320,192,12327,1,0,0:0:0:0:
192,192,12327,1,0,0:0:0:0:
64,192,12327,1,0,0:0:0:0:
64,192,12416,1,0,0:0:0:0:
192,192,12506,1,0,0:0:0:0:
64,192,12506,1,0,0:0:0:0:
320,192,12506,1,0,0:0:0:0:
320,192,12595,1,0,0:0:0:0:
320,192,12684,1,0,0:0:0:0:
448,192,12684,1,0,0:0:0:0:
192,192,12684,1,0,0:0:0:0:
64,192,12684,1,0,0:0:0:0:
192,192,12774,1,0,0:0:0:0:
64,192,12863,1,0,0:0:0:0:
320,192,12863,1,0,0:0:0:0:
192,192,12863,1,0,0:0:0:0:
448,192,12863,1,0,0:0:0:0:
320,192,12952,1,0,0:0:0:0:
448,192,13041,1,0,0:0:0:0:
320,192,13041,1,0,0:0:0:0:
192,192,13041,1,0,0:0:0:0:
64,192,13041,1,0,0:0:0:0:
64,192,13131,1,0,0:0:0:0:
192,192,13220,1,0,0:0:0:0:
448,192,13220,1,0,0:0:0:0:
320,192,13220,1,0,0:0:0:0:
64,192,13220,1,0,0:0:0:0:
320,192,13309,1,0,0:0:0:0:
320,192,13398,1,0,0:0:0:0:
448,192,13398,1,0,0:0:0:0:
192,192,13398,1,0,0:0:0:0:
64,192,13398,1,0,0:0:0:0:
448,192,13488,1,0,0:0:0:0:
320,192,13577,1,0,0:0:0:0:
448,192,13577,1,0,0:0:0:0:
64,192,13577,1,0,0:0:0:0:
192,192,13577,1,0,0:0:0:0:
64,192,13666,1,0,0:0:0:0:
64,192,13756,1,0,0:0:0:0:
192,192,13756,1,0,0:0:0:0:
320,192,13756,1,0,0:0:0:0:
448,192,13756,1,0,0:0:0:0:
320,192,13845,1,0,0:0:0:0:
320,192,13934,1,0,0:0:0:0:
448,192,13934,1,0,0:0:0:0:
192,192,13934,1,0,0:0:0:0:
64,192,13934,1,0,0:0:0:0:
448,192,14023,1,0,0:0:0:0:
448,192,14113,1,0,0:0:0:0:
320,192,14113,1,0,0:0:0:0:
192,192,14113,1,0,0:0:0:0:
64,192,14113,1,0,0:0:0:0:
64,192,14202,1,0,0:0:0:0:
64,192,14291,1,0,0:0:0:0:
192,192,14291,1,0,0:0:0:0:
320,192,14291,1,0,0:0:0:0:
448,192,14291,1,0,0:0:0:0:
320,192,14381,1,0,0:0:0:0:
320,192,14470,1,0,0:0:0:0:
448,192,14470,1,0,0:0:0:0:
192,192,14470,1,0,0:0:0:0:
64,192,14470,1,0,0:0:0:0:
192,192,14559,1,0,0:0:0:0:
192,192,14648,1,0,0:0:0:0:
64,192,14648,1,0,0:0:0:0:
448,192,14648,1,0,0:0:0:0:
448,192,14738,1,0,0:0:0:0:
192,192,14738,1,0,0:0:0:0:
64,192,14738,1,0,0:0:0:0:
192,192,14827,1,0,0:0:0:0:
320,192,14827,1,0,0:0:0:0:
448,192,14827,1,0,0:0:0:0:
448,192,14916,1,0,0:0:0:0:
448,192,15006,1,0,0:0:0:0:
320,192,15006,1,0,0:0:0:0:
192,192,15006,1,0,0:0:0:0:
64,192,15006,1,0,0:0:0:0:
192,192,15095,1,0,0:0:0:0:
192,192,15184,1,0,0:0:0:0:
64,192,15184,1,0,0:0:0:0:
320,192,15184,1,0,0:0:0:0:
448,192,15184,1,0,0:0:0:0:
320,192,15273,1,0,0:0:0:0:
320,192,15363,1,0,0:0:0:0:
192,192,15363,1,0,0:0:0:0:
64,192,15363,1,0,0:0:0:0:
448,192,15363,1,0,0:0:0:0:
192,192,15452,1,0,0:0:0:0:
192,192,15541,1,0,0:0:0:0:
64,192,15541,1,0,0:0:0:0:
320,192,15541,1,0,0:0:0:0:
448,192,15541,1,0,0:0:0:0:
448,192,15631,1,0,0:0:0:0:
448,192,15720,1,0,0:0:0:0:
320,192,15720,1,0,0:0:0:0:
192,192,15720,1,0,0:0:0:0:
64,192,15720,1,0,0:0:0:0:
64,192,15809,1,0,0:0:0:0:
64,192,15898,1,0,0:0:0:0:
192,192,15898,1,0,0:0:0:0:
448,192,15898,1,0,0:0:0:0:
320,192,15898,1,0,0:0:0:0:
320,192,15988,1,0,0:0:0:0:
320,192,16077,1,0,0:0:0:0:
448,192,16077,1,0,0:0:0:0:
192,192,16077,1,0,0:0:0:0:
64,192,16077,1,0,0:0:0:0:
192,192,16166,1,0,0:0:0:0:
192,192,16256,1,0,0:0:0:0:
64,192,16256,1,0,0:0:0:0:
320,192,16256,1,0,0:0:0:0:
448,192,16256,1,0,0:0:0:0:
448,192,16345,1,0,0:0:0:0:
448,192,16434,1,0,0:0:0:0:
320,192,16434,1,0,0:0:0:0:
192,192,16434,1,0,0:0:0:0:
64,192,16434,1,0,0:0:0:0:
192,192,16523,1,0,0:0:0:0:
192,192,16613,1,0,0:0:0:0:
64,192,16613,1,0,0:0:0:0:
320,192,16613,1,0,0:0:0:0:
448,192,16613,1,0,0:0:0:0:
448,192,16702,1,0,0:0:0:0:
320,192,16791,1,0,0:0:0:0:
448,192,16791,1,0,0:0:0:0:
192,192,16791,1,0,0:0:0:0:
64,192,16791,1,0,0:0:0:0:
64,192,16881,1,0,0:0:0:0:
64,192,16970,1,0,0:0:0:0:
320,192,16970,1,0,0:0:0:0:
192,192,16970,1,0,0:0:0:0:
448,192,16970,1,0,0:0:0:0:
320,192,17059,1,0,0:0:0:0:
320,192,17148,1,0,0:0:0:0:
448,192,17148,1,0,0:0:0:0:
192,192,17148,1,0,0:0:0:0:
64,192,17148,1,0,0:0:0:0:
448,192,17238,1,0,0:0:0:0:
448,192,17327,1,0,0:0:0:0:
320,192,17327,1,0,0:0:0:0:
192,192,17327,1,0,0:0:0:0:
64,192,17327,1,0,0:0:0:0:
192,192,17416,1,0,0:0:0:0:
192,192,17506,1,0,0:0:0:0:
320,192,17506,1,0,0:0:0:0:
448,192,17506,1,0,0:0:0:0:
448,192,17595,1,0,0:0:0:0:
320,192,17595,1,0,0:0:0:0:
192,192,17595,1,0,0:0:0:0:
448,192,17684,1,0,0:0:0:0:
192,192,17684,1,0,0:0:0:0:
64,192,17684,1,0,0:0:0:0:
448,192,17773,1,0,0:0:0:0:
448,192,17863,1,0,0:0:0:0:
320,192,17863,1,0,0:0:0:0:
64,192,17863,1,0,0:0:0:0:
192,192,17863,1,0,0:0:0:0:
192,192,17952,1,0,0:0:0:0:
192,192,18041,1,0,0:0:0:0:
64,192,18041,1,0,0:0:0:0:
320,192,18041,1,0,0:0:0:0:
448,192,18041,1,0,0:0:0:0:
320,192,18131,1,0,0:0:0:0:
320,192,18220,1,0,0:0:0:0:
448,192,18220,1,0,0:0:0:0:
192,192,18220,1,0,0:0:0:0:
64,192,18220,1,0,0:0:0:0:
192,192,18309,1,0,0:0:0:0:
192,192,18398,1,0,0:0:0:0:
64,192,18398,1,0,0:0:0:0:
320,192,18398,1,0,0:0:0:0:
448,192,18398,1,0,0:0:0:0:
448,192,18488,1,0,0:0:0:0:
448,192,18577,1,0,0:0:0:0:
320,192,18577,1,0,0:0:0:0:
192,192,18577,1,0,0:0:0:0:
64,192,18577,1,0,0:0:0:0:
64,192,18666,1,0,0:0:0:0:
64,192,18756,1,0,0:0:0:0:
192,192,18756,1,0,0:0:0:0:
320,192,18756,1,0,0:0:0:0:
448,192,18756,1,0,0:0:0:0:
320,192,18845,1,0,0:0:0:0:
320,192,18934,1,0,0:0:0:0:
448,192,18934,1,0,0:0:0:0:
192,192,18934,1,0,0:0:0:0:
64,192,18934,1,0,0:0:0:0:
192,192,19023,1,0,0:0:0:0:
192,192,19113,1,0,0:0:0:0:
64,192,19113,1,0,0:0:0:0:
320,192,19113,1,0,0:0:0:0:
448,192,19113,1,0,0:0:0:0:
448,192,19202,1,0,0:0:0:0:
448,192,19291,1,0,0:0:0:0:
320,192,19291,1,0,0:0:0:0:
192,192,19291,1,0,0:0:0:0:
64,192,19291,1,0,0:0:0:0:
192,192,19381,1,0,0:0:0:0:
192,192,19470,1,0,0:0:0:0:
64,192,19470,1,0,0:0:0:0:
320,192,19470,1,0,0:0:0:0:
448,192,19470,1,0,0:0:0:0:
64,192,19559,1,0,0:0:0:0:
64,192,19648,1,0,0:0:0:0:
192,192,19648,1,0,0:0:0:0:
320,192,19648,1,0,0:0:0:0:
448,192,19648,1,0,0:0:0:0:
448,192,19738,1,0,0:0:0:0:
448,192,19827,1,0,0:0:0:0:
320,192,19827,1,0,0:0:0:0:
192,192,19827,1,0,0:0:0:0:
64,192,19827,1,0,0:0:0:0:
192,192,19916,1,0,0:0:0:0:
192,192,20006,1,0,0:0:0:0:
64,192,20006,1,0,0:0:0:0:
320,192,20006,1,0,0:0:0:0:
448,192,20006,1,0,0:0:0:0:
448,192,20095,1,0,0:0:0:0:
448,192,20184,1,0,0:0:0:0:
320,192,20184,1,0,0:0:0:0:
192,192,20184,1,0,0:0:0:0:
64,192,20184,1,0,0:0:0:0:
192,192,20273,1,0,0:0:0:0:
192,192,20363,1,0,0:0:0:0:
64,192,20363,1,0,0:0:0:0:
448,192,20363,1,0,0:0:0:0:
64,192,20452,1,0,0:0:0:0:
192,192,20452,1,0,0:0:0:0:
448,192,20452,1,0,0:0:0:0:
448,192,20541,1,0,0:0:0:0:
320,192,20541,1,0,0:0:0:0:
64,192,20541,1,0,0:0:0:0:
320,192,20631,1,0,0:0:0:0:
448,192,20720,1,0,0:0:0:0:
320,192,20720,1,0,0:0:0:0:
192,192,20720,1,0,0:0:0:0:
64,192,20720,1,0,0:0:0:0:
448,192,20809,1,0,0:0:0:0:
448,192,20898,1,0,0:0:0:0:
320,192,20898,1,0,0:0:0:0:
192,192,20898,1,0,0:0:0:0:
64,192,20898,1,0,0:0:0:0:
64,192,20988,1,0,0:0:0:0:
64,192,21077,1,0,0:0:0:0:
320,192,21077,1,0,0:0:0:0:
192,192,21077,1,0,0:0:0:0:
448,192,21077,1,0,0:0:0:0:
320,192,21166,1,0,0:0:0:0:
320,192,21256,1,0,0:0:0:0:
448,192,21256,1,0,0:0:0:0:
192,192,21256,1,0,0:0:0:0:
64,192,21256,1,0,0:0:0:0:
192,192,21345,1,0,0:0:0:0:
192,192,21434,1,0,0:0:0:0:
64,192,21434,1,0,0:0:0:0:
320,192,21434,1,0,0:0:0:0:
448,192,21434,1,0,0:0:0:0:
448,192,21523,1,0,0:0:0:0:
448,192,21613,1,0,0:0:0:0:
320,192,21613,1,0,0:0:0:0:
192,192,21613,1,0,0:0:0:0:
64,192,21613,1,0,0:0:0:0:
64,192,21702,1,0,0:0:0:0:
192,192,21791,1,0,0:0:0:0:
64,192,21791,1,0,0:0:0:0:
320,192,21791,1,0,0:0:0:0:
448,192,21791,1,0,0:0:0:0:
320,192,21881,1,0,0:0:0:0:
448,192,21970,1,0,0:0:0:0:
320,192,21970,1,0,0:0:0:0:
192,192,21970,1,0,0:0:0:0:
64,192,21970,1,0,0:0:0:0:
192,192,22059,1,0,0:0:0:0:
192,192,22148,1,0,0:0:0:0:
64,192,22148,1,0,0:0:0:0:
320,192,22148,1,0,0:0:0:0:
448,192,22148,1,0,0:0:0:0:
448,192,22238,1,0,0:0:0:0:
448,192,22327,1,0,0:0:0:0:
320,192,22327,1,0,0:0:0:0:
192,192,22327,1,0,0:0:0:0:
64,192,22327,1,0,0:0:0:0:
192,192,22416,1,0,0:0:0:0:
192,192,22506,1,0,0:0:0:0:
64,192,22506,1,0,0:0:0:0:
320,192,22506,1,0,0:0:0:0:
448,192,22506,1,0,0:0:0:0:
448,192,22595,1,0,0:0:0:0:
448,192,22684,1,0,0:0:0:0:
320,192,22684,1,0,0:0:0:0:
192,192,22684,1,0,0:0:0:0:
64,192,22684,1,0,0:0:0:0:
64,192,22773,1,0,0:0:0:0:
64,192,22863,1,0,0:0:0:0:
192,192,22863,1,0,0:0:0:0:
448,192,22863,1,0,0:0:0:0:
64,192,22952,1,0,0:0:0:0:
448,192,22952,1,0,0:0:0:0:
320,192,22952,1,0,0:0:0:0:
320,192,23041,1,0,0:0:0:0:
448,192,23131,1,0,0:0:0:0:
320,192,23131,1,0,0:0:0:0:
192,192,23131,1,0,0:0:0:0:
64,192,23131,1,0,0:0:0:0:
192,192,23220,1,0,0:0:0:0:
64,192,23309,1,0,0:0:0:0:
192,192,23309,1,0,0:0:0:0:
320,192,23309,1,0,0:0:0:0:
448,192,23309,1,0,0:0:0:0:
448,192,23398,1,0,0:0:0:0:
320,192,23398,1,0,0:0:0:0:
64,192,23398,1,0,0:0:0:0:
192,192,23488,1,0,0:0:0:0:
320,192,23488,1,0,0:0:0:0:
448,192,23577,1,0,0:0:0:0:
320,192,23577,1,0,0:0:0:0:
64,192,23577,1,0,0:0:0:0:
192,192,23577,1,0,0:0:0:0:
192,192,23666,1,0,0:0:0:0:
64,192,23666,1,0,0:0:0:0:
64,192,23756,1,0,0:0:0:0:
192,192,23756,1,0,0:0:0:0:
320,192,23756,1,0,0:0:0:0:
448,192,23756,1,0,0:0:0:0:
320,192,23845,1,0,0:0:0:0:
448,192,23845,1,0,0:0:0:0:
448,192,23934,1,0,0:0:0:0:
320,192,23934,1,0,0:0:0:0:
192,192,23934,1,0,0:0:0:0:
64,192,23934,1,0,0:0:0:0:
192,192,24023,1,0,0:0:0:0:
320,192,24023,1,0,0:0:0:0:
64,192,24113,1,0,0:0:0:0:
192,192,24113,1,0,0:0:0:0:
320,192,24113,1,0,0:0:0:0:
448,192,24113,1,0,0:0:0:0:
320,192,24202,1,0,0:0:0:0:
448,192,24202,1,0,0:0:0:0:
448,192,24291,1,0,0:0:0:0:
320,192,24291,1,0,0:0:0:0:
192,192,24291,1,0,0:0:0:0:
64,192,24291,1,0,0:0:0:0:
64,192,24381,1,0,0:0:0:0:
192,192,24381,1,0,0:0:0:0:
448,192,24470,1,0,0:0:0:0:
320,192,24470,1,0,0:0:0:0:
192,192,24470,1,0,0:0:0:0:
320,192,24559,1,0,0:0:0:0:
448,192,24559,1,0,0:0:0:0:
448,192,24648,1,0,0:0:0:0:
320,192,24648,1,0,0:0:0:0:
192,192,24648,1,0,0:0:0:0:
64,192,24648,1,0,0:0:0:0:
320,192,24738,1,0,0:0:0:0:
64,192,24738,1,0,0:0:0:0:
448,192,24827,1,0,0:0:0:0:
192,192,24827,1,0,0:0:0:0:
320,192,24827,1,0,0:0:0:0:
64,192,24827,1,0,0:0:0:0:
192,192,24916,1,0,0:0:0:0:
448,192,24916,1,0,0:0:0:0:
448,192,25006,1,0,0:0:0:0:
320,192,25006,1,0,0:0:0:0:
192,192,25006,1,0,0:0:0:0:
64,192,25006,1,0,0:0:0:0:
448,192,25095,1,0,0:0:0:0:
64,192,25095,1,0,0:0:0:0:
192,192,25184,1,0,0:0:0:0:
64,192,25184,1,0,0:0:0:0:
320,192,25184,1,0,0:0:0:0:
448,192,25184,1,0,0:0:0:0:
64,192,25273,1,0,0:0:0:0:
320,192,25273,1,0,0:0:0:0:
448,192,25363,1,0,0:0:0:0:
192,192,25363,1,0,0:0:0:0:
320,192,25363,1,0,0:0:0:0:
64,192,25363,1,0,0:0:0:0:
192,192,25452,1,0,0:0:0:0:
320,192,25452,1,0,0:0:0:0:
448,192,25541,1,0,0:0:0:0:
320,192,25541,1,0,0:0:0:0:
192,192,25541,1,0,0:0:0:0:
64,192,25541,1,0,0:0:0:0:
64,192,25631,1,0,0:0:0:0:
448,192,25631,1,0,0:0:0:0:
448,192,25720,1,0,0:0:0:0:
320,192,25720,1,0,0:0:0:0:
192,192,25720,1,0,0:0:0:0:
64,192,25720,1,0,0:0:0:0:
448,192,25809,1,0,0:0:0:0:
192,192,25809,1,0,0:0:0:0:
64,192,25898,1,0,0:0:0:0:
192,192,25898,1,0,0:0:0:0:
320,192,25898,1,0,0:0:0:0:
448,192,25898,1,0,0:0:0:0:
64,192,25988,1,0,0:0:0:0:
320,192,25988,1,0,0:0:0:0:
448,192,26077,1,0,0:0:0:0:
320,192,26077,1,0,0:0:0:0:
192,192,26077,1,0,0:0:0:0:
64,192,26077,1,0,0:0:0:0:
320,192,26166,1,0,0:0:0:0:
192,192,26166,1,0,0:0:0:0:
448,192,26256,1,0,0:0:0:0:
320,192,26256,1,0,0:0:0:0:
192,192,26256,1,0,0:0:0:0:
64,192,26256,1,0,0:0:0:0:
192,192,26345,1,0,0:0:0:0:
448,192,26345,1,0,0:0:0:0:
448,192,26434,1,0,0:0:0:0:
320,192,26434,1,0,0:0:0:0:
192,192,26434,1,0,0:0:0:0:
64,192,26434,1,0,0:0:0:0:
320,192,26523,1,0,0:0:0:0:
448,192,26523,1,0,0:0:0:0:
448,192,26613,1,0,0:0:0:0:
320,192,26613,1,0,0:0:0:0:
192,192,26613,1,0,0:0:0:0:
64,192,26613,1,0,0:0:0:0:
64,192,26702,1,0,0:0:0:0:
192,192,26702,1,0,0:0:0:0:
64,192,26791,1,0,0:0:0:0:
192,192,26791,1,0,0:0:0:0:
320,192,26791,1,0,0:0:0:0:
448,192,26791,1,0,0:0:0:0:
320,192,26881,1,0,0:0:0:0:
192,192,26881,1,0,0:0:0:0:
448,192,26970,1,0,0:0:0:0:
320,192,26970,1,0,0:0:0:0:
192,192,26970,1,0,0:0:0:0:
64,192,26970,1,0,0:0:0:0:
448,192,27059,1,0,0:0:0:0:
192,192,27059,1,0,0:0:0:0:
448,192,27148,1,0,0:0:0:0:
320,192,27148,1,0,0:0:0:0:
192,192,27148,1,0,0:0:0:0:
64,192,27148,1,0,0:0:0:0:
64,192,27238,1,0,0:0:0:0:
448,192,27238,1,0,0:0:0:0:
448,192,27327,1,0,0:0:0:0:
320,192,27327,1,0,0:0:0:0:
192,192,27327,1,0,0:0:0:0:
64,192,27327,1,0,0:0:0:0:
320,192,27416,1,0,0:0:0:0:
192,192,27416,1,0,0:0:0:0:
448,192,27506,1,0,0:0:0:0:
320,192,27506,1,0,0:0:0:0:
192,192,27506,1,0,0:0:0:0:
64,192,27506,1,0,0:0:0:0:
192,192,27595,1,0,0:0:0:0:
320,192,27595,1,0,0:0:0:0:
448,192,27684,1,0,0:0:0:0:
320,192,27684,1,0,0:0:0:0:
192,192,27684,1,0,0:0:0:0:
64,192,27684,1,0,0:0:0:0:
64,192,27773,1,0,0:0:0:0:
192,192,27773,1,0,0:0:0:0:
448,192,27863,1,0,0:0:0:0:
320,192,27863,1,0,0:0:0:0:
192,192,27863,1,0,0:0:0:0:
64,192,27863,1,0,0:0:0:0:
448,192,27952,1,0,0:0:0:0:
192,192,27952,1,0,0:0:0:0:
448,192,28041,1,0,0:0:0:0:
320,192,28041,1,0,0:0:0:0:
64,192,28041,1,0,0:0:0:0:
192,192,28041,1,0,0:0:0:0:
448,192,28131,1,0,0:0:0:0:
320,192,28131,1,0,0:0:0:0:
448,192,28220,1,0,0:0:0:0:
320,192,28220,1,0,0:0:0:0:
192,192,28220,1,0,0:0:0:0:
64,192,28220,1,0,0:0:0:0:
320,192,28309,1,0,0:0:0:0:
64,192,28309,1,0,0:0:0:0:
448,192,28398,1,0,0:0:0:0:
320,192,28398,1,0,0:0:0:0:
192,192,28398,1,0,0:0:0:0:
64,192,28398,1,0,0:0:0:0:
192,192,28488,1,0,0:0:0:0:
320,192,28488,1,0,0:0:0:0:
448,192,28577,1,0,0:0:0:0:
320,192,28577,1,0,0:0:0:0:
192,192,28577,1,0,0:0:0:0:
64,192,28577,1,0,0:0:0:0:
192,192,28666,1,0,0:0:0:0:
448,192,28666,1,0,0:0:0:0:
448,192,28756,1,0,0:0:0:0:
320,192,28756,1,0,0:0:0:0:
192,192,28756,1,0,0:0:0:0:
64,192,28756,1,0,0:0:0:0:
320,192,28845,1,0,0:0:0:0:
192,192,28845,1,0,0:0:0:0:
64,192,28934,1,0,0:0:0:0:
192,192,28934,1,0,0:0:0:0:
320,192,28934,1,0,0:0:0:0:
448,192,28934,1,0,0:0:0:0:
448,192,29023,1,0,0:0:0:0:
192,192,29023,1,0,0:0:0:0:
64,192,29113,1,0,0:0:0:0:
192,192,29113,1,0,0:0:0:0:
320,192,29113,1,0,0:0:0:0:
448,192,29113,1,0,0:0:0:0:
448,192,29202,1,0,0:0:0:0:
320,192,29202,1,0,0:0:0:0:
64,192,29291,1,0,0:0:0:0:
192,192,29291,1,0,0:0:0:0:
320,192,29291,1,0,0:0:0:0:
448,192,29291,1,0,0:0:0:0:
64,192,29381,1,0,0:0:0:0:
320,192,29381,1,0,0:0:0:0:
448,192,29470,1,0,0:0:0:0:
320,192,29470,1,0,0:0:0:0:
192,192,29470,1,0,0:0:0:0:
64,192,29470,1,0,0:0:0:0:
192,192,29559,1,0,0:0:0:0:
320,192,29559,1,0,0:0:0:0:
448,192,29648,1,0,0:0:0:0:
320,192,29648,1,0,0:0:0:0:
192,192,29648,1,0,0:0:0:0:
64,192,29648,1,0,0:0:0:0:
320,192,29738,1,0,0:0:0:0:
64,192,29738,1,0,0:0:0:0:
64,192,29827,1,0,0:0:0:0:
192,192,29827,1,0,0:0:0:0:
320,192,29827,1,0,0:0:0:0:
448,192,29827,1,0,0:0:0:0:
320,192,29916,1,0,0:0:0:0:
448,192,29916,1,0,0:0:0:0:
448,192,30006,1,0,0:0:0:0:
320,192,30006,1,0,0:0:0:0:
192,192,30006,1,0,0:0:0:0:
64,192,30006,1,0,0:0:0:0:
448,192,30095,1,0,0:0:0:0:
64,192,30095,1,0,0:0:0:0:
448,192,30184,1,0,0:0:0:0:
320,192,30184,1,0,0:0:0:0:
192,192,30184,1,0,0:0:0:0:
64,192,30184,1,0,0:0:0:0:
192,192,30273,1,0,0:0:0:0:
320,192,30273,1,0,0:0:0:0:
64,192,30363,1,0,0:0:0:0:
192,192,30363,1,0,0:0:0:0:
320,192,30363,1,0,0:0:0:0:
448,192,30363,1,0,0:0:0:0:
64,192,30452,1,0,0:0:0:0:
448,192,30452,1,0,0:0:0:0:
448,192,30541,1,0,0:0:0:0:
320,192,30541,1,0,0:0:0:0:
192,192,30541,1,0,0:0:0:0:
64,192,30541,1,0,0:0:0:0:
448,192,30631,1,0,0:0:0:0:
320,192,30631,1,0,0:0:0:0:
64,192,30720,1,0,0:0:0:0:
192,192,30720,1,0,0:0:0:0:
320,192,30720,1,0,0:0:0:0:
448,192,30720,1,0,0:0:0:0:
192,192,30809,1,0,0:0:0:0:
64,192,30809,1,0,0:0:0:0:
448,192,30898,1,0,0:0:0:0:
320,192,30898,1,0,0:0:0:0:
192,192,30898,1,0,0:0:0:0:
64,192,30898,1,0,0:0:0:0:
192,192,30988,1,0,0:0:0:0:
448,192,30988,1,0,0:0:0:0:
320,192,31077,1,0,0:0:0:0:
448,192,31077,1,0,0:0:0:0:
192,192,31077,1,0,0:0:0:0:
64,192,31077,1,0,0:0:0:0:
320,192,31166,1,0,0:0:0:0:
448,192,31166,1,0,0:0:0:0:
448,192,31256,1,0,0:0:0:0:
320,192,31256,1,0,0:0:0:0:
192,192,31256,1,0,0:0:0:0:
64,192,31256,1,0,0:0:0:0:
64,192,31345,1,0,0:0:0:0:
320,192,31345,1,0,0:0:0:0:
448,192,31434,1,0,0:0:0:0:
320,192,31434,1,0,0:0:0:0:
192,192,31434,1,0,0:0:0:0:
64,192,31434,1,0,0:0:0:0:
448,192,31523,1,0,0:0:0:0:
192,192,31523,1,0,0:0:0:0:
448,192,31613,1,0,0:0:0:0:
320,192,31613,1,0,0:0:0:0:
192,192,31613,1,0,0:0:0:0:
64,192,31613,1,0,0:0:0:0:
192,192,31702,1,0,0:0:0:0:
320,192,31702,1,0,0:0:0:0:
448,192,31791,1,0,0:0:0:0:
320,192,31791,1,0,0:0:0:0:
192,192,31791,1,0,0:0:0:0:
64,192,31791,1,0,0:0:0:0:
64,192,31881,1,0,0:0:0:0:
320,192,31881,1,0,0:0:0:0:
448,192,31881,1,0,0:0:0:0:
64,192,31970,1,0,0:0:0:0:
192,192,31970,1,0,0:0:0:0:
320,192,31970,1,0,0:0:0:0:
64,192,32059,1,0,0:0:0:0:
320,192,32059,1,0,0:0:0:0:
64,192,32148,1,0,0:0:0:0:
192,192,32148,1,0,0:0:0:0:
448,192,32148,1,0,0:0:0:0:
64,192,32238,1,0,0:0:0:0:
320,192,32238,1,0,0:0:0:0:
64,192,32327,1,0,0:0:0:0:
192,192,32327,1,0,0:0:0:0:
448,192,32327,1,0,0:0:0:0:
64,192,32416,1,0,0:0:0:0:
320,192,32416,1,0,0:0:0:0:
64,192,32506,1,0,0:0:0:0:
320,192,32506,1,0,0:0:0:0:
192,192,32506,1,0,0:0:0:0:
64,192,32595,1,0,0:0:0:0:
448,192,32595,1,0,0:0:0:0:
64,192,32684,1,0,0:0:0:0:
448,192,32684,1,0,0:0:0:0:
192,192,32684,1,0,0:0:0:0:
64,192,32773,1,0,0:0:0:0:
320,192,32773,1,0,0:0:0:0:
64,192,32863,1,0,0:0:0:0:
320,192,32863,1,0,0:0:0:0:
192,192,32863,1,0,0:0:0:0:
64,192,32952,1,0,0:0:0:0:
448,192,32952,1,0,0:0:0:0:
64,192,33041,1,0,0:0:0:0:
448,192,33041,1,0,0:0:0:0:
192,192,33041,1,0,0:0:0:0:
64,192,33131,1,0,0:0:0:0:
320,192,33131,1,0,0:0:0:0:
64,192,33220,1,0,0:0:0:0:
192,192,33220,1,0,0:0:0:0:
320,192,33220,1,0,0:0:0:0:
64,192,33309,1,0,0:0:0:0:
320,192,33309,1,0,0:0:0:0:
64,192,33398,1,0,0:0:0:0:
192,192,33398,1,0,0:0:0:0:
448,192,33398,1,0,0:0:0:0:
64,192,33488,1,0,0:0:0:0:
320,192,33488,1,0,0:0:0:0:
64,192,33577,1,0,0:0:0:0:
192,192,33577,1,0,0:0:0:0:
320,192,33577,1,0,0:0:0:0:
64,192,33666,1,0,0:0:0:0:
448,192,33666,1,0,0:0:0:0:
64,192,33756,1,0,0:0:0:0:
192,192,33756,1,0,0:0:0:0:
448,192,33756,1,0,0:0:0:0:
64,192,33845,1,0,0:0:0:0:
320,192,33845,1,0,0:0:0:0:
64,192,33934,1,0,0:0:0:0:
192,192,33934,1,0,0:0:0:0:
320,192,33934,1,0,0:0:0:0:
64,192,34023,1,0,0:0:0:0:
320,192,34023,1,0,0:0:0:0:
64,192,34113,1,0,0:0:0:0:
192,192,34113,1,0,0:0:0:0:
448,192,34113,1,0,0:0:0:0:
64,192,34202,1,0,0:0:0:0:
448,192,34202,1,0,0:0:0:0:
64,192,34291,1,0,0:0:0:0:
192,192,34291,1,0,0:0:0:0:
320,192,34291,1,0,0:0:0:0:
448,192,34381,1,0,0:0:0:0:
320,192,34381,1,0,0:0:0:0:
192,192,34381,1,0,0:0:0:0:
192,192,34470,1,0,0:0:0:0:
320,192,34470,1,0,0:0:0:0:
64,192,34470,1,0,0:0:0:0:
448,192,34559,1,0,0:0:0:0:
320,192,34559,1,0,0:0:0:0:
64,192,34559,1,0,0:0:0:0:
192,192,34648,1,0,0:0:0:0:
64,192,34648,1,0,0:0:0:0:
448,192,34648,1,0,0:0:0:0:
448,192,34738,1,0,0:0:0:0:
320,192,34738,1,0,0:0:0:0:
192,192,34738,1,0,0:0:0:0:
64,192,34738,1,0,0:0:0:0:
64,192,34827,1,0,0:0:0:0:
64,192,34916,1,0,0:0:0:0:
64,192,35006,1,0,0:0:0:0:
64,192,35095,1,0,0:0:0:0:
320,192,35095,1,0,0:0:0:0:
64,192,35184,1,0,0:0:0:0:
64,192,35273,1,0,0:0:0:0:
64,192,35363,1,0,0:0:0:0:
448,192,35452,128,0,35541:0:0:0:0:
64,192,35541,1,0,0:0:0:0:
64,192,35631,1,0,0:0:0:0:
64,192,35720,1,0,0:0:0:0:
64,192,35809,1,0,0:0:0:0:
320,192,35809,1,0,0:0:0:0:
64,192,35898,1,0,0:0:0:0:
64,192,35988,1,0,0:0:0:0:
64,192,36077,1,0,0:0:0:0:
448,192,36166,128,0,36345:0:0:0:0:
64,192,36345,1,0,0:0:0:0:
64,192,36434,1,0,0:0:0:0:
64,192,36523,1,0,0:0:0:0:
320,192,36523,1,0,0:0:0:0:
64,192,36613,1,0,0:0:0:0:
64,192,36702,1,0,0:0:0:0:
64,192,36791,1,0,0:0:0:0:
448,192,36881,128,0,37059:0:0:0:0:
192,192,36881,128,0,37059:0:0:0:0:
320,192,37059,128,0,37238:0:0:0:0:
64,192,37059,128,0,37238:0:0:0:0:
192,192,37238,128,0,37506:0:0:0:0:
448,192,37238,128,0,37506:0:0:0:0:
320,192,37416,1,0,0:0:0:0:
192,192,37595,1,0,0:0:0:0:
64,192,37595,1,0,0:0:0:0:
448,192,37595,128,0,37773:0:0:0:0:
320,192,37773,1,0,0:0:0:0:
320,192,37863,1,0,0:0:0:0:
192,192,37952,1,0,0:0:0:0:
64,192,37952,1,0,0:0:0:0:
320,192,37952,1,0,0:0:0:0:
320,192,38041,1,0,0:0:0:0:
320,192,38131,1,0,0:0:0:0:
320,192,38220,1,0,0:0:0:0:
192,192,38309,1,0,0:0:0:0:
64,192,38309,1,0,0:0:0:0:
448,192,38309,128,0,38488:0:0:0:0:
320,192,38488,1,0,0:0:0:0:
320,192,38577,1,0,0:0:0:0:
192,192,38666,1,0,0:0:0:0:
64,192,38666,1,0,0:0:0:0:
320,192,38666,1,0,0:0:0:0:
320,192,38756,1,0,0:0:0:0:
320,192,38845,1,0,0:0:0:0:
320,192,38934,1,0,0:0:0:0:
192,192,39023,1,0,0:0:0:0:
64,192,39023,1,0,0:0:0:0:
448,192,39023,128,0,39202:0:0:0:0:
320,192,39202,1,0,0:0:0:0:
192,192,39202,1,0,0:0:0:0:
64,192,39202,1,0,0:0:0:0:
320,192,39291,1,0,0:0:0:0:
320,192,39381,1,0,0:0:0:0:
192,192,39381,1,0,0:0:0:0:
64,192,39381,1,0,0:0:0:0:
320,192,39470,1,0,0:0:0:0:
320,192,39559,1,0,0:0:0:0:
192,192,39559,1,0,0:0:0:0:
64,192,39559,1,0,0:0:0:0:
320,192,39648,1,0,0:0:0:0:
64,192,39738,1,0,0:0:0:0:
448,192,39738,1,0,0:0:0:0:
192,192,39782,1,0,0:0:0:0:
320,192,39827,1,0,0:0:0:0:
448,192,39872,1,0,0:0:0:0:
64,192,39916,1,0,0:0:0:0:
320,192,39916,1,0,0:0:0:0:
192,192,39961,1,0,0:0:0:0:
448,192,40006,1,0,0:0:0:0:
320,192,40050,1,0,0:0:0:0:
448,192,40095,1,0,0:0:0:0:
64,192,40095,1,0,0:0:0:0:
320,192,40140,1,0,0:0:0:0:
192,192,40184,1,0,0:0:0:0:
64,192,40184,1,0,0:0:0:0:
448,192,40229,1,0,0:0:0:0:
192,192,40273,1,0,0:0:0:0:
320,192,40273,1,0,0:0:0:0:
448,192,40318,1,0,0:0:0:0:
192,192,40363,1,0,0:0:0:0:
64,192,40363,1,0,0:0:0:0:
320,192,40407,1,0,0:0:0:0:
448,192,40407,1,0,0:0:0:0:
64,192,40452,1,0,0:0:0:0:
192,192,40452,1,0,0:0:0:0:
320,192,40541,1,0,0:0:0:0:
320,192,40631,1,0,0:0:0:0:
448,192,40631,1,0,0:0:0:0:
64,192,40631,1,0,0:0:0:0:
448,192,40720,1,0,0:0:0:0:
192,192,40720,1,0,0:0:0:0:
320,192,40809,1,0,0:0:0:0:
64,192,40809,1,0,0:0:0:0:
192,192,40898,1,0,0:0:0:0:
192,192,40988,1,0,0:0:0:0:
448,192,40988,1,0,0:0:0:0:
320,192,40988,1,0,0:0:0:0:
64,192,41077,1,0,0:0:0:0:
64,192,41166,1,0,0:0:0:0:
320,192,41166,1,0,0:0:0:0:
192,192,41166,1,0,0:0:0:0:
448,192,41256,1,0,0:0:0:0:
448,192,41345,1,0,0:0:0:0:
320,192,41345,1,0,0:0:0:0:
192,192,41345,1,0,0:0:0:0:
64,192,41434,1,0,0:0:0:0:
320,192,41434,1,0,0:0:0:0:
192,192,41523,1,0,0:0:0:0:
448,192,41613,1,0,0:0:0:0:
448,192,41702,1,0,0:0:0:0:
192,192,41702,1,0,0:0:0:0:
64,192,41702,1,0,0:0:0:0:
320,192,41791,1,0,0:0:0:0:
448,192,41791,1,0,0:0:0:0:
64,192,41881,1,0,0:0:0:0:
192,192,41881,1,0,0:0:0:0:
320,192,41881,1,0,0:0:0:0:
64,192,41970,1,0,0:0:0:0:
192,192,42059,1,0,0:0:0:0:
320,192,42059,1,0,0:0:0:0:
448,192,42059,1,0,0:0:0:0:
64,192,42148,1,0,0:0:0:0:
320,192,42148,1,0,0:0:0:0:
448,192,42238,1,0,0:0:0:0:
192,192,42238,1,0,0:0:0:0:
448,192,42327,1,0,0:0:0:0:
192,192,42327,1,0,0:0:0:0:
64,192,42416,1,0,0:0:0:0:
192,192,42416,1,0,0:0:0:0:
320,192,42416,1,0,0:0:0:0:
320,192,42506,1,0,0:0:0:0:
448,192,42506,1,0,0:0:0:0:
192,192,42595,1,0,0:0:0:0:
448,192,42595,1,0,0:0:0:0:
64,192,42595,1,0,0:0:0:0:
320,192,42684,1,0,0:0:0:0:
192,192,42684,1,0,0:0:0:0:
64,192,42773,1,0,0:0:0:0:
320,192,42773,1,0,0:0:0:0:
448,192,42773,1,0,0:0:0:0:
192,192,42863,1,0,0:0:0:0:
320,192,42863,1,0,0:0:0:0:
64,192,42952,1,0,0:0:0:0:
192,192,42952,1,0,0:0:0:0:
448,192,43041,1,0,0:0:0:0:
320,192,43041,1,0,0:0:0:0:
448,192,43131,1,0,0:0:0:0:
320,192,43131,1,0,0:0:0:0:
64,192,43131,1,0,0:0:0:0:
64,192,43220,1,0,0:0:0:0:
192,192,43220,1,0,0:0:0:0:
320,192,43220,1,0,0:0:0:0:
448,192,43309,1,0,0:0:0:0:
320,192,43309,1,0,0:0:0:0:
192,192,43309,1,0,0:0:0:0:
192,192,43398,1,0,0:0:0:0:
64,192,43488,1,0,0:0:0:0:
320,192,43488,1,0,0:0:0:0:
448,192,43488,1,0,0:0:0:0:
192,192,43577,1,0,0:0:0:0:
320,192,43577,1,0,0:0:0:0:
64,192,43666,1,0,0:0:0:0:
192,192,43666,1,0,0:0:0:0:
448,192,43756,1,0,0:0:0:0:
320,192,43756,1,0,0:0:0:0:
64,192,43756,1,0,0:0:0:0:
192,192,43845,1,0,0:0:0:0:
320,192,43845,1,0,0:0:0:0:
448,192,43845,1,0,0:0:0:0:
448,192,43934,1,0,0:0:0:0:
320,192,43934,1,0,0:0:0:0:
192,192,43934,1,0,0:0:0:0:
64,192,44023,1,0,0:0:0:0:
192,192,44023,1,0,0:0:0:0:
320,192,44023,1,0,0:0:0:0:
448,192,44113,1,0,0:0:0:0:
64,192,44202,1,0,0:0:0:0:
448,192,44202,1,0,0:0:0:0:
192,192,44202,1,0,0:0:0:0:
64,192,44291,1,0,0:0:0:0:
448,192,44291,1,0,0:0:0:0:
320,192,44291,1,0,0:0:0:0:
192,192,44381,1,0,0:0:0:0:
448,192,44470,1,0,0:0:0:0:
320,192,44559,1,0,0:0:0:0:
64,192,44559,1,0,0:0:0:0:
192,192,44559,1,0,0:0:0:0:
320,192,44648,1,0,0:0:0:0:
448,192,44648,1,0,0:0:0:0:
64,192,44648,1,0,0:0:0:0:
64,192,44738,1,0,0:0:0:0:
192,192,44738,1,0,0:0:0:0:
320,192,44738,1,0,0:0:0:0:
448,192,44827,1,0,0:0:0:0:
448,192,44916,1,0,0:0:0:0:
320,192,44916,1,0,0:0:0:0:
192,192,44916,1,0,0:0:0:0:
64,192,45006,1,0,0:0:0:0:
192,192,45006,1,0,0:0:0:0:
320,192,45006,1,0,0:0:0:0:
448,192,45095,1,0,0:0:0:0:
448,192,45184,1,0,0:0:0:0:
320,192,45273,1,0,0:0:0:0:
192,192,45273,1,0,0:0:0:0:
64,192,45273,1,0,0:0:0:0:
320,192,45363,1,0,0:0:0:0:
448,192,45363,1,0,0:0:0:0:
64,192,45452,1,0,0:0:0:0:
192,192,45452,1,0,0:0:0:0:
320,192,45512,1,0,0:0:0:0:
192,192,45571,1,0,0:0:0:0:
64,192,45631,1,0,0:0:0:0:
448,192,45631,1,0,0:0:0:0:
320,192,45690,1,0,0:0:0:0:
192,192,45750,1,0,0:0:0:0:
64,192,45809,1,0,0:0:0:0:
320,192,45809,1,0,0:0:0:0:
448,192,45869,1,0,0:0:0:0:
320,192,45928,1,0,0:0:0:0:
64,192,45988,1,0,0:0:0:0:
192,192,45988,1,0,0:0:0:0:
320,192,46047,1,0,0:0:0:0:
448,192,46047,1,0,0:0:0:0:
64,192,46107,1,0,0:0:0:0:
192,192,46107,1,0,0:0:0:0:
320,192,46166,1,0,0:0:0:0:
448,192,46166,1,0,0:0:0:0:
192,192,46256,1,0,0:0:0:0:
448,192,46345,1,0,0:0:0:0:
64,192,46345,1,0,0:0:0:0:
192,192,46345,1,0,0:0:0:0:
320,192,46434,1,0,0:0:0:0:
64,192,46434,1,0,0:0:0:0:
448,192,46523,1,0,0:0:0:0:
192,192,46523,1,0,0:0:0:0:
320,192,46613,1,0,0:0:0:0:
192,192,46702,1,0,0:0:0:0:
64,192,46702,1,0,0:0:0:0:
320,192,46702,1,0,0:0:0:0:
448,192,46791,1,0,0:0:0:0:
320,192,46881,1,0,0:0:0:0:
192,192,46881,1,0,0:0:0:0:
448,192,46881,1,0,0:0:0:0:
64,192,46970,1,0,0:0:0:0:
320,192,47059,1,0,0:0:0:0:
192,192,47059,1,0,0:0:0:0:
64,192,47059,1,0,0:0:0:0:
192,192,47148,1,0,0:0:0:0:
448,192,47148,1,0,0:0:0:0:
320,192,47238,1,0,0:0:0:0:
64,192,47327,1,0,0:0:0:0:
448,192,47416,1,0,0:0:0:0:
320,192,47416,1,0,0:0:0:0:
64,192,47416,1,0,0:0:0:0:
64,192,47506,1,0,0:0:0:0:
192,192,47506,1,0,0:0:0:0:
192,192,47595,1,0,0:0:0:0:
320,192,47595,1,0,0:0:0:0:
448,192,47595,1,0,0:0:0:0:
448,192,47684,1,0,0:0:0:0:
64,192,47773,1,0,0:0:0:0:
192,192,47773,1,0,0:0:0:0:
320,192,47773,1,0,0:0:0:0:
192,192,47863,1,0,0:0:0:0:
448,192,47863,1,0,0:0:0:0:
320,192,47952,1,0,0:0:0:0:
64,192,47952,1,0,0:0:0:0:
320,192,48041,1,0,0:0:0:0:
64,192,48041,1,0,0:0:0:0:
192,192,48131,1,0,0:0:0:0:
320,192,48131,1,0,0:0:0:0:
448,192,48131,1,0,0:0:0:0:
64,192,48220,1,0,0:0:0:0:
192,192,48220,1,0,0:0:0:0:
448,192,48309,1,0,0:0:0:0:
64,192,48309,1,0,0:0:0:0:
320,192,48309,1,0,0:0:0:0:
320,192,48398,1,0,0:0:0:0:
192,192,48398,1,0,0:0:0:0:
64,192,48488,1,0,0:0:0:0:
192,192,48488,1,0,0:0:0:0:
448,192,48488,1,0,0:0:0:0:
192,192,48577,1,0,0:0:0:0:
320,192,48577,1,0,0:0:0:0:
320,192,48666,1,0,0:0:0:0:
448,192,48666,1,0,0:0:0:0:
192,192,48756,1,0,0:0:0:0:
64,192,48756,1,0,0:0:0:0:
448,192,48845,1,0,0:0:0:0:
192,192,48845,1,0,0:0:0:0:
64,192,48845,1,0,0:0:0:0:
192,192,48934,1,0,0:0:0:0:
320,192,48934,1,0,0:0:0:0:
448,192,48934,1,0,0:0:0:0:
320,192,49023,1,0,0:0:0:0:
192,192,49023,1,0,0:0:0:0:
64,192,49023,1,0,0:0:0:0:
320,192,49113,1,0,0:0:0:0:
64,192,49202,1,0,0:0:0:0:
192,192,49202,1,0,0:0:0:0:
448,192,49202,1,0,0:0:0:0:
192,192,49291,1,0,0:0:0:0:
320,192,49291,1,0,0:0:0:0:
320,192,49381,1,0,0:0:0:0:
448,192,49381,1,0,0:0:0:0:
448,192,49470,1,0,0:0:0:0:
192,192,49470,1,0,0:0:0:0:
64,192,49470,1,0,0:0:0:0:
64,192,49559,1,0,0:0:0:0:
192,192,49559,1,0,0:0:0:0:
320,192,49559,1,0,0:0:0:0:
320,192,49648,1,0,0:0:0:0:
192,192,49648,1,0,0:0:0:0:
64,192,49648,1,0,0:0:0:0:
192,192,49738,1,0,0:0:0:0:
320,192,49738,1,0,0:0:0:0:
448,192,49738,1,0,0:0:0:0:
64,192,49827,1,0,0:0:0:0:
320,192,49916,1,0,0:0:0:0:
64,192,49916,1,0,0:0:0:0:
448,192,49916,1,0,0:0:0:0:
192,192,50006,1,0,0:0:0:0:
64,192,50006,1,0,0:0:0:0:
448,192,50006,1,0,0:0:0:0:
320,192,50095,1,0,0:0:0:0:
64,192,50184,1,0,0:0:0:0:
320,192,50273,1,0,0:0:0:0:
448,192,50273,1,0,0:0:0:0:
192,192,50273,1,0,0:0:0:0:
448,192,50363,1,0,0:0:0:0:
64,192,50363,1,0,0:0:0:0:
192,192,50363,1,0,0:0:0:0:
192,192,50452,1,0,0:0:0:0:
320,192,50452,1,0,0:0:0:0:
448,192,50452,1,0,0:0:0:0:
64,192,50541,1,0,0:0:0:0:
320,192,50631,1,0,0:0:0:0:
192,192,50631,1,0,0:0:0:0:
64,192,50631,1,0,0:0:0:0:
192,192,50720,1,0,0:0:0:0:
320,192,50720,1,0,0:0:0:0:
448,192,50720,1,0,0:0:0:0:
64,192,50809,1,0,0:0:0:0:
64,192,50898,1,0,0:0:0:0:
448,192,50988,1,0,0:0:0:0:
320,192,50988,1,0,0:0:0:0:
192,192,50988,1,0,0:0:0:0:
64,192,51077,1,0,0:0:0:0:
192,192,51077,1,0,0:0:0:0:
320,192,51166,1,0,0:0:0:0:
448,192,51166,1,0,0:0:0:0:
192,192,51226,1,0,0:0:0:0:
320,192,51285,1,0,0:0:0:0:
64,192,51345,1,0,0:0:0:0:
448,192,51345,1,0,0:0:0:0:
192,192,51404,1,0,0:0:0:0:
320,192,51464,1,0,0:0:0:0:
192,192,51523,1,0,0:0:0:0:
448,192,51523,1,0,0:0:0:0:
64,192,51583,1,0,0:0:0:0:
192,192,51643,1,0,0:0:0:0:
320,192,51702,1,0,0:0:0:0:
448,192,51702,1,0,0:0:0:0:
64,192,51762,1,0,0:0:0:0:
192,192,51762,1,0,0:0:0:0:
320,192,51821,1,0,0:0:0:0:
448,192,51821,1,0,0:0:0:0:
192,192,51881,1,0,0:0:0:0:
64,192,51881,1,0,0:0:0:0:
320,192,51881,1,0,0:0:0:0:
448,192,51881,1,0,0:0:0:0:
64,192,52059,1,0,0:0:0:0:
320,192,52059,1,0,0:0:0:0:
448,192,52148,1,0,0:0:0:0:
320,192,52148,1,0,0:0:0:0:
192,192,52148,1,0,0:0:0:0:
64,192,52148,1,0,0:0:0:0:
320,192,52327,1,0,0:0:0:0:
192,192,52416,1,0,0:0:0:0:
192,192,52506,1,0,0:0:0:0:
64,192,52595,1,0,0:0:0:0:
320,192,52595,1,0,0:0:0:0:
448,192,52595,1,0,0:0:0:0:
192,192,52773,1,0,0:0:0:0:
448,192,52773,1,0,0:0:0:0:
448,192,52863,1,0,0:0:0:0:
320,192,52863,1,0,0:0:0:0:
192,192,53041,1,0,0:0:0:0:
64,192,53131,1,0,0:0:0:0:
320,192,53131,1,0,0:0:0:0:
64,192,53220,1,0,0:0:0:0:
320,192,53220,1,0,0:0:0:0:
64,192,53309,1,0,0:0:0:0:
192,192,53309,1,0,0:0:0:0:
320,192,53309,1,0,0:0:0:0:
448,192,53488,1,0,0:0:0:0:
192,192,53488,1,0,0:0:0:0:
448,192,53577,1,0,0:0:0:0:
320,192,53577,1,0,0:0:0:0:
192,192,53577,1,0,0:0:0:0:
64,192,53577,1,0,0:0:0:0:
192,192,53756,1,0,0:0:0:0:
64,192,53845,1,0,0:0:0:0:
64,192,53934,1,0,0:0:0:0:
64,192,54023,1,0,0:0:0:0:
192,192,54023,1,0,0:0:0:0:
320,192,54023,1,0,0:0:0:0:
448,192,54023,1,0,0:0:0:0:
64,192,54202,1,0,0:0:0:0:
192,192,54202,1,0,0:0:0:0:
320,192,54202,1,0,0:0:0:0:
448,192,54291,1,0,0:0:0:0:
320,192,54291,1,0,0:0:0:0:
192,192,54291,1,0,0:0:0:0:
64,192,54559,1,0,0:0:0:0:
192,192,54559,1,0,0:0:0:0:
448,192,54559,1,0,0:0:0:0:
64,192,54738,1,0,0:0:0:0:
192,192,54738,1,0,0:0:0:0:
320,192,54738,1,0,0:0:0:0:
448,192,54738,1,0,0:0:0:0:
192,192,54916,1,0,0:0:0:0:
448,192,54916,1,0,0:0:0:0:
448,192,55006,1,0,0:0:0:0:
320,192,55006,1,0,0:0:0:0:
192,192,55006,1,0,0:0:0:0:
64,192,55006,1,0,0:0:0:0:
192,192,55184,1,0,0:0:0:0:
320,192,55273,1,0,0:0:0:0:
320,192,55363,1,0,0:0:0:0:
64,192,55452,1,0,0:0:0:0:
192,192,55452,1,0,0:0:0:0:
448,192,55452,1,0,0:0:0:0:
192,192,55631,1,0,0:0:0:0:
320,192,55631,1,0,0:0:0:0:
64,192,55720,1,0,0:0:0:0:
320,192,55720,1,0,0:0:0:0:
320,192,55898,1,0,0:0:0:0:
192,192,55988,1,0,0:0:0:0:
448,192,55988,1,0,0:0:0:0:
320,192,56077,1,0,0:0:0:0:
64,192,56166,1,0,0:0:0:0:
192,192,56166,1,0,0:0:0:0:
448,192,56166,1,0,0:0:0:0:
320,192,56345,1,0,0:0:0:0:
192,192,56345,1,0,0:0:0:0:
448,192,56434,1,0,0:0:0:0:
320,192,56434,1,0,0:0:0:0:
192,192,56434,1,0,0:0:0:0:
64,192,56434,1,0,0:0:0:0:
64,192,56613,1,0,0:0:0:0:
64,192,56702,1,0,0:0:0:0:
320,192,56702,1,0,0:0:0:0:
448,192,56702,1,0,0:0:0:0:
192,192,56791,1,0,0:0:0:0:
64,192,56881,1,0,0:0:0:0:
192,192,56881,1,0,0:0:0:0:
320,192,56881,1,0,0:0:0:0:
448,192,56881,1,0,0:0:0:0:
192,192,57059,1,0,0:0:0:0:
320,192,57059,1,0,0:0:0:0:
448,192,57148,1,0,0:0:0:0:
320,192,57148,1,0,0:0:0:0:
192,192,57148,1,0,0:0:0:0:
192,192,57238,1,0,0:0:0:0:
64,192,57238,1,0,0:0:0:0:
448,192,57238,1,0,0:0:0:0:
64,192,57327,1,0,0:0:0:0:
192,192,57327,1,0,0:0:0:0:
448,192,57327,1,0,0:0:0:0:
64,192,57416,1,0,0:0:0:0:
192,192,57416,1,0,0:0:0:0:
448,192,57416,1,0,0:0:0:0:
448,192,57506,1,0,0:0:0:0:
192,192,57506,1,0,0:0:0:0:
64,192,57506,1,0,0:0:0:0:
64,192,57595,1,0,0:0:0:0:
192,192,57595,1,0,0:0:0:0:
320,192,57595,1,0,0:0:0:0:
448,192,57595,1,0,0:0:0:0:
320,192,57684,1,0,0:0:0:0:
64,192,57773,1,0,0:0:0:0:
192,192,57773,1,0,0:0:0:0:
448,192,57863,1,0,0:0:0:0:
64,192,57863,1,0,0:0:0:0:
320,192,57952,1,0,0:0:0:0:
192,192,57952,1,0,0:0:0:0:
192,192,58041,1,0,0:0:0:0:
448,192,58131,1,0,0:0:0:0:
320,192,58131,1,0,0:0:0:0:
448,192,58220,1,0,0:0:0:0:
64,192,58309,1,0,0:0:0:0:
192,192,58309,1,0,0:0:0:0:
320,192,58309,1,0,0:0:0:0:
192,192,58398,1,0,0:0:0:0:
448,192,58488,1,0,0:0:0:0:
320,192,58488,1,0,0:0:0:0:
64,192,58488,1,0,0:0:0:0:
320,192,58577,1,0,0:0:0:0:
448,192,58666,1,0,0:0:0:0:
192,192,58666,1,0,0:0:0:0:
64,192,58666,1,0,0:0:0:0:
64,192,58756,1,0,0:0:0:0:
192,192,58845,1,0,0:0:0:0:
448,192,58845,1,0,0:0:0:0:
320,192,58845,1,0,0:0:0:0:
192,192,58934,1,0,0:0:0:0:
320,192,59023,1,0,0:0:0:0:
448,192,59023,1,0,0:0:0:0:
64,192,59023,1,0,0:0:0:0:
448,192,59113,1,0,0:0:0:0:
320,192,59202,1,0,0:0:0:0:
64,192,59202,1,0,0:0:0:0:
320,192,59291,1,0,0:0:0:0:
192,192,59381,1,0,0:0:0:0:
448,192,59381,1,0,0:0:0:0:
448,192,59470,1,0,0:0:0:0:
192,192,59559,1,0,0:0:0:0:
64,192,59559,1,0,0:0:0:0:
192,192,59648,1,0,0:0:0:0:
64,192,59738,1,0,0:0:0:0:
448,192,59738,1,0,0:0:0:0:
320,192,59738,1,0,0:0:0:0:
320,192,59827,1,0,0:0:0:0:
448,192,59916,1,0,0:0:0:0:
192,192,59916,1,0,0:0:0:0:
64,192,59916,1,0,0:0:0:0:
192,192,60006,1,0,0:0:0:0:
64,192,60095,1,0,0:0:0:0:
320,192,60095,1,0,0:0:0:0:
448,192,60095,1,0,0:0:0:0:
64,192,60184,1,0,0:0:0:0:
448,192,60273,1,0,0:0:0:0:
320,192,60273,1,0,0:0:0:0:
192,192,60273,1,0,0:0:0:0:
320,192,60363,1,0,0:0:0:0:
192,192,60452,1,0,0:0:0:0:
448,192,60452,1,0,0:0:0:0:
64,192,60452,1,0,0:0:0:0:
192,192,60541,1,0,0:0:0:0:
64,192,60631,1,0,0:0:0:0:
448,192,60631,1,0,0:0:0:0:
448,192,60720,1,0,0:0:0:0:
320,192,60809,1,0,0:0:0:0:
192,192,60809,1,0,0:0:0:0:
320,192,60898,1,0,0:0:0:0:
64,192,60988,1,0,0:0:0:0:
192,192,60988,1,0,0:0:0:0:
64,192,61077,1,0,0:0:0:0:
192,192,61166,1,0,0:0:0:0:
448,192,61166,1,0,0:0:0:0:
320,192,61166,1,0,0:0:0:0:
192,192,61256,1,0,0:0:0:0:
448,192,61345,1,0,0:0:0:0:
320,192,61345,1,0,0:0:0:0:
64,192,61345,1,0,0:0:0:0:
320,192,61434,1,0,0:0:0:0:
192,192,61523,1,0,0:0:0:0:
64,192,61523,1,0,0:0:0:0:
448,192,61523,1,0,0:0:0:0:
192,192,61613,1,0,0:0:0:0:
448,192,61702,1,0,0:0:0:0:
64,192,61702,1,0,0:0:0:0:
320,192,61702,1,0,0:0:0:0:
448,192,61791,1,0,0:0:0:0:
320,192,61881,1,0,0:0:0:0:
64,192,61881,1,0,0:0:0:0:
192,192,61881,1,0,0:0:0:0:
192,192,61970,1,0,0:0:0:0:
448,192,62059,1,0,0:0:0:0:
64,192,62059,1,0,0:0:0:0:
448,192,62148,1,0,0:0:0:0:
64,192,62238,1,0,0:0:0:0:
192,192,62238,1,0,0:0:0:0:
192,192,62327,1,0,0:0:0:0:
64,192,62416,1,0,0:0:0:0:
320,192,62416,1,0,0:0:0:0:
320,192,62506,1,0,0:0:0:0:
448,192,62595,1,0,0:0:0:0:
192,192,62595,1,0,0:0:0:0:
64,192,62595,1,0,0:0:0:0:
64,192,62684,1,0,0:0:0:0:
192,192,62773,1,0,0:0:0:0:
320,192,62773,1,0,0:0:0:0:
448,192,62773,1,0,0:0:0:0:
320,192,62863,1,0,0:0:0:0:
64,192,62952,1,0,0:0:0:0:
192,192,62952,1,0,0:0:0:0:
448,192,62952,1,0,0:0:0:0:
448,192,63041,1,0,0:0:0:0:
320,192,63131,1,0,0:0:0:0:
192,192,63131,1,0,0:0:0:0:
192,192,63220,1,0,0:0:0:0:
64,192,63309,1,0,0:0:0:0:
192,192,63309,1,0,0:0:0:0:
320,192,63309,1,0,0:0:0:0:
448,192,63309,1,0,0:0:0:0:
320,192,63398,1,0,0:0:0:0:
64,192,63488,1,0,0:0:0:0:
192,192,63488,1,0,0:0:0:0:
448,192,63577,1,0,0:0:0:0:
64,192,63577,1,0,0:0:0:0:
320,192,63666,1,0,0:0:0:0:
192,192,63666,1,0,0:0:0:0:
192,192,63756,1,0,0:0:0:0:
448,192,63845,1,0,0:0:0:0:
320,192,63845,1,0,0:0:0:0:
448,192,63934,1,0,0:0:0:0:
64,192,64023,1,0,0:0:0:0:
192,192,64023,1,0,0:0:0:0:
320,192,64023,1,0,0:0:0:0:
192,192,64113,1,0,0:0:0:0:
448,192,64202,1,0,0:0:0:0:
320,192,64202,1,0,0:0:0:0:
64,192,64202,1,0,0:0:0:0:
320,192,64291,1,0,0:0:0:0:
448,192,64381,1,0,0:0:0:0:
192,192,64381,1,0,0:0:0:0:
64,192,64381,1,0,0:0:0:0:
64,192,64470,1,0,0:0:0:0:
192,192,64559,1,0,0:0:0:0:
448,192,64559,1,0,0:0:0:0:
320,192,64559,1,0,0:0:0:0:
192,192,64648,1,0,0:0:0:0:
320,192,64738,1,0,0:0:0:0:
448,192,64738,1,0,0:0:0:0:
64,192,64738,1,0,0:0:0:0:
448,192,64827,1,0,0:0:0:0:
320,192,64916,1,0,0:0:0:0:
64,192,64916,1,0,0:0:0:0:
320,192,65006,1,0,0:0:0:0:
192,192,65095,1,0,0:0:0:0:
448,192,65095,1,0,0:0:0:0:
448,192,65184,1,0,0:0:0:0:
192,192,65273,1,0,0:0:0:0:
64,192,65273,1,0,0:0:0:0:
192,192,65363,1,0,0:0:0:0:
64,192,65452,1,0,0:0:0:0:
448,192,65452,1,0,0:0:0:0:
320,192,65452,1,0,0:0:0:0:
320,192,65541,1,0,0:0:0:0:
448,192,65631,1,0,0:0:0:0:
192,192,65631,1,0,0:0:0:0:
64,192,65631,1,0,0:0:0:0:
192,192,65720,1,0,0:0:0:0:
64,192,65809,1,0,0:0:0:0:
320,192,65809,1,0,0:0:0:0:
448,192,65809,1,0,0:0:0:0:
64,192,65898,1,0,0:0:0:0:
448,192,65988,1,0,0:0:0:0:
320,192,65988,1,0,0:0:0:0:
192,192,65988,1,0,0:0:0:0:
320,192,66077,1,0,0:0:0:0:
192,192,66166,1,0,0:0:0:0:
448,192,66166,1,0,0:0:0:0:
64,192,66166,1,0,0:0:0:0:
192,192,66256,1,0,0:0:0:0:
64,192,66345,1,0,0:0:0:0:
448,192,66345,1,0,0:0:0:0:
448,192,66434,1,0,0:0:0:0:
320,192,66523,1,0,0:0:0:0:
192,192,66523,1,0,0:0:0:0:
320,192,66613,1,0,0:0:0:0:
64,192,66702,1,0,0:0:0:0:
192,192,66702,1,0,0:0:0:0:
64,192,66791,1,0,0:0:0:0:
192,192,66881,1,0,0:0:0:0:
448,192,66881,1,0,0:0:0:0:
320,192,66881,1,0,0:0:0:0:
192,192,66970,1,0,0:0:0:0:
448,192,67059,1,0,0:0:0:0:
320,192,67059,1,0,0:0:0:0:
64,192,67059,1,0,0:0:0:0:
320,192,67148,1,0,0:0:0:0:
192,192,67238,1,0,0:0:0:0:
64,192,67238,1,0,0:0:0:0:
448,192,67238,1,0,0:0:0:0:
192,192,67327,1,0,0:0:0:0:
448,192,67416,1,0,0:0:0:0:
64,192,67416,1,0,0:0:0:0:
320,192,67416,1,0,0:0:0:0:
448,192,67506,1,0,0:0:0:0:
64,192,67595,1,0,0:0:0:0:
192,192,67595,1,0,0:0:0:0:
320,192,67595,1,0,0:0:0:0:
192,192,67684,1,0,0:0:0:0:
448,192,67773,1,0,0:0:0:0:
64,192,67773,1,0,0:0:0:0:
448,192,67863,1,0,0:0:0:0:
64,192,67952,1,0,0:0:0:0:
192,192,67952,1,0,0:0:0:0:
192,192,68041,1,0,0:0:0:0:
64,192,68131,1,0,0:0:0:0:
320,192,68131,1,0,0:0:0:0:
320,192,68220,1,0,0:0:0:0:
192,192,68309,1,0,0:0:0:0:
448,192,68309,1,0,0:0:0:0:
64,192,68309,1,0,0:0:0:0:
320,192,68309,1,0,0:0:0:0:
64,192,68488,1,0,0:0:0:0:
192,192,68488,1,0,0:0:0:0:
320,192,68488,1,0,0:0:0:0:
448,192,68488,1,0,0:0:0:0:
448,192,68666,1,0,0:0:0:0:
320,192,68666,1,0,0:0:0:0:
192,192,68666,1,0,0:0:0:0:
64,192,68845,1,0,0:0:0:0:
192,192,68845,1,0,0:0:0:0:
320,192,68845,1,0,0:0:0:0:
448,192,69023,1,0,0:0:0:0:
320,192,69023,1,0,0:0:0:0:
192,192,69023,1,0,0:0:0:0:
64,192,69023,1,0,0:0:0:0:
448,192,69113,1,0,0:0:0:0:
320,192,69113,1,0,0:0:0:0:
64,192,69202,1,0,0:0:0:0:
320,192,69202,1,0,0:0:0:0:
320,192,69291,1,0,0:0:0:0:
64,192,69291,1,0,0:0:0:0:
64,192,69381,1,0,0:0:0:0:
192,192,69381,1,0,0:0:0:0:
320,192,69381,1,0,0:0:0:0:
192,192,69559,1,0,0:0:0:0:
192,192,69738,1,0,0:0:0:0:
320,192,69738,1,0,0:0:0:0:
448,192,69827,1,0,0:0:0:0:
320,192,69827,1,0,0:0:0:0:
64,192,69827,1,0,0:0:0:0:
192,192,70006,1,0,0:0:0:0:
320,192,70006,1,0,0:0:0:0:
64,192,70006,1,0,0:0:0:0:
64,192,70184,1,0,0:0:0:0:
320,192,70184,1,0,0:0:0:0:
448,192,70184,1,0,0:0:0:0:
192,192,70273,1,0,0:0:0:0:
448,192,70273,1,0,0:0:0:0:
448,192,70631,1,0,0:0:0:0:
320,192,70631,1,0,0:0:0:0:
64,192,70631,1,0,0:0:0:0:
64,192,70720,1,0,0:0:0:0:
192,192,70720,1,0,0:0:0:0:
192,192,70809,1,0,0:0:0:0:
320,192,70809,1,0,0:0:0:0:
448,192,70809,1,0,0:0:0:0:
448,192,70988,1,0,0:0:0:0:
320,192,70988,1,0,0:0:0:0:
64,192,70988,1,0,0:0:0:0:
320,192,71166,1,0,0:0:0:0:
192,192,71166,1,0,0:0:0:0:
64,192,71166,1,0,0:0:0:0:
192,192,71345,1,0,0:0:0:0:
320,192,71345,1,0,0:0:0:0:
448,192,71345,1,0,0:0:0:0:
320,192,71523,1,0,0:0:0:0:
192,192,71523,1,0,0:0:0:0:
64,192,71523,1,0,0:0:0:0:
192,192,71702,1,0,0:0:0:0:
320,192,71702,1,0,0:0:0:0:
448,192,71702,1,0,0:0:0:0:
448,192,72059,1,0,0:0:0:0:
192,192,72059,1,0,0:0:0:0:
64,192,72059,1,0,0:0:0:0:
64,192,72148,1,0,0:0:0:0:
192,192,72148,1,0,0:0:0:0:
192,192,72238,1,0,0:0:0:0:
320,192,72238,1,0,0:0:0:0:
448,192,72238,1,0,0:0:0:0:
448,192,72416,1,0,0:0:0:0:
192,192,72416,1,0,0:0:0:0:
64,192,72416,1,0,0:0:0:0:
448,192,72595,1,0,0:0:0:0:
320,192,72595,1,0,0:0:0:0:
64,192,72684,1,0,0:0:0:0:
192,192,72684,1,0,0:0:0:0:
320,192,72684,1,0,0:0:0:0:
448,192,72863,1,0,0:0:0:0:
64,192,72863,1,0,0:0:0:0:
448,192,73041,1,0,0:0:0:0:
320,192,73041,1,0,0:0:0:0:
64,192,73041,1,0,0:0:0:0:
192,192,73131,1,0,0:0:0:0:
320,192,73131,1,0,0:0:0:0:
192,192,73488,1,0,0:0:0:0:
64,192,73488,1,0,0:0:0:0:
448,192,73488,1,0,0:0:0:0:
320,192,73577,1,0,0:0:0:0:
64,192,73577,1,0,0:0:0:0:
320,192,73666,1,0,0:0:0:0:
192,192,73666,1,0,0:0:0:0:
448,192,73666,1,0,0:0:0:0:
192,192,73845,1,0,0:0:0:0:
320,192,73845,1,0,0:0:0:0:
320,192,74023,128,0,74113:0:0:0:0:
64,192,74023,1,0,0:0:0:0:
448,192,74023,1,0,0:0:0:0:
192,192,74202,128,0,74291:0:0:0:0:
448,192,74202,1,0,0:0:0:0:
64,192,74202,1,0,0:0:0:0:
320,192,74381,128,0,74470:0:0:0:0:
64,192,74381,1,0,0:0:0:0:
448,192,74381,1,0,0:0:0:0:
192,192,74559,128,0,74648:0:0:0:0:
448,192,74559,1,0,0:0:0:0:
64,192,74559,1,0,0:0:0:0:
448,192,74738,1,0,0:0:0:0:
320,192,74738,1,0,0:0:0:0:
64,192,74738,1,0,0:0:0:0:
64,192,74827,1,0,0:0:0:0:
320,192,74827,1,0,0:0:0:0:
320,192,74916,1,0,0:0:0:0:
64,192,74916,1,0,0:0:0:0:
320,192,75006,1,0,0:0:0:0:
192,192,75006,1,0,0:0:0:0:
320,192,75095,1,0,0:0:0:0:
192,192,75095,1,0,0:0:0:0:
64,192,75095,1,0,0:0:0:0:
320,192,75452,1,0,0:0:0:0:
448,192,75452,1,0,0:0:0:0:
64,192,75541,1,0,0:0:0:0:
320,192,75541,1,0,0:0:0:0:
448,192,75541,1,0,0:0:0:0:
192,192,75720,1,0,0:0:0:0:
64,192,75720,1,0,0:0:0:0:
320,192,75720,1,0,0:0:0:0:
192,192,75898,1,0,0:0:0:0:
320,192,75898,1,0,0:0:0:0:
448,192,75898,1,0,0:0:0:0:
64,192,75988,1,0,0:0:0:0:
192,192,75988,1,0,0:0:0:0:
192,192,76166,1,0,0:0:0:0:
448,192,76166,1,0,0:0:0:0:
192,192,76345,1,0,0:0:0:0:
64,192,76345,1,0,0:0:0:0:
320,192,76345,1,0,0:0:0:0:
448,192,76434,1,0,0:0:0:0:
192,192,76434,1,0,0:0:0:0:
64,192,76523,1,0,0:0:0:0:
192,192,76523,1,0,0:0:0:0:
320,192,76523,1,0,0:0:0:0:
192,192,76702,1,0,0:0:0:0:
320,192,76702,1,0,0:0:0:0:
448,192,76702,1,0,0:0:0:0:
64,192,76881,1,0,0:0:0:0:
320,192,76881,1,0,0:0:0:0:
448,192,76881,1,0,0:0:0:0:
448,192,77059,1,0,0:0:0:0:
192,192,77059,1,0,0:0:0:0:
64,192,77059,1,0,0:0:0:0:
64,192,77238,1,0,0:0:0:0:
320,192,77238,1,0,0:0:0:0:
448,192,77238,1,0,0:0:0:0:
448,192,77416,1,0,0:0:0:0:
192,192,77416,1,0,0:0:0:0:
64,192,77416,1,0,0:0:0:0:
64,192,77595,1,0,0:0:0:0:
448,192,77595,1,0,0:0:0:0:
320,192,77595,1,0,0:0:0:0:
192,192,77595,1,0,0:0:0:0:
192,192,77773,1,0,0:0:0:0:
448,192,77773,1,0,0:0:0:0:
448,192,77863,1,0,0:0:0:0:
320,192,77863,1,0,0:0:0:0:
448,192,77952,1,0,0:0:0:0:
64,192,77952,1,0,0:0:0:0:
192,192,77952,1,0,0:0:0:0:
448,192,78131,1,0,0:0:0:0:
192,192,78131,1,0,0:0:0:0:
64,192,78131,1,0,0:0:0:0:
192,192,78309,1,0,0:0:0:0:
320,192,78309,1,0,0:0:0:0:
448,192,78309,1,0,0:0:0:0:
64,192,78488,1,0,0:0:0:0:
192,192,78488,1,0,0:0:0:0:
448,192,78488,1,0,0:0:0:0:
192,192,78666,1,0,0:0:0:0:
64,192,78666,1,0,0:0:0:0:
448,192,78666,1,0,0:0:0:0:
192,192,78756,1,0,0:0:0:0:
320,192,78756,1,0,0:0:0:0:
192,192,78845,1,0,0:0:0:0:
448,192,78845,1,0,0:0:0:0:
64,192,79023,1,0,0:0:0:0:
320,192,79023,1,0,0:0:0:0:
448,192,79023,1,0,0:0:0:0:
192,192,79113,1,0,0:0:0:0:
320,192,79202,1,0,0:0:0:0:
448,192,79202,1,0,0:0:0:0:
192,192,79291,1,0,0:0:0:0:
64,192,79291,1,0,0:0:0:0:
192,192,79381,1,0,0:0:0:0:
320,192,79381,1,0,0:0:0:0:
448,192,79381,1,0,0:0:0:0:
64,192,79470,5,0,0:0:0:0:
448,192,79559,1,0,0:0:0:0:
320,192,79559,1,0,0:0:0:0:
192,192,79648,1,0,0:0:0:0:
64,192,79648,1,0,0:0:0:0:
64,192,79738,1,0,0:0:0:0:
192,192,79738,1,0,0:0:0:0:
320,192,79738,1,0,0:0:0:0:
448,192,79738,1,0,0:0:0:0:
64,192,80452,5,0,0:0:0:0:
192,192,80452,1,0,0:0:0:0:
320,192,80452,1,0,0:0:0:0:
448,192,80452,1,0,0:0:0:0:
64,192,80541,1,0,0:0:0:0:
192,192,80541,1,0,0:0:0:0:
320,192,80541,1,0,0:0:0:0:
448,192,80631,1,0,0:0:0:0:
320,192,80631,1,0,0:0:0:0:
192,192,80631,1,0,0:0:0:0:
64,192,80631,1,0,0:0:0:0:
192,192,80720,1,0,0:0:0:0:
448,192,80720,1,0,0:0:0:0:
320,192,80720,1,0,0:0:0:0:
448,192,80809,1,0,0:0:0:0:
192,192,80809,1,0,0:0:0:0:
64,192,80809,1,0,0:0:0:0:
64,192,80898,1,0,0:0:0:0:
320,192,80898,1,0,0:0:0:0:
448,192,80898,1,0,0:0:0:0:
448,192,80988,1,0,0:0:0:0:
320,192,80988,1,0,0:0:0:0:
192,192,80988,1,0,0:0:0:0:
64,192,80988,1,0,0:0:0:0:
64,192,81077,1,0,0:0:0:0:
192,192,81077,1,0,0:0:0:0:
448,192,81077,1,0,0:0:0:0:
448,192,81166,1,0,0:0:0:0:
320,192,81166,1,0,0:0:0:0:
64,192,81166,1,0,0:0:0:0:
64,192,81256,1,0,0:0:0:0:
192,192,81256,1,0,0:0:0:0:
320,192,81256,1,0,0:0:0:0:
448,192,81345,1,0,0:0:0:0:
320,192,81345,1,0,0:0:0:0:
192,192,81345,1,0,0:0:0:0:
64,192,81345,1,0,0:0:0:0:
448,192,81434,1,0,0:0:0:0:
320,192,81434,1,0,0:0:0:0:
192,192,81434,1,0,0:0:0:0:
64,192,81523,1,0,0:0:0:0:
192,192,81523,1,0,0:0:0:0:
448,192,81523,1,0,0:0:0:0:
320,192,81613,1,0,0:0:0:0:
192,192,81613,1,0,0:0:0:0:
64,192,81613,1,0,0:0:0:0:
448,192,81702,1,0,0:0:0:0:
320,192,81702,1,0,0:0:0:0:
192,192,81702,1,0,0:0:0:0:
64,192,81702,1,0,0:0:0:0:
64,192,81791,1,0,0:0:0:0:
320,192,81791,1,0,0:0:0:0:
448,192,81791,1,0,0:0:0:0:
64,192,81881,1,0,0:0:0:0:
448,192,81881,1,0,0:0:0:0:
192,192,81881,1,0,0:0:0:0:
192,192,81970,1,0,0:0:0:0:
448,192,81970,1,0,0:0:0:0:
320,192,81970,1,0,0:0:0:0:
64,192,82059,1,0,0:0:0:0:
192,192,82059,1,0,0:0:0:0:
448,192,82059,1,0,0:0:0:0:
320,192,82059,1,0,0:0:0:0:
64,192,82148,1,0,0:0:0:0:
320,192,82148,1,0,0:0:0:0:
192,192,82148,1,0,0:0:0:0:
448,192,82238,1,0,0:0:0:0:
192,192,82238,1,0,0:0:0:0:
64,192,82238,1,0,0:0:0:0:
192,192,82327,1,0,0:0:0:0:
320,192,82327,1,0,0:0:0:0:
448,192,82327,1,0,0:0:0:0:
64,192,82416,1,0,0:0:0:0:
192,192,82416,1,0,0:0:0:0:
320,192,82416,1,0,0:0:0:0:
448,192,82416,1,0,0:0:0:0:
192,192,82506,1,0,0:0:0:0:
320,192,82506,1,0,0:0:0:0:
64,192,82506,1,0,0:0:0:0:
448,192,82595,1,0,0:0:0:0:
320,192,82595,1,0,0:0:0:0:
64,192,82595,1,0,0:0:0:0:
64,192,82684,1,0,0:0:0:0:
192,192,82684,1,0,0:0:0:0:
320,192,82684,1,0,0:0:0:0:
448,192,82773,1,0,0:0:0:0:
320,192,82773,1,0,0:0:0:0:
192,192,82773,1,0,0:0:0:0:
64,192,82773,1,0,0:0:0:0:
192,192,82863,1,0,0:0:0:0:
320,192,82863,1,0,0:0:0:0:
448,192,82863,1,0,0:0:0:0:
64,192,82952,1,0,0:0:0:0:
320,192,82952,1,0,0:0:0:0:
448,192,82952,1,0,0:0:0:0:
192,192,83041,1,0,0:0:0:0:
320,192,83041,1,0,0:0:0:0:
448,192,83041,1,0,0:0:0:0:
448,192,83131,1,0,0:0:0:0:
320,192,83131,1,0,0:0:0:0:
192,192,83131,1,0,0:0:0:0:
64,192,83131,1,0,0:0:0:0:
64,192,83220,1,0,0:0:0:0:
192,192,83220,1,0,0:0:0:0:
448,192,83220,1,0,0:0:0:0:
64,192,83309,1,0,0:0:0:0:
192,192,83309,1,0,0:0:0:0:
320,192,83309,1,0,0:0:0:0:
448,192,83309,1,0,0:0:0:0:
64,192,83398,1,0,0:0:0:0:
448,192,83398,1,0,0:0:0:0:
320,192,83398,1,0,0:0:0:0:
448,192,83488,1,0,0:0:0:0:
320,192,83488,1,0,0:0:0:0:
192,192,83488,1,0,0:0:0:0:
64,192,83488,1,0,0:0:0:0:
320,192,83577,1,0,0:0:0:0:
192,192,83577,1,0,0:0:0:0:
64,192,83577,1,0,0:0:0:0:
320,192,83666,1,0,0:0:0:0:
64,192,83666,1,0,0:0:0:0:
448,192,83666,1,0,0:0:0:0:
64,192,83756,1,0,0:0:0:0:
192,192,83756,1,0,0:0:0:0:
448,192,83756,1,0,0:0:0:0:
64,192,83845,1,0,0:0:0:0:
192,192,83845,1,0,0:0:0:0:
320,192,83845,1,0,0:0:0:0:
448,192,83845,1,0,0:0:0:0:
448,192,83934,1,0,0:0:0:0:
320,192,83934,1,0,0:0:0:0:
192,192,83934,1,0,0:0:0:0:
320,192,84023,1,0,0:0:0:0:
192,192,84023,1,0,0:0:0:0:
64,192,84023,1,0,0:0:0:0:
448,192,84113,1,0,0:0:0:0:
320,192,84113,1,0,0:0:0:0:
64,192,84113,1,0,0:0:0:0:
64,192,84202,1,0,0:0:0:0:
192,192,84202,1,0,0:0:0:0:
320,192,84202,1,0,0:0:0:0:
448,192,84202,1,0,0:0:0:0:
192,192,84291,1,0,0:0:0:0:
320,192,84291,1,0,0:0:0:0:
64,192,84291,1,0,0:0:0:0:
64,192,84381,1,0,0:0:0:0:
192,192,84381,1,0,0:0:0:0:
448,192,84381,1,0,0:0:0:0:
448,192,84470,1,0,0:0:0:0:
320,192,84470,1,0,0:0:0:0:
192,192,84470,1,0,0:0:0:0:
448,192,84559,1,0,0:0:0:0:
320,192,84559,1,0,0:0:0:0:
192,192,84559,1,0,0:0:0:0:
64,192,84559,1,0,0:0:0:0:
64,192,84648,1,0,0:0:0:0:
192,192,84648,1,0,0:0:0:0:
320,192,84648,1,0,0:0:0:0:
64,192,84738,1,0,0:0:0:0:
192,192,84738,1,0,0:0:0:0:
448,192,84738,1,0,0:0:0:0:
64,192,84827,1,0,0:0:0:0:
320,192,84827,1,0,0:0:0:0:
448,192,84827,1,0,0:0:0:0:
320,192,84916,1,0,0:0:0:0:
448,192,84916,1,0,0:0:0:0:
192,192,84916,1,0,0:0:0:0:
64,192,84916,1,0,0:0:0:0:
192,192,85006,1,0,0:0:0:0:
320,192,85006,1,0,0:0:0:0:
448,192,85006,1,0,0:0:0:0:
320,192,85095,1,0,0:0:0:0:
192,192,85095,1,0,0:0:0:0:
64,192,85095,1,0,0:0:0:0:
192,192,85184,1,0,0:0:0:0:
448,192,85184,1,0,0:0:0:0:
64,192,85184,1,0,0:0:0:0:
64,192,85273,1,0,0:0:0:0:
192,192,85273,1,0,0:0:0:0:
320,192,85273,1,0,0:0:0:0:
448,192,85273,1,0,0:0:0:0:
320,192,85363,1,0,0:0:0:0:
448,192,85363,1,0,0:0:0:0:
64,192,85363,1,0,0:0:0:0:
320,192,85452,1,0,0:0:0:0:
192,192,85452,1,0,0:0:0:0:
64,192,85452,1,0,0:0:0:0:
448,192,85541,1,0,0:0:0:0:
320,192,85541,1,0,0:0:0:0:
64,192,85541,1,0,0:0:0:0:
64,192,85631,1,0,0:0:0:0:
192,192,85631,1,0,0:0:0:0:
320,192,85631,1,0,0:0:0:0:
448,192,85631,1,0,0:0:0:0:
448,192,85720,1,0,0:0:0:0:
64,192,85720,1,0,0:0:0:0:
192,192,85720,1,0,0:0:0:0:
448,192,85809,1,0,0:0:0:0:
320,192,85809,1,0,0:0:0:0:
64,192,85809,1,0,0:0:0:0:
448,192,85898,1,0,0:0:0:0:
320,192,85898,1,0,0:0:0:0:
192,192,85898,1,0,0:0:0:0:
64,192,85988,1,0,0:0:0:0:
192,192,85988,1,0,0:0:0:0:
448,192,85988,1,0,0:0:0:0:
192,192,86077,1,0,0:0:0:0:
320,192,86077,1,0,0:0:0:0:
64,192,86077,1,0,0:0:0:0:
64,192,86166,5,0,0:0:0:0:
320,192,86166,1,0,0:0:0:0:
192,192,86166,1,0,0:0:0:0:
448,192,86166,1,0,0:0:0:0:
64,192,86256,1,0,0:0:0:0:
192,192,86256,1,0,0:0:0:0:
320,192,86256,1,0,0:0:0:0:
448,192,86345,1,0,0:0:0:0:
320,192,86345,1,0,0:0:0:0:
192,192,86345,1,0,0:0:0:0:
64,192,86345,1,0,0:0:0:0:
192,192,86434,1,0,0:0:0:0:
448,192,86434,1,0,0:0:0:0:
320,192,86434,1,0,0:0:0:0:
320,192,86523,1,0,0:0:0:0:
192,192,86523,1,0,0:0:0:0:
64,192,86523,1,0,0:0:0:0:
64,192,86613,1,0,0:0:0:0:
320,192,86613,1,0,0:0:0:0:
448,192,86613,1,0,0:0:0:0:
448,192,86702,1,0,0:0:0:0:
320,192,86702,1,0,0:0:0:0:
192,192,86702,1,0,0:0:0:0:
64,192,86791,1,0,0:0:0:0:
192,192,86791,1,0,0:0:0:0:
448,192,86791,1,0,0:0:0:0:
448,192,86881,1,0,0:0:0:0:
320,192,86881,1,0,0:0:0:0:
64,192,86881,1,0,0:0:0:0:
64,192,86970,1,0,0:0:0:0:
192,192,86970,1,0,0:0:0:0:
320,192,86970,1,0,0:0:0:0:
448,192,87059,1,0,0:0:0:0:
320,192,87059,1,0,0:0:0:0:
192,192,87059,1,0,0:0:0:0:
64,192,87059,1,0,0:0:0:0:
448,192,87148,1,0,0:0:0:0:
320,192,87148,1,0,0:0:0:0:
192,192,87148,1,0,0:0:0:0:
64,192,87238,1,0,0:0:0:0:
192,192,87238,1,0,0:0:0:0:
448,192,87238,1,0,0:0:0:0:
320,192,87327,1,0,0:0:0:0:
192,192,87327,1,0,0:0:0:0:
64,192,87327,1,0,0:0:0:0:
448,192,87416,1,0,0:0:0:0:
320,192,87416,1,0,0:0:0:0:
192,192,87416,1,0,0:0:0:0:
64,192,87416,1,0,0:0:0:0:
64,192,87506,1,0,0:0:0:0:
320,192,87506,1,0,0:0:0:0:
448,192,87506,1,0,0:0:0:0:
64,192,87595,1,0,0:0:0:0:
192,192,87595,1,0,0:0:0:0:
448,192,87595,1,0,0:0:0:0:
192,192,87684,1,0,0:0:0:0:
448,192,87684,1,0,0:0:0:0:
320,192,87684,1,0,0:0:0:0:
64,192,87773,1,0,0:0:0:0:
192,192,87773,1,0,0:0:0:0:
448,192,87773,1,0,0:0:0:0:
320,192,87773,1,0,0:0:0:0:
64,192,87863,1,0,0:0:0:0:
320,192,87863,1,0,0:0:0:0:
192,192,87863,1,0,0:0:0:0:
448,192,87952,1,0,0:0:0:0:
192,192,87952,1,0,0:0:0:0:
64,192,87952,1,0,0:0:0:0:
192,192,88041,1,0,0:0:0:0:
320,192,88041,1,0,0:0:0:0:
64,192,88131,1,0,0:0:0:0:
192,192,88131,1,0,0:0:0:0:
320,192,88131,1,0,0:0:0:0:
448,192,88131,1,0,0:0:0:0:
448,192,88220,1,0,0:0:0:0:
64,192,88220,1,0,0:0:0:0:
192,192,88309,1,0,0:0:0:0:
448,192,88309,1,0,0:0:0:0:
320,192,88309,1,0,0:0:0:0:
64,192,88398,1,0,0:0:0:0:
192,192,88398,1,0,0:0:0:0:
448,192,88488,1,0,0:0:0:0:
320,192,88488,1,0,0:0:0:0:
192,192,88488,1,0,0:0:0:0:
64,192,88488,1,0,0:0:0:0:
320,192,88577,1,0,0:0:0:0:
448,192,88577,1,0,0:0:0:0:
192,192,88666,1,0,0:0:0:0:
64,192,88666,1,0,0:0:0:0:
320,192,88666,1,0,0:0:0:0:
192,192,88756,1,0,0:0:0:0:
448,192,88756,1,0,0:0:0:0:
448,192,88845,1,0,0:0:0:0:
320,192,88845,1,0,0:0:0:0:
192,192,88845,1,0,0:0:0:0:
64,192,88845,1,0,0:0:0:0:
192,192,88934,1,0,0:0:0:0:
320,192,88934,1,0,0:0:0:0:
64,192,89023,1,0,0:0:0:0:
192,192,89023,1,0,0:0:0:0:
320,192,89023,1,0,0:0:0:0:
448,192,89023,1,0,0:0:0:0:
448,192,89113,1,0,0:0:0:0:
320,192,89113,1,0,0:0:0:0:
448,192,89202,1,0,0:0:0:0:
320,192,89202,1,0,0:0:0:0:
192,192,89202,1,0,0:0:0:0:
64,192,89202,1,0,0:0:0:0:
192,192,89291,1,0,0:0:0:0:
64,192,89291,1,0,0:0:0:0:
192,192,89381,1,0,0:0:0:0:
320,192,89381,1,0,0:0:0:0:
448,192,89381,1,0,0:0:0:0:
192,192,89470,1,0,0:0:0:0:
448,192,89470,1,0,0:0:0:0:
64,192,89559,1,0,0:0:0:0:
192,192,89559,1,0,0:0:0:0:
320,192,89559,1,0,0:0:0:0:
448,192,89559,1,0,0:0:0:0:
448,192,89648,1,0,0:0:0:0:
64,192,89648,1,0,0:0:0:0:
320,192,89738,1,0,0:0:0:0:
192,192,89738,1,0,0:0:0:0:
64,192,89738,1,0,0:0:0:0:
320,192,89827,1,0,0:0:0:0:
64,192,89827,1,0,0:0:0:0:
64,192,89916,1,0,0:0:0:0:
192,192,89916,1,0,0:0:0:0:
320,192,89916,1,0,0:0:0:0:
448,192,89916,1,0,0:0:0:0:
192,192,90006,1,0,0:0:0:0:
320,192,90006,1,0,0:0:0:0:
64,192,90095,1,0,0:0:0:0:
192,192,90095,1,0,0:0:0:0:
448,192,90095,1,0,0:0:0:0:
320,192,90184,1,0,0:0:0:0:
192,192,90184,1,0,0:0:0:0:
448,192,90273,1,0,0:0:0:0:
320,192,90273,1,0,0:0:0:0:
192,192,90273,1,0,0:0:0:0:
64,192,90273,1,0,0:0:0:0:
64,192,90363,1,0,0:0:0:0:
320,192,90363,1,0,0:0:0:0:
64,192,90452,1,0,0:0:0:0:
192,192,90452,1,0,0:0:0:0:
448,192,90452,1,0,0:0:0:0:
64,192,90541,1,0,0:0:0:0:
320,192,90541,1,0,0:0:0:0:
320,192,90631,1,0,0:0:0:0:
448,192,90631,1,0,0:0:0:0:
192,192,90631,1,0,0:0:0:0:
64,192,90631,1,0,0:0:0:0:
320,192,90720,1,0,0:0:0:0:
448,192,90720,1,0,0:0:0:0:
320,192,90809,1,0,0:0:0:0:
192,192,90809,1,0,0:0:0:0:
64,192,90809,1,0,0:0:0:0:
192,192,90898,1,0,0:0:0:0:
448,192,90898,1,0,0:0:0:0:
64,192,90988,1,0,0:0:0:0:
192,192,90988,1,0,0:0:0:0:
320,192,90988,1,0,0:0:0:0:
448,192,90988,1,0,0:0:0:0:
320,192,91077,1,0,0:0:0:0:
64,192,91077,1,0,0:0:0:0:
448,192,91166,1,0,0:0:0:0:
192,192,91166,1,0,0:0:0:0:
64,192,91166,1,0,0:0:0:0:
448,192,91256,1,0,0:0:0:0:
64,192,91256,1,0,0:0:0:0:
64,192,91345,1,0,0:0:0:0:
192,192,91345,1,0,0:0:0:0:
320,192,91345,1,0,0:0:0:0:
448,192,91345,1,0,0:0:0:0:
448,192,91434,1,0,0:0:0:0:
192,192,91434,1,0,0:0:0:0:
192,192,91523,1,0,0:0:0:0:
320,192,91523,1,0,0:0:0:0:
64,192,91523,1,0,0:0:0:0:
64,192,91613,1,0,0:0:0:0:
448,192,91613,1,0,0:0:0:0:
320,192,91702,1,0,0:0:0:0:
64,192,91702,1,0,0:0:0:0:
192,192,91702,1,0,0:0:0:0:
448,192,91702,1,0,0:0:0:0:
192,192,91791,1,0,0:0:0:0:
320,192,91791,1,0,0:0:0:0:
448,192,91881,1,0,0:0:0:0:
320,192,91881,1,0,0:0:0:0:
192,192,91881,1,0,0:0:0:0:
64,192,91881,1,0,0:0:0:0:
192,192,91970,1,0,0:0:0:0:
64,192,91970,1,0,0:0:0:0:
64,192,92059,1,0,0:0:0:0:
192,192,92059,1,0,0:0:0:0:
320,192,92059,1,0,0:0:0:0:
448,192,92059,1,0,0:0:0:0:
448,192,92148,1,0,0:0:0:0:
192,192,92148,1,0,0:0:0:0:
320,192,92238,1,0,0:0:0:0:
192,192,92238,1,0,0:0:0:0:
64,192,92238,1,0,0:0:0:0:
64,192,92327,1,0,0:0:0:0:
448,192,92327,1,0,0:0:0:0:
64,192,92416,1,0,0:0:0:0:
192,192,92416,1,0,0:0:0:0:
320,192,92416,1,0,0:0:0:0:
448,192,92416,1,0,0:0:0:0:
320,192,92506,1,0,0:0:0:0:
448,192,92506,1,0,0:0:0:0:
192,192,92595,1,0,0:0:0:0:
448,192,92595,1,0,0:0:0:0:
320,192,92595,1,0,0:0:0:0:
64,192,92595,1,0,0:0:0:0:
192,192,92684,1,0,0:0:0:0:
64,192,92684,1,0,0:0:0:0:
448,192,92773,1,0,0:0:0:0:
320,192,92773,1,0,0:0:0:0:
192,192,92773,1,0,0:0:0:0:
64,192,92773,1,0,0:0:0:0:
320,192,92863,1,0,0:0:0:0:
448,192,92863,1,0,0:0:0:0:
320,192,92952,1,0,0:0:0:0:
64,192,92952,1,0,0:0:0:0:
448,192,92952,1,0,0:0:0:0:
320,192,93041,1,0,0:0:0:0:
64,192,93041,1,0,0:0:0:0:
448,192,93131,1,0,0:0:0:0:
320,192,93131,1,0,0:0:0:0:
192,192,93131,1,0,0:0:0:0:
64,192,93131,1,0,0:0:0:0:
192,192,93220,1,0,0:0:0:0:
448,192,93220,1,0,0:0:0:0:
320,192,93309,1,0,0:0:0:0:
192,192,93309,1,0,0:0:0:0:
64,192,93309,1,0,0:0:0:0:
448,192,93309,1,0,0:0:0:0:
320,192,93398,1,0,0:0:0:0:
64,192,93398,1,0,0:0:0:0:
448,192,93488,1,0,0:0:0:0:
320,192,93488,1,0,0:0:0:0:
192,192,93488,1,0,0:0:0:0:
64,192,93488,1,0,0:0:0:0:
320,192,93577,1,0,0:0:0:0:
448,192,93577,1,0,0:0:0:0:
320,192,93666,1,0,0:0:0:0:
448,192,93666,1,0,0:0:0:0:
192,192,93666,1,0,0:0:0:0:
64,192,93756,1,0,0:0:0:0:
192,192,93756,1,0,0:0:0:0:
448,192,93845,1,0,0:0:0:0:
320,192,93845,1,0,0:0:0:0:
192,192,93845,1,0,0:0:0:0:
64,192,93845,1,0,0:0:0:0:
320,192,93934,1,0,0:0:0:0:
192,192,93934,1,0,0:0:0:0:
192,192,94023,1,0,0:0:0:0:
64,192,94023,1,0,0:0:0:0:
320,192,94023,1,0,0:0:0:0:
448,192,94023,1,0,0:0:0:0:
64,192,94113,1,0,0:0:0:0:
448,192,94113,1,0,0:0:0:0:
448,192,94202,1,0,0:0:0:0:
320,192,94202,1,0,0:0:0:0:
64,192,94202,1,0,0:0:0:0:
192,192,94202,1,0,0:0:0:0:
64,192,94291,1,0,0:0:0:0:
192,192,94291,1,0,0:0:0:0:
320,192,94291,1,0,0:0:0:0:
448,192,94291,1,0,0:0:0:0:
192,192,94381,1,0,0:0:0:0:
320,192,94381,1,0,0:0:0:0:
448,192,94381,1,0,0:0:0:0:
64,192,94470,1,0,0:0:0:0:
448,192,94470,1,0,0:0:0:0:
192,192,94559,1,0,0:0:0:0:
320,192,94559,1,0,0:0:0:0:
448,192,94559,1,0,0:0:0:0:
320,192,94648,1,0,0:0:0:0:
64,192,94648,1,0,0:0:0:0:
64,192,94738,1,0,0:0:0:0:
192,192,94738,1,0,0:0:0:0:
320,192,94738,1,0,0:0:0:0:
448,192,94738,1,0,0:0:0:0:
64,192,94916,1,0,0:0:0:0:
192,192,94916,1,0,0:0:0:0:
320,192,94916,1,0,0:0:0:0:
448,192,94916,1,0,0:0:0:0:
192,192,95095,1,0,0:0:0:0:
320,192,95095,1,0,0:0:0:0:
448,192,95095,1,0,0:0:0:0:
320,192,95273,1,0,0:0:0:0:
192,192,95273,1,0,0:0:0:0:
64,192,95273,1,0,0:0:0:0:
448,192,95452,1,0,0:0:0:0:
320,192,95452,1,0,0:0:0:0:
64,192,95452,1,0,0:0:0:0:
64,192,95631,1,0,0:0:0:0:
192,192,95631,1,0,0:0:0:0:
448,192,95631,1,0,0:0:0:0:
320,192,95809,1,0,0:0:0:0:
192,192,95809,1,0,0:0:0:0:
448,192,95809,1,0,0:0:0:0:
64,192,95988,1,0,0:0:0:0:
320,192,95988,1,0,0:0:0:0:
192,192,95988,1,0,0:0:0:0:
192,192,96077,1,0,0:0:0:0:
320,192,96077,1,0,0:0:0:0:
448,192,96166,1,0,0:0:0:0:
64,192,96166,1,0,0:0:0:0:
320,192,96226,1,0,0:0:0:0:
192,192,96226,1,0,0:0:0:0:
64,192,96285,1,0,0:0:0:0:
448,192,96285,1,0,0:0:0:0:
320,192,96345,1,0,0:0:0:0:
192,192,96345,1,0,0:0:0:0:
64,192,96404,1,0,0:0:0:0:
192,192,96464,1,0,0:0:0:0:
448,192,96523,1,0,0:0:0:0:
320,192,96523,1,0,0:0:0:0:
192,192,96583,1,0,0:0:0:0:
448,192,96643,1,0,0:0:0:0:
64,192,96643,1,0,0:0:0:0:
320,192,96702,1,0,0:0:0:0:
192,192,96702,1,0,0:0:0:0:
448,192,96762,1,0,0:0:0:0:
320,192,96821,1,0,0:0:0:0:
448,192,96881,1,0,0:0:0:0:
192,192,96881,1,0,0:0:0:0:
64,192,96881,1,0,0:0:0:0:
192,192,97238,1,0,0:0:0:0:
64,192,97595,128,0,97773:0:0:0:0:
448,192,97595,1,0,0:0:0:0:
320,192,97595,1,0,0:0:0:0:
192,192,97595,1,0,0:0:0:0:
192,192,97773,1,0,0:0:0:0:
192,192,97863,1,0,0:0:0:0:
192,192,97952,1,0,0:0:0:0:
192,192,98041,1,0,0:0:0:0:
192,192,98131,1,0,0:0:0:0:
192,192,98220,1,0,0:0:0:0:
448,192,98309,128,0,98488:0:0:0:0:
320,192,98488,1,0,0:0:0:0:
320,192,98577,1,0,0:0:0:0:
320,192,98666,1,0,0:0:0:0:
320,192,98756,1,0,0:0:0:0:
320,192,98845,1,0,0:0:0:0:
320,192,98934,1,0,0:0:0:0:
64,192,99023,128,0,99202:0:0:0:0:
192,192,99202,1,0,0:0:0:0:
192,192,99291,1,0,0:0:0:0:
192,192,99381,1,0,0:0:0:0:
192,192,99470,1,0,0:0:0:0:
192,192,99559,1,0,0:0:0:0:
192,192,99648,1,0,0:0:0:0:
64,192,99738,1,0,0:0:0:0:
448,192,99738,1,0,0:0:0:0:
192,192,99797,1,0,0:0:0:0:
320,192,99857,1,0,0:0:0:0:
448,192,99916,1,0,0:0:0:0:
64,192,99916,1,0,0:0:0:0:
192,192,99976,1,0,0:0:0:0:
64,192,100035,1,0,0:0:0:0:
448,192,100095,1,0,0:0:0:0:
320,192,100095,1,0,0:0:0:0:
192,192,100154,1,0,0:0:0:0:
64,192,100214,1,0,0:0:0:0:
448,192,100273,1,0,0:0:0:0:
320,192,100273,1,0,0:0:0:0:
192,192,100273,1,0,0:0:0:0:
64,192,100363,1,0,0:0:0:0:
192,192,100363,1,0,0:0:0:0:
320,192,100363,1,0,0:0:0:0:
320,192,100452,1,0,0:0:0:0:
448,192,100452,1,0,0:0:0:0:
64,192,100452,1,0,0:0:0:0:
192,192,100452,1,0,0:0:0:0:
320,192,100541,1,0,0:0:0:0:
320,192,100631,1,0,0:0:0:0:
448,192,100631,1,0,0:0:0:0:
64,192,100631,1,0,0:0:0:0:
448,192,100720,1,0,0:0:0:0:
192,192,100720,1,0,0:0:0:0:
320,192,100809,1,0,0:0:0:0:
64,192,100809,1,0,0:0:0:0:
192,192,100898,1,0,0:0:0:0:
192,192,100988,1,0,0:0:0:0:
448,192,100988,1,0,0:0:0:0:
320,192,100988,1,0,0:0:0:0:
64,192,101077,1,0,0:0:0:0:
64,192,101166,1,0,0:0:0:0:
320,192,101166,1,0,0:0:0:0:
192,192,101166,1,0,0:0:0:0:
448,192,101256,1,0,0:0:0:0:
448,192,101345,1,0,0:0:0:0:
320,192,101345,1,0,0:0:0:0:
192,192,101345,1,0,0:0:0:0:
64,192,101434,1,0,0:0:0:0:
320,192,101434,1,0,0:0:0:0:
192,192,101523,1,0,0:0:0:0:
448,192,101613,1,0,0:0:0:0:
448,192,101702,1,0,0:0:0:0:
192,192,101702,1,0,0:0:0:0:
64,192,101702,1,0,0:0:0:0:
320,192,101791,1,0,0:0:0:0:
448,192,101791,1,0,0:0:0:0:
64,192,101881,1,0,0:0:0:0:
192,192,101881,1,0,0:0:0:0:
320,192,101881,1,0,0:0:0:0:
64,192,101970,1,0,0:0:0:0:
192,192,102059,1,0,0:0:0:0:
320,192,102059,1,0,0:0:0:0:
448,192,102059,1,0,0:0:0:0:
64,192,102148,1,0,0:0:0:0:
320,192,102148,1,0,0:0:0:0:
448,192,102238,1,0,0:0:0:0:
192,192,102238,1,0,0:0:0:0:
448,192,102327,1,0,0:0:0:0:
192,192,102327,1,0,0:0:0:0:
64,192,102416,1,0,0:0:0:0:
192,192,102416,1,0,0:0:0:0:
320,192,102416,1,0,0:0:0:0:
320,192,102506,1,0,0:0:0:0:
448,192,102506,1,0,0:0:0:0:
192,192,102595,1,0,0:0:0:0:
448,192,102595,1,0,0:0:0:0:
64,192,102595,1,0,0:0:0:0:
320,192,102684,1,0,0:0:0:0:
192,192,102684,1,0,0:0:0:0:
64,192,102773,1,0,0:0:0:0:
320,192,102773,1,0,0:0:0:0:
448,192,102773,1,0,0:0:0:0:
192,192,102863,1,0,0:0:0:0:
320,192,102863,1,0,0:0:0:0:
64,192,102952,1,0,0:0:0:0:
192,192,102952,1,0,0:0:0:0:
448,192,103041,1,0,0:0:0:0:
320,192,103041,1,0,0:0:0:0:
448,192,103131,1,0,0:0:0:0:
320,192,103131,1,0,0:0:0:0:
64,192,103131,1,0,0:0:0:0:
64,192,103220,1,0,0:0:0:0:
192,192,103220,1,0,0:0:0:0:
320,192,103220,1,0,0:0:0:0:
448,192,103309,1,0,0:0:0:0:
320,192,103309,1,0,0:0:0:0:
192,192,103309,1,0,0:0:0:0:
192,192,103398,1,0,0:0:0:0:
64,192,103488,1,0,0:0:0:0:
320,192,103488,1,0,0:0:0:0:
448,192,103488,1,0,0:0:0:0:
192,192,103577,1,0,0:0:0:0:
320,192,103577,1,0,0:0:0:0:
64,192,103666,1,0,0:0:0:0:
192,192,103666,1,0,0:0:0:0:
448,192,103756,1,0,0:0:0:0:
320,192,103756,1,0,0:0:0:0:
64,192,103756,1,0,0:0:0:0:
192,192,103845,1,0,0:0:0:0:
320,192,103845,1,0,0:0:0:0:
448,192,103845,1,0,0:0:0:0:
448,192,103934,1,0,0:0:0:0:
320,192,103934,1,0,0:0:0:0:
192,192,103934,1,0,0:0:0:0:
64,192,104023,1,0,0:0:0:0:
192,192,104023,1,0,0:0:0:0:
320,192,104023,1,0,0:0:0:0:
448,192,104113,1,0,0:0:0:0:
64,192,104202,1,0,0:0:0:0:
448,192,104202,1,0,0:0:0:0:
192,192,104202,1,0,0:0:0:0:
64,192,104291,1,0,0:0:0:0:
448,192,104291,1,0,0:0:0:0:
320,192,104291,1,0,0:0:0:0:
192,192,104381,1,0,0:0:0:0:
448,192,104470,1,0,0:0:0:0:
320,192,104559,1,0,0:0:0:0:
64,192,104559,1,0,0:0:0:0:
192,192,104559,1,0,0:0:0:0:
320,192,104648,1,0,0:0:0:0:
448,192,104648,1,0,0:0:0:0:
64,192,104648,1,0,0:0:0:0:
64,192,104738,1,0,0:0:0:0:
192,192,104738,1,0,0:0:0:0:
320,192,104738,1,0,0:0:0:0:
448,192,104827,1,0,0:0:0:0:
448,192,104916,1,0,0:0:0:0:
320,192,104916,1,0,0:0:0:0:
192,192,104916,1,0,0:0:0:0:
64,192,105006,1,0,0:0:0:0:
192,192,105006,1,0,0:0:0:0:
320,192,105006,1,0,0:0:0:0:
448,192,105095,1,0,0:0:0:0:
448,192,105184,1,0,0:0:0:0:
320,192,105273,1,0,0:0:0:0:
192,192,105273,1,0,0:0:0:0:
64,192,105273,1,0,0:0:0:0:
320,192,105363,1,0,0:0:0:0:
448,192,105363,1,0,0:0:0:0:
64,192,105452,1,0,0:0:0:0:
192,192,105452,1,0,0:0:0:0:
320,192,105512,1,0,0:0:0:0:
192,192,105571,1,0,0:0:0:0:
64,192,105631,1,0,0:0:0:0:
448,192,105631,1,0,0:0:0:0:
320,192,105690,1,0,0:0:0:0:
192,192,105750,1,0,0:0:0:0:
64,192,105809,1,0,0:0:0:0:
320,192,105809,1,0,0:0:0:0:
448,192,105869,1,0,0:0:0:0:
320,192,105928,1,0,0:0:0:0:
64,192,105988,1,0,0:0:0:0:
192,192,105988,1,0,0:0:0:0:
320,192,106047,1,0,0:0:0:0:
448,192,106047,1,0,0:0:0:0:
64,192,106107,1,0,0:0:0:0:
192,192,106107,1,0,0:0:0:0:
320,192,106166,1,0,0:0:0:0:
448,192,106166,1,0,0:0:0:0:
192,192,106166,1,0,0:0:0:0:
64,192,106166,1,0,0:0:0:0:
192,192,106256,1,0,0:0:0:0:
448,192,106345,1,0,0:0:0:0:
64,192,106345,1,0,0:0:0:0:
192,192,106345,1,0,0:0:0:0:
320,192,106434,1,0,0:0:0:0:
64,192,106434,1,0,0:0:0:0:
448,192,106523,1,0,0:0:0:0:
192,192,106523,1,0,0:0:0:0:
320,192,106613,1,0,0:0:0:0:
192,192,106702,1,0,0:0:0:0:
64,192,106702,1,0,0:0:0:0:
320,192,106702,1,0,0:0:0:0:
448,192,106791,1,0,0:0:0:0:
320,192,106881,1,0,0:0:0:0:
192,192,106881,1,0,0:0:0:0:
448,192,106881,1,0,0:0:0:0:
64,192,106970,1,0,0:0:0:0:
320,192,107059,1,0,0:0:0:0:
192,192,107059,1,0,0:0:0:0:
64,192,107059,1,0,0:0:0:0:
192,192,107148,1,0,0:0:0:0:
448,192,107148,1,0,0:0:0:0:
320,192,107238,1,0,0:0:0:0:
64,192,107327,1,0,0:0:0:0:
448,192,107416,1,0,0:0:0:0:
320,192,107416,1,0,0:0:0:0:
64,192,107416,1,0,0:0:0:0:
64,192,107506,1,0,0:0:0:0:
192,192,107506,1,0,0:0:0:0:
192,192,107595,1,0,0:0:0:0:
320,192,107595,1,0,0:0:0:0:
448,192,107595,1,0,0:0:0:0:
448,192,107684,1,0,0:0:0:0:
64,192,107773,1,0,0:0:0:0:
192,192,107773,1,0,0:0:0:0:
320,192,107773,1,0,0:0:0:0:
192,192,107863,1,0,0:0:0:0:
448,192,107863,1,0,0:0:0:0:
320,192,107952,1,0,0:0:0:0:
64,192,107952,1,0,0:0:0:0:
320,192,108041,1,0,0:0:0:0:
64,192,108041,1,0,0:0:0:0:
192,192,108131,1,0,0:0:0:0:
320,192,108131,1,0,0:0:0:0:
448,192,108131,1,0,0:0:0:0:
64,192,108220,1,0,0:0:0:0:
192,192,108220,1,0,0:0:0:0:
448,192,108309,1,0,0:0:0:0:
64,192,108309,1,0,0:0:0:0:
320,192,108309,1,0,0:0:0:0:
320,192,108398,1,0,0:0:0:0:
192,192,108398,1,0,0:0:0:0:
64,192,108488,1,0,0:0:0:0:
192,192,108488,1,0,0:0:0:0:
448,192,108488,1,0,0:0:0:0:
192,192,108577,1,0,0:0:0:0:
320,192,108577,1,0,0:0:0:0:
320,192,108666,1,0,0:0:0:0:
448,192,108666,1,0,0:0:0:0:
192,192,108756,1,0,0:0:0:0:
64,192,108756,1,0,0:0:0:0:
448,192,108845,1,0,0:0:0:0:
192,192,108845,1,0,0:0:0:0:
64,192,108845,1,0,0:0:0:0:
192,192,108934,1,0,0:0:0:0:
320,192,108934,1,0,0:0:0:0:
448,192,108934,1,0,0:0:0:0:
320,192,109023,1,0,0:0:0:0:
192,192,109023,1,0,0:0:0:0:
64,192,109023,1,0,0:0:0:0:
320,192,109113,1,0,0:0:0:0:
64,192,109202,1,0,0:0:0:0:
192,192,109202,1,0,0:0:0:0:
448,192,109202,1,0,0:0:0:0:
192,192,109291,1,0,0:0:0:0:
320,192,109291,1,0,0:0:0:0:
320,192,109381,1,0,0:0:0:0:
448,192,109381,1,0,0:0:0:0:
448,192,109470,1,0,0:0:0:0:
192,192,109470,1,0,0:0:0:0:
64,192,109470,1,0,0:0:0:0:
64,192,109559,1,0,0:0:0:0:
192,192,109559,1,0,0:0:0:0:
320,192,109559,1,0,0:0:0:0:
320,192,109648,1,0,0:0:0:0:
192,192,109648,1,0,0:0:0:0:
64,192,109648,1,0,0:0:0:0:
192,192,109738,1,0,0:0:0:0:
320,192,109738,1,0,0:0:0:0:
448,192,109738,1,0,0:0:0:0:
64,192,109827,1,0,0:0:0:0:
320,192,109916,1,0,0:0:0:0:
64,192,109916,1,0,0:0:0:0:
448,192,109916,1,0,0:0:0:0:
192,192,110006,1,0,0:0:0:0:
64,192,110006,1,0,0:0:0:0:
448,192,110006,1,0,0:0:0:0:
320,192,110095,1,0,0:0:0:0:
64,192,110184,1,0,0:0:0:0:
320,192,110273,1,0,0:0:0:0:
448,192,110273,1,0,0:0:0:0:
192,192,110273,1,0,0:0:0:0:
448,192,110363,1,0,0:0:0:0:
64,192,110363,1,0,0:0:0:0:
192,192,110363,1,0,0:0:0:0:
192,192,110452,1,0,0:0:0:0:
320,192,110452,1,0,0:0:0:0:
448,192,110452,1,0,0:0:0:0:
64,192,110541,1,0,0:0:0:0:
320,192,110631,1,0,0:0:0:0:
192,192,110631,1,0,0:0:0:0:
64,192,110631,1,0,0:0:0:0:
192,192,110720,1,0,0:0:0:0:
320,192,110720,1,0,0:0:0:0:
448,192,110720,1,0,0:0:0:0:
64,192,110809,1,0,0:0:0:0:
64,192,110898,1,0,0:0:0:0:
448,192,110988,1,0,0:0:0:0:
320,192,110988,1,0,0:0:0:0:
192,192,110988,1,0,0:0:0:0:
64,192,111077,1,0,0:0:0:0:
192,192,111077,1,0,0:0:0:0:
320,192,111166,1,0,0:0:0:0:
448,192,111166,1,0,0:0:0:0:
192,192,111226,1,0,0:0:0:0:
320,192,111285,1,0,0:0:0:0:
64,192,111345,1,0,0:0:0:0:
448,192,111345,1,0,0:0:0:0:
192,192,111404,1,0,0:0:0:0:
320,192,111464,1,0,0:0:0:0:
192,192,111523,1,0,0:0:0:0:
448,192,111523,1,0,0:0:0:0:
64,192,111583,1,0,0:0:0:0:
192,192,111643,1,0,0:0:0:0:
320,192,111702,1,0,0:0:0:0:
448,192,111702,1,0,0:0:0:0:
64,192,111762,1,0,0:0:0:0:
192,192,111762,1,0,0:0:0:0:
320,192,111821,1,0,0:0:0:0:
448,192,111821,1,0,0:0:0:0:
192,192,111881,1,0,0:0:0:0:
64,192,111881,1,0,0:0:0:0:
320,192,111881,1,0,0:0:0:0:
448,192,111881,1,0,0:0:0:0:
448,192,112059,1,0,0:0:0:0:
192,192,112059,1,0,0:0:0:0:
64,192,112148,1,0,0:0:0:0:
192,192,112148,1,0,0:0:0:0:
320,192,112148,1,0,0:0:0:0:
448,192,112148,1,0,0:0:0:0:
192,192,112327,1,0,0:0:0:0:
320,192,112416,1,0,0:0:0:0:
320,192,112506,1,0,0:0:0:0:
448,192,112595,1,0,0:0:0:0:
192,192,112595,1,0,0:0:0:0:
64,192,112595,1,0,0:0:0:0:
320,192,112773,1,0,0:0:0:0:
64,192,112773,1,0,0:0:0:0:
64,192,112863,1,0,0:0:0:0:
192,192,112863,1,0,0:0:0:0:
320,192,113041,1,0,0:0:0:0:
448,192,113131,1,0,0:0:0:0:
192,192,113131,1,0,0:0:0:0:
448,192,113220,1,0,0:0:0:0:
192,192,113220,1,0,0:0:0:0:
448,192,113309,1,0,0:0:0:0:
320,192,113309,1,0,0:0:0:0:
192,192,113309,1,0,0:0:0:0:
64,192,113488,1,0,0:0:0:0:
320,192,113488,1,0,0:0:0:0:
64,192,113577,1,0,0:0:0:0:
192,192,113577,1,0,0:0:0:0:
320,192,113577,1,0,0:0:0:0:
448,192,113577,1,0,0:0:0:0:
320,192,113756,1,0,0:0:0:0:
448,192,113845,1,0,0:0:0:0:
448,192,113934,1,0,0:0:0:0:
448,192,114023,1,0,0:0:0:0:
320,192,114023,1,0,0:0:0:0:
192,192,114023,1,0,0:0:0:0:
64,192,114023,1,0,0:0:0:0:
448,192,114202,1,0,0:0:0:0:
320,192,114202,1,0,0:0:0:0:
192,192,114202,1,0,0:0:0:0:
64,192,114291,1,0,0:0:0:0:
192,192,114291,1,0,0:0:0:0:
320,192,114291,1,0,0:0:0:0:
448,192,114559,1,0,0:0:0:0:
320,192,114559,1,0,0:0:0:0:
64,192,114559,1,0,0:0:0:0:
448,192,114738,1,0,0:0:0:0:
320,192,114738,1,0,0:0:0:0:
192,192,114738,1,0,0:0:0:0:
64,192,114738,1,0,0:0:0:0:
320,192,114916,1,0,0:0:0:0:
64,192,114916,1,0,0:0:0:0:
64,192,115006,1,0,0:0:0:0:
192,192,115006,1,0,0:0:0:0:
320,192,115006,1,0,0:0:0:0:
448,192,115006,1,0,0:0:0:0:
320,192,115184,1,0,0:0:0:0:
192,192,115273,1,0,0:0:0:0:
192,192,115363,1,0,0:0:0:0:
448,192,115452,1,0,0:0:0:0:
320,192,115452,1,0,0:0:0:0:
64,192,115452,1,0,0:0:0:0:
320,192,115631,1,0,0:0:0:0:
192,192,115631,1,0,0:0:0:0:
448,192,115720,1,0,0:0:0:0:
192,192,115720,1,0,0:0:0:0:
192,192,115898,1,0,0:0:0:0:
320,192,115988,1,0,0:0:0:0:
64,192,115988,1,0,0:0:0:0:
192,192,116077,1,0,0:0:0:0:
448,192,116166,1,0,0:0:0:0:
320,192,116166,1,0,0:0:0:0:
64,192,116166,1,0,0:0:0:0:
192,192,116345,1,0,0:0:0:0:
320,192,116345,1,0,0:0:0:0:
64,192,116434,1,0,0:0:0:0:
192,192,116434,1,0,0:0:0:0:
320,192,116434,1,0,0:0:0:0:
448,192,116434,1,0,0:0:0:0:
448,192,116613,1,0,0:0:0:0:
448,192,116702,1,0,0:0:0:0:
192,192,116702,1,0,0:0:0:0:
64,192,116702,1,0,0:0:0:0:
320,192,116791,1,0,0:0:0:0:
448,192,116881,1,0,0:0:0:0:
320,192,116881,1,0,0:0:0:0:
192,192,116881,1,0,0:0:0:0:
64,192,116881,1,0,0:0:0:0:
320,192,117059,1,0,0:0:0:0:
192,192,117059,1,0,0:0:0:0:
64,192,117148,1,0,0:0:0:0:
192,192,117148,1,0,0:0:0:0:
320,192,117148,1,0,0:0:0:0:
320,192,117238,1,0,0:0:0:0:
448,192,117238,1,0,0:0:0:0:
64,192,117238,1,0,0:0:0:0:
448,192,117327,1,0,0:0:0:0:
320,192,117327,1,0,0:0:0:0:
64,192,117327,1,0,0:0:0:0:
448,192,117416,1,0,0:0:0:0:
320,192,117416,1,0,0:0:0:0:
64,192,117416,1,0,0:0:0:0:
64,192,117506,1,0,0:0:0:0:
320,192,117506,1,0,0:0:0:0:
448,192,117506,1,0,0:0:0:0:
448,192,117595,1,0,0:0:0:0:
320,192,117595,1,0,0:0:0:0:
192,192,117595,1,0,0:0:0:0:
64,192,117595,1,0,0:0:0:0:
192,192,117684,1,0,0:0:0:0:
448,192,117773,1,0,0:0:0:0:
320,192,117773,1,0,0:0:0:0:
64,192,117863,1,0,0:0:0:0:
448,192,117863,1,0,0:0:0:0:
192,192,117952,1,0,0:0:0:0:
320,192,117952,1,0,0:0:0:0:
320,192,118041,1,0,0:0:0:0:
64,192,118131,1,0,0:0:0:0:
192,192,118131,1,0,0:0:0:0:
64,192,118220,1,0,0:0:0:0:
448,192,118309,1,0,0:0:0:0:
320,192,118309,1,0,0:0:0:0:
192,192,118309,1,0,0:0:0:0:
320,192,118398,1,0,0:0:0:0:
64,192,118488,1,0,0:0:0:0:
192,192,118488,1,0,0:0:0:0:
448,192,118488,1,0,0:0:0:0:
192,192,118577,1,0,0:0:0:0:
64,192,118666,1,0,0:0:0:0:
320,192,118666,1,0,0:0:0:0:
448,192,118666,1,0,0:0:0:0:
448,192,118756,1,0,0:0:0:0:
320,192,118845,1,0,0:0:0:0:
64,192,118845,1,0,0:0:0:0:
192,192,118845,1,0,0:0:0:0:
320,192,118934,1,0,0:0:0:0:
192,192,119023,1,0,0:0:0:0:
64,192,119023,1,0,0:0:0:0:
448,192,119023,1,0,0:0:0:0:
64,192,119113,1,0,0:0:0:0:
192,192,119202,1,0,0:0:0:0:
448,192,119202,1,0,0:0:0:0:
192,192,119291,1,0,0:0:0:0:
320,192,119381,1,0,0:0:0:0:
64,192,119381,1,0,0:0:0:0:
64,192,119470,1,0,0:0:0:0:
320,192,119559,1,0,0:0:0:0:
448,192,119559,1,0,0:0:0:0:
320,192,119648,1,0,0:0:0:0:
448,192,119738,1,0,0:0:0:0:
64,192,119738,1,0,0:0:0:0:
192,192,119738,1,0,0:0:0:0:
192,192,119827,1,0,0:0:0:0:
64,192,119916,1,0,0:0:0:0:
320,192,119916,1,0,0:0:0:0:
448,192,119916,1,0,0:0:0:0:
320,192,120006,1,0,0:0:0:0:
448,192,120095,1,0,0:0:0:0:
192,192,120095,1,0,0:0:0:0:
64,192,120095,1,0,0:0:0:0:
448,192,120184,1,0,0:0:0:0:
64,192,120273,1,0,0:0:0:0:
192,192,120273,1,0,0:0:0:0:
320,192,120273,1,0,0:0:0:0:
192,192,120363,1,0,0:0:0:0:
320,192,120452,1,0,0:0:0:0:
64,192,120452,1,0,0:0:0:0:
448,192,120452,1,0,0:0:0:0:
192,192,120452,1,0,0:0:0:0:
320,192,120541,1,0,0:0:0:0:
448,192,120631,1,0,0:0:0:0:
64,192,120631,1,0,0:0:0:0:
64,192,120720,1,0,0:0:0:0:
192,192,120809,1,0,0:0:0:0:
320,192,120809,1,0,0:0:0:0:
192,192,120898,1,0,0:0:0:0:
448,192,120988,1,0,0:0:0:0:
320,192,120988,1,0,0:0:0:0:
448,192,121077,1,0,0:0:0:0:
320,192,121166,1,0,0:0:0:0:
64,192,121166,1,0,0:0:0:0:
192,192,121166,1,0,0:0:0:0:
320,192,121256,1,0,0:0:0:0:
64,192,121345,1,0,0:0:0:0:
192,192,121345,1,0,0:0:0:0:
448,192,121345,1,0,0:0:0:0:
192,192,121434,1,0,0:0:0:0:
320,192,121523,1,0,0:0:0:0:
448,192,121523,1,0,0:0:0:0:
64,192,121523,1,0,0:0:0:0:
320,192,121613,1,0,0:0:0:0:
64,192,121702,1,0,0:0:0:0:
448,192,121702,1,0,0:0:0:0:
192,192,121702,1,0,0:0:0:0:
64,192,121791,1,0,0:0:0:0:
192,192,121881,1,0,0:0:0:0:
448,192,121881,1,0,0:0:0:0:
320,192,121881,1,0,0:0:0:0:
320,192,121970,1,0,0:0:0:0:
64,192,122059,1,0,0:0:0:0:
448,192,122059,1,0,0:0:0:0:
64,192,122148,1,0,0:0:0:0:
448,192,122238,1,0,0:0:0:0:
320,192,122238,1,0,0:0:0:0:
320,192,122327,1,0,0:0:0:0:
448,192,122416,1,0,0:0:0:0:
192,192,122416,1,0,0:0:0:0:
192,192,122506,1,0,0:0:0:0:
64,192,122595,1,0,0:0:0:0:
320,192,122595,1,0,0:0:0:0:
448,192,122595,1,0,0:0:0:0:
448,192,122684,1,0,0:0:0:0:
320,192,122773,1,0,0:0:0:0:
192,192,122773,1,0,0:0:0:0:
64,192,122773,1,0,0:0:0:0:
192,192,122863,1,0,0:0:0:0:
448,192,122952,1,0,0:0:0:0:
320,192,122952,1,0,0:0:0:0:
64,192,122952,1,0,0:0:0:0:
64,192,123041,1,0,0:0:0:0:
192,192,123131,1,0,0:0:0:0:
320,192,123131,1,0,0:0:0:0:
320,192,123220,1,0,0:0:0:0:
448,192,123309,1,0,0:0:0:0:
320,192,123309,1,0,0:0:0:0:
192,192,123309,1,0,0:0:0:0:
64,192,123309,1,0,0:0:0:0:
192,192,123398,1,0,0:0:0:0:
448,192,123488,1,0,0:0:0:0:
320,192,123488,1,0,0:0:0:0:
64,192,123577,1,0,0:0:0:0:
448,192,123577,1,0,0:0:0:0:
192,192,123666,1,0,0:0:0:0:
320,192,123666,1,0,0:0:0:0:
320,192,123756,1,0,0:0:0:0:
64,192,123845,1,0,0:0:0:0:
192,192,123845,1,0,0:0:0:0:
64,192,123934,1,0,0:0:0:0:
448,192,124023,1,0,0:0:0:0:
320,192,124023,1,0,0:0:0:0:
192,192,124023,1,0,0:0:0:0:
320,192,124113,1,0,0:0:0:0:
64,192,124202,1,0,0:0:0:0:
192,192,124202,1,0,0:0:0:0:
448,192,124202,1,0,0:0:0:0:
192,192,124291,1,0,0:0:0:0:
64,192,124381,1,0,0:0:0:0:
320,192,124381,1,0,0:0:0:0:
448,192,124381,1,0,0:0:0:0:
448,192,124470,1,0,0:0:0:0:
320,192,124559,1,0,0:0:0:0:
64,192,124559,1,0,0:0:0:0:
192,192,124559,1,0,0:0:0:0:
320,192,124648,1,0,0:0:0:0:
192,192,124738,1,0,0:0:0:0:
64,192,124738,1,0,0:0:0:0:
448,192,124738,1,0,0:0:0:0:
64,192,124827,1,0,0:0:0:0:
192,192,124916,1,0,0:0:0:0:
448,192,124916,1,0,0:0:0:0:
192,192,125006,1,0,0:0:0:0:
320,192,125095,1,0,0:0:0:0:
64,192,125095,1,0,0:0:0:0:
64,192,125184,1,0,0:0:0:0:
320,192,125273,1,0,0:0:0:0:
448,192,125273,1,0,0:0:0:0:
320,192,125363,1,0,0:0:0:0:
448,192,125452,1,0,0:0:0:0:
64,192,125452,1,0,0:0:0:0:
192,192,125452,1,0,0:0:0:0:
192,192,125541,1,0,0:0:0:0:
64,192,125631,1,0,0:0:0:0:
320,192,125631,1,0,0:0:0:0:
448,192,125631,1,0,0:0:0:0:
320,192,125720,1,0,0:0:0:0:
448,192,125809,1,0,0:0:0:0:
192,192,125809,1,0,0:0:0:0:
64,192,125809,1,0,0:0:0:0:
448,192,125898,1,0,0:0:0:0:
64,192,125988,1,0,0:0:0:0:
192,192,125988,1,0,0:0:0:0:
320,192,125988,1,0,0:0:0:0:
192,192,126077,1,0,0:0:0:0:
320,192,126166,1,0,0:0:0:0:
64,192,126166,1,0,0:0:0:0:
448,192,126166,1,0,0:0:0:0:
192,192,126166,1,0,0:0:0:0:
320,192,126256,1,0,0:0:0:0:
448,192,126345,1,0,0:0:0:0:
64,192,126345,1,0,0:0:0:0:
64,192,126434,1,0,0:0:0:0:
192,192,126523,1,0,0:0:0:0:
320,192,126523,1,0,0:0:0:0:
192,192,126613,1,0,0:0:0:0:
448,192,126702,1,0,0:0:0:0:
320,192,126702,1,0,0:0:0:0:
448,192,126791,1,0,0:0:0:0:
320,192,126881,1,0,0:0:0:0:
64,192,126881,1,0,0:0:0:0:
192,192,126881,1,0,0:0:0:0:
320,192,126970,1,0,0:0:0:0:
64,192,127059,1,0,0:0:0:0:
192,192,127059,1,0,0:0:0:0:
448,192,127059,1,0,0:0:0:0:
192,192,127148,1,0,0:0:0:0:
320,192,127238,1,0,0:0:0:0:
448,192,127238,1,0,0:0:0:0:
64,192,127238,1,0,0:0:0:0:
320,192,127327,1,0,0:0:0:0:
64,192,127416,1,0,0:0:0:0:
448,192,127416,1,0,0:0:0:0:
192,192,127416,1,0,0:0:0:0:
64,192,127506,1,0,0:0:0:0:
448,192,127595,1,0,0:0:0:0:
320,192,127595,1,0,0:0:0:0:
192,192,127595,1,0,0:0:0:0:
320,192,127684,1,0,0:0:0:0:
64,192,127773,1,0,0:0:0:0:
448,192,127773,1,0,0:0:0:0:
64,192,127863,1,0,0:0:0:0:
448,192,127952,1,0,0:0:0:0:
320,192,127952,1,0,0:0:0:0:
320,192,128041,1,0,0:0:0:0:
448,192,128131,1,0,0:0:0:0:
192,192,128131,1,0,0:0:0:0:
192,192,128220,1,0,0:0:0:0:
320,192,128309,1,0,0:0:0:0:
320,192,128488,1,0,0:0:0:0:
320,192,128666,1,0,0:0:0:0:
320,192,128845,1,0,0:0:0:0:
64,192,129023,1,0,0:0:0:0:
192,192,129023,1,0,0:0:0:0:
320,192,129023,1,0,0:0:0:0:
448,192,129023,1,0,0:0:0:0:
64,192,129113,1,0,0:0:0:0:
192,192,129113,1,0,0:0:0:0:
448,192,129202,1,0,0:0:0:0:
192,192,129202,1,0,0:0:0:0:
192,192,129291,1,0,0:0:0:0:
448,192,129291,1,0,0:0:0:0:
448,192,129381,1,0,0:0:0:0:
320,192,129381,1,0,0:0:0:0:
192,192,129381,1,0,0:0:0:0:
320,192,129559,1,0,0:0:0:0:
320,192,129738,1,0,0:0:0:0:
192,192,129738,1,0,0:0:0:0:
64,192,129827,1,0,0:0:0:0:
192,192,129827,1,0,0:0:0:0:
448,192,129827,1,0,0:0:0:0:
320,192,130006,1,0,0:0:0:0:
192,192,130006,1,0,0:0:0:0:
448,192,130006,1,0,0:0:0:0:
448,192,130184,1,0,0:0:0:0:
192,192,130184,1,0,0:0:0:0:
64,192,130184,1,0,0:0:0:0:
320,192,130273,1,0,0:0:0:0:
64,192,130273,1,0,0:0:0:0:
64,192,130631,1,0,0:0:0:0:
192,192,130631,1,0,0:0:0:0:
448,192,130631,1,0,0:0:0:0:
448,192,130720,1,0,0:0:0:0:
320,192,130720,1,0,0:0:0:0:
320,192,130809,1,0,0:0:0:0:
192,192,130809,1,0,0:0:0:0:
64,192,130809,1,0,0:0:0:0:
64,192,130988,1,0,0:0:0:0:
192,192,130988,1,0,0:0:0:0:
448,192,130988,1,0,0:0:0:0:
192,192,131166,1,0,0:0:0:0:
320,192,131166,1,0,0:0:0:0:
448,192,131166,1,0,0:0:0:0:
320,192,131345,1,0,0:0:0:0:
192,192,131345,1,0,0:0:0:0:
64,192,131345,1,0,0:0:0:0:
192,192,131523,1,0,0:0:0:0:
320,192,131523,1,0,0:0:0:0:
448,192,131523,1,0,0:0:0:0:
320,192,131702,1,0,0:0:0:0:
192,192,131702,1,0,0:0:0:0:
64,192,131702,1,0,0:0:0:0:
64,192,132059,1,0,0:0:0:0:
320,192,132059,1,0,0:0:0:0:
448,192,132059,1,0,0:0:0:0:
448,192,132148,1,0,0:0:0:0:
320,192,132148,1,0,0:0:0:0:
320,192,132238,1,0,0:0:0:0:
192,192,132238,1,0,0:0:0:0:
64,192,132238,1,0,0:0:0:0:
64,192,132416,1,0,0:0:0:0:
320,192,132416,1,0,0:0:0:0:
448,192,132416,1,0,0:0:0:0:
64,192,132595,1,0,0:0:0:0:
192,192,132595,1,0,0:0:0:0:
448,192,132684,1,0,0:0:0:0:
320,192,132684,1,0,0:0:0:0:
192,192,132684,1,0,0:0:0:0:
64,192,132863,1,0,0:0:0:0:
448,192,132863,1,0,0:0:0:0:
64,192,133041,1,0,0:0:0:0:
192,192,133041,1,0,0:0:0:0:
448,192,133041,1,0,0:0:0:0:
320,192,133131,1,0,0:0:0:0:
192,192,133131,1,0,0:0:0:0:
320,192,133488,1,0,0:0:0:0:
448,192,133488,1,0,0:0:0:0:
64,192,133488,1,0,0:0:0:0:
192,192,133577,1,0,0:0:0:0:
448,192,133577,1,0,0:0:0:0:
192,192,133666,1,0,0:0:0:0:
320,192,133666,1,0,0:0:0:0:
64,192,133666,1,0,0:0:0:0:
320,192,133845,1,0,0:0:0:0:
192,192,133845,1,0,0:0:0:0:
192,192,134023,128,0,134113:0:0:0:0:
448,192,134023,1,0,0:0:0:0:
64,192,134023,1,0,0:0:0:0:
320,192,134202,128,0,134291:0:0:0:0:
64,192,134202,1,0,0:0:0:0:
448,192,134202,1,0,0:0:0:0:
192,192,134381,128,0,134470:0:0:0:0:
448,192,134381,1,0,0:0:0:0:
64,192,134381,1,0,0:0:0:0:
320,192,134559,128,0,134648:0:0:0:0:
64,192,134559,1,0,0:0:0:0:
448,192,134559,1,0,0:0:0:0:
64,192,134738,1,0,0:0:0:0:
192,192,134738,1,0,0:0:0:0:
448,192,134738,1,0,0:0:0:0:
448,192,134827,1,0,0:0:0:0:
192,192,134827,1,0,0:0:0:0:
192,192,134916,1,0,0:0:0:0:
448,192,134916,1,0,0:0:0:0:
192,192,135006,1,0,0:0:0:0:
320,192,135006,1,0,0:0:0:0:
192,192,135095,1,0,0:0:0:0:
320,192,135095,1,0,0:0:0:0:
448,192,135095,1,0,0:0:0:0:
192,192,135452,1,0,0:0:0:0:
64,192,135452,1,0,0:0:0:0:
448,192,135541,1,0,0:0:0:0:
192,192,135541,1,0,0:0:0:0:
64,192,135541,1,0,0:0:0:0:
320,192,135720,1,0,0:0:0:0:
448,192,135720,1,0,0:0:0:0:
192,192,135720,1,0,0:0:0:0:
320,192,135898,1,0,0:0:0:0:
192,192,135898,1,0,0:0:0:0:
64,192,135898,1,0,0:0:0:0:
448,192,135988,1,0,0:0:0:0:
320,192,135988,1,0,0:0:0:0:
320,192,136166,1,0,0:0:0:0:
64,192,136166,1,0,0:0:0:0:
320,192,136345,1,0,0:0:0:0:
448,192,136345,1,0,0:0:0:0:
192,192,136345,1,0,0:0:0:0:
64,192,136434,1,0,0:0:0:0:
320,192,136434,1,0,0:0:0:0:
448,192,136523,1,0,0:0:0:0:
320,192,136523,1,0,0:0:0:0:
192,192,136523,1,0,0:0:0:0:
320,192,136702,1,0,0:0:0:0:
192,192,136702,1,0,0:0:0:0:
64,192,136702,1,0,0:0:0:0:
448,192,136881,1,0,0:0:0:0:
192,192,136881,1,0,0:0:0:0:
64,192,136881,1,0,0:0:0:0:
64,192,137059,1,0,0:0:0:0:
320,192,137059,1,0,0:0:0:0:
448,192,137059,1,0,0:0:0:0:
448,192,137238,1,0,0:0:0:0:
192,192,137238,1,0,0:0:0:0:
64,192,137238,1,0,0:0:0:0:
64,192,137416,1,0,0:0:0:0:
320,192,137416,1,0,0:0:0:0:
448,192,137416,1,0,0:0:0:0:
448,192,137595,1,0,0:0:0:0:
64,192,137595,1,0,0:0:0:0:
192,192,137595,1,0,0:0:0:0:
320,192,137595,1,0,0:0:0:0:
320,192,137773,1,0,0:0:0:0:
64,192,137773,1,0,0:0:0:0:
64,192,137863,1,0,0:0:0:0:
192,192,137863,1,0,0:0:0:0:
64,192,137952,1,0,0:0:0:0:
448,192,137952,1,0,0:0:0:0:
320,192,137952,1,0,0:0:0:0:
64,192,138131,1,0,0:0:0:0:
320,192,138131,1,0,0:0:0:0:
448,192,138131,1,0,0:0:0:0:
320,192,138309,1,0,0:0:0:0:
192,192,138309,1,0,0:0:0:0:
64,192,138309,1,0,0:0:0:0:
448,192,138488,1,0,0:0:0:0:
320,192,138488,1,0,0:0:0:0:
64,192,138488,1,0,0:0:0:0:
320,192,138666,1,0,0:0:0:0:
448,192,138666,1,0,0:0:0:0:
64,192,138666,1,0,0:0:0:0:
320,192,138756,1,0,0:0:0:0:
192,192,138756,1,0,0:0:0:0:
320,192,138845,1,0,0:0:0:0:
64,192,138845,1,0,0:0:0:0:
448,192,139023,1,0,0:0:0:0:
192,192,139023,1,0,0:0:0:0:
64,192,139023,1,0,0:0:0:0:
320,192,139113,1,0,0:0:0:0:
192,192,139202,1,0,0:0:0:0:
64,192,139202,1,0,0:0:0:0:
320,192,139291,1,0,0:0:0:0:
448,192,139291,1,0,0:0:0:0:
192,192,139291,1,0,0:0:0:0:
320,192,139381,1,0,0:0:0:0:
192,192,139381,1,0,0:0:0:0:
64,192,139381,1,0,0:0:0:0:
448,192,139470,5,0,0:0:0:0:
320,192,139470,1,0,0:0:0:0:
64,192,139470,1,0,0:0:0:0:
192,192,139559,1,0,0:0:0:0:
448,192,139559,1,0,0:0:0:0:
320,192,139559,1,0,0:0:0:0:
448,192,139648,1,0,0:0:0:0:
64,192,139648,1,0,0:0:0:0:
448,192,139738,1,0,0:0:0:0:
320,192,139738,1,0,0:0:0:0:
192,192,139738,1,0,0:0:0:0:
64,192,139738,1,0,0:0:0:0:
448,192,139916,1,0,0:0:0:0:
320,192,139916,1,0,0:0:0:0:
192,192,139916,1,0,0:0:0:0:
64,192,140006,1,0,0:0:0:0:
192,192,140006,1,0,0:0:0:0:
448,192,140006,1,0,0:0:0:0:
64,192,140184,1,0,0:0:0:0:
320,192,140184,1,0,0:0:0:0:
448,192,140184,1,0,0:0:0:0:
192,192,140273,1,0,0:0:0:0:
320,192,140273,1,0,0:0:0:0:
448,192,140273,1,0,0:0:0:0:
192,192,140452,1,0,0:0:0:0:
320,192,140452,1,0,0:0:0:0:
448,192,140452,128,0,143250:0:0:0:0:
64,192,140452,128,0,141821:0:0:0:0:
320,192,140988,1,0,0:0:0:0:
192,192,141166,1,0,0:0:0:0:
320,192,141702,1,0,0:0:0:0:
64,192,141881,128,0,142059:0:0:0:0:
320,192,141881,1,0,0:0:0:0:
64,192,142119,128,0,142297:0:0:0:0:
320,192,142238,1,0,0:0:0:0:
64,192,142357,128,0,142535:0:0:0:0:
64,192,142595,128,0,142773:0:0:0:0:
192,192,142595,1,0,0:0:0:0:
64,192,142833,128,0,143012:0:0:0:0:
64,192,143071,128,0,143250:0:0:0:0:
448,192,143309,128,0,146107:0:0:0:0:
64,192,143309,128,0,144678:0:0:0:0:
320,192,143309,1,0,0:0:0:0:
192,192,143309,1,0,0:0:0:0:
320,192,143845,1,0,0:0:0:0:
192,192,144023,1,0,0:0:0:0:
320,192,144559,1,0,0:0:0:0:
64,192,144738,128,0,144916:0:0:0:0:
320,192,144738,1,0,0:0:0:0:
64,192,144976,128,0,145154:0:0:0:0:
320,192,145095,1,0,0:0:0:0:
64,192,145214,128,0,145393:0:0:0:0:
64,192,145452,128,0,145631:0:0:0:0:
192,192,145452,1,0,0:0:0:0:
64,192,145690,128,0,145869:0:0:0:0:
320,192,145809,1,0,0:0:0:0:
64,192,145928,128,0,146107:0:0:0:0:
64,192,146166,128,0,147535:0:0:0:0:
448,192,146166,128,0,148964:0:0:0:0:
320,192,146166,1,0,0:0:0:0:
192,192,146166,1,0,0:0:0:0:
320,192,146702,1,0,0:0:0:0:
192,192,146881,1,0,0:0:0:0:
320,192,147416,1,0,0:0:0:0:
64,192,147595,128,0,147773:0:0:0:0:
320,192,147595,1,0,0:0:0:0:
64,192,147833,128,0,148012:0:0:0:0:
320,192,147952,1,0,0:0:0:0:
64,192,148071,128,0,148250:0:0:0:0:
192,192,148309,1,0,0:0:0:0:
64,192,148309,128,0,148488:0:0:0:0:
64,192,148547,128,0,148726:0:0:0:0:
64,192,148785,128,0,148964:0:0:0:0:
64,192,149023,128,0,150393:0:0:0:0:
320,192,149023,1,0,0:0:0:0:
192,192,149023,1,0,0:0:0:0:
448,192,149023,128,0,151107:0:0:0:0:
320,192,149559,1,0,0:0:0:0:
192,192,149738,1,0,0:0:0:0:
320,192,150273,1,0,0:0:0:0:
64,192,150452,128,0,150631:0:0:0:0:
320,192,150452,1,0,0:0:0:0:
192,192,150631,1,0,0:0:0:0:
64,192,150690,128,0,150869:0:0:0:0:
320,192,150809,1,0,0:0:0:0:
64,192,150928,128,0,151107:0:0:0:0:
64,192,151166,1,0,0:0:0:0:
192,192,151166,1,0,0:0:0:0:
320,192,151166,1,0,0:0:0:0:
448,192,151166,1,0,0:0:0:0:
448,192,151345,1,0,0:0:0:0:
192,192,151345,1,0,0:0:0:0:
64,192,151345,1,0,0:0:0:0:
64,192,151523,1,0,0:0:0:0:
192,192,151523,1,0,0:0:0:0:
320,192,151523,1,0,0:0:0:0:
448,192,151881,1,0,0:0:0:0:
192,192,151881,128,0,152148:0:0:0:0:
64,192,151881,1,0,0:0:0:0:
320,192,152148,1,0,0:0:0:0:
64,192,152148,128,0,152416:0:0:0:0:
192,192,152416,1,0,0:0:0:0:
320,192,152416,128,0,152595:0:0:0:0:
448,192,152595,128,0,152863:0:0:0:0:
64,192,152595,1,0,0:0:0:0:
192,192,152863,1,0,0:0:0:0:
320,192,152863,128,0,153131:0:0:0:0:
192,192,153131,1,0,0:0:0:0:
64,192,153131,128,0,153309:0:0:0:0:
448,192,153309,1,0,0:0:0:0:
320,192,153309,128,0,153577:0:0:0:0:
192,192,153309,1,0,0:0:0:0:
64,192,153577,1,0,0:0:0:0:
192,192,153577,128,0,153845:0:0:0:0:
448,192,153845,1,0,0:0:0:0:
320,192,153845,128,0,154023:0:0:0:0:
64,192,154023,1,0,0:0:0:0:
448,192,154023,128,0,154202:0:0:0:0:
192,192,154202,1,0,0:0:0:0:
320,192,154202,128,0,154381:0:0:0:0:
192,192,154381,1,0,0:0:0:0:
64,192,154381,128,0,154648:0:0:0:0:
448,192,154381,1,0,0:0:0:0:
320,192,154648,1,0,0:0:0:0:
192,192,154648,128,0,154916:0:0:0:0:
320,192,154916,1,0,0:0:0:0:
448,192,154916,128,0,155095:0:0:0:0:
320,192,155095,1,0,0:0:0:0:
64,192,155095,128,0,155363:0:0:0:0:
192,192,155363,1,0,0:0:0:0:
320,192,155363,128,0,155631:0:0:0:0:
192,192,155631,1,0,0:0:0:0:
448,192,155631,128,0,155809:0:0:0:0:
320,192,155809,1,0,0:0:0:0:
64,192,155809,128,0,156077:0:0:0:0:
192,192,155809,1,0,0:0:0:0:
320,192,156077,1,0,0:0:0:0:
192,192,156077,128,0,156345:0:0:0:0:
64,192,156345,1,0,0:0:0:0:
320,192,156345,128,0,156523:0:0:0:0:
192,192,156523,1,0,0:0:0:0:
64,192,156523,128,0,156702:0:0:0:0:
448,192,156702,1,0,0:0:0:0:
320,192,156702,128,0,156881:0:0:0:0:
192,192,156881,1,0,0:0:0:0:
448,192,156881,128,0,157148:0:0:0:0:
64,192,156881,1,0,0:0:0:0:
64,192,157148,1,0,0:0:0:0:
192,192,157148,128,0,157416:0:0:0:0:
448,192,157416,1,0,0:0:0:0:
320,192,157416,128,0,157595:0:0:0:0:
64,192,157595,1,0,0:0:0:0:
192,192,157595,128,0,157863:0:0:0:0:
320,192,157863,1,0,0:0:0:0:
448,192,157863,128,0,158131:0:0:0:0:
320,192,158131,1,0,0:0:0:0:
192,192,158131,128,0,158309:0:0:0:0:
448,192,158309,1,0,0:0:0:0:
64,192,158309,128,0,158577:0:0:0:0:
320,192,158309,1,0,0:0:0:0:
320,192,158577,1,0,0:0:0:0:
448,192,158577,128,0,158845:0:0:0:0:
64,192,158845,128,0,159023:0:0:0:0:
192,192,158845,1,0,0:0:0:0:
448,192,159023,1,0,0:0:0:0:
320,192,159023,128,0,159202:0:0:0:0:
64,192,159202,1,0,0:0:0:0:
192,192,159202,128,0,159381:0:0:0:0:
320,192,159381,1,0,0:0:0:0:
64,192,159381,128,0,159648:0:0:0:0:
448,192,159381,1,0,0:0:0:0:
192,192,159648,128,0,159916:0:0:0:0:
320,192,159648,1,0,0:0:0:0:
448,192,159916,128,0,160095:0:0:0:0:
320,192,159916,1,0,0:0:0:0:
320,192,160095,1,0,0:0:0:0:
192,192,160095,128,0,160363:0:0:0:0:
64,192,160095,1,0,0:0:0:0:
320,192,160363,1,0,0:0:0:0:
64,192,160363,128,0,160631:0:0:0:0:
192,192,160631,1,0,0:0:0:0:
448,192,160631,128,0,160809:0:0:0:0:
320,192,160809,1,0,0:0:0:0:
64,192,160809,128,0,161077:0:0:0:0:
192,192,160809,1,0,0:0:0:0:
320,192,161077,1,0,0:0:0:0:
192,192,161077,128,0,161345:0:0:0:0:
320,192,161345,1,0,0:0:0:0:
448,192,161345,128,0,161523:0:0:0:0:
64,192,161523,1,0,0:0:0:0:
192,192,161523,1,0,0:0:0:0:
320,192,161702,1,0,0:0:0:0:
192,192,161702,1,0,0:0:0:0:
64,192,161881,1,0,0:0:0:0:
192,192,161881,1,0,0:0:0:0:
320,192,161940,1,0,0:0:0:0:
192,192,162000,1,0,0:0:0:0:
320,192,162059,1,0,0:0:0:0:
192,192,162119,1,0,0:0:0:0:
320,192,162178,1,0,0:0:0:0:
192,192,162238,1,0,0:0:0:0:
320,192,162297,1,0,0:0:0:0:
192,192,162357,1,0,0:0:0:0:
320,192,162416,1,0,0:0:0:0:
192,192,162476,1,0,0:0:0:0:
320,192,162535,1,0,0:0:0:0:
192,192,162595,1,0,0:0:0:0:
320,192,162654,1,0,0:0:0:0:
192,192,162714,1,0,0:0:0:0:
320,192,162773,1,0,0:0:0:0:
192,192,162833,1,0,0:0:0:0:
320,192,162892,1,0,0:0:0:0:
192,192,162952,1,0,0:0:0:0:
320,192,163011,1,0,0:0:0:0:
192,192,163071,1,0,0:0:0:0:
320,192,163131,1,0,0:0:0:0:
192,192,163190,1,0,0:0:0:0:
320,192,163250,1,0,0:0:0:0:
64,192,163309,1,0,0:0:0:0:
192,192,163309,1,0,0:0:0:0:
320,192,163369,1,0,0:0:0:0:
64,192,163428,1,0,0:0:0:0:
320,192,163488,1,0,0:0:0:0:
64,192,163547,1,0,0:0:0:0:
320,192,163607,1,0,0:0:0:0:
64,192,163666,1,0,0:0:0:0:
320,192,163726,1,0,0:0:0:0:
64,192,163785,1,0,0:0:0:0:
320,192,163845,1,0,0:0:0:0:
64,192,163904,1,0,0:0:0:0:
320,192,163964,1,0,0:0:0:0:
448,192,164023,1,0,0:0:0:0:
64,192,164023,1,0,0:0:0:0:
320,192,164083,1,0,0:0:0:0:
448,192,164142,1,0,0:0:0:0:
320,192,164202,1,0,0:0:0:0:
64,192,164202,1,0,0:0:0:0:
192,192,164261,1,0,0:0:0:0:
64,192,164321,1,0,0:0:0:0:
192,192,164381,1,0,0:0:0:0:
320,192,164440,1,0,0:0:0:0:
192,192,164500,1,0,0:0:0:0:
320,192,164559,1,0,0:0:0:0:
192,192,164619,1,0,0:0:0:0:
320,192,164678,1,0,0:0:0:0:
192,192,164738,1,0,0:0:0:0:
320,192,164797,1,0,0:0:0:0:
192,192,164857,1,0,0:0:0:0:
320,192,164916,1,0,0:0:0:0:
192,192,164976,1,0,0:0:0:0:
320,192,165035,1,0,0:0:0:0:
192,192,165095,1,0,0:0:0:0:
320,192,165154,1,0,0:0:0:0:
192,192,165214,1,0,0:0:0:0:
320,192,165273,1,0,0:0:0:0:
192,192,165333,1,0,0:0:0:0:
320,192,165392,1,0,0:0:0:0:
192,192,165452,1,0,0:0:0:0:
320,192,165511,1,0,0:0:0:0:
192,192,165571,1,0,0:0:0:0:
320,192,165631,1,0,0:0:0:0:
192,192,165690,1,0,0:0:0:0:
320,192,165750,1,0,0:0:0:0:
192,192,165809,1,0,0:0:0:0:
64,192,165809,1,0,0:0:0:0:
448,192,165869,1,0,0:0:0:0:
192,192,165928,1,0,0:0:0:0:
448,192,165988,1,0,0:0:0:0:
192,192,166047,1,0,0:0:0:0:
448,192,166107,1,0,0:0:0:0:
192,192,166166,1,0,0:0:0:0:
448,192,166226,1,0,0:0:0:0:
192,192,166285,1,0,0:0:0:0:
448,192,166345,1,0,0:0:0:0:
192,192,166404,1,0,0:0:0:0:
448,192,166464,1,0,0:0:0:0:
320,192,166523,1,0,0:0:0:0:
64,192,166583,1,0,0:0:0:0:
320,192,166642,1,0,0:0:0:0:
64,192,166702,1,0,0:0:0:0:
320,192,166761,1,0,0:0:0:0:
64,192,166821,1,0,0:0:0:0:
192,192,166881,1,0,0:0:0:0:
320,192,166940,1,0,0:0:0:0:
192,192,167000,1,0,0:0:0:0:
320,192,167059,1,0,0:0:0:0:
192,192,167119,1,0,0:0:0:0:
320,192,167178,1,0,0:0:0:0:
192,192,167238,1,0,0:0:0:0:
320,192,167297,1,0,0:0:0:0:
192,192,167357,1,0,0:0:0:0:
320,192,167416,1,0,0:0:0:0:
192,192,167476,1,0,0:0:0:0:
320,192,167535,1,0,0:0:0:0:
192,192,167595,1,0,0:0:0:0:
320,192,167654,1,0,0:0:0:0:
192,192,167714,1,0,0:0:0:0:
320,192,167773,1,0,0:0:0:0:
192,192,167833,1,0,0:0:0:0:
320,192,167892,1,0,0:0:0:0:
192,192,167952,1,0,0:0:0:0:
320,192,168011,1,0,0:0:0:0:
192,192,168071,1,0,0:0:0:0:
320,192,168131,1,0,0:0:0:0:
192,192,168190,1,0,0:0:0:0:
320,192,168250,1,0,0:0:0:0:
64,192,168309,1,0,0:0:0:0:
320,192,168369,1,0,0:0:0:0:
448,192,168369,1,0,0:0:0:0:
192,192,168428,1,0,0:0:0:0:
320,192,168488,1,0,0:0:0:0:
448,192,168488,1,0,0:0:0:0:
192,192,168547,1,0,0:0:0:0:
320,192,168607,1,0,0:0:0:0:
448,192,168607,1,0,0:0:0:0:
192,192,168666,1,0,0:0:0:0:
320,192,168726,1,0,0:0:0:0:
448,192,168726,1,0,0:0:0:0:
192,192,168785,1,0,0:0:0:0:
320,192,168845,1,0,0:0:0:0:
448,192,168845,1,0,0:0:0:0:
192,192,168904,1,0,0:0:0:0:
448,192,168964,1,0,0:0:0:0:
320,192,168964,1,0,0:0:0:0:
64,192,169023,1,0,0:0:0:0:
192,192,169083,1,0,0:0:0:0:
64,192,169142,1,0,0:0:0:0:
192,192,169202,1,0,0:0:0:0:
320,192,169202,1,0,0:0:0:0:
448,192,169261,1,0,0:0:0:0:
320,192,169321,1,0,0:0:0:0:
192,192,169381,1,0,0:0:0:0:
320,192,169440,1,0,0:0:0:0:
192,192,169500,1,0,0:0:0:0:
320,192,169559,1,0,0:0:0:0:
192,192,169619,1,0,0:0:0:0:
320,192,169678,1,0,0:0:0:0:
192,192,169738,1,0,0:0:0:0:
320,192,169797,1,0,0:0:0:0:
192,192,169857,1,0,0:0:0:0:
320,192,169916,1,0,0:0:0:0:
192,192,169976,1,0,0:0:0:0:
320,192,170035,1,0,0:0:0:0:
192,192,170095,1,0,0:0:0:0:
320,192,170154,1,0,0:0:0:0:
192,192,170214,1,0,0:0:0:0:
320,192,170273,1,0,0:0:0:0:
192,192,170333,1,0,0:0:0:0:
320,192,170392,1,0,0:0:0:0:
192,192,170452,1,0,0:0:0:0:
320,192,170511,1,0,0:0:0:0:
192,192,170571,1,0,0:0:0:0:
320,192,170631,1,0,0:0:0:0:
192,192,170690,1,0,0:0:0:0:
320,192,170750,1,0,0:0:0:0:
192,192,170809,1,0,0:0:0:0:
64,192,170809,1,0,0:0:0:0:
320,192,170869,1,0,0:0:0:0:
192,192,170928,5,0,0:0:0:0:
64,192,170928,1,0,0:0:0:0:
320,192,170988,1,0,0:0:0:0:
192,192,171047,1,0,0:0:0:0:
64,192,171047,1,0,0:0:0:0:
320,192,171107,1,0,0:0:0:0:
192,192,171166,1,0,0:0:0:0:
64,192,171166,1,0,0:0:0:0:
320,192,171226,1,0,0:0:0:0:
192,192,171285,1,0,0:0:0:0:
64,192,171285,1,0,0:0:0:0:
320,192,171345,1,0,0:0:0:0:
192,192,171404,1,0,0:0:0:0:
64,192,171404,1,0,0:0:0:0:
320,192,171464,1,0,0:0:0:0:
192,192,171523,1,0,0:0:0:0:
64,192,171523,1,0,0:0:0:0:
448,192,171523,1,0,0:0:0:0:
320,192,171702,1,0,0:0:0:0:
192,192,171702,1,0,0:0:0:0:
448,192,171702,1,0,0:0:0:0:
448,192,171881,5,0,0:0:0:0:
320,192,171881,1,0,0:0:0:0:
64,192,171881,1,0,0:0:0:0:
192,192,171881,128,0,172595:0:0:0:0:
320,192,172416,1,0,0:0:0:0:
448,192,172595,1,0,0:0:0:0:
192,192,172863,1,0,0:0:0:0:
320,192,173131,1,0,0:0:0:0:
320,192,173309,1,0,0:0:0:0:
320,192,173845,1,0,0:0:0:0:
448,192,174023,1,0,0:0:0:0:
64,192,174023,1,0,0:0:0:0:
320,192,174202,1,0,0:0:0:0:
192,192,174381,1,0,0:0:0:0:
320,192,174916,1,0,0:0:0:0:
448,192,175095,1,0,0:0:0:0:
192,192,175363,1,0,0:0:0:0:
320,192,175631,1,0,0:0:0:0:
320,192,175809,1,0,0:0:0:0:
320,192,176345,1,0,0:0:0:0:
448,192,176523,1,0,0:0:0:0:
64,192,176523,1,0,0:0:0:0:
320,192,176702,1,0,0:0:0:0:
192,192,176880,1,0,0:0:0:0:
192,192,177416,1,0,0:0:0:0:
320,192,177595,1,0,0:0:0:0:
64,192,177863,1,0,0:0:0:0:
192,192,178130,1,0,0:0:0:0:
192,192,178309,1,0,0:0:0:0:
192,192,178845,1,0,0:0:0:0:
448,192,179023,1,0,0:0:0:0:
64,192,179023,1,0,0:0:0:0:
320,192,179202,1,0,0:0:0:0:
64,192,179380,1,0,0:0:0:0:
192,192,179916,1,0,0:0:0:0:
320,192,180095,1,0,0:0:0:0:
64,192,180363,1,0,0:0:0:0:
192,192,180630,1,0,0:0:0:0:
192,192,180809,1,0,0:0:0:0:
192,192,181345,1,0,0:0:0:0:
448,192,181523,1,0,0:0:0:0:
64,192,181523,1,0,0:0:0:0:
320,192,181702,1,0,0:0:0:0:
64,192,181880,1,0,0:0:0:0:
320,192,182416,1,0,0:0:0:0:
448,192,182595,1,0,0:0:0:0:
192,192,182863,1,0,0:0:0:0:
320,192,183130,1,0,0:0:0:0:
320,192,183309,1,0,0:0:0:0:
320,192,183845,1,0,0:0:0:0:
448,192,184023,1,0,0:0:0:0:
64,192,184023,1,0,0:0:0:0:
320,192,184202,1,0,0:0:0:0:
192,192,184380,1,0,0:0:0:0:
320,192,184916,1,0,0:0:0:0:
448,192,185095,1,0,0:0:0:0:
192,192,185363,1,0,0:0:0:0:
320,192,185630,1,0,0:0:0:0:
320,192,185809,1,0,0:0:0:0:
320,192,186345,1,0,0:0:0:0:
448,192,186523,1,0,0:0:0:0:
64,192,186523,1,0,0:0:0:0:
320,192,186702,1,0,0:0:0:0:
192,192,186880,1,0,0:0:0:0:
192,192,187416,1,0,0:0:0:0:
320,192,187595,1,0,0:0:0:0:
64,192,187863,1,0,0:0:0:0:
192,192,188130,1,0,0:0:0:0:
192,192,188309,1,0,0:0:0:0:
192,192,188845,1,0,0:0:0:0:
448,192,189023,1,0,0:0:0:0:
64,192,189023,1,0,0:0:0:0:
320,192,189202,1,0,0:0:0:0:
64,192,189380,1,0,0:0:0:0:
192,192,189916,1,0,0:0:0:0:
320,192,190095,1,0,0:0:0:0:
64,192,190363,1,0,0:0:0:0:
192,192,190630,1,0,0:0:0:0:
192,192,190809,1,0,0:0:0:0:
192,192,191345,1,0,0:0:0:0:
320,192,191523,1,0,0:0:0:0:
448,192,191523,1,0,0:0:0:0:
320,192,194738,5,0,0:0:0:0:
192,192,194827,1,0,0:0:0:0:
320,192,194916,1,0,0:0:0:0:
192,192,195005,1,0,0:0:0:0:
320,192,195095,1,0,0:0:0:0:
192,192,195184,1,0,0:0:0:0:
320,192,195273,1,0,0:0:0:0:
192,192,195363,1,0,0:0:0:0:
192,192,195452,1,0,0:0:0:0:
320,192,195452,1,0,0:0:0:0:
320,192,195541,1,0,0:0:0:0:
192,192,195541,1,0,0:0:0:0:
192,192,195630,1,0,0:0:0:0:
320,192,195630,1,0,0:0:0:0:
320,192,195720,1,0,0:0:0:0:
192,192,195720,1,0,0:0:0:0:
192,192,195809,1,0,0:0:0:0:
320,192,195809,1,0,0:0:0:0:
320,192,195898,1,0,0:0:0:0:
192,192,195898,1,0,0:0:0:0:
192,192,195988,1,0,0:0:0:0:
320,192,195988,1,0,0:0:0:0:
192,192,196077,1,0,0:0:0:0:
320,192,196077,1,0,0:0:0:0:
320,192,196166,1,0,0:0:0:0:
448,192,196166,1,0,0:0:0:0:
192,192,196166,1,0,0:0:0:0:
64,192,196166,1,0,0:0:0:0:
192,192,196255,1,0,0:0:0:0:
320,192,196255,1,0,0:0:0:0:
320,192,196345,1,0,0:0:0:0:
192,192,196345,1,0,0:0:0:0:
192,192,196434,1,0,0:0:0:0:
320,192,196434,1,0,0:0:0:0:
448,192,196523,1,0,0:0:0:0:
320,192,196523,1,0,0:0:0:0:
64,192,196523,1,0,0:0:0:0:
192,192,196523,1,0,0:0:0:0:
192,192,196613,1,0,0:0:0:0:
320,192,196613,1,0,0:0:0:0:
320,192,196702,1,0,0:0:0:0:
192,192,196702,1,0,0:0:0:0:
192,192,196791,1,0,0:0:0:0:
320,192,196791,1,0,0:0:0:0:
448,192,196880,1,0,0:0:0:0:
320,192,196880,1,0,0:0:0:0:
64,192,196880,1,0,0:0:0:0:
192,192,196880,1,0,0:0:0:0:
192,192,197059,1,0,0:0:0:0:
64,192,197059,1,0,0:0:0:0:
64,192,197148,1,0,0:0:0:0:
192,192,197148,1,0,0:0:0:0:
320,192,197238,1,0,0:0:0:0:
192,192,197238,1,0,0:0:0:0:
448,192,197238,1,0,0:0:0:0:
64,192,197238,1,0,0:0:0:0:
320,192,197416,1,0,0:0:0:0:
448,192,197416,1,0,0:0:0:0:
448,192,197505,1,0,0:0:0:0:
320,192,197505,1,0,0:0:0:0:
64,192,197595,5,0,0:0:0:0:
320,192,197595,1,0,0:0:0:0:
192,192,197595,1,0,0:0:0:0:
448,192,197595,1,0,0:0:0:0:
64,192,197684,1,0,0:0:0:0:
192,192,197684,1,0,0:0:0:0:
320,192,197684,1,0,0:0:0:0:
448,192,197773,1,0,0:0:0:0:
320,192,197773,1,0,0:0:0:0:
192,192,197773,1,0,0:0:0:0:
64,192,197773,1,0,0:0:0:0:
192,192,197863,1,0,0:0:0:0:
448,192,197863,1,0,0:0:0:0:
320,192,197863,1,0,0:0:0:0:
448,192,197952,1,0,0:0:0:0:
192,192,197952,1,0,0:0:0:0:
64,192,197952,1,0,0:0:0:0:
64,192,198041,1,0,0:0:0:0:
320,192,198041,1,0,0:0:0:0:
448,192,198041,1,0,0:0:0:0:
448,192,198130,1,0,0:0:0:0:
320,192,198130,1,0,0:0:0:0:
192,192,198130,1,0,0:0:0:0:
64,192,198130,1,0,0:0:0:0:
64,192,198220,1,0,0:0:0:0:
192,192,198220,1,0,0:0:0:0:
448,192,198220,1,0,0:0:0:0:
448,192,198309,1,0,0:0:0:0:
320,192,198309,1,0,0:0:0:0:
64,192,198309,1,0,0:0:0:0:
64,192,198398,1,0,0:0:0:0:
192,192,198398,1,0,0:0:0:0:
320,192,198398,1,0,0:0:0:0:
448,192,198488,1,0,0:0:0:0:
320,192,198488,1,0,0:0:0:0:
192,192,198488,1,0,0:0:0:0:
64,192,198488,1,0,0:0:0:0:
448,192,198577,1,0,0:0:0:0:
320,192,198577,1,0,0:0:0:0:
192,192,198577,1,0,0:0:0:0:
64,192,198666,1,0,0:0:0:0:
192,192,198666,1,0,0:0:0:0:
448,192,198666,1,0,0:0:0:0:
320,192,198755,1,0,0:0:0:0:
192,192,198755,1,0,0:0:0:0:
64,192,198755,1,0,0:0:0:0:
448,192,198845,1,0,0:0:0:0:
320,192,198845,1,0,0:0:0:0:
192,192,198845,1,0,0:0:0:0:
64,192,198845,1,0,0:0:0:0:
64,192,198934,1,0,0:0:0:0:
320,192,198934,1,0,0:0:0:0:
448,192,198934,1,0,0:0:0:0:
64,192,199023,1,0,0:0:0:0:
448,192,199023,1,0,0:0:0:0:
192,192,199023,1,0,0:0:0:0:
192,192,199113,1,0,0:0:0:0:
448,192,199113,1,0,0:0:0:0:
320,192,199113,1,0,0:0:0:0:
64,192,199202,1,0,0:0:0:0:
192,192,199202,1,0,0:0:0:0:
448,192,199202,1,0,0:0:0:0:
320,192,199202,1,0,0:0:0:0:
64,192,199291,1,0,0:0:0:0:
320,192,199291,1,0,0:0:0:0:
192,192,199291,1,0,0:0:0:0:
448,192,199380,1,0,0:0:0:0:
192,192,199380,1,0,0:0:0:0:
64,192,199380,1,0,0:0:0:0:
192,192,199470,1,0,0:0:0:0:
320,192,199470,1,0,0:0:0:0:
448,192,199470,1,0,0:0:0:0:
64,192,199559,1,0,0:0:0:0:
192,192,199559,1,0,0:0:0:0:
320,192,199559,1,0,0:0:0:0:
448,192,199559,1,0,0:0:0:0:
192,192,199648,1,0,0:0:0:0:
320,192,199648,1,0,0:0:0:0:
64,192,199648,1,0,0:0:0:0:
448,192,199738,1,0,0:0:0:0:
320,192,199738,1,0,0:0:0:0:
64,192,199738,1,0,0:0:0:0:
64,192,199827,1,0,0:0:0:0:
192,192,199827,1,0,0:0:0:0:
320,192,199827,1,0,0:0:0:0:
448,192,199916,1,0,0:0:0:0:
320,192,199916,1,0,0:0:0:0:
192,192,199916,1,0,0:0:0:0:
64,192,199916,1,0,0:0:0:0:
192,192,200005,1,0,0:0:0:0:
320,192,200005,1,0,0:0:0:0:
448,192,200005,1,0,0:0:0:0:
64,192,200095,1,0,0:0:0:0:
320,192,200095,1,0,0:0:0:0:
448,192,200095,1,0,0:0:0:0:
192,192,200184,1,0,0:0:0:0:
320,192,200184,1,0,0:0:0:0:
448,192,200184,1,0,0:0:0:0:
448,192,200273,1,0,0:0:0:0:
320,192,200273,1,0,0:0:0:0:
192,192,200273,1,0,0:0:0:0:
64,192,200273,1,0,0:0:0:0:
64,192,200363,1,0,0:0:0:0:
192,192,200363,1,0,0:0:0:0:
448,192,200363,1,0,0:0:0:0:
64,192,200452,1,0,0:0:0:0:
192,192,200452,1,0,0:0:0:0:
320,192,200452,1,0,0:0:0:0:
448,192,200452,1,0,0:0:0:0:
64,192,200541,1,0,0:0:0:0:
448,192,200541,1,0,0:0:0:0:
320,192,200541,1,0,0:0:0:0:
448,192,200630,1,0,0:0:0:0:
320,192,200630,1,0,0:0:0:0:
192,192,200630,1,0,0:0:0:0:
64,192,200630,1,0,0:0:0:0:
320,192,200720,1,0,0:0:0:0:
192,192,200720,1,0,0:0:0:0:
64,192,200720,1,0,0:0:0:0:
320,192,200809,1,0,0:0:0:0:
64,192,200809,1,0,0:0:0:0:
448,192,200809,1,0,0:0:0:0:
64,192,200898,1,0,0:0:0:0:
192,192,200898,1,0,0:0:0:0:
448,192,200898,1,0,0:0:0:0:
64,192,200988,1,0,0:0:0:0:
192,192,200988,1,0,0:0:0:0:
320,192,200988,1,0,0:0:0:0:
448,192,200988,1,0,0:0:0:0:
448,192,201077,1,0,0:0:0:0:
320,192,201077,1,0,0:0:0:0:
192,192,201077,1,0,0:0:0:0:
320,192,201166,1,0,0:0:0:0:
192,192,201166,1,0,0:0:0:0:
64,192,201166,1,0,0:0:0:0:
448,192,201255,1,0,0:0:0:0:
320,192,201255,1,0,0:0:0:0:
64,192,201255,1,0,0:0:0:0:
64,192,201345,1,0,0:0:0:0:
192,192,201345,1,0,0:0:0:0:
320,192,201345,1,0,0:0:0:0:
448,192,201345,1,0,0:0:0:0:
192,192,201434,1,0,0:0:0:0:
320,192,201434,1,0,0:0:0:0:
64,192,201434,1,0,0:0:0:0:
64,192,201523,1,0,0:0:0:0:
192,192,201523,1,0,0:0:0:0:
448,192,201523,1,0,0:0:0:0:
448,192,201613,1,0,0:0:0:0:
320,192,201613,1,0,0:0:0:0:
192,192,201613,1,0,0:0:0:0:
448,192,201702,1,0,0:0:0:0:
320,192,201702,1,0,0:0:0:0:
192,192,201702,1,0,0:0:0:0:
64,192,201702,1,0,0:0:0:0:
64,192,201791,1,0,0:0:0:0:
192,192,201791,1,0,0:0:0:0:
320,192,201791,1,0,0:0:0:0:
64,192,201880,1,0,0:0:0:0:
192,192,201880,1,0,0:0:0:0:
448,192,201880,1,0,0:0:0:0:
64,192,201970,1,0,0:0:0:0:
320,192,201970,1,0,0:0:0:0:
448,192,201970,1,0,0:0:0:0:
320,192,202059,1,0,0:0:0:0:
448,192,202059,1,0,0:0:0:0:
192,192,202059,1,0,0:0:0:0:
64,192,202059,1,0,0:0:0:0:
192,192,202148,1,0,0:0:0:0:
320,192,202148,1,0,0:0:0:0:
448,192,202148,1,0,0:0:0:0:
320,192,202238,1,0,0:0:0:0:
192,192,202238,1,0,0:0:0:0:
64,192,202238,1,0,0:0:0:0:
192,192,202327,1,0,0:0:0:0:
448,192,202327,1,0,0:0:0:0:
64,192,202327,1,0,0:0:0:0:
64,192,202416,1,0,0:0:0:0:
192,192,202416,1,0,0:0:0:0:
320,192,202416,1,0,0:0:0:0:
448,192,202416,1,0,0:0:0:0:
320,192,202505,1,0,0:0:0:0:
448,192,202505,1,0,0:0:0:0:
64,192,202505,1,0,0:0:0:0:
320,192,202595,1,0,0:0:0:0:
192,192,202595,1,0,0:0:0:0:
64,192,202595,1,0,0:0:0:0:
448,192,202684,1,0,0:0:0:0:
320,192,202684,1,0,0:0:0:0:
64,192,202684,1,0,0:0:0:0:
64,192,202773,1,0,0:0:0:0:
192,192,202773,1,0,0:0:0:0:
320,192,202773,1,0,0:0:0:0:
448,192,202773,1,0,0:0:0:0:
448,192,202863,1,0,0:0:0:0:
64,192,202863,1,0,0:0:0:0:
192,192,202863,1,0,0:0:0:0:
448,192,202952,1,0,0:0:0:0:
320,192,202952,1,0,0:0:0:0:
64,192,202952,1,0,0:0:0:0:
448,192,203041,1,0,0:0:0:0:
320,192,203041,1,0,0:0:0:0:
192,192,203041,1,0,0:0:0:0:
64,192,203130,1,0,0:0:0:0:
192,192,203130,1,0,0:0:0:0:
448,192,203130,1,0,0:0:0:0:
192,192,203220,1,0,0:0:0:0:
320,192,203220,1,0,0:0:0:0:
64,192,203220,1,0,0:0:0:0:
64,192,203309,5,0,0:0:0:0:
192,192,203309,1,0,0:0:0:0:
320,192,203309,1,0,0:0:0:0:
448,192,203309,1,0,0:0:0:0:
64,192,203398,1,0,0:0:0:0:
192,192,203398,1,0,0:0:0:0:
320,192,203398,1,0,0:0:0:0:
448,192,203488,1,0,0:0:0:0:
320,192,203488,1,0,0:0:0:0:
192,192,203488,1,0,0:0:0:0:
64,192,203488,1,0,0:0:0:0:
192,192,203577,1,0,0:0:0:0:
448,192,203577,1,0,0:0:0:0:
320,192,203577,1,0,0:0:0:0:
320,192,203666,1,0,0:0:0:0:
192,192,203666,1,0,0:0:0:0:
64,192,203666,1,0,0:0:0:0:
64,192,203755,1,0,0:0:0:0:
320,192,203755,1,0,0:0:0:0:
448,192,203755,1,0,0:0:0:0:
448,192,203845,1,0,0:0:0:0:
320,192,203845,1,0,0:0:0:0:
192,192,203845,1,0,0:0:0:0:
64,192,203934,1,0,0:0:0:0:
192,192,203934,1,0,0:0:0:0:
448,192,203934,1,0,0:0:0:0:
448,192,204023,1,0,0:0:0:0:
320,192,204023,1,0,0:0:0:0:
64,192,204023,1,0,0:0:0:0:
64,192,204113,1,0,0:0:0:0:
192,192,204113,1,0,0:0:0:0:
320,192,204113,1,0,0:0:0:0:
448,192,204202,1,0,0:0:0:0:
320,192,204202,1,0,0:0:0:0:
192,192,204202,1,0,0:0:0:0:
64,192,204202,1,0,0:0:0:0:
448,192,204291,1,0,0:0:0:0:
320,192,204291,1,0,0:0:0:0:
192,192,204291,1,0,0:0:0:0:
64,192,204380,1,0,0:0:0:0:
192,192,204380,1,0,0:0:0:0:
448,192,204380,1,0,0:0:0:0:
320,192,204470,1,0,0:0:0:0:
192,192,204470,1,0,0:0:0:0:
64,192,204470,1,0,0:0:0:0:
448,192,204559,1,0,0:0:0:0:
320,192,204559,1,0,0:0:0:0:
192,192,204559,1,0,0:0:0:0:
64,192,204559,1,0,0:0:0:0:
64,192,204648,1,0,0:0:0:0:
320,192,204648,1,0,0:0:0:0:
448,192,204648,1,0,0:0:0:0:
64,192,204738,1,0,0:0:0:0:
192,192,204738,1,0,0:0:0:0:
448,192,204738,1,0,0:0:0:0:
192,192,204827,1,0,0:0:0:0:
448,192,204827,1,0,0:0:0:0:
320,192,204827,1,0,0:0:0:0:
64,192,204916,1,0,0:0:0:0:
192,192,204916,1,0,0:0:0:0:
448,192,204916,1,0,0:0:0:0:
320,192,204916,1,0,0:0:0:0:
64,192,205005,1,0,0:0:0:0:
320,192,205005,1,0,0:0:0:0:
192,192,205005,1,0,0:0:0:0:
448,192,205095,1,0,0:0:0:0:
192,192,205095,1,0,0:0:0:0:
64,192,205095,1,0,0:0:0:0:
192,192,205184,1,0,0:0:0:0:
320,192,205184,1,0,0:0:0:0:
64,192,205273,1,0,0:0:0:0:
192,192,205273,1,0,0:0:0:0:
320,192,205273,1,0,0:0:0:0:
448,192,205273,1,0,0:0:0:0:
448,192,205363,1,0,0:0:0:0:
64,192,205363,1,0,0:0:0:0:
192,192,205452,1,0,0:0:0:0:
448,192,205452,1,0,0:0:0:0:
320,192,205452,1,0,0:0:0:0:
64,192,205541,1,0,0:0:0:0:
192,192,205541,1,0,0:0:0:0:
448,192,205630,1,0,0:0:0:0:
320,192,205630,1,0,0:0:0:0:
192,192,205630,1,0,0:0:0:0:
64,192,205630,1,0,0:0:0:0:
320,192,205720,1,0,0:0:0:0:
448,192,205720,1,0,0:0:0:0:
192,192,205809,1,0,0:0:0:0:
64,192,205809,1,0,0:0:0:0:
320,192,205809,1,0,0:0:0:0:
192,192,205898,1,0,0:0:0:0:
448,192,205898,1,0,0:0:0:0:
448,192,205988,1,0,0:0:0:0:
320,192,205988,1,0,0:0:0:0:
192,192,205988,1,0,0:0:0:0:
64,192,205988,1,0,0:0:0:0:
192,192,206077,1,0,0:0:0:0:
320,192,206077,1,0,0:0:0:0:
64,192,206166,1,0,0:0:0:0:
192,192,206166,1,0,0:0:0:0:
320,192,206166,1,0,0:0:0:0:
448,192,206166,1,0,0:0:0:0:
448,192,206255,1,0,0:0:0:0:
320,192,206255,1,0,0:0:0:0:
448,192,206345,1,0,0:0:0:0:
320,192,206345,1,0,0:0:0:0:
192,192,206345,1,0,0:0:0:0:
64,192,206345,1,0,0:0:0:0:
192,192,206434,1,0,0:0:0:0:
64,192,206434,1,0,0:0:0:0:
192,192,206523,1,0,0:0:0:0:
320,192,206523,1,0,0:0:0:0:
448,192,206523,1,0,0:0:0:0:
192,192,206613,1,0,0:0:0:0:
448,192,206613,1,0,0:0:0:0:
64,192,206702,1,0,0:0:0:0:
192,192,206702,1,0,0:0:0:0:
320,192,206702,1,0,0:0:0:0:
448,192,206702,1,0,0:0:0:0:
448,192,206791,1,0,0:0:0:0:
64,192,206791,1,0,0:0:0:0:
320,192,206880,1,0,0:0:0:0:
192,192,206880,1,0,0:0:0:0:
64,192,206880,1,0,0:0:0:0:
320,192,206970,1,0,0:0:0:0:
64,192,206970,1,0,0:0:0:0:
64,192,207059,1,0,0:0:0:0:
192,192,207059,1,0,0:0:0:0:
320,192,207059,1,0,0:0:0:0:
448,192,207059,1,0,0:0:0:0:
192,192,207148,1,0,0:0:0:0:
320,192,207148,1,0,0:0:0:0:
64,192,207238,1,0,0:0:0:0:
192,192,207238,1,0,0:0:0:0:
448,192,207238,1,0,0:0:0:0:
320,192,207327,1,0,0:0:0:0:
192,192,207327,1,0,0:0:0:0:
448,192,207416,1,0,0:0:0:0:
320,192,207416,1,0,0:0:0:0:
192,192,207416,1,0,0:0:0:0:
64,192,207416,1,0,0:0:0:0:
64,192,207505,1,0,0:0:0:0:
320,192,207505,1,0,0:0:0:0:
64,192,207595,1,0,0:0:0:0:
192,192,207595,1,0,0:0:0:0:
448,192,207595,1,0,0:0:0:0:
64,192,207684,1,0,0:0:0:0:
320,192,207684,1,0,0:0:0:0:
320,192,207773,1,0,0:0:0:0:
448,192,207773,1,0,0:0:0:0:
192,192,207773,1,0,0:0:0:0:
64,192,207773,1,0,0:0:0:0:
320,192,207863,1,0,0:0:0:0:
448,192,207863,1,0,0:0:0:0:
320,192,207952,1,0,0:0:0:0:
192,192,207952,1,0,0:0:0:0:
64,192,207952,1,0,0:0:0:0:
192,192,208041,1,0,0:0:0:0:
448,192,208041,1,0,0:0:0:0:
64,192,208130,1,0,0:0:0:0:
192,192,208130,1,0,0:0:0:0:
320,192,208130,1,0,0:0:0:0:
448,192,208130,1,0,0:0:0:0:
320,192,208220,1,0,0:0:0:0:
64,192,208220,1,0,0:0:0:0:
448,192,208309,1,0,0:0:0:0:
192,192,208309,1,0,0:0:0:0:
64,192,208309,1,0,0:0:0:0:
448,192,208398,1,0,0:0:0:0:
64,192,208398,1,0,0:0:0:0:
64,192,208488,1,0,0:0:0:0:
192,192,208488,1,0,0:0:0:0:
320,192,208488,1,0,0:0:0:0:
448,192,208488,1,0,0:0:0:0:
448,192,208577,1,0,0:0:0:0:
192,192,208577,1,0,0:0:0:0:
192,192,208666,1,0,0:0:0:0:
320,192,208666,1,0,0:0:0:0:
64,192,208666,1,0,0:0:0:0:
64,192,208755,1,0,0:0:0:0:
448,192,208755,1,0,0:0:0:0:
320,192,208845,1,0,0:0:0:0:
64,192,208845,1,0,0:0:0:0:
192,192,208845,1,0,0:0:0:0:
448,192,208845,1,0,0:0:0:0:
192,192,208934,1,0,0:0:0:0:
320,192,208934,1,0,0:0:0:0:
448,192,209023,1,0,0:0:0:0:
320,192,209023,1,0,0:0:0:0:
192,192,209023,1,0,0:0:0:0:
64,192,209023,1,0,0:0:0:0:
192,192,209113,1,0,0:0:0:0:
64,192,209113,1,0,0:0:0:0:
64,192,209202,1,0,0:0:0:0:
192,192,209202,1,0,0:0:0:0:
320,192,209202,1,0,0:0:0:0:
448,192,209202,1,0,0:0:0:0:
448,192,209291,1,0,0:0:0:0:
192,192,209291,1,0,0:0:0:0:
320,192,209380,1,0,0:0:0:0:
192,192,209380,1,0,0:0:0:0:
64,192,209380,1,0,0:0:0:0:
64,192,209470,1,0,0:0:0:0:
448,192,209470,1,0,0:0:0:0:
64,192,209559,1,0,0:0:0:0:
192,192,209559,1,0,0:0:0:0:
320,192,209559,1,0,0:0:0:0:
448,192,209559,1,0,0:0:0:0:
320,192,209648,1,0,0:0:0:0:
448,192,209648,1,0,0:0:0:0:
192,192,209738,1,0,0:0:0:0:
448,192,209738,1,0,0:0:0:0:
320,192,209738,1,0,0:0:0:0:
64,192,209738,1,0,0:0:0:0:
192,192,209827,1,0,0:0:0:0:
64,192,209827,1,0,0:0:0:0:
448,192,209916,1,0,0:0:0:0:
320,192,209916,1,0,0:0:0:0:
192,192,209916,1,0,0:0:0:0:
64,192,209916,1,0,0:0:0:0:
320,192,210005,1,0,0:0:0:0:
448,192,210005,1,0,0:0:0:0:
320,192,210095,1,0,0:0:0:0:
64,192,210095,1,0,0:0:0:0:
448,192,210095,1,0,0:0:0:0:
320,192,210184,1,0,0:0:0:0:
64,192,210184,1,0,0:0:0:0:
448,192,210273,1,0,0:0:0:0:
320,192,210273,1,0,0:0:0:0:
192,192,210273,1,0,0:0:0:0:
64,192,210273,1,0,0:0:0:0:
192,192,210363,1,0,0:0:0:0:
448,192,210363,1,0,0:0:0:0:
320,192,210452,1,0,0:0:0:0:
192,192,210452,1,0,0:0:0:0:
64,192,210452,1,0,0:0:0:0:
448,192,210452,1,0,0:0:0:0:
320,192,210541,1,0,0:0:0:0:
64,192,210541,1,0,0:0:0:0:
448,192,210630,1,0,0:0:0:0:
320,192,210630,1,0,0:0:0:0:
192,192,210630,1,0,0:0:0:0:
64,192,210630,1,0,0:0:0:0:
320,192,210720,1,0,0:0:0:0:
448,192,210720,1,0,0:0:0:0:
320,192,210809,1,0,0:0:0:0:
448,192,210809,1,0,0:0:0:0:
192,192,210809,1,0,0:0:0:0:
64,192,210898,1,0,0:0:0:0:
192,192,210898,1,0,0:0:0:0:
448,192,210988,1,0,0:0:0:0:
320,192,210988,1,0,0:0:0:0:
192,192,210988,1,0,0:0:0:0:
64,192,210988,1,0,0:0:0:0:
320,192,211077,1,0,0:0:0:0:
192,192,211077,1,0,0:0:0:0:
192,192,211166,1,0,0:0:0:0:
64,192,211166,1,0,0:0:0:0:
320,192,211166,1,0,0:0:0:0:
448,192,211166,1,0,0:0:0:0:
448,192,211345,1,0,0:0:0:0:
320,192,211345,1,0,0:0:0:0:
64,192,211345,1,0,0:0:0:0:
64,192,211434,1,0,0:0:0:0:
192,192,211434,1,0,0:0:0:0:
320,192,211434,1,0,0:0:0:0:
192,192,211523,1,0,0:0:0:0:
320,192,211523,1,0,0:0:0:0:
448,192,211523,1,0,0:0:0:0:
64,192,211523,1,0,0:0:0:0:
320,192,211702,1,0,0:0:0:0:
448,192,211702,1,0,0:0:0:0:
64,192,211702,1,0,0:0:0:0:
64,192,211791,1,0,0:0:0:0:
192,192,211791,1,0,0:0:0:0:
448,192,211791,1,0,0:0:0:0:
64,192,211880,1,0,0:0:0:0:
192,192,211880,1,0,0:0:0:0:
320,192,211880,1,0,0:0:0:0:
448,192,211880,1,0,0:0:0:0:
64,192,211970,1,0,0:0:0:0:
320,192,211970,1,0,0:0:0:0:
448,192,211970,1,0,0:0:0:0:
64,192,212059,1,0,0:0:0:0:
192,192,212059,1,0,0:0:0:0:
320,192,212059,1,0,0:0:0:0:
448,192,212059,1,0,0:0:0:0:
64,192,212148,1,0,0:0:0:0:
192,192,212148,1,0,0:0:0:0:
320,192,212148,1,0,0:0:0:0:
448,192,212238,1,0,0:0:0:0:
320,192,212238,1,0,0:0:0:0:
192,192,212238,1,0,0:0:0:0:
64,192,212327,1,0,0:0:0:0:
320,192,212327,1,0,0:0:0:0:
448,192,212327,1,0,0:0:0:0:
192,192,212416,1,0,0:0:0:0:
64,192,212416,1,0,0:0:0:0:
320,192,212416,1,0,0:0:0:0:
64,192,212505,1,0,0:0:0:0:
192,192,212505,1,0,0:0:0:0:
448,192,212505,1,0,0:0:0:0:
64,192,212595,1,0,0:0:0:0:
192,192,212595,1,0,0:0:0:0:
448,192,212595,1,0,0:0:0:0:
320,192,212595,1,0,0:0:0:0:
448,192,212684,1,0,0:0:0:0:
320,192,212684,1,0,0:0:0:0:
64,192,212684,1,0,0:0:0:0:
64,192,212773,1,0,0:0:0:0:
192,192,212773,1,0,0:0:0:0:
320,192,212773,1,0,0:0:0:0:
448,192,212773,1,0,0:0:0:0:
448,192,212863,1,0,0:0:0:0:
64,192,212863,1,0,0:0:0:0:
192,192,212863,1,0,0:0:0:0:
192,192,212952,1,0,0:0:0:0:
320,192,212952,1,0,0:0:0:0:
448,192,212952,1,0,0:0:0:0:
64,192,213041,1,0,0:0:0:0:
320,192,213041,1,0,0:0:0:0:
448,192,213041,1,0,0:0:0:0:
64,192,213130,1,0,0:0:0:0:
320,192,213130,1,0,0:0:0:0:
192,192,213130,1,0,0:0:0:0:
448,192,213130,1,0,0:0:0:0:
64,192,213220,1,0,0:0:0:0:
192,192,213220,1,0,0:0:0:0:
448,192,213220,1,0,0:0:0:0:
448,192,213309,1,0,0:0:0:0:
320,192,213309,1,0,0:0:0:0:
192,192,213309,1,0,0:0:0:0:
64,192,213309,1,0,0:0:0:0:
192,192,213398,1,0,0:0:0:0:
320,192,213398,1,0,0:0:0:0:
64,192,213398,1,0,0:0:0:0:
448,192,213488,1,0,0:0:0:0:
320,192,213488,1,0,0:0:0:0:
64,192,213488,1,0,0:0:0:0:
192,192,213488,1,0,0:0:0:0:
448,192,213577,1,0,0:0:0:0:
320,192,213577,1,0,0:0:0:0:
64,192,213577,1,0,0:0:0:0:
448,192,213666,1,0,0:0:0:0:
320,192,213666,1,0,0:0:0:0:
192,192,213666,1,0,0:0:0:0:
64,192,213755,1,0,0:0:0:0:
192,192,213755,1,0,0:0:0:0:
320,192,213755,1,0,0:0:0:0:
448,192,213845,1,0,0:0:0:0:
320,192,213845,1,0,0:0:0:0:
64,192,213845,1,0,0:0:0:0:
64,192,213934,1,0,0:0:0:0:
192,192,213934,1,0,0:0:0:0:
448,192,213934,1,0,0:0:0:0:
192,192,214023,1,0,0:0:0:0:
320,192,214023,1,0,0:0:0:0:
448,192,214023,1,0,0:0:0:0:
64,192,214023,1,0,0:0:0:0:
192,192,214202,1,0,0:0:0:0:
64,192,214202,1,0,0:0:0:0:
320,192,214202,1,0,0:0:0:0:
64,192,214291,1,0,0:0:0:0:
192,192,214291,1,0,0:0:0:0:
448,192,214291,1,0,0:0:0:0:
448,192,214380,1,0,0:0:0:0:
320,192,214380,1,0,0:0:0:0:
192,192,214380,1,0,0:0:0:0:
64,192,214380,1,0,0:0:0:0:
64,192,214559,1,0,0:0:0:0:
192,192,214559,1,0,0:0:0:0:
448,192,214559,1,0,0:0:0:0:
448,192,214648,1,0,0:0:0:0:
320,192,214648,1,0,0:0:0:0:
192,192,214648,1,0,0:0:0:0:
64,192,214738,1,0,0:0:0:0:
192,192,214738,1,0,0:0:0:0:
320,192,214738,1,0,0:0:0:0:
448,192,214738,1,0,0:0:0:0:
64,192,214827,1,0,0:0:0:0:
192,192,214827,1,0,0:0:0:0:
448,192,214827,1,0,0:0:0:0:
448,192,214916,1,0,0:0:0:0:
320,192,214916,1,0,0:0:0:0:
192,192,214916,1,0,0:0:0:0:
64,192,214916,1,0,0:0:0:0:
192,192,215005,1,0,0:0:0:0:
320,192,215005,1,0,0:0:0:0:
448,192,215005,1,0,0:0:0:0:
64,192,215095,1,0,0:0:0:0:
192,192,215095,1,0,0:0:0:0:
320,192,215095,1,0,0:0:0:0:
64,192,215184,1,0,0:0:0:0:
320,192,215184,1,0,0:0:0:0:
448,192,215184,1,0,0:0:0:0:
448,192,215273,1,0,0:0:0:0:
320,192,215273,1,0,0:0:0:0:
192,192,215273,1,0,0:0:0:0:
64,192,215273,1,0,0:0:0:0:
64,192,215363,1,0,0:0:0:0:
192,192,215363,1,0,0:0:0:0:
448,192,215363,1,0,0:0:0:0:
64,192,215452,1,0,0:0:0:0:
192,192,215452,1,0,0:0:0:0:
320,192,215452,1,0,0:0:0:0:
448,192,215452,1,0,0:0:0:0:
192,192,215541,1,0,0:0:0:0:
320,192,215541,1,0,0:0:0:0:
448,192,215541,1,0,0:0:0:0:
448,192,215630,1,0,0:0:0:0:
320,192,215630,1,0,0:0:0:0:
192,192,215630,1,0,0:0:0:0:
64,192,215630,1,0,0:0:0:0:
64,192,215720,1,0,0:0:0:0:
192,192,215720,1,0,0:0:0:0:
320,192,215720,1,0,0:0:0:0:
64,192,215809,1,0,0:0:0:0:
320,192,215809,1,0,0:0:0:0:
448,192,215809,1,0,0:0:0:0:
320,192,215898,1,0,0:0:0:0:
192,192,215898,1,0,0:0:0:0:
64,192,215898,1,0,0:0:0:0:
448,192,215988,1,0,0:0:0:0:
320,192,215988,1,0,0:0:0:0:
192,192,215988,1,0,0:0:0:0:
64,192,215988,1,0,0:0:0:0:
448,192,216077,1,0,0:0:0:0:
192,192,216077,1,0,0:0:0:0:
64,192,216077,1,0,0:0:0:0:
64,192,216166,1,0,0:0:0:0:
192,192,216166,1,0,0:0:0:0:
320,192,216166,1,0,0:0:0:0:
448,192,216166,1,0,0:0:0:0:
192,192,216255,1,0,0:0:0:0:
320,192,216255,1,0,0:0:0:0:
448,192,216255,1,0,0:0:0:0:
448,192,216345,1,0,0:0:0:0:
320,192,216345,1,0,0:0:0:0:
192,192,216345,1,0,0:0:0:0:
64,192,216345,1,0,0:0:0:0:
64,192,216434,1,0,0:0:0:0:
320,192,216434,1,0,0:0:0:0:
448,192,216434,1,0,0:0:0:0:
448,192,216523,1,0,0:0:0:0:
64,192,216523,1,0,0:0:0:0:
192,192,216523,1,0,0:0:0:0:
64,192,216613,1,0,0:0:0:0:
320,192,216613,1,0,0:0:0:0:
448,192,216613,1,0,0:0:0:0:
192,192,216702,1,0,0:0:0:0:
64,192,216702,1,0,0:0:0:0:
448,192,216702,1,0,0:0:0:0:
192,192,216791,1,0,0:0:0:0:
320,192,216791,1,0,0:0:0:0:
448,192,216791,1,0,0:0:0:0:
64,192,216880,1,0,0:0:0:0:
320,192,216880,1,0,0:0:0:0:
448,192,216880,1,0,0:0:0:0:
192,192,216880,1,0,0:0:0:0:
320,192,217059,1,0,0:0:0:0:
448,192,217059,1,0,0:0:0:0:
64,192,217059,1,0,0:0:0:0:
64,192,217148,1,0,0:0:0:0:
192,192,217148,1,0,0:0:0:0:
448,192,217148,1,0,0:0:0:0:
448,192,217238,1,0,0:0:0:0:
320,192,217238,1,0,0:0:0:0:
192,192,217238,1,0,0:0:0:0:
64,192,217238,1,0,0:0:0:0:
448,192,217595,1,0,0:0:0:0:
320,192,217595,1,0,0:0:0:0:
192,192,217595,1,0,0:0:0:0:
64,192,217595,1,0,0:0:0:0:
64,192,217684,1,0,0:0:0:0:
320,192,217684,1,0,0:0:0:0:
448,192,217684,1,0,0:0:0:0:
64,192,217773,1,0,0:0:0:0:
192,192,217773,1,0,0:0:0:0:
320,192,217773,1,0,0:0:0:0:
448,192,217863,1,0,0:0:0:0:
192,192,217863,1,0,0:0:0:0:
64,192,217863,1,0,0:0:0:0:
448,192,217952,1,0,0:0:0:0:
320,192,217952,1,0,0:0:0:0:
192,192,217952,1,0,0:0:0:0:
64,192,217952,1,0,0:0:0:0:
64,192,218041,1,0,0:0:0:0:
192,192,218041,1,0,0:0:0:0:
320,192,218041,1,0,0:0:0:0:
448,192,218130,1,0,0:0:0:0:
320,192,218130,1,0,0:0:0:0:
192,192,218130,1,0,0:0:0:0:
64,192,218220,1,0,0:0:0:0:
320,192,218220,1,0,0:0:0:0:
448,192,218220,1,0,0:0:0:0:
448,192,218309,1,0,0:0:0:0:
320,192,218309,1,0,0:0:0:0:
192,192,218309,1,0,0:0:0:0:
64,192,218309,1,0,0:0:0:0:
64,192,218398,1,0,0:0:0:0:
192,192,218398,1,0,0:0:0:0:
320,192,218398,1,0,0:0:0:0:
448,192,218488,1,0,0:0:0:0:
320,192,218488,1,0,0:0:0:0:
64,192,218488,1,0,0:0:0:0:
192,192,218488,1,0,0:0:0:0:
448,192,218577,1,0,0:0:0:0:
192,192,218577,1,0,0:0:0:0:
64,192,218577,1,0,0:0:0:0:
64,192,218666,1,0,0:0:0:0:
192,192,218666,1,0,0:0:0:0:
320,192,218666,1,0,0:0:0:0:
448,192,218666,1,0,0:0:0:0:
448,192,218755,1,0,0:0:0:0:
320,192,218755,1,0,0:0:0:0:
192,192,218755,1,0,0:0:0:0:
448,192,218845,1,0,0:0:0:0:
320,192,218845,1,0,0:0:0:0:
192,192,218845,1,0,0:0:0:0:
64,192,218845,1,0,0:0:0:0:
64,192,218934,1,0,0:0:0:0:
192,192,218934,1,0,0:0:0:0:
320,192,219023,1,0,0:0:0:0:
448,192,219023,1,0,0:0:0:0:
64,192,219083,1,0,0:0:0:0:
192,192,219083,1,0,0:0:0:0:
448,192,219142,1,0,0:0:0:0:
320,192,219142,1,0,0:0:0:0:
192,192,219202,1,0,0:0:0:0:
64,192,219202,1,0,0:0:0:0:
448,192,219261,1,0,0:0:0:0:
320,192,219261,1,0,0:0:0:0:
192,192,219321,1,0,0:0:0:0:
64,192,219321,1,0,0:0:0:0:
320,192,219380,1,0,0:0:0:0:
448,192,219380,1,0,0:0:0:0:
192,192,219440,1,0,0:0:0:0:
64,192,219440,1,0,0:0:0:0:
320,192,219500,1,0,0:0:0:0:
448,192,219500,1,0,0:0:0:0:
192,192,219559,1,0,0:0:0:0:
64,192,219559,1,0,0:0:0:0:
320,192,219619,1,0,0:0:0:0:
448,192,219619,1,0,0:0:0:0:
192,192,219678,1,0,0:0:0:0:
64,192,219678,1,0,0:0:0:0:
320,192,219738,1,0,0:0:0:0:
448,192,219738,1,0,0:0:0:0:
192,192,219738,1,0,0:0:0:0:
64,192,219738,1,0,0:0:0:0:
448,192,220452,1,0,0:0:0:0:
320,192,220452,1,0,0:0:0:0:
192,192,220452,1,0,0:0:0:0:
64,192,220452,1,0,0:0:0:0:
448,192,220541,1,0,0:0:0:0:
320,192,220541,1,0,0:0:0:0:
64,192,220541,1,0,0:0:0:0:
192,192,220541,1,0,0:0:0:0:
64,192,220630,1,0,0:0:0:0:
192,192,220630,1,0,0:0:0:0:
320,192,220630,1,0,0:0:0:0:
448,192,220720,1,0,0:0:0:0:
320,192,220720,1,0,0:0:0:0:
192,192,220720,1,0,0:0:0:0:
64,192,220720,1,0,0:0:0:0:
64,192,220809,1,0,0:0:0:0:
192,192,220809,1,0,0:0:0:0:
320,192,220809,1,0,0:0:0:0:
448,192,220809,1,0,0:0:0:0:
448,192,220898,1,0,0:0:0:0:
192,192,220898,1,0,0:0:0:0:
64,192,220898,1,0,0:0:0:0:
320,192,220988,1,0,0:0:0:0:
192,192,220988,1,0,0:0:0:0:
448,192,220988,1,0,0:0:0:0:
64,192,220988,1,0,0:0:0:0:
448,192,221077,1,0,0:0:0:0:
192,192,221077,1,0,0:0:0:0:
64,192,221077,1,0,0:0:0:0:
320,192,221077,1,0,0:0:0:0:
64,192,221166,1,0,0:0:0:0:
320,192,221166,1,0,0:0:0:0:
448,192,221166,1,0,0:0:0:0:
64,192,221255,1,0,0:0:0:0:
320,192,221255,1,0,0:0:0:0:
192,192,221255,1,0,0:0:0:0:
448,192,221255,1,0,0:0:0:0:
64,192,221345,1,0,0:0:0:0:
320,192,221345,1,0,0:0:0:0:
448,192,221345,1,0,0:0:0:0:
192,192,221345,1,0,0:0:0:0:
192,192,221434,1,0,0:0:0:0:
448,192,221434,1,0,0:0:0:0:
320,192,221434,1,0,0:0:0:0:
448,192,221523,1,0,0:0:0:0:
64,192,221523,1,0,0:0:0:0:
320,192,221523,1,0,0:0:0:0:
192,192,221523,1,0,0:0:0:0:
64,192,221613,1,0,0:0:0:0:
320,192,221613,1,0,0:0:0:0:
448,192,221613,1,0,0:0:0:0:
192,192,221613,1,0,0:0:0:0:
192,192,221702,1,0,0:0:0:0:
320,192,221702,1,0,0:0:0:0:
64,192,221702,1,0,0:0:0:0:
192,192,221791,1,0,0:0:0:0:
448,192,221791,1,0,0:0:0:0:
64,192,221791,1,0,0:0:0:0:
320,192,221791,1,0,0:0:0:0:
448,192,221880,1,0,0:0:0:0:
192,192,221880,1,0,0:0:0:0:
64,192,221880,1,0,0:0:0:0:
320,192,221880,1,0,0:0:0:0:
64,192,221970,1,0,0:0:0:0:
448,192,221970,1,0,0:0:0:0:
192,192,221970,1,0,0:0:0:0:
320,192,222059,1,0,0:0:0:0:
192,192,222059,1,0,0:0:0:0:
448,192,222059,1,0,0:0:0:0:
64,192,222059,1,0,0:0:0:0:
448,192,222148,1,0,0:0:0:0:
192,192,222148,1,0,0:0:0:0:
64,192,222148,1,0,0:0:0:0:
320,192,222148,1,0,0:0:0:0:
64,192,222238,1,0,0:0:0:0:
320,192,222238,1,0,0:0:0:0:
192,192,222238,1,0,0:0:0:0:
64,192,222327,1,0,0:0:0:0:
320,192,222327,1,0,0:0:0:0:
192,192,222327,1,0,0:0:0:0:
448,192,222327,1,0,0:0:0:0:
64,192,222416,1,0,0:0:0:0:
320,192,222416,1,0,0:0:0:0:
448,192,222416,1,0,0:0:0:0:
192,192,222416,1,0,0:0:0:0:
320,192,222505,1,0,0:0:0:0:
448,192,222505,1,0,0:0:0:0:
64,192,222505,1,0,0:0:0:0:
448,192,222595,1,0,0:0:0:0:
64,192,222595,1,0,0:0:0:0:
320,192,222595,1,0,0:0:0:0:
192,192,222595,1,0,0:0:0:0:
64,192,222684,1,0,0:0:0:0:
320,192,222684,1,0,0:0:0:0:
448,192,222684,1,0,0:0:0:0:
192,192,222684,1,0,0:0:0:0:
192,192,222773,1,0,0:0:0:0:
320,192,222773,1,0,0:0:0:0:
448,192,222773,1,0,0:0:0:0:
192,192,222863,1,0,0:0:0:0:
448,192,222863,1,0,0:0:0:0:
64,192,222863,1,0,0:0:0:0:
320,192,222863,1,0,0:0:0:0:
448,192,222952,1,0,0:0:0:0:
192,192,222952,1,0,0:0:0:0:
64,192,222952,1,0,0:0:0:0:
320,192,222952,1,0,0:0:0:0:
64,192,223041,1,0,0:0:0:0:
320,192,223041,1,0,0:0:0:0:
192,192,223041,1,0,0:0:0:0:
320,192,223130,1,0,0:0:0:0:
192,192,223130,1,0,0:0:0:0:
448,192,223130,1,0,0:0:0:0:
64,192,223130,1,0,0:0:0:0:
448,192,223220,1,0,0:0:0:0:
192,192,223220,1,0,0:0:0:0:
64,192,223220,1,0,0:0:0:0:
320,192,223220,1,0,0:0:0:0:
448,192,223309,1,0,0:0:0:0:
320,192,223309,1,0,0:0:0:0:
192,192,223309,1,0,0:0:0:0:
64,192,223398,1,0,0:0:0:0:
320,192,223398,1,0,0:0:0:0:
192,192,223398,1,0,0:0:0:0:
448,192,223398,1,0,0:0:0:0:
64,192,223488,1,0,0:0:0:0:
320,192,223488,1,0,0:0:0:0:
448,192,223488,1,0,0:0:0:0:
192,192,223488,1,0,0:0:0:0:
192,192,223577,1,0,0:0:0:0:
448,192,223577,1,0,0:0:0:0:
64,192,223577,1,0,0:0:0:0:
448,192,223666,1,0,0:0:0:0:
64,192,223666,1,0,0:0:0:0:
320,192,223666,1,0,0:0:0:0:
192,192,223666,1,0,0:0:0:0:
64,192,223755,1,0,0:0:0:0:
320,192,223755,1,0,0:0:0:0:
448,192,223755,1,0,0:0:0:0:
192,192,223755,1,0,0:0:0:0:
192,192,223845,1,0,0:0:0:0:
320,192,223845,1,0,0:0:0:0:
64,192,223845,1,0,0:0:0:0:
192,192,223934,1,0,0:0:0:0:
448,192,223934,1,0,0:0:0:0:
64,192,223934,1,0,0:0:0:0:
320,192,223934,1,0,0:0:0:0:
448,192,224023,1,0,0:0:0:0:
192,192,224023,1,0,0:0:0:0:
64,192,224023,1,0,0:0:0:0:
320,192,224023,1,0,0:0:0:0:
64,192,224113,1,0,0:0:0:0:
448,192,224113,1,0,0:0:0:0:
320,192,224113,1,0,0:0:0:0:
320,192,224202,1,0,0:0:0:0:
192,192,224202,1,0,0:0:0:0:
448,192,224202,1,0,0:0:0:0:
64,192,224202,1,0,0:0:0:0:
448,192,224291,1,0,0:0:0:0:
192,192,224291,1,0,0:0:0:0:
64,192,224291,1,0,0:0:0:0:
320,192,224291,1,0,0:0:0:0:
64,192,224380,1,0,0:0:0:0:
448,192,224380,1,0,0:0:0:0:
192,192,224380,1,0,0:0:0:0:
64,192,224470,1,0,0:0:0:0:
320,192,224470,1,0,0:0:0:0:
192,192,224470,1,0,0:0:0:0:
448,192,224470,1,0,0:0:0:0:
64,192,224559,1,0,0:0:0:0:
320,192,224559,1,0,0:0:0:0:
448,192,224559,1,0,0:0:0:0:
192,192,224559,1,0,0:0:0:0:
192,192,224648,1,0,0:0:0:0:
448,192,224648,1,0,0:0:0:0:
320,192,224648,1,0,0:0:0:0:
448,192,224738,1,0,0:0:0:0:
64,192,224738,1,0,0:0:0:0:
320,192,224738,1,0,0:0:0:0:
192,192,224738,1,0,0:0:0:0:
64,192,224827,1,0,0:0:0:0:
320,192,224827,1,0,0:0:0:0:
448,192,224827,1,0,0:0:0:0:
192,192,224827,1,0,0:0:0:0:
192,192,224916,1,0,0:0:0:0:
320,192,224916,1,0,0:0:0:0:
64,192,224916,1,0,0:0:0:0:
192,192,225005,1,0,0:0:0:0:
448,192,225005,1,0,0:0:0:0:
64,192,225005,1,0,0:0:0:0:
320,192,225005,1,0,0:0:0:0:
448,192,225095,1,0,0:0:0:0:
192,192,225095,1,0,0:0:0:0:
64,192,225095,1,0,0:0:0:0:
320,192,225095,1,0,0:0:0:0:
64,192,225184,1,0,0:0:0:0:
448,192,225184,1,0,0:0:0:0:
320,192,225184,1,0,0:0:0:0:
320,192,225273,1,0,0:0:0:0:
192,192,225273,1,0,0:0:0:0:
448,192,225273,1,0,0:0:0:0:
64,192,225273,1,0,0:0:0:0:
448,192,225363,1,0,0:0:0:0:
192,192,225363,1,0,0:0:0:0:
64,192,225363,1,0,0:0:0:0:
320,192,225363,1,0,0:0:0:0:
64,192,225452,1,0,0:0:0:0:
448,192,225452,1,0,0:0:0:0:
192,192,225452,1,0,0:0:0:0:
64,192,225541,1,0,0:0:0:0:
320,192,225541,1,0,0:0:0:0:
192,192,225541,1,0,0:0:0:0:
448,192,225541,1,0,0:0:0:0:
64,192,225630,1,0,0:0:0:0:
320,192,225630,1,0,0:0:0:0:
448,192,225630,1,0,0:0:0:0:
192,192,225630,1,0,0:0:0:0:
192,192,225720,1,0,0:0:0:0:
448,192,225720,1,0,0:0:0:0:
320,192,225720,1,0,0:0:0:0:
448,192,225809,1,0,0:0:0:0:
64,192,225809,1,0,0:0:0:0:
320,192,225809,1,0,0:0:0:0:
192,192,225809,1,0,0:0:0:0:
64,192,225898,1,0,0:0:0:0:
320,192,225898,1,0,0:0:0:0:
448,192,225898,1,0,0:0:0:0:
192,192,225898,1,0,0:0:0:0:
192,192,225988,1,0,0:0:0:0:
320,192,225988,1,0,0:0:0:0:
64,192,225988,1,0,0:0:0:0:
192,192,226077,1,0,0:0:0:0:
448,192,226077,1,0,0:0:0:0:
64,192,226077,1,0,0:0:0:0:
320,192,226077,1,0,0:0:0:0:
64,192,226166,1,0,0:0:0:0:
320,192,226166,1,0,0:0:0:0:
448,192,226166,1,0,0:0:0:0:
192,192,226166,128,0,227550:0:0:0:0:
64,192,227595,1,0,0:0:0:0:
320,192,227595,1,0,0:0:0:0:
448,192,227595,1,0,0:0:0:0:
192,192,227595,128,0,229291:0:0:0:0:
64,192,230095,1,0,0:0:0:0:
