osu file format v14

[General]
AudioFilename: audio90.mp3
AudioLeadIn: 0
PreviewTime: 106738
Countdown: 0
SampleSet: Normal
StackLeniency: 0.7
Mode: 3
LetterboxInBreaks: 0
SpecialStyle: 0
WidescreenStoryboard: 0

[Editor]
DistanceSpacing: 1
BeatDivisor: 2
GridSize: 4
TimelineZoom: 1.4

[Metadata]
Title:Otona no Omocha
TitleUnicode:オトナのオモチャ
Artist:Utsu-P feat. Kagamine Rin
ArtistUnicode:鬱P feat. 鏡音リン
Creator:Hlimak
Version:Adult's Toy 0.9
Source:
Tags:
BeatmapID:1651625
BeatmapSetID:786511

[Difficulty]
HPDrainRate:8.2
CircleSize:4
OverallDifficulty:9
ApproachRate:5
SliderMultiplier:1.4
SliderTickRate:1

[Events]
//Background and Video events
0,0,"bg.jpg",0,0
//Break Periods
//Storyboard Layer 0 (Background)
//Storyboard Layer 1 (Fail)
//Storyboard Layer 2 (Pass)
//Storyboard Layer 3 (Foreground)
//Storyboard Sound Samples

[TimingPoints]
12018,238.095238095238,4,1,0,30,1,0
205827,238.095238095238,4,1,0,30,1,0
209160,238.095238095238,4,1,0,30,1,0
212493,238.095238095238,4,1,0,30,1,0
215827,238.095238095238,4,1,0,30,1,0
219160,238.095238095238,4,1,0,30,1,0
222493,238.095238095238,4,1,0,30,1,0
225827,238.095238095238,4,1,0,30,1,0
229160,238.095238095238,4,1,0,30,1,0

[HitObjects]
192,192,12017,5,0,0:0:0:0:
192,192,12970,1,0,0:0:0:0:
192,192,13922,1,0,0:0:0:0:
192,192,14398,1,0,0:0:0:0:
192,192,14875,1,0,0:0:0:0:
192,192,15113,1,0,0:0:0:0:
192,192,15351,1,0,0:0:0:0:
192,192,15589,1,0,0:0:0:0:
64,192,15827,1,0,0:0:0:0:
192,192,15827,1,0,0:0:0:0:
320,192,15827,1,0,0:0:0:0:
448,192,15827,1,0,0:0:0:0:
448,192,15946,1,0,0:0:0:0:
192,192,15946,1,0,0:0:0:0:
192,192,16065,1,0,0:0:0:0:
64,192,16184,1,0,0:0:0:0:
192,192,16184,1,0,0:0:0:0:
320,192,16184,1,0,0:0:0:0:
448,192,16184,1,0,0:0:0:0:
448,192,16303,1,0,0:0:0:0:
448,192,16422,1,0,0:0:0:0:
320,192,16422,1,0,0:0:0:0:
192,192,16422,1,0,0:0:0:0:
64,192,16422,1,0,0:0:0:0:
64,192,16541,1,0,0:0:0:0:
192,192,16660,1,0,0:0:0:0:
64,192,16660,1,0,0:0:0:0:
320,192,16660,1,0,0:0:0:0:
320,192,16779,1,0,0:0:0:0:
320,192,16898,1,0,0:0:0:0:
448,192,16898,1,0,0:0:0:0:
192,192,16898,1,0,0:0:0:0:
64,192,16898,1,0,0:0:0:0:
192,192,17017,1,0,0:0:0:0:
64,192,17137,1,0,0:0:0:0:
320,192,17137,1,0,0:0:0:0:
192,192,17137,1,0,0:0:0:0:
448,192,17137,1,0,0:0:0:0:
320,192,17256,1,0,0:0:0:0:
448,192,17375,1,0,0:0:0:0:
320,192,17375,1,0,0:0:0:0:
192,192,17375,1,0,0:0:0:0:
64,192,17375,1,0,0:0:0:0:
64,192,17494,1,0,0:0:0:0:
192,192,17613,1,0,0:0:0:0:
448,192,17613,1,0,0:0:0:0:
320,192,17613,1,0,0:0:0:0:
64,192,17613,1,0,0:0:0:0:
320,192,17732,1,0,0:0:0:0:
320,192,17851,1,0,0:0:0:0:
448,192,17851,1,0,0:0:0:0:
192,192,17851,1,0,0:0:0:0:
64,192,17851,1,0,0:0:0:0:
448,192,17970,1,0,0:0:0:0:
320,192,18089,1,0,0:0:0:0:
448,192,18089,1,0,0:0:0:0:
64,192,18089,1,0,0:0:0:0:
192,192,18089,1,0,0:0:0:0:
64,192,18208,1,0,0:0:0:0:
64,192,18327,1,0,0:0:0:0:
192,192,18327,1,0,0:0:0:0:
320,192,18327,1,0,0:0:0:0:
448,192,18327,1,0,0:0:0:0:
320,192,18446,1,0,0:0:0:0:
320,192,18565,1,0,0:0:0:0:
448,192,18565,1,0,0:0:0:0:
192,192,18565,1,0,0:0:0:0:
64,192,18565,1,0,0:0:0:0:
448,192,18684,1,0,0:0:0:0:
448,192,18803,1,0,0:0:0:0:
320,192,18803,1,0,0:0:0:0:
192,192,18803,1,0,0:0:0:0:
64,192,18803,1,0,0:0:0:0:
64,192,18922,1,0,0:0:0:0:
64,192,19041,1,0,0:0:0:0:
192,192,19041,1,0,0:0:0:0:
320,192,19041,1,0,0:0:0:0:
448,192,19041,1,0,0:0:0:0:
320,192,19160,1,0,0:0:0:0:
320,192,19279,1,0,0:0:0:0:
448,192,19279,1,0,0:0:0:0:
192,192,19279,1,0,0:0:0:0:
64,192,19279,1,0,0:0:0:0:
192,192,19398,1,0,0:0:0:0:
192,192,19517,1,0,0:0:0:0:
64,192,19517,1,0,0:0:0:0:
448,192,19517,1,0,0:0:0:0:
448,192,19637,1,0,0:0:0:0:
192,192,19637,1,0,0:0:0:0:
64,192,19637,1,0,0:0:0:0:
192,192,19756,1,0,0:0:0:0:
320,192,19756,1,0,0:0:0:0:
448,192,19756,1,0,0:0:0:0:
448,192,19875,1,0,0:0:0:0:
448,192,19994,1,0,0:0:0:0:
320,192,19994,1,0,0:0:0:0:
192,192,19994,1,0,0:0:0:0:
64,192,19994,1,0,0:0:0:0:
192,192,20113,1,0,0:0:0:0:
192,192,20232,1,0,0:0:0:0:
64,192,20232,1,0,0:0:0:0:
320,192,20232,1,0,0:0:0:0:
448,192,20232,1,0,0:0:0:0:
320,192,20351,1,0,0:0:0:0:
320,192,20470,1,0,0:0:0:0:
192,192,20470,1,0,0:0:0:0:
64,192,20470,1,0,0:0:0:0:
448,192,20470,1,0,0:0:0:0:
192,192,20589,1,0,0:0:0:0:
192,192,20708,1,0,0:0:0:0:
64,192,20708,1,0,0:0:0:0:
320,192,20708,1,0,0:0:0:0:
448,192,20708,1,0,0:0:0:0:
448,192,20827,1,0,0:0:0:0:
448,192,20946,1,0,0:0:0:0:
320,192,20946,1,0,0:0:0:0:
192,192,20946,1,0,0:0:0:0:
64,192,20946,1,0,0:0:0:0:
64,192,21065,1,0,0:0:0:0:
64,192,21184,1,0,0:0:0:0:
192,192,21184,1,0,0:0:0:0:
448,192,21184,1,0,0:0:0:0:
320,192,21184,1,0,0:0:0:0:
320,192,21303,1,0,0:0:0:0:
320,192,21422,1,0,0:0:0:0:
448,192,21422,1,0,0:0:0:0:
192,192,21422,1,0,0:0:0:0:
64,192,21422,1,0,0:0:0:0:
192,192,21541,1,0,0:0:0:0:
192,192,21660,1,0,0:0:0:0:
64,192,21660,1,0,0:0:0:0:
320,192,21660,1,0,0:0:0:0:
448,192,21660,1,0,0:0:0:0:
448,192,21779,1,0,0:0:0:0:
448,192,21898,1,0,0:0:0:0:
320,192,21898,1,0,0:0:0:0:
192,192,21898,1,0,0:0:0:0:
64,192,21898,1,0,0:0:0:0:
192,192,22017,1,0,0:0:0:0:
192,192,22137,1,0,0:0:0:0:
64,192,22137,1,0,0:0:0:0:
320,192,22137,1,0,0:0:0:0:
448,192,22137,1,0,0:0:0:0:
448,192,22256,1,0,0:0:0:0:
320,192,22375,1,0,0:0:0:0:
448,192,22375,1,0,0:0:0:0:
192,192,22375,1,0,0:0:0:0:
64,192,22375,1,0,0:0:0:0:
64,192,22494,1,0,0:0:0:0:
64,192,22613,1,0,0:0:0:0:
320,192,22613,1,0,0:0:0:0:
192,192,22613,1,0,0:0:0:0:
448,192,22613,1,0,0:0:0:0:
320,192,22732,1,0,0:0:0:0:
320,192,22851,1,0,0:0:0:0:
448,192,22851,1,0,0:0:0:0:
192,192,22851,1,0,0:0:0:0:
64,192,22851,1,0,0:0:0:0:
448,192,22970,1,0,0:0:0:0:
448,192,23089,1,0,0:0:0:0:
320,192,23089,1,0,0:0:0:0:
192,192,23089,1,0,0:0:0:0:
64,192,23089,1,0,0:0:0:0:
192,192,23208,1,0,0:0:0:0:
192,192,23327,1,0,0:0:0:0:
320,192,23327,1,0,0:0:0:0:
448,192,23327,1,0,0:0:0:0:
448,192,23446,1,0,0:0:0:0:
320,192,23446,1,0,0:0:0:0:
192,192,23446,1,0,0:0:0:0:
448,192,23565,1,0,0:0:0:0:
192,192,23565,1,0,0:0:0:0:
64,192,23565,1,0,0:0:0:0:
448,192,23684,1,0,0:0:0:0:
448,192,23803,1,0,0:0:0:0:
320,192,23803,1,0,0:0:0:0:
64,192,23803,1,0,0:0:0:0:
192,192,23803,1,0,0:0:0:0:
192,192,23922,1,0,0:0:0:0:
192,192,24041,1,0,0:0:0:0:
64,192,24041,1,0,0:0:0:0:
320,192,24041,1,0,0:0:0:0:
448,192,24041,1,0,0:0:0:0:
320,192,24160,1,0,0:0:0:0:
320,192,24279,1,0,0:0:0:0:
448,192,24279,1,0,0:0:0:0:
192,192,24279,1,0,0:0:0:0:
64,192,24279,1,0,0:0:0:0:
192,192,24398,1,0,0:0:0:0:
192,192,24517,1,0,0:0:0:0:
64,192,24517,1,0,0:0:0:0:
320,192,24517,1,0,0:0:0:0:
448,192,24517,1,0,0:0:0:0:
448,192,24637,1,0,0:0:0:0:
448,192,24756,1,0,0:0:0:0:
320,192,24756,1,0,0:0:0:0:
192,192,24756,1,0,0:0:0:0:
64,192,24756,1,0,0:0:0:0:
64,192,24875,1,0,0:0:0:0:
64,192,24994,1,0,0:0:0:0:
192,192,24994,1,0,0:0:0:0:
320,192,24994,1,0,0:0:0:0:
448,192,24994,1,0,0:0:0:0:
320,192,25113,1,0,0:0:0:0:
320,192,25232,1,0,0:0:0:0:
448,192,25232,1,0,0:0:0:0:
192,192,25232,1,0,0:0:0:0:
64,192,25232,1,0,0:0:0:0:
192,192,25351,1,0,0:0:0:0:
192,192,25470,1,0,0:0:0:0:
64,192,25470,1,0,0:0:0:0:
320,192,25470,1,0,0:0:0:0:
448,192,25470,1,0,0:0:0:0:
448,192,25589,1,0,0:0:0:0:
448,192,25708,1,0,0:0:0:0:
320,192,25708,1,0,0:0:0:0:
192,192,25708,1,0,0:0:0:0:
64,192,25708,1,0,0:0:0:0:
192,192,25827,1,0,0:0:0:0:
192,192,25946,1,0,0:0:0:0:
64,192,25946,1,0,0:0:0:0:
320,192,25946,1,0,0:0:0:0:
448,192,25946,1,0,0:0:0:0:
64,192,26065,1,0,0:0:0:0:
64,192,26184,1,0,0:0:0:0:
192,192,26184,1,0,0:0:0:0:
320,192,26184,1,0,0:0:0:0:
448,192,26184,1,0,0:0:0:0:
448,192,26303,1,0,0:0:0:0:
448,192,26422,1,0,0:0:0:0:
320,192,26422,1,0,0:0:0:0:
192,192,26422,1,0,0:0:0:0:
64,192,26422,1,0,0:0:0:0:
192,192,26541,1,0,0:0:0:0:
192,192,26660,1,0,0:0:0:0:
64,192,26660,1,0,0:0:0:0:
320,192,26660,1,0,0:0:0:0:
448,192,26660,1,0,0:0:0:0:
448,192,26779,1,0,0:0:0:0:
448,192,26898,1,0,0:0:0:0:
320,192,26898,1,0,0:0:0:0:
192,192,26898,1,0,0:0:0:0:
64,192,26898,1,0,0:0:0:0:
192,192,27017,1,0,0:0:0:0:
192,192,27137,1,0,0:0:0:0:
64,192,27137,1,0,0:0:0:0:
448,192,27137,1,0,0:0:0:0:
64,192,27256,1,0,0:0:0:0:
192,192,27256,1,0,0:0:0:0:
448,192,27256,1,0,0:0:0:0:
448,192,27375,1,0,0:0:0:0:
320,192,27375,1,0,0:0:0:0:
64,192,27375,1,0,0:0:0:0:
320,192,27494,1,0,0:0:0:0:
448,192,27613,1,0,0:0:0:0:
320,192,27613,1,0,0:0:0:0:
192,192,27613,1,0,0:0:0:0:
64,192,27613,1,0,0:0:0:0:
448,192,27732,1,0,0:0:0:0:
448,192,27851,1,0,0:0:0:0:
320,192,27851,1,0,0:0:0:0:
192,192,27851,1,0,0:0:0:0:
64,192,27851,1,0,0:0:0:0:
64,192,27970,1,0,0:0:0:0:
64,192,28089,1,0,0:0:0:0:
320,192,28089,1,0,0:0:0:0:
192,192,28089,1,0,0:0:0:0:
448,192,28089,1,0,0:0:0:0:
320,192,28208,1,0,0:0:0:0:
320,192,28327,1,0,0:0:0:0:
448,192,28327,1,0,0:0:0:0:
192,192,28327,1,0,0:0:0:0:
64,192,28327,1,0,0:0:0:0:
192,192,28446,1,0,0:0:0:0:
192,192,28565,1,0,0:0:0:0:
64,192,28565,1,0,0:0:0:0:
320,192,28565,1,0,0:0:0:0:
448,192,28565,1,0,0:0:0:0:
448,192,28684,1,0,0:0:0:0:
448,192,28803,1,0,0:0:0:0:
320,192,28803,1,0,0:0:0:0:
192,192,28803,1,0,0:0:0:0:
64,192,28803,1,0,0:0:0:0:
64,192,28922,1,0,0:0:0:0:
192,192,29041,1,0,0:0:0:0:
64,192,29041,1,0,0:0:0:0:
320,192,29041,1,0,0:0:0:0:
448,192,29041,1,0,0:0:0:0:
320,192,29160,1,0,0:0:0:0:
448,192,29279,1,0,0:0:0:0:
320,192,29279,1,0,0:0:0:0:
192,192,29279,1,0,0:0:0:0:
64,192,29279,1,0,0:0:0:0:
192,192,29398,1,0,0:0:0:0:
192,192,29517,1,0,0:0:0:0:
64,192,29517,1,0,0:0:0:0:
320,192,29517,1,0,0:0:0:0:
448,192,29517,1,0,0:0:0:0:
448,192,29637,1,0,0:0:0:0:
448,192,29756,1,0,0:0:0:0:
320,192,29756,1,0,0:0:0:0:
192,192,29756,1,0,0:0:0:0:
64,192,29756,1,0,0:0:0:0:
192,192,29875,1,0,0:0:0:0:
192,192,29994,1,0,0:0:0:0:
64,192,29994,1,0,0:0:0:0:
320,192,29994,1,0,0:0:0:0:
448,192,29994,1,0,0:0:0:0:
448,192,30113,1,0,0:0:0:0:
448,192,30232,1,0,0:0:0:0:
320,192,30232,1,0,0:0:0:0:
192,192,30232,1,0,0:0:0:0:
64,192,30232,1,0,0:0:0:0:
64,192,30351,1,0,0:0:0:0:
64,192,30470,1,0,0:0:0:0:
192,192,30470,1,0,0:0:0:0:
448,192,30470,1,0,0:0:0:0:
64,192,30589,1,0,0:0:0:0:
448,192,30589,1,0,0:0:0:0:
320,192,30589,1,0,0:0:0:0:
320,192,30708,1,0,0:0:0:0:
448,192,30827,1,0,0:0:0:0:
320,192,30827,1,0,0:0:0:0:
192,192,30827,1,0,0:0:0:0:
64,192,30827,1,0,0:0:0:0:
192,192,30946,1,0,0:0:0:0:
64,192,31065,1,0,0:0:0:0:
192,192,31065,1,0,0:0:0:0:
320,192,31065,1,0,0:0:0:0:
448,192,31065,1,0,0:0:0:0:
448,192,31184,1,0,0:0:0:0:
320,192,31184,1,0,0:0:0:0:
64,192,31184,1,0,0:0:0:0:
192,192,31303,1,0,0:0:0:0:
320,192,31303,1,0,0:0:0:0:
448,192,31422,1,0,0:0:0:0:
320,192,31422,1,0,0:0:0:0:
64,192,31422,1,0,0:0:0:0:
192,192,31422,1,0,0:0:0:0:
192,192,31541,1,0,0:0:0:0:
64,192,31541,1,0,0:0:0:0:
64,192,31660,1,0,0:0:0:0:
192,192,31660,1,0,0:0:0:0:
320,192,31660,1,0,0:0:0:0:
448,192,31660,1,0,0:0:0:0:
320,192,31779,1,0,0:0:0:0:
448,192,31779,1,0,0:0:0:0:
448,192,31898,1,0,0:0:0:0:
320,192,31898,1,0,0:0:0:0:
192,192,31898,1,0,0:0:0:0:
64,192,31898,1,0,0:0:0:0:
192,192,32017,1,0,0:0:0:0:
320,192,32017,1,0,0:0:0:0:
64,192,32137,1,0,0:0:0:0:
192,192,32137,1,0,0:0:0:0:
320,192,32137,1,0,0:0:0:0:
448,192,32137,1,0,0:0:0:0:
320,192,32256,1,0,0:0:0:0:
448,192,32256,1,0,0:0:0:0:
448,192,32375,1,0,0:0:0:0:
320,192,32375,1,0,0:0:0:0:
192,192,32375,1,0,0:0:0:0:
64,192,32375,1,0,0:0:0:0:
64,192,32494,1,0,0:0:0:0:
192,192,32494,1,0,0:0:0:0:
448,192,32613,1,0,0:0:0:0:
320,192,32613,1,0,0:0:0:0:
192,192,32613,1,0,0:0:0:0:
320,192,32732,1,0,0:0:0:0:
448,192,32732,1,0,0:0:0:0:
448,192,32851,1,0,0:0:0:0:
320,192,32851,1,0,0:0:0:0:
192,192,32851,1,0,0:0:0:0:
64,192,32851,1,0,0:0:0:0:
320,192,32970,1,0,0:0:0:0:
64,192,32970,1,0,0:0:0:0:
448,192,33089,1,0,0:0:0:0:
192,192,33089,1,0,0:0:0:0:
320,192,33089,1,0,0:0:0:0:
64,192,33089,1,0,0:0:0:0:
192,192,33208,1,0,0:0:0:0:
448,192,33208,1,0,0:0:0:0:
448,192,33327,1,0,0:0:0:0:
320,192,33327,1,0,0:0:0:0:
192,192,33327,1,0,0:0:0:0:
64,192,33327,1,0,0:0:0:0:
448,192,33446,1,0,0:0:0:0:
64,192,33446,1,0,0:0:0:0:
192,192,33565,1,0,0:0:0:0:
64,192,33565,1,0,0:0:0:0:
320,192,33565,1,0,0:0:0:0:
448,192,33565,1,0,0:0:0:0:
64,192,33684,1,0,0:0:0:0:
320,192,33684,1,0,0:0:0:0:
448,192,33803,1,0,0:0:0:0:
192,192,33803,1,0,0:0:0:0:
320,192,33803,1,0,0:0:0:0:
64,192,33803,1,0,0:0:0:0:
192,192,33922,1,0,0:0:0:0:
320,192,33922,1,0,0:0:0:0:
448,192,34041,1,0,0:0:0:0:
320,192,34041,1,0,0:0:0:0:
192,192,34041,1,0,0:0:0:0:
64,192,34041,1,0,0:0:0:0:
64,192,34160,1,0,0:0:0:0:
448,192,34160,1,0,0:0:0:0:
448,192,34279,1,0,0:0:0:0:
320,192,34279,1,0,0:0:0:0:
192,192,34279,1,0,0:0:0:0:
64,192,34279,1,0,0:0:0:0:
448,192,34398,1,0,0:0:0:0:
192,192,34398,1,0,0:0:0:0:
64,192,34517,1,0,0:0:0:0:
192,192,34517,1,0,0:0:0:0:
320,192,34517,1,0,0:0:0:0:
448,192,34517,1,0,0:0:0:0:
64,192,34637,1,0,0:0:0:0:
320,192,34637,1,0,0:0:0:0:
448,192,34756,1,0,0:0:0:0:
320,192,34756,1,0,0:0:0:0:
192,192,34756,1,0,0:0:0:0:
64,192,34756,1,0,0:0:0:0:
320,192,34875,1,0,0:0:0:0:
192,192,34875,1,0,0:0:0:0:
448,192,34994,1,0,0:0:0:0:
320,192,34994,1,0,0:0:0:0:
192,192,34994,1,0,0:0:0:0:
64,192,34994,1,0,0:0:0:0:
192,192,35113,1,0,0:0:0:0:
448,192,35113,1,0,0:0:0:0:
448,192,35232,1,0,0:0:0:0:
320,192,35232,1,0,0:0:0:0:
192,192,35232,1,0,0:0:0:0:
64,192,35232,1,0,0:0:0:0:
320,192,35351,1,0,0:0:0:0:
448,192,35351,1,0,0:0:0:0:
448,192,35470,1,0,0:0:0:0:
320,192,35470,1,0,0:0:0:0:
192,192,35470,1,0,0:0:0:0:
64,192,35470,1,0,0:0:0:0:
64,192,35589,1,0,0:0:0:0:
192,192,35589,1,0,0:0:0:0:
64,192,35708,1,0,0:0:0:0:
192,192,35708,1,0,0:0:0:0:
320,192,35708,1,0,0:0:0:0:
448,192,35708,1,0,0:0:0:0:
320,192,35827,1,0,0:0:0:0:
192,192,35827,1,0,0:0:0:0:
448,192,35946,1,0,0:0:0:0:
320,192,35946,1,0,0:0:0:0:
192,192,35946,1,0,0:0:0:0:
64,192,35946,1,0,0:0:0:0:
448,192,36065,1,0,0:0:0:0:
192,192,36065,1,0,0:0:0:0:
448,192,36184,1,0,0:0:0:0:
320,192,36184,1,0,0:0:0:0:
192,192,36184,1,0,0:0:0:0:
64,192,36184,1,0,0:0:0:0:
64,192,36303,1,0,0:0:0:0:
448,192,36303,1,0,0:0:0:0:
448,192,36422,1,0,0:0:0:0:
320,192,36422,1,0,0:0:0:0:
192,192,36422,1,0,0:0:0:0:
64,192,36422,1,0,0:0:0:0:
320,192,36541,1,0,0:0:0:0:
192,192,36541,1,0,0:0:0:0:
448,192,36660,1,0,0:0:0:0:
320,192,36660,1,0,0:0:0:0:
192,192,36660,1,0,0:0:0:0:
64,192,36660,1,0,0:0:0:0:
192,192,36779,1,0,0:0:0:0:
320,192,36779,1,0,0:0:0:0:
448,192,36898,1,0,0:0:0:0:
320,192,36898,1,0,0:0:0:0:
192,192,36898,1,0,0:0:0:0:
64,192,36898,1,0,0:0:0:0:
64,192,37017,1,0,0:0:0:0:
192,192,37017,1,0,0:0:0:0:
448,192,37137,1,0,0:0:0:0:
320,192,37137,1,0,0:0:0:0:
192,192,37137,1,0,0:0:0:0:
64,192,37137,1,0,0:0:0:0:
448,192,37256,1,0,0:0:0:0:
192,192,37256,1,0,0:0:0:0:
448,192,37375,1,0,0:0:0:0:
320,192,37375,1,0,0:0:0:0:
64,192,37375,1,0,0:0:0:0:
192,192,37375,1,0,0:0:0:0:
448,192,37494,1,0,0:0:0:0:
320,192,37494,1,0,0:0:0:0:
448,192,37613,1,0,0:0:0:0:
320,192,37613,1,0,0:0:0:0:
192,192,37613,1,0,0:0:0:0:
64,192,37613,1,0,0:0:0:0:
320,192,37732,1,0,0:0:0:0:
64,192,37732,1,0,0:0:0:0:
448,192,37851,1,0,0:0:0:0:
320,192,37851,1,0,0:0:0:0:
192,192,37851,1,0,0:0:0:0:
64,192,37851,1,0,0:0:0:0:
192,192,37970,1,0,0:0:0:0:
320,192,37970,1,0,0:0:0:0:
448,192,38089,1,0,0:0:0:0:
320,192,38089,1,0,0:0:0:0:
192,192,38089,1,0,0:0:0:0:
64,192,38089,1,0,0:0:0:0:
192,192,38208,1,0,0:0:0:0:
448,192,38208,1,0,0:0:0:0:
448,192,38327,1,0,0:0:0:0:
320,192,38327,1,0,0:0:0:0:
192,192,38327,1,0,0:0:0:0:
64,192,38327,1,0,0:0:0:0:
320,192,38446,1,0,0:0:0:0:
192,192,38446,1,0,0:0:0:0:
64,192,38565,1,0,0:0:0:0:
192,192,38565,1,0,0:0:0:0:
320,192,38565,1,0,0:0:0:0:
448,192,38565,1,0,0:0:0:0:
448,192,38684,1,0,0:0:0:0:
192,192,38684,1,0,0:0:0:0:
64,192,38803,1,0,0:0:0:0:
192,192,38803,1,0,0:0:0:0:
320,192,38803,1,0,0:0:0:0:
448,192,38803,1,0,0:0:0:0:
448,192,38922,1,0,0:0:0:0:
320,192,38922,1,0,0:0:0:0:
64,192,39041,1,0,0:0:0:0:
192,192,39041,1,0,0:0:0:0:
320,192,39041,1,0,0:0:0:0:
448,192,39041,1,0,0:0:0:0:
64,192,39160,1,0,0:0:0:0:
320,192,39160,1,0,0:0:0:0:
448,192,39279,1,0,0:0:0:0:
320,192,39279,1,0,0:0:0:0:
192,192,39279,1,0,0:0:0:0:
64,192,39279,1,0,0:0:0:0:
192,192,39398,1,0,0:0:0:0:
320,192,39398,1,0,0:0:0:0:
448,192,39517,1,0,0:0:0:0:
320,192,39517,1,0,0:0:0:0:
192,192,39517,1,0,0:0:0:0:
64,192,39517,1,0,0:0:0:0:
320,192,39637,1,0,0:0:0:0:
64,192,39637,1,0,0:0:0:0:
64,192,39756,1,0,0:0:0:0:
192,192,39756,1,0,0:0:0:0:
320,192,39756,1,0,0:0:0:0:
448,192,39756,1,0,0:0:0:0:
320,192,39875,1,0,0:0:0:0:
448,192,39875,1,0,0:0:0:0:
448,192,39994,1,0,0:0:0:0:
320,192,39994,1,0,0:0:0:0:
192,192,39994,1,0,0:0:0:0:
64,192,39994,1,0,0:0:0:0:
448,192,40113,1,0,0:0:0:0:
64,192,40113,1,0,0:0:0:0:
448,192,40232,1,0,0:0:0:0:
320,192,40232,1,0,0:0:0:0:
192,192,40232,1,0,0:0:0:0:
64,192,40232,1,0,0:0:0:0:
192,192,40351,1,0,0:0:0:0:
320,192,40351,1,0,0:0:0:0:
64,192,40470,1,0,0:0:0:0:
192,192,40470,1,0,0:0:0:0:
320,192,40470,1,0,0:0:0:0:
448,192,40470,1,0,0:0:0:0:
64,192,40589,1,0,0:0:0:0:
448,192,40589,1,0,0:0:0:0:
448,192,40708,1,0,0:0:0:0:
320,192,40708,1,0,0:0:0:0:
192,192,40708,1,0,0:0:0:0:
64,192,40708,1,0,0:0:0:0:
448,192,40827,1,0,0:0:0:0:
320,192,40827,1,0,0:0:0:0:
64,192,40946,1,0,0:0:0:0:
192,192,40946,1,0,0:0:0:0:
320,192,40946,1,0,0:0:0:0:
448,192,40946,1,0,0:0:0:0:
192,192,41065,1,0,0:0:0:0:
64,192,41065,1,0,0:0:0:0:
448,192,41184,1,0,0:0:0:0:
320,192,41184,1,0,0:0:0:0:
192,192,41184,1,0,0:0:0:0:
64,192,41184,1,0,0:0:0:0:
192,192,41303,1,0,0:0:0:0:
448,192,41303,1,0,0:0:0:0:
320,192,41422,1,0,0:0:0:0:
448,192,41422,1,0,0:0:0:0:
192,192,41422,1,0,0:0:0:0:
64,192,41422,1,0,0:0:0:0:
320,192,41541,1,0,0:0:0:0:
448,192,41541,1,0,0:0:0:0:
448,192,41660,1,0,0:0:0:0:
320,192,41660,1,0,0:0:0:0:
192,192,41660,1,0,0:0:0:0:
64,192,41660,1,0,0:0:0:0:
64,192,41779,1,0,0:0:0:0:
320,192,41779,1,0,0:0:0:0:
448,192,41898,1,0,0:0:0:0:
320,192,41898,1,0,0:0:0:0:
192,192,41898,1,0,0:0:0:0:
64,192,41898,1,0,0:0:0:0:
448,192,42017,1,0,0:0:0:0:
192,192,42017,1,0,0:0:0:0:
448,192,42137,1,0,0:0:0:0:
320,192,42137,1,0,0:0:0:0:
192,192,42137,1,0,0:0:0:0:
64,192,42137,1,0,0:0:0:0:
192,192,42256,1,0,0:0:0:0:
320,192,42256,1,0,0:0:0:0:
448,192,42375,1,0,0:0:0:0:
320,192,42375,1,0,0:0:0:0:
192,192,42375,1,0,0:0:0:0:
64,192,42375,1,0,0:0:0:0:
64,192,42494,1,0,0:0:0:0:
320,192,42494,1,0,0:0:0:0:
448,192,42494,1,0,0:0:0:0:
64,192,42613,1,0,0:0:0:0:
192,192,42613,1,0,0:0:0:0:
320,192,42613,1,0,0:0:0:0:
64,192,42732,1,0,0:0:0:0:
320,192,42732,1,0,0:0:0:0:
64,192,42851,1,0,0:0:0:0:
192,192,42851,1,0,0:0:0:0:
448,192,42851,1,0,0:0:0:0:
64,192,42970,1,0,0:0:0:0:
320,192,42970,1,0,0:0:0:0:
64,192,43089,1,0,0:0:0:0:
192,192,43089,1,0,0:0:0:0:
448,192,43089,1,0,0:0:0:0:
64,192,43208,1,0,0:0:0:0:
320,192,43208,1,0,0:0:0:0:
64,192,43327,1,0,0:0:0:0:
320,192,43327,1,0,0:0:0:0:
192,192,43327,1,0,0:0:0:0:
64,192,43446,1,0,0:0:0:0:
448,192,43446,1,0,0:0:0:0:
64,192,43565,1,0,0:0:0:0:
448,192,43565,1,0,0:0:0:0:
192,192,43565,1,0,0:0:0:0:
64,192,43684,1,0,0:0:0:0:
320,192,43684,1,0,0:0:0:0:
64,192,43803,1,0,0:0:0:0:
320,192,43803,1,0,0:0:0:0:
192,192,43803,1,0,0:0:0:0:
64,192,43922,1,0,0:0:0:0:
448,192,43922,1,0,0:0:0:0:
64,192,44041,1,0,0:0:0:0:
448,192,44041,1,0,0:0:0:0:
192,192,44041,1,0,0:0:0:0:
64,192,44160,1,0,0:0:0:0:
320,192,44160,1,0,0:0:0:0:
64,192,44279,1,0,0:0:0:0:
192,192,44279,1,0,0:0:0:0:
320,192,44279,1,0,0:0:0:0:
64,192,44398,1,0,0:0:0:0:
320,192,44398,1,0,0:0:0:0:
64,192,44517,1,0,0:0:0:0:
192,192,44517,1,0,0:0:0:0:
448,192,44517,1,0,0:0:0:0:
64,192,44637,1,0,0:0:0:0:
320,192,44637,1,0,0:0:0:0:
64,192,44756,1,0,0:0:0:0:
192,192,44756,1,0,0:0:0:0:
320,192,44756,1,0,0:0:0:0:
64,192,44875,1,0,0:0:0:0:
448,192,44875,1,0,0:0:0:0:
64,192,44994,1,0,0:0:0:0:
192,192,44994,1,0,0:0:0:0:
448,192,44994,1,0,0:0:0:0:
64,192,45113,1,0,0:0:0:0:
320,192,45113,1,0,0:0:0:0:
64,192,45232,1,0,0:0:0:0:
192,192,45232,1,0,0:0:0:0:
320,192,45232,1,0,0:0:0:0:
64,192,45351,1,0,0:0:0:0:
320,192,45351,1,0,0:0:0:0:
64,192,45470,1,0,0:0:0:0:
192,192,45470,1,0,0:0:0:0:
448,192,45470,1,0,0:0:0:0:
64,192,45589,1,0,0:0:0:0:
448,192,45589,1,0,0:0:0:0:
64,192,45708,1,0,0:0:0:0:
192,192,45708,1,0,0:0:0:0:
320,192,45708,1,0,0:0:0:0:
448,192,45827,1,0,0:0:0:0:
320,192,45827,1,0,0:0:0:0:
192,192,45827,1,0,0:0:0:0:
192,192,45946,1,0,0:0:0:0:
320,192,45946,1,0,0:0:0:0:
64,192,45946,1,0,0:0:0:0:
448,192,46065,1,0,0:0:0:0:
320,192,46065,1,0,0:0:0:0:
64,192,46065,1,0,0:0:0:0:
192,192,46184,1,0,0:0:0:0:
64,192,46184,1,0,0:0:0:0:
448,192,46184,1,0,0:0:0:0:
448,192,46303,1,0,0:0:0:0:
320,192,46303,1,0,0:0:0:0:
192,192,46303,1,0,0:0:0:0:
64,192,46303,1,0,0:0:0:0:
64,192,46422,1,0,0:0:0:0:
64,192,46541,1,0,0:0:0:0:
64,192,46660,1,0,0:0:0:0:
64,192,46779,1,0,0:0:0:0:
320,192,46779,1,0,0:0:0:0:
64,192,46898,1,0,0:0:0:0:
64,192,47017,1,0,0:0:0:0:
64,192,47137,1,0,0:0:0:0:
448,192,47256,128,0,47375:0:0:0:0:
64,192,47375,1,0,0:0:0:0:
64,192,47494,1,0,0:0:0:0:
64,192,47613,1,0,0:0:0:0:
64,192,47732,1,0,0:0:0:0:
320,192,47732,1,0,0:0:0:0:
64,192,47851,1,0,0:0:0:0:
64,192,47970,1,0,0:0:0:0:
64,192,48089,1,0,0:0:0:0:
448,192,48208,128,0,48446:0:0:0:0:
64,192,48446,1,0,0:0:0:0:
64,192,48565,1,0,0:0:0:0:
64,192,48684,1,0,0:0:0:0:
320,192,48684,1,0,0:0:0:0:
64,192,48803,1,0,0:0:0:0:
64,192,48922,1,0,0:0:0:0:
64,192,49041,1,0,0:0:0:0:
448,192,49160,128,0,49398:0:0:0:0:
192,192,49160,128,0,49398:0:0:0:0:
320,192,49398,128,0,49637:0:0:0:0:
64,192,49398,128,0,49637:0:0:0:0:
192,192,49637,128,0,49994:0:0:0:0:
448,192,49637,128,0,49994:0:0:0:0:
320,192,49875,1,0,0:0:0:0:
192,192,50113,1,0,0:0:0:0:
64,192,50113,1,0,0:0:0:0:
448,192,50113,128,0,50351:0:0:0:0:
320,192,50351,1,0,0:0:0:0:
320,192,50470,1,0,0:0:0:0:
192,192,50589,1,0,0:0:0:0:
64,192,50589,1,0,0:0:0:0:
320,192,50589,1,0,0:0:0:0:
320,192,50708,1,0,0:0:0:0:
320,192,50827,1,0,0:0:0:0:
320,192,50946,1,0,0:0:0:0:
192,192,51065,1,0,0:0:0:0:
64,192,51065,1,0,0:0:0:0:
448,192,51065,128,0,51303:0:0:0:0:
320,192,51303,1,0,0:0:0:0:
320,192,51422,1,0,0:0:0:0:
192,192,51541,1,0,0:0:0:0:
64,192,51541,1,0,0:0:0:0:
320,192,51541,1,0,0:0:0:0:
320,192,51660,1,0,0:0:0:0:
320,192,51779,1,0,0:0:0:0:
320,192,51898,1,0,0:0:0:0:
192,192,52017,1,0,0:0:0:0:
64,192,52017,1,0,0:0:0:0:
448,192,52017,128,0,52256:0:0:0:0:
320,192,52256,1,0,0:0:0:0:
192,192,52256,1,0,0:0:0:0:
64,192,52256,1,0,0:0:0:0:
320,192,52375,1,0,0:0:0:0:
320,192,52494,1,0,0:0:0:0:
192,192,52494,1,0,0:0:0:0:
64,192,52494,1,0,0:0:0:0:
320,192,52613,1,0,0:0:0:0:
320,192,52732,1,0,0:0:0:0:
192,192,52732,1,0,0:0:0:0:
64,192,52732,1,0,0:0:0:0:
320,192,52851,1,0,0:0:0:0:
64,192,52970,1,0,0:0:0:0:
448,192,52970,1,0,0:0:0:0:
192,192,53029,1,0,0:0:0:0:
320,192,53089,1,0,0:0:0:0:
448,192,53148,1,0,0:0:0:0:
64,192,53208,1,0,0:0:0:0:
320,192,53208,1,0,0:0:0:0:
192,192,53267,1,0,0:0:0:0:
448,192,53327,1,0,0:0:0:0:
320,192,53387,1,0,0:0:0:0:
448,192,53446,1,0,0:0:0:0:
64,192,53446,1,0,0:0:0:0:
320,192,53506,1,0,0:0:0:0:
192,192,53565,1,0,0:0:0:0:
64,192,53565,1,0,0:0:0:0:
448,192,53625,1,0,0:0:0:0:
192,192,53684,1,0,0:0:0:0:
320,192,53684,1,0,0:0:0:0:
448,192,53744,1,0,0:0:0:0:
192,192,53803,1,0,0:0:0:0:
64,192,53803,1,0,0:0:0:0:
320,192,53863,1,0,0:0:0:0:
448,192,53863,1,0,0:0:0:0:
64,192,53922,1,0,0:0:0:0:
192,192,53922,1,0,0:0:0:0:
320,192,54041,1,0,0:0:0:0:
320,192,54160,1,0,0:0:0:0:
448,192,54160,1,0,0:0:0:0:
64,192,54160,1,0,0:0:0:0:
448,192,54279,1,0,0:0:0:0:
192,192,54279,1,0,0:0:0:0:
320,192,54398,1,0,0:0:0:0:
64,192,54398,1,0,0:0:0:0:
192,192,54517,1,0,0:0:0:0:
192,192,54637,1,0,0:0:0:0:
448,192,54637,1,0,0:0:0:0:
320,192,54637,1,0,0:0:0:0:
64,192,54756,1,0,0:0:0:0:
64,192,54875,1,0,0:0:0:0:
320,192,54875,1,0,0:0:0:0:
192,192,54875,1,0,0:0:0:0:
448,192,54994,1,0,0:0:0:0:
448,192,55113,1,0,0:0:0:0:
320,192,55113,1,0,0:0:0:0:
192,192,55113,1,0,0:0:0:0:
64,192,55232,1,0,0:0:0:0:
320,192,55232,1,0,0:0:0:0:
192,192,55351,1,0,0:0:0:0:
448,192,55470,1,0,0:0:0:0:
448,192,55589,1,0,0:0:0:0:
192,192,55589,1,0,0:0:0:0:
64,192,55589,1,0,0:0:0:0:
320,192,55708,1,0,0:0:0:0:
448,192,55708,1,0,0:0:0:0:
64,192,55827,1,0,0:0:0:0:
192,192,55827,1,0,0:0:0:0:
320,192,55827,1,0,0:0:0:0:
64,192,55946,1,0,0:0:0:0:
192,192,56065,1,0,0:0:0:0:
320,192,56065,1,0,0:0:0:0:
448,192,56065,1,0,0:0:0:0:
64,192,56184,1,0,0:0:0:0:
320,192,56184,1,0,0:0:0:0:
448,192,56303,1,0,0:0:0:0:
192,192,56303,1,0,0:0:0:0:
448,192,56422,1,0,0:0:0:0:
192,192,56422,1,0,0:0:0:0:
64,192,56541,1,0,0:0:0:0:
192,192,56541,1,0,0:0:0:0:
320,192,56541,1,0,0:0:0:0:
320,192,56660,1,0,0:0:0:0:
448,192,56660,1,0,0:0:0:0:
192,192,56779,1,0,0:0:0:0:
448,192,56779,1,0,0:0:0:0:
64,192,56779,1,0,0:0:0:0:
320,192,56898,1,0,0:0:0:0:
192,192,56898,1,0,0:0:0:0:
64,192,57017,1,0,0:0:0:0:
320,192,57017,1,0,0:0:0:0:
448,192,57017,1,0,0:0:0:0:
192,192,57137,1,0,0:0:0:0:
320,192,57137,1,0,0:0:0:0:
64,192,57256,1,0,0:0:0:0:
192,192,57256,1,0,0:0:0:0:
448,192,57375,1,0,0:0:0:0:
320,192,57375,1,0,0:0:0:0:
448,192,57494,1,0,0:0:0:0:
320,192,57494,1,0,0:0:0:0:
64,192,57494,1,0,0:0:0:0:
64,192,57613,1,0,0:0:0:0:
192,192,57613,1,0,0:0:0:0:
320,192,57613,1,0,0:0:0:0:
448,192,57732,1,0,0:0:0:0:
320,192,57732,1,0,0:0:0:0:
192,192,57732,1,0,0:0:0:0:
192,192,57851,1,0,0:0:0:0:
64,192,57970,1,0,0:0:0:0:
320,192,57970,1,0,0:0:0:0:
448,192,57970,1,0,0:0:0:0:
192,192,58089,1,0,0:0:0:0:
320,192,58089,1,0,0:0:0:0:
64,192,58208,1,0,0:0:0:0:
192,192,58208,1,0,0:0:0:0:
448,192,58327,1,0,0:0:0:0:
320,192,58327,1,0,0:0:0:0:
64,192,58327,1,0,0:0:0:0:
192,192,58446,1,0,0:0:0:0:
320,192,58446,1,0,0:0:0:0:
448,192,58446,1,0,0:0:0:0:
448,192,58565,1,0,0:0:0:0:
320,192,58565,1,0,0:0:0:0:
192,192,58565,1,0,0:0:0:0:
64,192,58684,1,0,0:0:0:0:
192,192,58684,1,0,0:0:0:0:
320,192,58684,1,0,0:0:0:0:
448,192,58803,1,0,0:0:0:0:
64,192,58922,1,0,0:0:0:0:
448,192,58922,1,0,0:0:0:0:
192,192,58922,1,0,0:0:0:0:
64,192,59041,1,0,0:0:0:0:
448,192,59041,1,0,0:0:0:0:
320,192,59041,1,0,0:0:0:0:
192,192,59160,1,0,0:0:0:0:
448,192,59279,1,0,0:0:0:0:
320,192,59398,1,0,0:0:0:0:
64,192,59398,1,0,0:0:0:0:
192,192,59398,1,0,0:0:0:0:
320,192,59517,1,0,0:0:0:0:
448,192,59517,1,0,0:0:0:0:
64,192,59517,1,0,0:0:0:0:
64,192,59637,1,0,0:0:0:0:
192,192,59637,1,0,0:0:0:0:
320,192,59637,1,0,0:0:0:0:
448,192,59756,1,0,0:0:0:0:
448,192,59875,1,0,0:0:0:0:
320,192,59875,1,0,0:0:0:0:
192,192,59875,1,0,0:0:0:0:
64,192,59994,1,0,0:0:0:0:
192,192,59994,1,0,0:0:0:0:
320,192,59994,1,0,0:0:0:0:
448,192,60113,1,0,0:0:0:0:
448,192,60232,1,0,0:0:0:0:
320,192,60351,1,0,0:0:0:0:
192,192,60351,1,0,0:0:0:0:
64,192,60351,1,0,0:0:0:0:
320,192,60470,1,0,0:0:0:0:
448,192,60470,1,0,0:0:0:0:
64,192,60589,1,0,0:0:0:0:
192,192,60589,1,0,0:0:0:0:
320,192,60668,1,0,0:0:0:0:
192,192,60748,1,0,0:0:0:0:
64,192,60827,1,0,0:0:0:0:
448,192,60827,1,0,0:0:0:0:
320,192,60906,1,0,0:0:0:0:
192,192,60986,1,0,0:0:0:0:
64,192,61065,1,0,0:0:0:0:
320,192,61065,1,0,0:0:0:0:
448,192,61144,1,0,0:0:0:0:
320,192,61224,1,0,0:0:0:0:
64,192,61303,1,0,0:0:0:0:
192,192,61303,1,0,0:0:0:0:
320,192,61383,1,0,0:0:0:0:
448,192,61383,1,0,0:0:0:0:
64,192,61462,1,0,0:0:0:0:
192,192,61462,1,0,0:0:0:0:
320,192,61541,1,0,0:0:0:0:
448,192,61541,1,0,0:0:0:0:
192,192,61660,1,0,0:0:0:0:
448,192,61779,1,0,0:0:0:0:
64,192,61779,1,0,0:0:0:0:
192,192,61779,1,0,0:0:0:0:
320,192,61898,1,0,0:0:0:0:
64,192,61898,1,0,0:0:0:0:
448,192,62017,1,0,0:0:0:0:
192,192,62017,1,0,0:0:0:0:
320,192,62137,1,0,0:0:0:0:
192,192,62256,1,0,0:0:0:0:
64,192,62256,1,0,0:0:0:0:
320,192,62256,1,0,0:0:0:0:
448,192,62375,1,0,0:0:0:0:
320,192,62494,1,0,0:0:0:0:
192,192,62494,1,0,0:0:0:0:
448,192,62494,1,0,0:0:0:0:
64,192,62613,1,0,0:0:0:0:
320,192,62732,1,0,0:0:0:0:
192,192,62732,1,0,0:0:0:0:
64,192,62732,1,0,0:0:0:0:
192,192,62851,1,0,0:0:0:0:
448,192,62851,1,0,0:0:0:0:
320,192,62970,1,0,0:0:0:0:
64,192,63089,1,0,0:0:0:0:
448,192,63208,1,0,0:0:0:0:
320,192,63208,1,0,0:0:0:0:
64,192,63208,1,0,0:0:0:0:
64,192,63327,1,0,0:0:0:0:
192,192,63327,1,0,0:0:0:0:
192,192,63446,1,0,0:0:0:0:
320,192,63446,1,0,0:0:0:0:
448,192,63446,1,0,0:0:0:0:
448,192,63565,1,0,0:0:0:0:
64,192,63684,1,0,0:0:0:0:
192,192,63684,1,0,0:0:0:0:
320,192,63684,1,0,0:0:0:0:
192,192,63803,1,0,0:0:0:0:
448,192,63803,1,0,0:0:0:0:
320,192,63922,1,0,0:0:0:0:
64,192,63922,1,0,0:0:0:0:
320,192,64041,1,0,0:0:0:0:
64,192,64041,1,0,0:0:0:0:
192,192,64160,1,0,0:0:0:0:
320,192,64160,1,0,0:0:0:0:
448,192,64160,1,0,0:0:0:0:
64,192,64279,1,0,0:0:0:0:
192,192,64279,1,0,0:0:0:0:
448,192,64398,1,0,0:0:0:0:
64,192,64398,1,0,0:0:0:0:
320,192,64398,1,0,0:0:0:0:
320,192,64517,1,0,0:0:0:0:
192,192,64517,1,0,0:0:0:0:
64,192,64637,1,0,0:0:0:0:
192,192,64637,1,0,0:0:0:0:
448,192,64637,1,0,0:0:0:0:
192,192,64756,1,0,0:0:0:0:
320,192,64756,1,0,0:0:0:0:
320,192,64875,1,0,0:0:0:0:
448,192,64875,1,0,0:0:0:0:
192,192,64994,1,0,0:0:0:0:
64,192,64994,1,0,0:0:0:0:
448,192,65113,1,0,0:0:0:0:
192,192,65113,1,0,0:0:0:0:
64,192,65113,1,0,0:0:0:0:
192,192,65232,1,0,0:0:0:0:
320,192,65232,1,0,0:0:0:0:
448,192,65232,1,0,0:0:0:0:
320,192,65351,1,0,0:0:0:0:
192,192,65351,1,0,0:0:0:0:
64,192,65351,1,0,0:0:0:0:
320,192,65470,1,0,0:0:0:0:
64,192,65589,1,0,0:0:0:0:
192,192,65589,1,0,0:0:0:0:
448,192,65589,1,0,0:0:0:0:
192,192,65708,1,0,0:0:0:0:
320,192,65708,1,0,0:0:0:0:
320,192,65827,1,0,0:0:0:0:
448,192,65827,1,0,0:0:0:0:
448,192,65946,1,0,0:0:0:0:
192,192,65946,1,0,0:0:0:0:
64,192,65946,1,0,0:0:0:0:
64,192,66065,1,0,0:0:0:0:
192,192,66065,1,0,0:0:0:0:
320,192,66065,1,0,0:0:0:0:
320,192,66184,1,0,0:0:0:0:
192,192,66184,1,0,0:0:0:0:
64,192,66184,1,0,0:0:0:0:
192,192,66303,1,0,0:0:0:0:
320,192,66303,1,0,0:0:0:0:
448,192,66303,1,0,0:0:0:0:
64,192,66422,1,0,0:0:0:0:
320,192,66541,1,0,0:0:0:0:
64,192,66541,1,0,0:0:0:0:
448,192,66541,1,0,0:0:0:0:
192,192,66660,1,0,0:0:0:0:
64,192,66660,1,0,0:0:0:0:
448,192,66660,1,0,0:0:0:0:
320,192,66779,1,0,0:0:0:0:
64,192,66898,1,0,0:0:0:0:
320,192,67017,1,0,0:0:0:0:
448,192,67017,1,0,0:0:0:0:
192,192,67017,1,0,0:0:0:0:
448,192,67137,1,0,0:0:0:0:
64,192,67137,1,0,0:0:0:0:
192,192,67137,1,0,0:0:0:0:
192,192,67256,1,0,0:0:0:0:
320,192,67256,1,0,0:0:0:0:
448,192,67256,1,0,0:0:0:0:
64,192,67375,1,0,0:0:0:0:
320,192,67494,1,0,0:0:0:0:
192,192,67494,1,0,0:0:0:0:
64,192,67494,1,0,0:0:0:0:
192,192,67613,1,0,0:0:0:0:
320,192,67613,1,0,0:0:0:0:
448,192,67613,1,0,0:0:0:0:
64,192,67732,1,0,0:0:0:0:
64,192,67851,1,0,0:0:0:0:
448,192,67970,1,0,0:0:0:0:
320,192,67970,1,0,0:0:0:0:
192,192,67970,1,0,0:0:0:0:
64,192,68089,1,0,0:0:0:0:
192,192,68089,1,0,0:0:0:0:
320,192,68208,1,0,0:0:0:0:
448,192,68208,1,0,0:0:0:0:
192,192,68287,1,0,0:0:0:0:
320,192,68367,1,0,0:0:0:0:
64,192,68446,1,0,0:0:0:0:
448,192,68446,1,0,0:0:0:0:
192,192,68525,1,0,0:0:0:0:
320,192,68605,1,0,0:0:0:0:
192,192,68684,1,0,0:0:0:0:
448,192,68684,1,0,0:0:0:0:
64,192,68764,1,0,0:0:0:0:
192,192,68843,1,0,0:0:0:0:
320,192,68922,1,0,0:0:0:0:
448,192,68922,1,0,0:0:0:0:
64,192,69002,1,0,0:0:0:0:
192,192,69002,1,0,0:0:0:0:
320,192,69081,1,0,0:0:0:0:
448,192,69081,1,0,0:0:0:0:
192,192,69160,1,0,0:0:0:0:
64,192,69160,1,0,0:0:0:0:
320,192,69160,1,0,0:0:0:0:
448,192,69160,1,0,0:0:0:0:
64,192,69398,1,0,0:0:0:0:
320,192,69398,1,0,0:0:0:0:
448,192,69517,1,0,0:0:0:0:
320,192,69517,1,0,0:0:0:0:
192,192,69517,1,0,0:0:0:0:
64,192,69517,1,0,0:0:0:0:
320,192,69756,1,0,0:0:0:0:
192,192,69875,1,0,0:0:0:0:
192,192,69994,1,0,0:0:0:0:
64,192,70113,1,0,0:0:0:0:
320,192,70113,1,0,0:0:0:0:
448,192,70113,1,0,0:0:0:0:
192,192,70351,1,0,0:0:0:0:
448,192,70351,1,0,0:0:0:0:
448,192,70470,1,0,0:0:0:0:
320,192,70470,1,0,0:0:0:0:
192,192,70708,1,0,0:0:0:0:
64,192,70827,1,0,0:0:0:0:
320,192,70827,1,0,0:0:0:0:
64,192,70946,1,0,0:0:0:0:
320,192,70946,1,0,0:0:0:0:
64,192,71065,1,0,0:0:0:0:
192,192,71065,1,0,0:0:0:0:
320,192,71065,1,0,0:0:0:0:
448,192,71303,1,0,0:0:0:0:
192,192,71303,1,0,0:0:0:0:
448,192,71422,1,0,0:0:0:0:
320,192,71422,1,0,0:0:0:0:
192,192,71422,1,0,0:0:0:0:
64,192,71422,1,0,0:0:0:0:
192,192,71660,1,0,0:0:0:0:
64,192,71779,1,0,0:0:0:0:
64,192,71898,1,0,0:0:0:0:
64,192,72017,1,0,0:0:0:0:
192,192,72017,1,0,0:0:0:0:
320,192,72017,1,0,0:0:0:0:
448,192,72017,1,0,0:0:0:0:
64,192,72256,1,0,0:0:0:0:
192,192,72256,1,0,0:0:0:0:
320,192,72256,1,0,0:0:0:0:
448,192,72375,1,0,0:0:0:0:
320,192,72375,1,0,0:0:0:0:
192,192,72375,1,0,0:0:0:0:
64,192,72732,1,0,0:0:0:0:
192,192,72732,1,0,0:0:0:0:
448,192,72732,1,0,0:0:0:0:
64,192,72970,1,0,0:0:0:0:
192,192,72970,1,0,0:0:0:0:
320,192,72970,1,0,0:0:0:0:
448,192,72970,1,0,0:0:0:0:
192,192,73208,1,0,0:0:0:0:
448,192,73208,1,0,0:0:0:0:
448,192,73327,1,0,0:0:0:0:
320,192,73327,1,0,0:0:0:0:
192,192,73327,1,0,0:0:0:0:
64,192,73327,1,0,0:0:0:0:
192,192,73565,1,0,0:0:0:0:
320,192,73684,1,0,0:0:0:0:
320,192,73803,1,0,0:0:0:0:
64,192,73922,1,0,0:0:0:0:
192,192,73922,1,0,0:0:0:0:
448,192,73922,1,0,0:0:0:0:
192,192,74160,1,0,0:0:0:0:
320,192,74160,1,0,0:0:0:0:
64,192,74279,1,0,0:0:0:0:
320,192,74279,1,0,0:0:0:0:
320,192,74517,1,0,0:0:0:0:
192,192,74637,1,0,0:0:0:0:
448,192,74637,1,0,0:0:0:0:
320,192,74756,1,0,0:0:0:0:
64,192,74875,1,0,0:0:0:0:
192,192,74875,1,0,0:0:0:0:
448,192,74875,1,0,0:0:0:0:
320,192,75113,1,0,0:0:0:0:
192,192,75113,1,0,0:0:0:0:
448,192,75232,1,0,0:0:0:0:
320,192,75232,1,0,0:0:0:0:
192,192,75232,1,0,0:0:0:0:
64,192,75232,1,0,0:0:0:0:
64,192,75470,1,0,0:0:0:0:
64,192,75589,1,0,0:0:0:0:
320,192,75589,1,0,0:0:0:0:
448,192,75589,1,0,0:0:0:0:
192,192,75708,1,0,0:0:0:0:
64,192,75827,1,0,0:0:0:0:
192,192,75827,1,0,0:0:0:0:
320,192,75827,1,0,0:0:0:0:
448,192,75827,1,0,0:0:0:0:
192,192,76065,1,0,0:0:0:0:
320,192,76065,1,0,0:0:0:0:
448,192,76184,1,0,0:0:0:0:
320,192,76184,1,0,0:0:0:0:
192,192,76184,1,0,0:0:0:0:
192,192,76303,1,0,0:0:0:0:
64,192,76303,1,0,0:0:0:0:
448,192,76303,1,0,0:0:0:0:
64,192,76422,1,0,0:0:0:0:
192,192,76422,1,0,0:0:0:0:
448,192,76422,1,0,0:0:0:0:
64,192,76541,1,0,0:0:0:0:
192,192,76541,1,0,0:0:0:0:
448,192,76541,1,0,0:0:0:0:
448,192,76660,1,0,0:0:0:0:
192,192,76660,1,0,0:0:0:0:
64,192,76660,1,0,0:0:0:0:
64,192,76779,1,0,0:0:0:0:
192,192,76779,1,0,0:0:0:0:
320,192,76779,1,0,0:0:0:0:
448,192,76779,1,0,0:0:0:0:
320,192,76898,1,0,0:0:0:0:
64,192,77017,1,0,0:0:0:0:
192,192,77017,1,0,0:0:0:0:
448,192,77137,1,0,0:0:0:0:
64,192,77137,1,0,0:0:0:0:
320,192,77256,1,0,0:0:0:0:
192,192,77256,1,0,0:0:0:0:
192,192,77375,1,0,0:0:0:0:
448,192,77494,1,0,0:0:0:0:
320,192,77494,1,0,0:0:0:0:
448,192,77613,1,0,0:0:0:0:
64,192,77732,1,0,0:0:0:0:
192,192,77732,1,0,0:0:0:0:
320,192,77732,1,0,0:0:0:0:
192,192,77851,1,0,0:0:0:0:
448,192,77970,1,0,0:0:0:0:
320,192,77970,1,0,0:0:0:0:
64,192,77970,1,0,0:0:0:0:
320,192,78089,1,0,0:0:0:0:
448,192,78208,1,0,0:0:0:0:
192,192,78208,1,0,0:0:0:0:
64,192,78208,1,0,0:0:0:0:
64,192,78327,1,0,0:0:0:0:
192,192,78446,1,0,0:0:0:0:
448,192,78446,1,0,0:0:0:0:
320,192,78446,1,0,0:0:0:0:
192,192,78565,1,0,0:0:0:0:
320,192,78684,1,0,0:0:0:0:
448,192,78684,1,0,0:0:0:0:
64,192,78684,1,0,0:0:0:0:
448,192,78803,1,0,0:0:0:0:
320,192,78922,1,0,0:0:0:0:
64,192,78922,1,0,0:0:0:0:
320,192,79041,1,0,0:0:0:0:
192,192,79160,1,0,0:0:0:0:
448,192,79160,1,0,0:0:0:0:
448,192,79279,1,0,0:0:0:0:
192,192,79398,1,0,0:0:0:0:
64,192,79398,1,0,0:0:0:0:
192,192,79517,1,0,0:0:0:0:
64,192,79637,1,0,0:0:0:0:
448,192,79637,1,0,0:0:0:0:
320,192,79637,1,0,0:0:0:0:
320,192,79756,1,0,0:0:0:0:
448,192,79875,1,0,0:0:0:0:
192,192,79875,1,0,0:0:0:0:
64,192,79875,1,0,0:0:0:0:
192,192,79994,1,0,0:0:0:0:
64,192,80113,1,0,0:0:0:0:
320,192,80113,1,0,0:0:0:0:
448,192,80113,1,0,0:0:0:0:
64,192,80232,1,0,0:0:0:0:
448,192,80351,1,0,0:0:0:0:
320,192,80351,1,0,0:0:0:0:
192,192,80351,1,0,0:0:0:0:
320,192,80470,1,0,0:0:0:0:
192,192,80589,1,0,0:0:0:0:
448,192,80589,1,0,0:0:0:0:
64,192,80589,1,0,0:0:0:0:
192,192,80708,1,0,0:0:0:0:
64,192,80827,1,0,0:0:0:0:
448,192,80827,1,0,0:0:0:0:
448,192,80946,1,0,0:0:0:0:
320,192,81065,1,0,0:0:0:0:
192,192,81065,1,0,0:0:0:0:
320,192,81184,1,0,0:0:0:0:
64,192,81303,1,0,0:0:0:0:
192,192,81303,1,0,0:0:0:0:
64,192,81422,1,0,0:0:0:0:
192,192,81541,1,0,0:0:0:0:
448,192,81541,1,0,0:0:0:0:
320,192,81541,1,0,0:0:0:0:
192,192,81660,1,0,0:0:0:0:
448,192,81779,1,0,0:0:0:0:
320,192,81779,1,0,0:0:0:0:
64,192,81779,1,0,0:0:0:0:
320,192,81898,1,0,0:0:0:0:
192,192,82017,1,0,0:0:0:0:
64,192,82017,1,0,0:0:0:0:
448,192,82017,1,0,0:0:0:0:
192,192,82137,1,0,0:0:0:0:
448,192,82256,1,0,0:0:0:0:
64,192,82256,1,0,0:0:0:0:
320,192,82256,1,0,0:0:0:0:
448,192,82375,1,0,0:0:0:0:
320,192,82494,1,0,0:0:0:0:
64,192,82494,1,0,0:0:0:0:
192,192,82494,1,0,0:0:0:0:
192,192,82613,1,0,0:0:0:0:
448,192,82732,1,0,0:0:0:0:
64,192,82732,1,0,0:0:0:0:
448,192,82851,1,0,0:0:0:0:
64,192,82970,1,0,0:0:0:0:
192,192,82970,1,0,0:0:0:0:
192,192,83089,1,0,0:0:0:0:
64,192,83208,1,0,0:0:0:0:
320,192,83208,1,0,0:0:0:0:
320,192,83327,1,0,0:0:0:0:
448,192,83446,1,0,0:0:0:0:
192,192,83446,1,0,0:0:0:0:
64,192,83446,1,0,0:0:0:0:
64,192,83565,1,0,0:0:0:0:
192,192,83684,1,0,0:0:0:0:
320,192,83684,1,0,0:0:0:0:
448,192,83684,1,0,0:0:0:0:
320,192,83803,1,0,0:0:0:0:
64,192,83922,1,0,0:0:0:0:
192,192,83922,1,0,0:0:0:0:
448,192,83922,1,0,0:0:0:0:
448,192,84041,1,0,0:0:0:0:
320,192,84160,1,0,0:0:0:0:
192,192,84160,1,0,0:0:0:0:
192,192,84279,1,0,0:0:0:0:
64,192,84398,1,0,0:0:0:0:
192,192,84398,1,0,0:0:0:0:
320,192,84398,1,0,0:0:0:0:
448,192,84398,1,0,0:0:0:0:
320,192,84517,1,0,0:0:0:0:
64,192,84637,1,0,0:0:0:0:
192,192,84637,1,0,0:0:0:0:
448,192,84756,1,0,0:0:0:0:
64,192,84756,1,0,0:0:0:0:
320,192,84875,1,0,0:0:0:0:
192,192,84875,1,0,0:0:0:0:
192,192,84994,1,0,0:0:0:0:
448,192,85113,1,0,0:0:0:0:
320,192,85113,1,0,0:0:0:0:
448,192,85232,1,0,0:0:0:0:
64,192,85351,1,0,0:0:0:0:
192,192,85351,1,0,0:0:0:0:
320,192,85351,1,0,0:0:0:0:
192,192,85470,1,0,0:0:0:0:
448,192,85589,1,0,0:0:0:0:
320,192,85589,1,0,0:0:0:0:
64,192,85589,1,0,0:0:0:0:
320,192,85708,1,0,0:0:0:0:
448,192,85827,1,0,0:0:0:0:
192,192,85827,1,0,0:0:0:0:
64,192,85827,1,0,0:0:0:0:
64,192,85946,1,0,0:0:0:0:
192,192,86065,1,0,0:0:0:0:
448,192,86065,1,0,0:0:0:0:
320,192,86065,1,0,0:0:0:0:
192,192,86184,1,0,0:0:0:0:
320,192,86303,1,0,0:0:0:0:
448,192,86303,1,0,0:0:0:0:
64,192,86303,1,0,0:0:0:0:
448,192,86422,1,0,0:0:0:0:
320,192,86541,1,0,0:0:0:0:
64,192,86541,1,0,0:0:0:0:
320,192,86660,1,0,0:0:0:0:
192,192,86779,1,0,0:0:0:0:
448,192,86779,1,0,0:0:0:0:
448,192,86898,1,0,0:0:0:0:
192,192,87017,1,0,0:0:0:0:
64,192,87017,1,0,0:0:0:0:
192,192,87137,1,0,0:0:0:0:
64,192,87256,1,0,0:0:0:0:
448,192,87256,1,0,0:0:0:0:
320,192,87256,1,0,0:0:0:0:
320,192,87375,1,0,0:0:0:0:
448,192,87494,1,0,0:0:0:0:
192,192,87494,1,0,0:0:0:0:
64,192,87494,1,0,0:0:0:0:
192,192,87613,1,0,0:0:0:0:
64,192,87732,1,0,0:0:0:0:
320,192,87732,1,0,0:0:0:0:
448,192,87732,1,0,0:0:0:0:
64,192,87851,1,0,0:0:0:0:
448,192,87970,1,0,0:0:0:0:
320,192,87970,1,0,0:0:0:0:
192,192,87970,1,0,0:0:0:0:
320,192,88089,1,0,0:0:0:0:
192,192,88208,1,0,0:0:0:0:
448,192,88208,1,0,0:0:0:0:
64,192,88208,1,0,0:0:0:0:
192,192,88327,1,0,0:0:0:0:
64,192,88446,1,0,0:0:0:0:
448,192,88446,1,0,0:0:0:0:
448,192,88565,1,0,0:0:0:0:
320,192,88684,1,0,0:0:0:0:
192,192,88684,1,0,0:0:0:0:
320,192,88803,1,0,0:0:0:0:
64,192,88922,1,0,0:0:0:0:
192,192,88922,1,0,0:0:0:0:
64,192,89041,1,0,0:0:0:0:
192,192,89160,1,0,0:0:0:0:
448,192,89160,1,0,0:0:0:0:
320,192,89160,1,0,0:0:0:0:
192,192,89279,1,0,0:0:0:0:
448,192,89398,1,0,0:0:0:0:
320,192,89398,1,0,0:0:0:0:
64,192,89398,1,0,0:0:0:0:
320,192,89517,1,0,0:0:0:0:
192,192,89637,1,0,0:0:0:0:
64,192,89637,1,0,0:0:0:0:
448,192,89637,1,0,0:0:0:0:
192,192,89756,1,0,0:0:0:0:
448,192,89875,1,0,0:0:0:0:
64,192,89875,1,0,0:0:0:0:
320,192,89875,1,0,0:0:0:0:
448,192,89994,1,0,0:0:0:0:
64,192,90113,1,0,0:0:0:0:
192,192,90113,1,0,0:0:0:0:
320,192,90113,1,0,0:0:0:0:
192,192,90232,1,0,0:0:0:0:
448,192,90351,1,0,0:0:0:0:
64,192,90351,1,0,0:0:0:0:
448,192,90470,1,0,0:0:0:0:
64,192,90589,1,0,0:0:0:0:
192,192,90589,1,0,0:0:0:0:
192,192,90708,1,0,0:0:0:0:
64,192,90827,1,0,0:0:0:0:
320,192,90827,1,0,0:0:0:0:
320,192,90946,1,0,0:0:0:0:
192,192,91065,1,0,0:0:0:0:
448,192,91065,1,0,0:0:0:0:
64,192,91065,1,0,0:0:0:0:
320,192,91065,1,0,0:0:0:0:
64,192,91303,1,0,0:0:0:0:
192,192,91303,1,0,0:0:0:0:
320,192,91303,1,0,0:0:0:0:
448,192,91303,1,0,0:0:0:0:
448,192,91541,1,0,0:0:0:0:
320,192,91541,1,0,0:0:0:0:
192,192,91541,1,0,0:0:0:0:
64,192,91779,1,0,0:0:0:0:
192,192,91779,1,0,0:0:0:0:
320,192,91779,1,0,0:0:0:0:
448,192,92017,1,0,0:0:0:0:
320,192,92017,1,0,0:0:0:0:
192,192,92017,1,0,0:0:0:0:
64,192,92017,1,0,0:0:0:0:
448,192,92137,1,0,0:0:0:0:
320,192,92137,1,0,0:0:0:0:
64,192,92256,1,0,0:0:0:0:
320,192,92256,1,0,0:0:0:0:
320,192,92375,1,0,0:0:0:0:
64,192,92375,1,0,0:0:0:0:
64,192,92494,1,0,0:0:0:0:
192,192,92494,1,0,0:0:0:0:
320,192,92494,1,0,0:0:0:0:
192,192,92732,1,0,0:0:0:0:
192,192,92970,1,0,0:0:0:0:
320,192,92970,1,0,0:0:0:0:
448,192,93089,1,0,0:0:0:0:
320,192,93089,1,0,0:0:0:0:
64,192,93089,1,0,0:0:0:0:
192,192,93327,1,0,0:0:0:0:
320,192,93327,1,0,0:0:0:0:
64,192,93327,1,0,0:0:0:0:
64,192,93565,1,0,0:0:0:0:
320,192,93565,1,0,0:0:0:0:
448,192,93565,1,0,0:0:0:0:
192,192,93684,1,0,0:0:0:0:
448,192,93684,1,0,0:0:0:0:
448,192,94160,1,0,0:0:0:0:
320,192,94160,1,0,0:0:0:0:
64,192,94160,1,0,0:0:0:0:
64,192,94279,1,0,0:0:0:0:
192,192,94279,1,0,0:0:0:0:
192,192,94398,1,0,0:0:0:0:
320,192,94398,1,0,0:0:0:0:
448,192,94398,1,0,0:0:0:0:
448,192,94637,1,0,0:0:0:0:
320,192,94637,1,0,0:0:0:0:
64,192,94637,1,0,0:0:0:0:
320,192,94875,1,0,0:0:0:0:
192,192,94875,1,0,0:0:0:0:
64,192,94875,1,0,0:0:0:0:
192,192,95113,1,0,0:0:0:0:
320,192,95113,1,0,0:0:0:0:
448,192,95113,1,0,0:0:0:0:
320,192,95351,1,0,0:0:0:0:
192,192,95351,1,0,0:0:0:0:
64,192,95351,1,0,0:0:0:0:
192,192,95589,1,0,0:0:0:0:
320,192,95589,1,0,0:0:0:0:
448,192,95589,1,0,0:0:0:0:
448,192,96065,1,0,0:0:0:0:
192,192,96065,1,0,0:0:0:0:
64,192,96065,1,0,0:0:0:0:
64,192,96184,1,0,0:0:0:0:
192,192,96184,1,0,0:0:0:0:
192,192,96303,1,0,0:0:0:0:
320,192,96303,1,0,0:0:0:0:
448,192,96303,1,0,0:0:0:0:
448,192,96541,1,0,0:0:0:0:
192,192,96541,1,0,0:0:0:0:
64,192,96541,1,0,0:0:0:0:
448,192,96779,1,0,0:0:0:0:
320,192,96779,1,0,0:0:0:0:
64,192,96898,1,0,0:0:0:0:
192,192,96898,1,0,0:0:0:0:
320,192,96898,1,0,0:0:0:0:
448,192,97137,1,0,0:0:0:0:
64,192,97137,1,0,0:0:0:0:
448,192,97375,1,0,0:0:0:0:
320,192,97375,1,0,0:0:0:0:
64,192,97375,1,0,0:0:0:0:
192,192,97494,1,0,0:0:0:0:
320,192,97494,1,0,0:0:0:0:
192,192,97970,1,0,0:0:0:0:
64,192,97970,1,0,0:0:0:0:
448,192,97970,1,0,0:0:0:0:
320,192,98089,1,0,0:0:0:0:
64,192,98089,1,0,0:0:0:0:
320,192,98208,1,0,0:0:0:0:
192,192,98208,1,0,0:0:0:0:
448,192,98208,1,0,0:0:0:0:
192,192,98446,1,0,0:0:0:0:
320,192,98446,1,0,0:0:0:0:
320,192,98684,128,0,98803:0:0:0:0:
64,192,98684,1,0,0:0:0:0:
448,192,98684,1,0,0:0:0:0:
192,192,98922,128,0,99041:0:0:0:0:
448,192,98922,1,0,0:0:0:0:
64,192,98922,1,0,0:0:0:0:
320,192,99160,128,0,99279:0:0:0:0:
64,192,99160,1,0,0:0:0:0:
448,192,99160,1,0,0:0:0:0:
192,192,99398,128,0,99517:0:0:0:0:
448,192,99398,1,0,0:0:0:0:
64,192,99398,1,0,0:0:0:0:
448,192,99637,1,0,0:0:0:0:
320,192,99637,1,0,0:0:0:0:
64,192,99637,1,0,0:0:0:0:
64,192,99756,1,0,0:0:0:0:
320,192,99756,1,0,0:0:0:0:
320,192,99875,1,0,0:0:0:0:
64,192,99875,1,0,0:0:0:0:
320,192,99994,1,0,0:0:0:0:
192,192,99994,1,0,0:0:0:0:
320,192,100113,1,0,0:0:0:0:
192,192,100113,1,0,0:0:0:0:
64,192,100113,1,0,0:0:0:0:
320,192,100589,1,0,0:0:0:0:
448,192,100589,1,0,0:0:0:0:
64,192,100708,1,0,0:0:0:0:
320,192,100708,1,0,0:0:0:0:
448,192,100708,1,0,0:0:0:0:
192,192,100946,1,0,0:0:0:0:
64,192,100946,1,0,0:0:0:0:
320,192,100946,1,0,0:0:0:0:
192,192,101184,1,0,0:0:0:0:
320,192,101184,1,0,0:0:0:0:
448,192,101184,1,0,0:0:0:0:
64,192,101303,1,0,0:0:0:0:
192,192,101303,1,0,0:0:0:0:
192,192,101541,1,0,0:0:0:0:
448,192,101541,1,0,0:0:0:0:
192,192,101779,1,0,0:0:0:0:
64,192,101779,1,0,0:0:0:0:
320,192,101779,1,0,0:0:0:0:
448,192,101898,1,0,0:0:0:0:
192,192,101898,1,0,0:0:0:0:
64,192,102017,1,0,0:0:0:0:
192,192,102017,1,0,0:0:0:0:
320,192,102017,1,0,0:0:0:0:
192,192,102256,1,0,0:0:0:0:
320,192,102256,1,0,0:0:0:0:
448,192,102256,1,0,0:0:0:0:
64,192,102494,1,0,0:0:0:0:
320,192,102494,1,0,0:0:0:0:
448,192,102494,1,0,0:0:0:0:
448,192,102732,1,0,0:0:0:0:
192,192,102732,1,0,0:0:0:0:
64,192,102732,1,0,0:0:0:0:
64,192,102970,1,0,0:0:0:0:
320,192,102970,1,0,0:0:0:0:
448,192,102970,1,0,0:0:0:0:
448,192,103208,1,0,0:0:0:0:
192,192,103208,1,0,0:0:0:0:
64,192,103208,1,0,0:0:0:0:
64,192,103446,1,0,0:0:0:0:
448,192,103446,1,0,0:0:0:0:
320,192,103446,1,0,0:0:0:0:
192,192,103446,1,0,0:0:0:0:
192,192,103684,1,0,0:0:0:0:
448,192,103684,1,0,0:0:0:0:
448,192,103803,1,0,0:0:0:0:
320,192,103803,1,0,0:0:0:0:
448,192,103922,1,0,0:0:0:0:
64,192,103922,1,0,0:0:0:0:
192,192,103922,1,0,0:0:0:0:
448,192,104160,1,0,0:0:0:0:
192,192,104160,1,0,0:0:0:0:
64,192,104160,1,0,0:0:0:0:
192,192,104398,1,0,0:0:0:0:
320,192,104398,1,0,0:0:0:0:
448,192,104398,1,0,0:0:0:0:
64,192,104637,1,0,0:0:0:0:
192,192,104637,1,0,0:0:0:0:
448,192,104637,1,0,0:0:0:0:
192,192,104875,1,0,0:0:0:0:
64,192,104875,1,0,0:0:0:0:
448,192,104875,1,0,0:0:0:0:
192,192,104994,1,0,0:0:0:0:
320,192,104994,1,0,0:0:0:0:
192,192,105113,1,0,0:0:0:0:
448,192,105113,1,0,0:0:0:0:
64,192,105351,1,0,0:0:0:0:
320,192,105351,1,0,0:0:0:0:
448,192,105351,1,0,0:0:0:0:
192,192,105470,1,0,0:0:0:0:
320,192,105589,1,0,0:0:0:0:
448,192,105589,1,0,0:0:0:0:
192,192,105708,1,0,0:0:0:0:
64,192,105708,1,0,0:0:0:0:
192,192,105827,1,0,0:0:0:0:
320,192,105827,1,0,0:0:0:0:
448,192,105827,1,0,0:0:0:0:
64,192,105946,5,0,0:0:0:0:
448,192,106065,1,0,0:0:0:0:
320,192,106065,1,0,0:0:0:0:
192,192,106184,1,0,0:0:0:0:
64,192,106184,1,0,0:0:0:0:
64,192,106303,1,0,0:0:0:0:
192,192,106303,1,0,0:0:0:0:
320,192,106303,1,0,0:0:0:0:
448,192,106303,1,0,0:0:0:0:
64,192,107256,5,0,0:0:0:0:
192,192,107256,1,0,0:0:0:0:
320,192,107256,1,0,0:0:0:0:
448,192,107256,1,0,0:0:0:0:
64,192,107375,1,0,0:0:0:0:
192,192,107375,1,0,0:0:0:0:
320,192,107375,1,0,0:0:0:0:
448,192,107494,1,0,0:0:0:0:
320,192,107494,1,0,0:0:0:0:
192,192,107494,1,0,0:0:0:0:
64,192,107494,1,0,0:0:0:0:
192,192,107613,1,0,0:0:0:0:
448,192,107613,1,0,0:0:0:0:
320,192,107613,1,0,0:0:0:0:
448,192,107732,1,0,0:0:0:0:
192,192,107732,1,0,0:0:0:0:
64,192,107732,1,0,0:0:0:0:
64,192,107851,1,0,0:0:0:0:
320,192,107851,1,0,0:0:0:0:
448,192,107851,1,0,0:0:0:0:
448,192,107970,1,0,0:0:0:0:
320,192,107970,1,0,0:0:0:0:
192,192,107970,1,0,0:0:0:0:
64,192,107970,1,0,0:0:0:0:
64,192,108089,1,0,0:0:0:0:
192,192,108089,1,0,0:0:0:0:
448,192,108089,1,0,0:0:0:0:
448,192,108208,1,0,0:0:0:0:
320,192,108208,1,0,0:0:0:0:
64,192,108208,1,0,0:0:0:0:
64,192,108327,1,0,0:0:0:0:
192,192,108327,1,0,0:0:0:0:
320,192,108327,1,0,0:0:0:0:
448,192,108446,1,0,0:0:0:0:
320,192,108446,1,0,0:0:0:0:
192,192,108446,1,0,0:0:0:0:
64,192,108446,1,0,0:0:0:0:
448,192,108565,1,0,0:0:0:0:
320,192,108565,1,0,0:0:0:0:
192,192,108565,1,0,0:0:0:0:
64,192,108684,1,0,0:0:0:0:
192,192,108684,1,0,0:0:0:0:
448,192,108684,1,0,0:0:0:0:
320,192,108803,1,0,0:0:0:0:
192,192,108803,1,0,0:0:0:0:
64,192,108803,1,0,0:0:0:0:
448,192,108922,1,0,0:0:0:0:
320,192,108922,1,0,0:0:0:0:
192,192,108922,1,0,0:0:0:0:
64,192,108922,1,0,0:0:0:0:
64,192,109041,1,0,0:0:0:0:
320,192,109041,1,0,0:0:0:0:
448,192,109041,1,0,0:0:0:0:
64,192,109160,1,0,0:0:0:0:
448,192,109160,1,0,0:0:0:0:
192,192,109160,1,0,0:0:0:0:
192,192,109279,1,0,0:0:0:0:
448,192,109279,1,0,0:0:0:0:
320,192,109279,1,0,0:0:0:0:
64,192,109398,1,0,0:0:0:0:
192,192,109398,1,0,0:0:0:0:
448,192,109398,1,0,0:0:0:0:
320,192,109398,1,0,0:0:0:0:
64,192,109517,1,0,0:0:0:0:
320,192,109517,1,0,0:0:0:0:
192,192,109517,1,0,0:0:0:0:
448,192,109637,1,0,0:0:0:0:
192,192,109637,1,0,0:0:0:0:
64,192,109637,1,0,0:0:0:0:
192,192,109756,1,0,0:0:0:0:
320,192,109756,1,0,0:0:0:0:
448,192,109756,1,0,0:0:0:0:
64,192,109875,1,0,0:0:0:0:
192,192,109875,1,0,0:0:0:0:
320,192,109875,1,0,0:0:0:0:
448,192,109875,1,0,0:0:0:0:
192,192,109994,1,0,0:0:0:0:
320,192,109994,1,0,0:0:0:0:
64,192,109994,1,0,0:0:0:0:
448,192,110113,1,0,0:0:0:0:
320,192,110113,1,0,0:0:0:0:
64,192,110113,1,0,0:0:0:0:
64,192,110232,1,0,0:0:0:0:
192,192,110232,1,0,0:0:0:0:
320,192,110232,1,0,0:0:0:0:
448,192,110351,1,0,0:0:0:0:
320,192,110351,1,0,0:0:0:0:
192,192,110351,1,0,0:0:0:0:
64,192,110351,1,0,0:0:0:0:
192,192,110470,1,0,0:0:0:0:
320,192,110470,1,0,0:0:0:0:
448,192,110470,1,0,0:0:0:0:
64,192,110589,1,0,0:0:0:0:
320,192,110589,1,0,0:0:0:0:
448,192,110589,1,0,0:0:0:0:
192,192,110708,1,0,0:0:0:0:
320,192,110708,1,0,0:0:0:0:
448,192,110708,1,0,0:0:0:0:
448,192,110827,1,0,0:0:0:0:
320,192,110827,1,0,0:0:0:0:
192,192,110827,1,0,0:0:0:0:
64,192,110827,1,0,0:0:0:0:
64,192,110946,1,0,0:0:0:0:
192,192,110946,1,0,0:0:0:0:
448,192,110946,1,0,0:0:0:0:
64,192,111065,1,0,0:0:0:0:
192,192,111065,1,0,0:0:0:0:
320,192,111065,1,0,0:0:0:0:
448,192,111065,1,0,0:0:0:0:
64,192,111184,1,0,0:0:0:0:
448,192,111184,1,0,0:0:0:0:
320,192,111184,1,0,0:0:0:0:
448,192,111303,1,0,0:0:0:0:
320,192,111303,1,0,0:0:0:0:
192,192,111303,1,0,0:0:0:0:
64,192,111303,1,0,0:0:0:0:
320,192,111422,1,0,0:0:0:0:
192,192,111422,1,0,0:0:0:0:
64,192,111422,1,0,0:0:0:0:
320,192,111541,1,0,0:0:0:0:
64,192,111541,1,0,0:0:0:0:
448,192,111541,1,0,0:0:0:0:
64,192,111660,1,0,0:0:0:0:
192,192,111660,1,0,0:0:0:0:
448,192,111660,1,0,0:0:0:0:
64,192,111779,1,0,0:0:0:0:
192,192,111779,1,0,0:0:0:0:
320,192,111779,1,0,0:0:0:0:
448,192,111779,1,0,0:0:0:0:
448,192,111898,1,0,0:0:0:0:
320,192,111898,1,0,0:0:0:0:
192,192,111898,1,0,0:0:0:0:
320,192,112017,1,0,0:0:0:0:
192,192,112017,1,0,0:0:0:0:
64,192,112017,1,0,0:0:0:0:
448,192,112137,1,0,0:0:0:0:
320,192,112137,1,0,0:0:0:0:
64,192,112137,1,0,0:0:0:0:
64,192,112256,1,0,0:0:0:0:
192,192,112256,1,0,0:0:0:0:
320,192,112256,1,0,0:0:0:0:
448,192,112256,1,0,0:0:0:0:
192,192,112375,1,0,0:0:0:0:
320,192,112375,1,0,0:0:0:0:
64,192,112375,1,0,0:0:0:0:
64,192,112494,1,0,0:0:0:0:
192,192,112494,1,0,0:0:0:0:
448,192,112494,1,0,0:0:0:0:
448,192,112613,1,0,0:0:0:0:
320,192,112613,1,0,0:0:0:0:
192,192,112613,1,0,0:0:0:0:
448,192,112732,1,0,0:0:0:0:
320,192,112732,1,0,0:0:0:0:
192,192,112732,1,0,0:0:0:0:
64,192,112732,1,0,0:0:0:0:
64,192,112851,1,0,0:0:0:0:
192,192,112851,1,0,0:0:0:0:
320,192,112851,1,0,0:0:0:0:
64,192,112970,1,0,0:0:0:0:
192,192,112970,1,0,0:0:0:0:
448,192,112970,1,0,0:0:0:0:
64,192,113089,1,0,0:0:0:0:
320,192,113089,1,0,0:0:0:0:
448,192,113089,1,0,0:0:0:0:
320,192,113208,1,0,0:0:0:0:
448,192,113208,1,0,0:0:0:0:
192,192,113208,1,0,0:0:0:0:
64,192,113208,1,0,0:0:0:0:
192,192,113327,1,0,0:0:0:0:
320,192,113327,1,0,0:0:0:0:
448,192,113327,1,0,0:0:0:0:
320,192,113446,1,0,0:0:0:0:
192,192,113446,1,0,0:0:0:0:
64,192,113446,1,0,0:0:0:0:
192,192,113565,1,0,0:0:0:0:
448,192,113565,1,0,0:0:0:0:
64,192,113565,1,0,0:0:0:0:
64,192,113684,1,0,0:0:0:0:
192,192,113684,1,0,0:0:0:0:
320,192,113684,1,0,0:0:0:0:
448,192,113684,1,0,0:0:0:0:
320,192,113803,1,0,0:0:0:0:
448,192,113803,1,0,0:0:0:0:
64,192,113803,1,0,0:0:0:0:
320,192,113922,1,0,0:0:0:0:
192,192,113922,1,0,0:0:0:0:
64,192,113922,1,0,0:0:0:0:
448,192,114041,1,0,0:0:0:0:
320,192,114041,1,0,0:0:0:0:
64,192,114041,1,0,0:0:0:0:
64,192,114160,1,0,0:0:0:0:
192,192,114160,1,0,0:0:0:0:
320,192,114160,1,0,0:0:0:0:
448,192,114160,1,0,0:0:0:0:
448,192,114279,1,0,0:0:0:0:
64,192,114279,1,0,0:0:0:0:
192,192,114279,1,0,0:0:0:0:
448,192,114398,1,0,0:0:0:0:
320,192,114398,1,0,0:0:0:0:
64,192,114398,1,0,0:0:0:0:
448,192,114517,1,0,0:0:0:0:
320,192,114517,1,0,0:0:0:0:
192,192,114517,1,0,0:0:0:0:
64,192,114637,1,0,0:0:0:0:
192,192,114637,1,0,0:0:0:0:
448,192,114637,1,0,0:0:0:0:
192,192,114756,1,0,0:0:0:0:
320,192,114756,1,0,0:0:0:0:
64,192,114756,1,0,0:0:0:0:
64,192,114875,5,0,0:0:0:0:
320,192,114875,1,0,0:0:0:0:
192,192,114875,1,0,0:0:0:0:
448,192,114875,1,0,0:0:0:0:
64,192,114994,1,0,0:0:0:0:
192,192,114994,1,0,0:0:0:0:
320,192,114994,1,0,0:0:0:0:
448,192,115113,1,0,0:0:0:0:
320,192,115113,1,0,0:0:0:0:
192,192,115113,1,0,0:0:0:0:
64,192,115113,1,0,0:0:0:0:
192,192,115232,1,0,0:0:0:0:
448,192,115232,1,0,0:0:0:0:
320,192,115232,1,0,0:0:0:0:
320,192,115351,1,0,0:0:0:0:
192,192,115351,1,0,0:0:0:0:
64,192,115351,1,0,0:0:0:0:
64,192,115470,1,0,0:0:0:0:
320,192,115470,1,0,0:0:0:0:
448,192,115470,1,0,0:0:0:0:
448,192,115589,1,0,0:0:0:0:
320,192,115589,1,0,0:0:0:0:
192,192,115589,1,0,0:0:0:0:
64,192,115708,1,0,0:0:0:0:
192,192,115708,1,0,0:0:0:0:
448,192,115708,1,0,0:0:0:0:
448,192,115827,1,0,0:0:0:0:
320,192,115827,1,0,0:0:0:0:
64,192,115827,1,0,0:0:0:0:
64,192,115946,1,0,0:0:0:0:
192,192,115946,1,0,0:0:0:0:
320,192,115946,1,0,0:0:0:0:
448,192,116065,1,0,0:0:0:0:
320,192,116065,1,0,0:0:0:0:
192,192,116065,1,0,0:0:0:0:
64,192,116065,1,0,0:0:0:0:
448,192,116184,1,0,0:0:0:0:
320,192,116184,1,0,0:0:0:0:
192,192,116184,1,0,0:0:0:0:
64,192,116303,1,0,0:0:0:0:
192,192,116303,1,0,0:0:0:0:
448,192,116303,1,0,0:0:0:0:
320,192,116422,1,0,0:0:0:0:
192,192,116422,1,0,0:0:0:0:
64,192,116422,1,0,0:0:0:0:
448,192,116541,1,0,0:0:0:0:
320,192,116541,1,0,0:0:0:0:
192,192,116541,1,0,0:0:0:0:
64,192,116541,1,0,0:0:0:0:
64,192,116660,1,0,0:0:0:0:
320,192,116660,1,0,0:0:0:0:
448,192,116660,1,0,0:0:0:0:
64,192,116779,1,0,0:0:0:0:
192,192,116779,1,0,0:0:0:0:
448,192,116779,1,0,0:0:0:0:
192,192,116898,1,0,0:0:0:0:
448,192,116898,1,0,0:0:0:0:
320,192,116898,1,0,0:0:0:0:
64,192,117017,1,0,0:0:0:0:
192,192,117017,1,0,0:0:0:0:
448,192,117017,1,0,0:0:0:0:
320,192,117017,1,0,0:0:0:0:
64,192,117137,1,0,0:0:0:0:
320,192,117137,1,0,0:0:0:0:
192,192,117137,1,0,0:0:0:0:
448,192,117256,1,0,0:0:0:0:
192,192,117256,1,0,0:0:0:0:
64,192,117256,1,0,0:0:0:0:
192,192,117375,1,0,0:0:0:0:
320,192,117375,1,0,0:0:0:0:
64,192,117494,1,0,0:0:0:0:
192,192,117494,1,0,0:0:0:0:
320,192,117494,1,0,0:0:0:0:
448,192,117494,1,0,0:0:0:0:
448,192,117613,1,0,0:0:0:0:
64,192,117613,1,0,0:0:0:0:
192,192,117732,1,0,0:0:0:0:
448,192,117732,1,0,0:0:0:0:
320,192,117732,1,0,0:0:0:0:
64,192,117851,1,0,0:0:0:0:
192,192,117851,1,0,0:0:0:0:
448,192,117970,1,0,0:0:0:0:
320,192,117970,1,0,0:0:0:0:
192,192,117970,1,0,0:0:0:0:
64,192,117970,1,0,0:0:0:0:
320,192,118089,1,0,0:0:0:0:
448,192,118089,1,0,0:0:0:0:
192,192,118208,1,0,0:0:0:0:
64,192,118208,1,0,0:0:0:0:
320,192,118208,1,0,0:0:0:0:
192,192,118327,1,0,0:0:0:0:
448,192,118327,1,0,0:0:0:0:
448,192,118446,1,0,0:0:0:0:
320,192,118446,1,0,0:0:0:0:
192,192,118446,1,0,0:0:0:0:
64,192,118446,1,0,0:0:0:0:
192,192,118565,1,0,0:0:0:0:
320,192,118565,1,0,0:0:0:0:
64,192,118684,1,0,0:0:0:0:
192,192,118684,1,0,0:0:0:0:
320,192,118684,1,0,0:0:0:0:
448,192,118684,1,0,0:0:0:0:
448,192,118803,1,0,0:0:0:0:
320,192,118803,1,0,0:0:0:0:
448,192,118922,1,0,0:0:0:0:
320,192,118922,1,0,0:0:0:0:
192,192,118922,1,0,0:0:0:0:
64,192,118922,1,0,0:0:0:0:
192,192,119041,1,0,0:0:0:0:
64,192,119041,1,0,0:0:0:0:
192,192,119160,1,0,0:0:0:0:
320,192,119160,1,0,0:0:0:0:
448,192,119160,1,0,0:0:0:0:
192,192,119279,1,0,0:0:0:0:
448,192,119279,1,0,0:0:0:0:
64,192,119398,1,0,0:0:0:0:
192,192,119398,1,0,0:0:0:0:
320,192,119398,1,0,0:0:0:0:
448,192,119398,1,0,0:0:0:0:
448,192,119517,1,0,0:0:0:0:
64,192,119517,1,0,0:0:0:0:
320,192,119637,1,0,0:0:0:0:
192,192,119637,1,0,0:0:0:0:
64,192,119637,1,0,0:0:0:0:
320,192,119756,1,0,0:0:0:0:
64,192,119756,1,0,0:0:0:0:
64,192,119875,1,0,0:0:0:0:
192,192,119875,1,0,0:0:0:0:
320,192,119875,1,0,0:0:0:0:
448,192,119875,1,0,0:0:0:0:
192,192,119994,1,0,0:0:0:0:
320,192,119994,1,0,0:0:0:0:
64,192,120113,1,0,0:0:0:0:
192,192,120113,1,0,0:0:0:0:
448,192,120113,1,0,0:0:0:0:
320,192,120232,1,0,0:0:0:0:
192,192,120232,1,0,0:0:0:0:
448,192,120351,1,0,0:0:0:0:
320,192,120351,1,0,0:0:0:0:
192,192,120351,1,0,0:0:0:0:
64,192,120351,1,0,0:0:0:0:
64,192,120470,1,0,0:0:0:0:
320,192,120470,1,0,0:0:0:0:
64,192,120589,1,0,0:0:0:0:
192,192,120589,1,0,0:0:0:0:
448,192,120589,1,0,0:0:0:0:
64,192,120708,1,0,0:0:0:0:
320,192,120708,1,0,0:0:0:0:
320,192,120827,1,0,0:0:0:0:
448,192,120827,1,0,0:0:0:0:
192,192,120827,1,0,0:0:0:0:
64,192,120827,1,0,0:0:0:0:
320,192,120946,1,0,0:0:0:0:
448,192,120946,1,0,0:0:0:0:
320,192,121065,1,0,0:0:0:0:
192,192,121065,1,0,0:0:0:0:
64,192,121065,1,0,0:0:0:0:
192,192,121184,1,0,0:0:0:0:
448,192,121184,1,0,0:0:0:0:
64,192,121303,1,0,0:0:0:0:
192,192,121303,1,0,0:0:0:0:
320,192,121303,1,0,0:0:0:0:
448,192,121303,1,0,0:0:0:0:
320,192,121422,1,0,0:0:0:0:
64,192,121422,1,0,0:0:0:0:
448,192,121541,1,0,0:0:0:0:
192,192,121541,1,0,0:0:0:0:
64,192,121541,1,0,0:0:0:0:
448,192,121660,1,0,0:0:0:0:
64,192,121660,1,0,0:0:0:0:
64,192,121779,1,0,0:0:0:0:
192,192,121779,1,0,0:0:0:0:
320,192,121779,1,0,0:0:0:0:
448,192,121779,1,0,0:0:0:0:
448,192,121898,1,0,0:0:0:0:
192,192,121898,1,0,0:0:0:0:
192,192,122017,1,0,0:0:0:0:
320,192,122017,1,0,0:0:0:0:
64,192,122017,1,0,0:0:0:0:
64,192,122137,1,0,0:0:0:0:
448,192,122137,1,0,0:0:0:0:
320,192,122256,1,0,0:0:0:0:
64,192,122256,1,0,0:0:0:0:
192,192,122256,1,0,0:0:0:0:
448,192,122256,1,0,0:0:0:0:
192,192,122375,1,0,0:0:0:0:
320,192,122375,1,0,0:0:0:0:
448,192,122494,1,0,0:0:0:0:
320,192,122494,1,0,0:0:0:0:
192,192,122494,1,0,0:0:0:0:
64,192,122494,1,0,0:0:0:0:
192,192,122613,1,0,0:0:0:0:
64,192,122613,1,0,0:0:0:0:
64,192,122732,1,0,0:0:0:0:
192,192,122732,1,0,0:0:0:0:
320,192,122732,1,0,0:0:0:0:
448,192,122732,1,0,0:0:0:0:
448,192,122851,1,0,0:0:0:0:
192,192,122851,1,0,0:0:0:0:
320,192,122970,1,0,0:0:0:0:
192,192,122970,1,0,0:0:0:0:
64,192,122970,1,0,0:0:0:0:
64,192,123089,1,0,0:0:0:0:
448,192,123089,1,0,0:0:0:0:
64,192,123208,1,0,0:0:0:0:
192,192,123208,1,0,0:0:0:0:
320,192,123208,1,0,0:0:0:0:
448,192,123208,1,0,0:0:0:0:
320,192,123327,1,0,0:0:0:0:
448,192,123327,1,0,0:0:0:0:
192,192,123446,1,0,0:0:0:0:
448,192,123446,1,0,0:0:0:0:
320,192,123446,1,0,0:0:0:0:
64,192,123446,1,0,0:0:0:0:
192,192,123565,1,0,0:0:0:0:
64,192,123565,1,0,0:0:0:0:
448,192,123684,1,0,0:0:0:0:
320,192,123684,1,0,0:0:0:0:
192,192,123684,1,0,0:0:0:0:
64,192,123684,1,0,0:0:0:0:
320,192,123803,1,0,0:0:0:0:
448,192,123803,1,0,0:0:0:0:
320,192,123922,1,0,0:0:0:0:
64,192,123922,1,0,0:0:0:0:
448,192,123922,1,0,0:0:0:0:
320,192,124041,1,0,0:0:0:0:
64,192,124041,1,0,0:0:0:0:
448,192,124160,1,0,0:0:0:0:
320,192,124160,1,0,0:0:0:0:
192,192,124160,1,0,0:0:0:0:
64,192,124160,1,0,0:0:0:0:
192,192,124279,1,0,0:0:0:0:
448,192,124279,1,0,0:0:0:0:
320,192,124398,1,0,0:0:0:0:
192,192,124398,1,0,0:0:0:0:
64,192,124398,1,0,0:0:0:0:
448,192,124398,1,0,0:0:0:0:
320,192,124517,1,0,0:0:0:0:
64,192,124517,1,0,0:0:0:0:
448,192,124637,1,0,0:0:0:0:
320,192,124637,1,0,0:0:0:0:
192,192,124637,1,0,0:0:0:0:
64,192,124637,1,0,0:0:0:0:
320,192,124756,1,0,0:0:0:0:
448,192,124756,1,0,0:0:0:0:
320,192,124875,1,0,0:0:0:0:
448,192,124875,1,0,0:0:0:0:
192,192,124875,1,0,0:0:0:0:
64,192,124994,1,0,0:0:0:0:
192,192,124994,1,0,0:0:0:0:
448,192,125113,1,0,0:0:0:0:
320,192,125113,1,0,0:0:0:0:
192,192,125113,1,0,0:0:0:0:
64,192,125113,1,0,0:0:0:0:
320,192,125232,1,0,0:0:0:0:
192,192,125232,1,0,0:0:0:0:
192,192,125351,1,0,0:0:0:0:
64,192,125351,1,0,0:0:0:0:
320,192,125351,1,0,0:0:0:0:
448,192,125351,1,0,0:0:0:0:
64,192,125470,1,0,0:0:0:0:
448,192,125470,1,0,0:0:0:0:
448,192,125589,1,0,0:0:0:0:
320,192,125589,1,0,0:0:0:0:
64,192,125589,1,0,0:0:0:0:
192,192,125589,1,0,0:0:0:0:
64,192,125708,1,0,0:0:0:0:
192,192,125708,1,0,0:0:0:0:
320,192,125708,1,0,0:0:0:0:
448,192,125708,1,0,0:0:0:0:
192,192,125827,1,0,0:0:0:0:
320,192,125827,1,0,0:0:0:0:
448,192,125827,1,0,0:0:0:0:
64,192,125946,1,0,0:0:0:0:
448,192,125946,1,0,0:0:0:0:
192,192,126065,1,0,0:0:0:0:
320,192,126065,1,0,0:0:0:0:
448,192,126065,1,0,0:0:0:0:
320,192,126184,1,0,0:0:0:0:
64,192,126184,1,0,0:0:0:0:
64,192,126303,1,0,0:0:0:0:
192,192,126303,1,0,0:0:0:0:
320,192,126303,1,0,0:0:0:0:
448,192,126303,1,0,0:0:0:0:
64,192,126541,1,0,0:0:0:0:
192,192,126541,1,0,0:0:0:0:
320,192,126541,1,0,0:0:0:0:
448,192,126541,1,0,0:0:0:0:
192,192,126779,1,0,0:0:0:0:
320,192,126779,1,0,0:0:0:0:
448,192,126779,1,0,0:0:0:0:
320,192,127017,1,0,0:0:0:0:
192,192,127017,1,0,0:0:0:0:
64,192,127017,1,0,0:0:0:0:
448,192,127256,1,0,0:0:0:0:
320,192,127256,1,0,0:0:0:0:
64,192,127256,1,0,0:0:0:0:
64,192,127494,1,0,0:0:0:0:
192,192,127494,1,0,0:0:0:0:
448,192,127494,1,0,0:0:0:0:
320,192,127732,1,0,0:0:0:0:
192,192,127732,1,0,0:0:0:0:
448,192,127732,1,0,0:0:0:0:
64,192,127970,1,0,0:0:0:0:
320,192,127970,1,0,0:0:0:0:
192,192,127970,1,0,0:0:0:0:
192,192,128089,1,0,0:0:0:0:
320,192,128089,1,0,0:0:0:0:
448,192,128208,1,0,0:0:0:0:
64,192,128208,1,0,0:0:0:0:
320,192,128287,1,0,0:0:0:0:
192,192,128287,1,0,0:0:0:0:
64,192,128367,1,0,0:0:0:0:
448,192,128367,1,0,0:0:0:0:
320,192,128446,1,0,0:0:0:0:
192,192,128446,1,0,0:0:0:0:
64,192,128525,1,0,0:0:0:0:
192,192,128605,1,0,0:0:0:0:
448,192,128684,1,0,0:0:0:0:
320,192,128684,1,0,0:0:0:0:
192,192,128764,1,0,0:0:0:0:
448,192,128843,1,0,0:0:0:0:
64,192,128843,1,0,0:0:0:0:
320,192,128922,1,0,0:0:0:0:
192,192,128922,1,0,0:0:0:0:
448,192,129002,1,0,0:0:0:0:
320,192,129081,1,0,0:0:0:0:
448,192,129160,1,0,0:0:0:0:
192,192,129160,1,0,0:0:0:0:
64,192,129160,1,0,0:0:0:0:
192,192,129637,1,0,0:0:0:0:
64,192,130113,128,0,130351:0:0:0:0:
448,192,130113,1,0,0:0:0:0:
320,192,130113,1,0,0:0:0:0:
192,192,130113,1,0,0:0:0:0:
192,192,130351,1,0,0:0:0:0:
192,192,130470,1,0,0:0:0:0:
192,192,130589,1,0,0:0:0:0:
192,192,130708,1,0,0:0:0:0:
192,192,130827,1,0,0:0:0:0:
192,192,130946,1,0,0:0:0:0:
448,192,131065,128,0,131303:0:0:0:0:
320,192,131303,1,0,0:0:0:0:
320,192,131422,1,0,0:0:0:0:
320,192,131541,1,0,0:0:0:0:
320,192,131660,1,0,0:0:0:0:
320,192,131779,1,0,0:0:0:0:
320,192,131898,1,0,0:0:0:0:
64,192,132017,128,0,132256:0:0:0:0:
192,192,132256,1,0,0:0:0:0:
192,192,132375,1,0,0:0:0:0:
192,192,132494,1,0,0:0:0:0:
192,192,132613,1,0,0:0:0:0:
192,192,132732,1,0,0:0:0:0:
192,192,132851,1,0,0:0:0:0:
64,192,132970,1,0,0:0:0:0:
448,192,132970,1,0,0:0:0:0:
192,192,133049,1,0,0:0:0:0:
320,192,133129,1,0,0:0:0:0:
448,192,133208,1,0,0:0:0:0:
64,192,133208,1,0,0:0:0:0:
192,192,133287,1,0,0:0:0:0:
64,192,133367,1,0,0:0:0:0:
448,192,133446,1,0,0:0:0:0:
320,192,133446,1,0,0:0:0:0:
192,192,133525,1,0,0:0:0:0:
64,192,133605,1,0,0:0:0:0:
448,192,133684,1,0,0:0:0:0:
320,192,133684,1,0,0:0:0:0:
192,192,133684,1,0,0:0:0:0:
64,192,133803,1,0,0:0:0:0:
192,192,133803,1,0,0:0:0:0:
320,192,133803,1,0,0:0:0:0:
320,192,133922,1,0,0:0:0:0:
448,192,133922,1,0,0:0:0:0:
64,192,133922,1,0,0:0:0:0:
192,192,133922,1,0,0:0:0:0:
320,192,134041,1,0,0:0:0:0:
320,192,134160,1,0,0:0:0:0:
448,192,134160,1,0,0:0:0:0:
64,192,134160,1,0,0:0:0:0:
448,192,134279,1,0,0:0:0:0:
192,192,134279,1,0,0:0:0:0:
320,192,134398,1,0,0:0:0:0:
64,192,134398,1,0,0:0:0:0:
192,192,134517,1,0,0:0:0:0:
192,192,134637,1,0,0:0:0:0:
448,192,134637,1,0,0:0:0:0:
320,192,134637,1,0,0:0:0:0:
64,192,134756,1,0,0:0:0:0:
64,192,134875,1,0,0:0:0:0:
320,192,134875,1,0,0:0:0:0:
192,192,134875,1,0,0:0:0:0:
448,192,134994,1,0,0:0:0:0:
448,192,135113,1,0,0:0:0:0:
320,192,135113,1,0,0:0:0:0:
192,192,135113,1,0,0:0:0:0:
64,192,135232,1,0,0:0:0:0:
320,192,135232,1,0,0:0:0:0:
192,192,135351,1,0,0:0:0:0:
448,192,135470,1,0,0:0:0:0:
448,192,135589,1,0,0:0:0:0:
192,192,135589,1,0,0:0:0:0:
64,192,135589,1,0,0:0:0:0:
320,192,135708,1,0,0:0:0:0:
448,192,135708,1,0,0:0:0:0:
64,192,135827,1,0,0:0:0:0:
192,192,135827,1,0,0:0:0:0:
320,192,135827,1,0,0:0:0:0:
64,192,135946,1,0,0:0:0:0:
192,192,136065,1,0,0:0:0:0:
320,192,136065,1,0,0:0:0:0:
448,192,136065,1,0,0:0:0:0:
64,192,136184,1,0,0:0:0:0:
320,192,136184,1,0,0:0:0:0:
448,192,136303,1,0,0:0:0:0:
192,192,136303,1,0,0:0:0:0:
448,192,136422,1,0,0:0:0:0:
192,192,136422,1,0,0:0:0:0:
64,192,136541,1,0,0:0:0:0:
192,192,136541,1,0,0:0:0:0:
320,192,136541,1,0,0:0:0:0:
320,192,136660,1,0,0:0:0:0:
448,192,136660,1,0,0:0:0:0:
192,192,136779,1,0,0:0:0:0:
448,192,136779,1,0,0:0:0:0:
64,192,136779,1,0,0:0:0:0:
320,192,136898,1,0,0:0:0:0:
192,192,136898,1,0,0:0:0:0:
64,192,137017,1,0,0:0:0:0:
320,192,137017,1,0,0:0:0:0:
448,192,137017,1,0,0:0:0:0:
192,192,137137,1,0,0:0:0:0:
320,192,137137,1,0,0:0:0:0:
64,192,137256,1,0,0:0:0:0:
192,192,137256,1,0,0:0:0:0:
448,192,137375,1,0,0:0:0:0:
320,192,137375,1,0,0:0:0:0:
448,192,137494,1,0,0:0:0:0:
320,192,137494,1,0,0:0:0:0:
64,192,137494,1,0,0:0:0:0:
64,192,137613,1,0,0:0:0:0:
192,192,137613,1,0,0:0:0:0:
320,192,137613,1,0,0:0:0:0:
448,192,137732,1,0,0:0:0:0:
320,192,137732,1,0,0:0:0:0:
192,192,137732,1,0,0:0:0:0:
192,192,137851,1,0,0:0:0:0:
64,192,137970,1,0,0:0:0:0:
320,192,137970,1,0,0:0:0:0:
448,192,137970,1,0,0:0:0:0:
192,192,138089,1,0,0:0:0:0:
320,192,138089,1,0,0:0:0:0:
64,192,138208,1,0,0:0:0:0:
192,192,138208,1,0,0:0:0:0:
448,192,138327,1,0,0:0:0:0:
320,192,138327,1,0,0:0:0:0:
64,192,138327,1,0,0:0:0:0:
192,192,138446,1,0,0:0:0:0:
320,192,138446,1,0,0:0:0:0:
448,192,138446,1,0,0:0:0:0:
448,192,138565,1,0,0:0:0:0:
320,192,138565,1,0,0:0:0:0:
192,192,138565,1,0,0:0:0:0:
64,192,138684,1,0,0:0:0:0:
192,192,138684,1,0,0:0:0:0:
320,192,138684,1,0,0:0:0:0:
448,192,138803,1,0,0:0:0:0:
64,192,138922,1,0,0:0:0:0:
448,192,138922,1,0,0:0:0:0:
192,192,138922,1,0,0:0:0:0:
64,192,139041,1,0,0:0:0:0:
448,192,139041,1,0,0:0:0:0:
320,192,139041,1,0,0:0:0:0:
192,192,139160,1,0,0:0:0:0:
448,192,139279,1,0,0:0:0:0:
320,192,139398,1,0,0:0:0:0:
64,192,139398,1,0,0:0:0:0:
192,192,139398,1,0,0:0:0:0:
320,192,139517,1,0,0:0:0:0:
448,192,139517,1,0,0:0:0:0:
64,192,139517,1,0,0:0:0:0:
64,192,139637,1,0,0:0:0:0:
192,192,139637,1,0,0:0:0:0:
320,192,139637,1,0,0:0:0:0:
448,192,139756,1,0,0:0:0:0:
448,192,139875,1,0,0:0:0:0:
320,192,139875,1,0,0:0:0:0:
192,192,139875,1,0,0:0:0:0:
64,192,139994,1,0,0:0:0:0:
192,192,139994,1,0,0:0:0:0:
320,192,139994,1,0,0:0:0:0:
448,192,140113,1,0,0:0:0:0:
448,192,140232,1,0,0:0:0:0:
320,192,140351,1,0,0:0:0:0:
192,192,140351,1,0,0:0:0:0:
64,192,140351,1,0,0:0:0:0:
320,192,140470,1,0,0:0:0:0:
448,192,140470,1,0,0:0:0:0:
64,192,140589,1,0,0:0:0:0:
192,192,140589,1,0,0:0:0:0:
320,192,140668,1,0,0:0:0:0:
192,192,140748,1,0,0:0:0:0:
64,192,140827,1,0,0:0:0:0:
448,192,140827,1,0,0:0:0:0:
320,192,140906,1,0,0:0:0:0:
192,192,140986,1,0,0:0:0:0:
64,192,141065,1,0,0:0:0:0:
320,192,141065,1,0,0:0:0:0:
448,192,141144,1,0,0:0:0:0:
320,192,141224,1,0,0:0:0:0:
64,192,141303,1,0,0:0:0:0:
192,192,141303,1,0,0:0:0:0:
320,192,141383,1,0,0:0:0:0:
448,192,141383,1,0,0:0:0:0:
64,192,141462,1,0,0:0:0:0:
192,192,141462,1,0,0:0:0:0:
320,192,141541,1,0,0:0:0:0:
448,192,141541,1,0,0:0:0:0:
192,192,141541,1,0,0:0:0:0:
64,192,141541,1,0,0:0:0:0:
192,192,141660,1,0,0:0:0:0:
448,192,141779,1,0,0:0:0:0:
64,192,141779,1,0,0:0:0:0:
192,192,141779,1,0,0:0:0:0:
320,192,141898,1,0,0:0:0:0:
64,192,141898,1,0,0:0:0:0:
448,192,142017,1,0,0:0:0:0:
192,192,142017,1,0,0:0:0:0:
320,192,142137,1,0,0:0:0:0:
192,192,142256,1,0,0:0:0:0:
64,192,142256,1,0,0:0:0:0:
320,192,142256,1,0,0:0:0:0:
448,192,142375,1,0,0:0:0:0:
320,192,142494,1,0,0:0:0:0:
192,192,142494,1,0,0:0:0:0:
448,192,142494,1,0,0:0:0:0:
64,192,142613,1,0,0:0:0:0:
320,192,142732,1,0,0:0:0:0:
192,192,142732,1,0,0:0:0:0:
64,192,142732,1,0,0:0:0:0:
192,192,142851,1,0,0:0:0:0:
448,192,142851,1,0,0:0:0:0:
320,192,142970,1,0,0:0:0:0:
64,192,143089,1,0,0:0:0:0:
448,192,143208,1,0,0:0:0:0:
320,192,143208,1,0,0:0:0:0:
64,192,143208,1,0,0:0:0:0:
64,192,143327,1,0,0:0:0:0:
192,192,143327,1,0,0:0:0:0:
192,192,143446,1,0,0:0:0:0:
320,192,143446,1,0,0:0:0:0:
448,192,143446,1,0,0:0:0:0:
448,192,143565,1,0,0:0:0:0:
64,192,143684,1,0,0:0:0:0:
192,192,143684,1,0,0:0:0:0:
320,192,143684,1,0,0:0:0:0:
192,192,143803,1,0,0:0:0:0:
448,192,143803,1,0,0:0:0:0:
320,192,143922,1,0,0:0:0:0:
64,192,143922,1,0,0:0:0:0:
320,192,144041,1,0,0:0:0:0:
64,192,144041,1,0,0:0:0:0:
192,192,144160,1,0,0:0:0:0:
320,192,144160,1,0,0:0:0:0:
448,192,144160,1,0,0:0:0:0:
64,192,144279,1,0,0:0:0:0:
192,192,144279,1,0,0:0:0:0:
448,192,144398,1,0,0:0:0:0:
64,192,144398,1,0,0:0:0:0:
320,192,144398,1,0,0:0:0:0:
320,192,144517,1,0,0:0:0:0:
192,192,144517,1,0,0:0:0:0:
64,192,144637,1,0,0:0:0:0:
192,192,144637,1,0,0:0:0:0:
448,192,144637,1,0,0:0:0:0:
192,192,144756,1,0,0:0:0:0:
320,192,144756,1,0,0:0:0:0:
320,192,144875,1,0,0:0:0:0:
448,192,144875,1,0,0:0:0:0:
192,192,144994,1,0,0:0:0:0:
64,192,144994,1,0,0:0:0:0:
448,192,145113,1,0,0:0:0:0:
192,192,145113,1,0,0:0:0:0:
64,192,145113,1,0,0:0:0:0:
192,192,145232,1,0,0:0:0:0:
320,192,145232,1,0,0:0:0:0:
448,192,145232,1,0,0:0:0:0:
320,192,145351,1,0,0:0:0:0:
192,192,145351,1,0,0:0:0:0:
64,192,145351,1,0,0:0:0:0:
320,192,145470,1,0,0:0:0:0:
64,192,145589,1,0,0:0:0:0:
192,192,145589,1,0,0:0:0:0:
448,192,145589,1,0,0:0:0:0:
192,192,145708,1,0,0:0:0:0:
320,192,145708,1,0,0:0:0:0:
320,192,145827,1,0,0:0:0:0:
448,192,145827,1,0,0:0:0:0:
448,192,145946,1,0,0:0:0:0:
192,192,145946,1,0,0:0:0:0:
64,192,145946,1,0,0:0:0:0:
64,192,146065,1,0,0:0:0:0:
192,192,146065,1,0,0:0:0:0:
320,192,146065,1,0,0:0:0:0:
320,192,146184,1,0,0:0:0:0:
192,192,146184,1,0,0:0:0:0:
64,192,146184,1,0,0:0:0:0:
192,192,146303,1,0,0:0:0:0:
320,192,146303,1,0,0:0:0:0:
448,192,146303,1,0,0:0:0:0:
64,192,146422,1,0,0:0:0:0:
320,192,146541,1,0,0:0:0:0:
64,192,146541,1,0,0:0:0:0:
448,192,146541,1,0,0:0:0:0:
192,192,146660,1,0,0:0:0:0:
64,192,146660,1,0,0:0:0:0:
448,192,146660,1,0,0:0:0:0:
320,192,146779,1,0,0:0:0:0:
64,192,146898,1,0,0:0:0:0:
320,192,147017,1,0,0:0:0:0:
448,192,147017,1,0,0:0:0:0:
192,192,147017,1,0,0:0:0:0:
448,192,147137,1,0,0:0:0:0:
64,192,147137,1,0,0:0:0:0:
192,192,147137,1,0,0:0:0:0:
192,192,147256,1,0,0:0:0:0:
320,192,147256,1,0,0:0:0:0:
448,192,147256,1,0,0:0:0:0:
64,192,147375,1,0,0:0:0:0:
320,192,147494,1,0,0:0:0:0:
192,192,147494,1,0,0:0:0:0:
64,192,147494,1,0,0:0:0:0:
192,192,147613,1,0,0:0:0:0:
320,192,147613,1,0,0:0:0:0:
448,192,147613,1,0,0:0:0:0:
64,192,147732,1,0,0:0:0:0:
64,192,147851,1,0,0:0:0:0:
448,192,147970,1,0,0:0:0:0:
320,192,147970,1,0,0:0:0:0:
192,192,147970,1,0,0:0:0:0:
64,192,148089,1,0,0:0:0:0:
192,192,148089,1,0,0:0:0:0:
320,192,148208,1,0,0:0:0:0:
448,192,148208,1,0,0:0:0:0:
192,192,148287,1,0,0:0:0:0:
320,192,148367,1,0,0:0:0:0:
64,192,148446,1,0,0:0:0:0:
448,192,148446,1,0,0:0:0:0:
192,192,148525,1,0,0:0:0:0:
320,192,148605,1,0,0:0:0:0:
192,192,148684,1,0,0:0:0:0:
448,192,148684,1,0,0:0:0:0:
64,192,148764,1,0,0:0:0:0:
192,192,148843,1,0,0:0:0:0:
320,192,148922,1,0,0:0:0:0:
448,192,148922,1,0,0:0:0:0:
64,192,149002,1,0,0:0:0:0:
192,192,149002,1,0,0:0:0:0:
320,192,149081,1,0,0:0:0:0:
448,192,149081,1,0,0:0:0:0:
192,192,149160,1,0,0:0:0:0:
64,192,149160,1,0,0:0:0:0:
320,192,149160,1,0,0:0:0:0:
448,192,149160,1,0,0:0:0:0:
448,192,149398,1,0,0:0:0:0:
192,192,149398,1,0,0:0:0:0:
64,192,149517,1,0,0:0:0:0:
192,192,149517,1,0,0:0:0:0:
320,192,149517,1,0,0:0:0:0:
448,192,149517,1,0,0:0:0:0:
192,192,149756,1,0,0:0:0:0:
320,192,149875,1,0,0:0:0:0:
320,192,149994,1,0,0:0:0:0:
448,192,150113,1,0,0:0:0:0:
192,192,150113,1,0,0:0:0:0:
64,192,150113,1,0,0:0:0:0:
320,192,150351,1,0,0:0:0:0:
64,192,150351,1,0,0:0:0:0:
64,192,150470,1,0,0:0:0:0:
192,192,150470,1,0,0:0:0:0:
320,192,150708,1,0,0:0:0:0:
448,192,150827,1,0,0:0:0:0:
192,192,150827,1,0,0:0:0:0:
448,192,150946,1,0,0:0:0:0:
192,192,150946,1,0,0:0:0:0:
448,192,151065,1,0,0:0:0:0:
320,192,151065,1,0,0:0:0:0:
192,192,151065,1,0,0:0:0:0:
64,192,151303,1,0,0:0:0:0:
320,192,151303,1,0,0:0:0:0:
64,192,151422,1,0,0:0:0:0:
192,192,151422,1,0,0:0:0:0:
320,192,151422,1,0,0:0:0:0:
448,192,151422,1,0,0:0:0:0:
320,192,151660,1,0,0:0:0:0:
448,192,151779,1,0,0:0:0:0:
448,192,151898,1,0,0:0:0:0:
448,192,152017,1,0,0:0:0:0:
320,192,152017,1,0,0:0:0:0:
192,192,152017,1,0,0:0:0:0:
64,192,152017,1,0,0:0:0:0:
448,192,152256,1,0,0:0:0:0:
320,192,152256,1,0,0:0:0:0:
192,192,152256,1,0,0:0:0:0:
64,192,152375,1,0,0:0:0:0:
192,192,152375,1,0,0:0:0:0:
320,192,152375,1,0,0:0:0:0:
448,192,152732,1,0,0:0:0:0:
320,192,152732,1,0,0:0:0:0:
64,192,152732,1,0,0:0:0:0:
448,192,152970,1,0,0:0:0:0:
320,192,152970,1,0,0:0:0:0:
192,192,152970,1,0,0:0:0:0:
64,192,152970,1,0,0:0:0:0:
320,192,153208,1,0,0:0:0:0:
64,192,153208,1,0,0:0:0:0:
64,192,153327,1,0,0:0:0:0:
192,192,153327,1,0,0:0:0:0:
320,192,153327,1,0,0:0:0:0:
448,192,153327,1,0,0:0:0:0:
320,192,153565,1,0,0:0:0:0:
192,192,153684,1,0,0:0:0:0:
192,192,153803,1,0,0:0:0:0:
448,192,153922,1,0,0:0:0:0:
320,192,153922,1,0,0:0:0:0:
64,192,153922,1,0,0:0:0:0:
320,192,154160,1,0,0:0:0:0:
192,192,154160,1,0,0:0:0:0:
448,192,154279,1,0,0:0:0:0:
192,192,154279,1,0,0:0:0:0:
192,192,154517,1,0,0:0:0:0:
320,192,154637,1,0,0:0:0:0:
64,192,154637,1,0,0:0:0:0:
192,192,154756,1,0,0:0:0:0:
448,192,154875,1,0,0:0:0:0:
320,192,154875,1,0,0:0:0:0:
64,192,154875,1,0,0:0:0:0:
192,192,155113,1,0,0:0:0:0:
320,192,155113,1,0,0:0:0:0:
64,192,155232,1,0,0:0:0:0:
192,192,155232,1,0,0:0:0:0:
320,192,155232,1,0,0:0:0:0:
448,192,155232,1,0,0:0:0:0:
448,192,155470,1,0,0:0:0:0:
448,192,155589,1,0,0:0:0:0:
192,192,155589,1,0,0:0:0:0:
64,192,155589,1,0,0:0:0:0:
320,192,155708,1,0,0:0:0:0:
448,192,155827,1,0,0:0:0:0:
320,192,155827,1,0,0:0:0:0:
192,192,155827,1,0,0:0:0:0:
64,192,155827,1,0,0:0:0:0:
320,192,156065,1,0,0:0:0:0:
192,192,156065,1,0,0:0:0:0:
64,192,156184,1,0,0:0:0:0:
192,192,156184,1,0,0:0:0:0:
320,192,156184,1,0,0:0:0:0:
320,192,156303,1,0,0:0:0:0:
448,192,156303,1,0,0:0:0:0:
64,192,156303,1,0,0:0:0:0:
448,192,156422,1,0,0:0:0:0:
320,192,156422,1,0,0:0:0:0:
64,192,156422,1,0,0:0:0:0:
448,192,156541,1,0,0:0:0:0:
320,192,156541,1,0,0:0:0:0:
64,192,156541,1,0,0:0:0:0:
64,192,156660,1,0,0:0:0:0:
320,192,156660,1,0,0:0:0:0:
448,192,156660,1,0,0:0:0:0:
448,192,156779,1,0,0:0:0:0:
320,192,156779,1,0,0:0:0:0:
192,192,156779,1,0,0:0:0:0:
64,192,156779,1,0,0:0:0:0:
192,192,156898,1,0,0:0:0:0:
448,192,157017,1,0,0:0:0:0:
320,192,157017,1,0,0:0:0:0:
64,192,157137,1,0,0:0:0:0:
448,192,157137,1,0,0:0:0:0:
192,192,157256,1,0,0:0:0:0:
320,192,157256,1,0,0:0:0:0:
320,192,157375,1,0,0:0:0:0:
64,192,157494,1,0,0:0:0:0:
192,192,157494,1,0,0:0:0:0:
64,192,157613,1,0,0:0:0:0:
448,192,157732,1,0,0:0:0:0:
320,192,157732,1,0,0:0:0:0:
192,192,157732,1,0,0:0:0:0:
320,192,157851,1,0,0:0:0:0:
64,192,157970,1,0,0:0:0:0:
192,192,157970,1,0,0:0:0:0:
448,192,157970,1,0,0:0:0:0:
192,192,158089,1,0,0:0:0:0:
64,192,158208,1,0,0:0:0:0:
320,192,158208,1,0,0:0:0:0:
448,192,158208,1,0,0:0:0:0:
448,192,158327,1,0,0:0:0:0:
320,192,158446,1,0,0:0:0:0:
64,192,158446,1,0,0:0:0:0:
192,192,158446,1,0,0:0:0:0:
320,192,158565,1,0,0:0:0:0:
192,192,158684,1,0,0:0:0:0:
64,192,158684,1,0,0:0:0:0:
448,192,158684,1,0,0:0:0:0:
64,192,158803,1,0,0:0:0:0:
192,192,158922,1,0,0:0:0:0:
448,192,158922,1,0,0:0:0:0:
192,192,159041,1,0,0:0:0:0:
320,192,159160,1,0,0:0:0:0:
64,192,159160,1,0,0:0:0:0:
64,192,159279,1,0,0:0:0:0:
320,192,159398,1,0,0:0:0:0:
448,192,159398,1,0,0:0:0:0:
320,192,159517,1,0,0:0:0:0:
448,192,159637,1,0,0:0:0:0:
64,192,159637,1,0,0:0:0:0:
192,192,159637,1,0,0:0:0:0:
192,192,159756,1,0,0:0:0:0:
64,192,159875,1,0,0:0:0:0:
320,192,159875,1,0,0:0:0:0:
448,192,159875,1,0,0:0:0:0:
320,192,159994,1,0,0:0:0:0:
448,192,160113,1,0,0:0:0:0:
192,192,160113,1,0,0:0:0:0:
64,192,160113,1,0,0:0:0:0:
448,192,160232,1,0,0:0:0:0:
64,192,160351,1,0,0:0:0:0:
192,192,160351,1,0,0:0:0:0:
320,192,160351,1,0,0:0:0:0:
192,192,160470,1,0,0:0:0:0:
320,192,160589,1,0,0:0:0:0:
64,192,160589,1,0,0:0:0:0:
448,192,160589,1,0,0:0:0:0:
192,192,160589,1,0,0:0:0:0:
320,192,160708,1,0,0:0:0:0:
448,192,160827,1,0,0:0:0:0:
64,192,160827,1,0,0:0:0:0:
64,192,160946,1,0,0:0:0:0:
192,192,161065,1,0,0:0:0:0:
320,192,161065,1,0,0:0:0:0:
192,192,161184,1,0,0:0:0:0:
448,192,161303,1,0,0:0:0:0:
320,192,161303,1,0,0:0:0:0:
448,192,161422,1,0,0:0:0:0:
320,192,161541,1,0,0:0:0:0:
64,192,161541,1,0,0:0:0:0:
192,192,161541,1,0,0:0:0:0:
320,192,161660,1,0,0:0:0:0:
64,192,161779,1,0,0:0:0:0:
192,192,161779,1,0,0:0:0:0:
448,192,161779,1,0,0:0:0:0:
192,192,161898,1,0,0:0:0:0:
320,192,162017,1,0,0:0:0:0:
448,192,162017,1,0,0:0:0:0:
64,192,162017,1,0,0:0:0:0:
320,192,162137,1,0,0:0:0:0:
64,192,162256,1,0,0:0:0:0:
448,192,162256,1,0,0:0:0:0:
192,192,162256,1,0,0:0:0:0:
64,192,162375,1,0,0:0:0:0:
192,192,162494,1,0,0:0:0:0:
448,192,162494,1,0,0:0:0:0:
320,192,162494,1,0,0:0:0:0:
320,192,162613,1,0,0:0:0:0:
64,192,162732,1,0,0:0:0:0:
448,192,162732,1,0,0:0:0:0:
64,192,162851,1,0,0:0:0:0:
448,192,162970,1,0,0:0:0:0:
320,192,162970,1,0,0:0:0:0:
320,192,163089,1,0,0:0:0:0:
448,192,163208,1,0,0:0:0:0:
192,192,163208,1,0,0:0:0:0:
192,192,163327,1,0,0:0:0:0:
64,192,163446,1,0,0:0:0:0:
320,192,163446,1,0,0:0:0:0:
448,192,163446,1,0,0:0:0:0:
448,192,163565,1,0,0:0:0:0:
320,192,163684,1,0,0:0:0:0:
192,192,163684,1,0,0:0:0:0:
64,192,163684,1,0,0:0:0:0:
192,192,163803,1,0,0:0:0:0:
448,192,163922,1,0,0:0:0:0:
320,192,163922,1,0,0:0:0:0:
64,192,163922,1,0,0:0:0:0:
64,192,164041,1,0,0:0:0:0:
192,192,164160,1,0,0:0:0:0:
320,192,164160,1,0,0:0:0:0:
320,192,164279,1,0,0:0:0:0:
448,192,164398,1,0,0:0:0:0:
320,192,164398,1,0,0:0:0:0:
192,192,164398,1,0,0:0:0:0:
64,192,164398,1,0,0:0:0:0:
192,192,164517,1,0,0:0:0:0:
448,192,164637,1,0,0:0:0:0:
320,192,164637,1,0,0:0:0:0:
64,192,164756,1,0,0:0:0:0:
448,192,164756,1,0,0:0:0:0:
192,192,164875,1,0,0:0:0:0:
320,192,164875,1,0,0:0:0:0:
320,192,164994,1,0,0:0:0:0:
64,192,165113,1,0,0:0:0:0:
192,192,165113,1,0,0:0:0:0:
64,192,165232,1,0,0:0:0:0:
448,192,165351,1,0,0:0:0:0:
320,192,165351,1,0,0:0:0:0:
192,192,165351,1,0,0:0:0:0:
320,192,165470,1,0,0:0:0:0:
64,192,165589,1,0,0:0:0:0:
192,192,165589,1,0,0:0:0:0:
448,192,165589,1,0,0:0:0:0:
192,192,165708,1,0,0:0:0:0:
64,192,165827,1,0,0:0:0:0:
320,192,165827,1,0,0:0:0:0:
448,192,165827,1,0,0:0:0:0:
448,192,165946,1,0,0:0:0:0:
320,192,166065,1,0,0:0:0:0:
64,192,166065,1,0,0:0:0:0:
192,192,166065,1,0,0:0:0:0:
320,192,166184,1,0,0:0:0:0:
192,192,166303,1,0,0:0:0:0:
64,192,166303,1,0,0:0:0:0:
448,192,166303,1,0,0:0:0:0:
64,192,166422,1,0,0:0:0:0:
192,192,166541,1,0,0:0:0:0:
448,192,166541,1,0,0:0:0:0:
192,192,166660,1,0,0:0:0:0:
320,192,166779,1,0,0:0:0:0:
64,192,166779,1,0,0:0:0:0:
64,192,166898,1,0,0:0:0:0:
320,192,167017,1,0,0:0:0:0:
448,192,167017,1,0,0:0:0:0:
320,192,167137,1,0,0:0:0:0:
448,192,167256,1,0,0:0:0:0:
64,192,167256,1,0,0:0:0:0:
192,192,167256,1,0,0:0:0:0:
192,192,167375,1,0,0:0:0:0:
64,192,167494,1,0,0:0:0:0:
320,192,167494,1,0,0:0:0:0:
448,192,167494,1,0,0:0:0:0:
320,192,167613,1,0,0:0:0:0:
448,192,167732,1,0,0:0:0:0:
192,192,167732,1,0,0:0:0:0:
64,192,167732,1,0,0:0:0:0:
448,192,167851,1,0,0:0:0:0:
64,192,167970,1,0,0:0:0:0:
192,192,167970,1,0,0:0:0:0:
320,192,167970,1,0,0:0:0:0:
192,192,168089,1,0,0:0:0:0:
320,192,168208,1,0,0:0:0:0:
64,192,168208,1,0,0:0:0:0:
448,192,168208,1,0,0:0:0:0:
192,192,168208,1,0,0:0:0:0:
320,192,168327,1,0,0:0:0:0:
448,192,168446,1,0,0:0:0:0:
64,192,168446,1,0,0:0:0:0:
64,192,168565,1,0,0:0:0:0:
192,192,168684,1,0,0:0:0:0:
320,192,168684,1,0,0:0:0:0:
192,192,168803,1,0,0:0:0:0:
448,192,168922,1,0,0:0:0:0:
320,192,168922,1,0,0:0:0:0:
448,192,169041,1,0,0:0:0:0:
320,192,169160,1,0,0:0:0:0:
64,192,169160,1,0,0:0:0:0:
192,192,169160,1,0,0:0:0:0:
320,192,169279,1,0,0:0:0:0:
64,192,169398,1,0,0:0:0:0:
192,192,169398,1,0,0:0:0:0:
448,192,169398,1,0,0:0:0:0:
192,192,169517,1,0,0:0:0:0:
320,192,169637,1,0,0:0:0:0:
448,192,169637,1,0,0:0:0:0:
64,192,169637,1,0,0:0:0:0:
320,192,169756,1,0,0:0:0:0:
64,192,169875,1,0,0:0:0:0:
448,192,169875,1,0,0:0:0:0:
192,192,169875,1,0,0:0:0:0:
64,192,169994,1,0,0:0:0:0:
448,192,170113,1,0,0:0:0:0:
320,192,170113,1,0,0:0:0:0:
192,192,170113,1,0,0:0:0:0:
320,192,170232,1,0,0:0:0:0:
64,192,170351,1,0,0:0:0:0:
448,192,170351,1,0,0:0:0:0:
64,192,170470,1,0,0:0:0:0:
448,192,170589,1,0,0:0:0:0:
320,192,170589,1,0,0:0:0:0:
320,192,170708,1,0,0:0:0:0:
448,192,170827,1,0,0:0:0:0:
192,192,170827,1,0,0:0:0:0:
192,192,170946,1,0,0:0:0:0:
320,192,171065,1,0,0:0:0:0:
320,192,171303,1,0,0:0:0:0:
320,192,171541,1,0,0:0:0:0:
320,192,171779,1,0,0:0:0:0:
64,192,172017,1,0,0:0:0:0:
192,192,172017,1,0,0:0:0:0:
320,192,172017,1,0,0:0:0:0:
448,192,172017,1,0,0:0:0:0:
64,192,172137,1,0,0:0:0:0:
192,192,172137,1,0,0:0:0:0:
448,192,172256,1,0,0:0:0:0:
192,192,172256,1,0,0:0:0:0:
192,192,172375,1,0,0:0:0:0:
448,192,172375,1,0,0:0:0:0:
448,192,172494,1,0,0:0:0:0:
320,192,172494,1,0,0:0:0:0:
192,192,172494,1,0,0:0:0:0:
320,192,172732,1,0,0:0:0:0:
320,192,172970,1,0,0:0:0:0:
192,192,172970,1,0,0:0:0:0:
64,192,173089,1,0,0:0:0:0:
192,192,173089,1,0,0:0:0:0:
448,192,173089,1,0,0:0:0:0:
320,192,173327,1,0,0:0:0:0:
192,192,173327,1,0,0:0:0:0:
448,192,173327,1,0,0:0:0:0:
448,192,173565,1,0,0:0:0:0:
192,192,173565,1,0,0:0:0:0:
64,192,173565,1,0,0:0:0:0:
320,192,173684,1,0,0:0:0:0:
64,192,173684,1,0,0:0:0:0:
64,192,174160,1,0,0:0:0:0:
192,192,174160,1,0,0:0:0:0:
448,192,174160,1,0,0:0:0:0:
448,192,174279,1,0,0:0:0:0:
320,192,174279,1,0,0:0:0:0:
320,192,174398,1,0,0:0:0:0:
192,192,174398,1,0,0:0:0:0:
64,192,174398,1,0,0:0:0:0:
64,192,174637,1,0,0:0:0:0:
192,192,174637,1,0,0:0:0:0:
448,192,174637,1,0,0:0:0:0:
192,192,174875,1,0,0:0:0:0:
320,192,174875,1,0,0:0:0:0:
448,192,174875,1,0,0:0:0:0:
320,192,175113,1,0,0:0:0:0:
192,192,175113,1,0,0:0:0:0:
64,192,175113,1,0,0:0:0:0:
192,192,175351,1,0,0:0:0:0:
320,192,175351,1,0,0:0:0:0:
448,192,175351,1,0,0:0:0:0:
320,192,175589,1,0,0:0:0:0:
192,192,175589,1,0,0:0:0:0:
64,192,175589,1,0,0:0:0:0:
64,192,176065,1,0,0:0:0:0:
320,192,176065,1,0,0:0:0:0:
448,192,176065,1,0,0:0:0:0:
448,192,176184,1,0,0:0:0:0:
320,192,176184,1,0,0:0:0:0:
320,192,176303,1,0,0:0:0:0:
192,192,176303,1,0,0:0:0:0:
64,192,176303,1,0,0:0:0:0:
64,192,176541,1,0,0:0:0:0:
320,192,176541,1,0,0:0:0:0:
448,192,176541,1,0,0:0:0:0:
64,192,176779,1,0,0:0:0:0:
192,192,176779,1,0,0:0:0:0:
448,192,176898,1,0,0:0:0:0:
320,192,176898,1,0,0:0:0:0:
192,192,176898,1,0,0:0:0:0:
64,192,177137,1,0,0:0:0:0:
448,192,177137,1,0,0:0:0:0:
64,192,177375,1,0,0:0:0:0:
192,192,177375,1,0,0:0:0:0:
448,192,177375,1,0,0:0:0:0:
320,192,177494,1,0,0:0:0:0:
192,192,177494,1,0,0:0:0:0:
320,192,177970,1,0,0:0:0:0:
448,192,177970,1,0,0:0:0:0:
64,192,177970,1,0,0:0:0:0:
192,192,178089,1,0,0:0:0:0:
448,192,178089,1,0,0:0:0:0:
192,192,178208,1,0,0:0:0:0:
320,192,178208,1,0,0:0:0:0:
64,192,178208,1,0,0:0:0:0:
320,192,178446,1,0,0:0:0:0:
192,192,178446,1,0,0:0:0:0:
192,192,178684,128,0,178803:0:0:0:0:
448,192,178684,1,0,0:0:0:0:
64,192,178684,1,0,0:0:0:0:
320,192,178922,128,0,179041:0:0:0:0:
64,192,178922,1,0,0:0:0:0:
448,192,178922,1,0,0:0:0:0:
192,192,179160,128,0,179279:0:0:0:0:
448,192,179160,1,0,0:0:0:0:
64,192,179160,1,0,0:0:0:0:
320,192,179398,128,0,179517:0:0:0:0:
64,192,179398,1,0,0:0:0:0:
448,192,179398,1,0,0:0:0:0:
64,192,179637,1,0,0:0:0:0:
192,192,179637,1,0,0:0:0:0:
448,192,179637,1,0,0:0:0:0:
448,192,179756,1,0,0:0:0:0:
192,192,179756,1,0,0:0:0:0:
192,192,179875,1,0,0:0:0:0:
448,192,179875,1,0,0:0:0:0:
192,192,179994,1,0,0:0:0:0:
320,192,179994,1,0,0:0:0:0:
192,192,180113,1,0,0:0:0:0:
320,192,180113,1,0,0:0:0:0:
448,192,180113,1,0,0:0:0:0:
192,192,180589,1,0,0:0:0:0:
64,192,180589,1,0,0:0:0:0:
448,192,180708,1,0,0:0:0:0:
192,192,180708,1,0,0:0:0:0:
64,192,180708,1,0,0:0:0:0:
320,192,180946,1,0,0:0:0:0:
448,192,180946,1,0,0:0:0:0:
192,192,180946,1,0,0:0:0:0:
320,192,181184,1,0,0:0:0:0:
192,192,181184,1,0,0:0:0:0:
64,192,181184,1,0,0:0:0:0:
448,192,181303,1,0,0:0:0:0:
320,192,181303,1,0,0:0:0:0:
320,192,181541,1,0,0:0:0:0:
64,192,181541,1,0,0:0:0:0:
320,192,181779,1,0,0:0:0:0:
448,192,181779,1,0,0:0:0:0:
192,192,181779,1,0,0:0:0:0:
64,192,181898,1,0,0:0:0:0:
320,192,181898,1,0,0:0:0:0:
448,192,182017,1,0,0:0:0:0:
320,192,182017,1,0,0:0:0:0:
192,192,182017,1,0,0:0:0:0:
320,192,182256,1,0,0:0:0:0:
192,192,182256,1,0,0:0:0:0:
64,192,182256,1,0,0:0:0:0:
448,192,182494,1,0,0:0:0:0:
192,192,182494,1,0,0:0:0:0:
64,192,182494,1,0,0:0:0:0:
64,192,182732,1,0,0:0:0:0:
320,192,182732,1,0,0:0:0:0:
448,192,182732,1,0,0:0:0:0:
448,192,182970,1,0,0:0:0:0:
192,192,182970,1,0,0:0:0:0:
64,192,182970,1,0,0:0:0:0:
64,192,183208,1,0,0:0:0:0:
320,192,183208,1,0,0:0:0:0:
448,192,183208,1,0,0:0:0:0:
448,192,183446,1,0,0:0:0:0:
64,192,183446,1,0,0:0:0:0:
192,192,183446,1,0,0:0:0:0:
320,192,183446,1,0,0:0:0:0:
320,192,183684,1,0,0:0:0:0:
64,192,183684,1,0,0:0:0:0:
64,192,183803,1,0,0:0:0:0:
192,192,183803,1,0,0:0:0:0:
64,192,183922,1,0,0:0:0:0:
448,192,183922,1,0,0:0:0:0:
320,192,183922,1,0,0:0:0:0:
64,192,184160,1,0,0:0:0:0:
320,192,184160,1,0,0:0:0:0:
448,192,184160,1,0,0:0:0:0:
320,192,184398,1,0,0:0:0:0:
192,192,184398,1,0,0:0:0:0:
64,192,184398,1,0,0:0:0:0:
448,192,184637,1,0,0:0:0:0:
320,192,184637,1,0,0:0:0:0:
64,192,184637,1,0,0:0:0:0:
320,192,184875,1,0,0:0:0:0:
448,192,184875,1,0,0:0:0:0:
64,192,184875,1,0,0:0:0:0:
320,192,184994,1,0,0:0:0:0:
192,192,184994,1,0,0:0:0:0:
320,192,185113,1,0,0:0:0:0:
64,192,185113,1,0,0:0:0:0:
448,192,185351,1,0,0:0:0:0:
192,192,185351,1,0,0:0:0:0:
64,192,185351,1,0,0:0:0:0:
320,192,185470,1,0,0:0:0:0:
192,192,185589,1,0,0:0:0:0:
64,192,185589,1,0,0:0:0:0:
320,192,185708,1,0,0:0:0:0:
448,192,185708,1,0,0:0:0:0:
192,192,185708,1,0,0:0:0:0:
320,192,185827,1,0,0:0:0:0:
192,192,185827,1,0,0:0:0:0:
64,192,185827,1,0,0:0:0:0:
448,192,185946,5,0,0:0:0:0:
320,192,185946,1,0,0:0:0:0:
64,192,185946,1,0,0:0:0:0:
192,192,186065,1,0,0:0:0:0:
448,192,186065,1,0,0:0:0:0:
320,192,186065,1,0,0:0:0:0:
448,192,186184,1,0,0:0:0:0:
64,192,186184,1,0,0:0:0:0:
448,192,186303,1,0,0:0:0:0:
320,192,186303,1,0,0:0:0:0:
192,192,186303,1,0,0:0:0:0:
64,192,186303,1,0,0:0:0:0:
448,192,186541,1,0,0:0:0:0:
320,192,186541,1,0,0:0:0:0:
192,192,186541,1,0,0:0:0:0:
64,192,186660,1,0,0:0:0:0:
192,192,186660,1,0,0:0:0:0:
448,192,186660,1,0,0:0:0:0:
64,192,186898,1,0,0:0:0:0:
320,192,186898,1,0,0:0:0:0:
448,192,186898,1,0,0:0:0:0:
192,192,187017,1,0,0:0:0:0:
320,192,187017,1,0,0:0:0:0:
448,192,187017,1,0,0:0:0:0:
192,192,187256,1,0,0:0:0:0:
320,192,187256,1,0,0:0:0:0:
448,192,187256,128,0,190986:0:0:0:0:
64,192,187256,128,0,189081:0:0:0:0:
320,192,187970,1,0,0:0:0:0:
192,192,188208,1,0,0:0:0:0:
320,192,188922,1,0,0:0:0:0:
64,192,189160,128,0,189398:0:0:0:0:
320,192,189160,1,0,0:0:0:0:
64,192,189478,128,0,189716:0:0:0:0:
320,192,189637,1,0,0:0:0:0:
64,192,189795,128,0,190033:0:0:0:0:
64,192,190113,128,0,190351:0:0:0:0:
192,192,190113,1,0,0:0:0:0:
64,192,190430,128,0,190668:0:0:0:0:
64,192,190748,128,0,190986:0:0:0:0:
448,192,191065,128,0,194795:0:0:0:0:
64,192,191065,128,0,192891:0:0:0:0:
320,192,191065,1,0,0:0:0:0:
192,192,191065,1,0,0:0:0:0:
320,192,191779,1,0,0:0:0:0:
192,192,192017,1,0,0:0:0:0:
320,192,192732,1,0,0:0:0:0:
64,192,192970,128,0,193208:0:0:0:0:
320,192,192970,1,0,0:0:0:0:
64,192,193287,128,0,193525:0:0:0:0:
320,192,193446,1,0,0:0:0:0:
64,192,193605,128,0,193843:0:0:0:0:
64,192,193922,128,0,194160:0:0:0:0:
192,192,193922,1,0,0:0:0:0:
64,192,194240,128,0,194478:0:0:0:0:
320,192,194398,1,0,0:0:0:0:
64,192,194557,128,0,194795:0:0:0:0:
64,192,194875,128,0,196700:0:0:0:0:
448,192,194875,128,0,198605:0:0:0:0:
320,192,194875,1,0,0:0:0:0:
192,192,194875,1,0,0:0:0:0:
320,192,195589,1,0,0:0:0:0:
192,192,195827,1,0,0:0:0:0:
320,192,196541,1,0,0:0:0:0:
64,192,196779,128,0,197017:0:0:0:0:
320,192,196779,1,0,0:0:0:0:
64,192,197097,128,0,197335:0:0:0:0:
320,192,197256,1,0,0:0:0:0:
64,192,197414,128,0,197652:0:0:0:0:
192,192,197732,1,0,0:0:0:0:
64,192,197732,128,0,197970:0:0:0:0:
64,192,198049,128,0,198287:0:0:0:0:
64,192,198367,128,0,198605:0:0:0:0:
64,192,198684,128,0,200510:0:0:0:0:
320,192,198684,1,0,0:0:0:0:
192,192,198684,1,0,0:0:0:0:
448,192,198684,128,0,201462:0:0:0:0:
320,192,199398,1,0,0:0:0:0:
192,192,199637,1,0,0:0:0:0:
320,192,200351,1,0,0:0:0:0:
64,192,200589,128,0,200827:0:0:0:0:
320,192,200589,1,0,0:0:0:0:
192,192,200827,1,0,0:0:0:0:
64,192,200906,128,0,201144:0:0:0:0:
320,192,201065,1,0,0:0:0:0:
64,192,201224,128,0,201462:0:0:0:0:
64,192,201541,1,0,0:0:0:0:
192,192,201541,1,0,0:0:0:0:
320,192,201541,1,0,0:0:0:0:
448,192,201541,1,0,0:0:0:0:
448,192,201779,1,0,0:0:0:0:
192,192,201779,1,0,0:0:0:0:
64,192,201779,1,0,0:0:0:0:
64,192,202017,1,0,0:0:0:0:
192,192,202017,1,0,0:0:0:0:
320,192,202017,1,0,0:0:0:0:
448,192,202494,1,0,0:0:0:0:
192,192,202494,128,0,202851:0:0:0:0:
64,192,202494,1,0,0:0:0:0:
320,192,202851,1,0,0:0:0:0:
64,192,202851,128,0,203208:0:0:0:0:
192,192,203208,1,0,0:0:0:0:
320,192,203208,128,0,203446:0:0:0:0:
448,192,203446,128,0,203803:0:0:0:0:
64,192,203446,1,0,0:0:0:0:
192,192,203803,1,0,0:0:0:0:
320,192,203803,128,0,204160:0:0:0:0:
192,192,204160,1,0,0:0:0:0:
64,192,204160,128,0,204398:0:0:0:0:
448,192,204398,1,0,0:0:0:0:
320,192,204398,128,0,204756:0:0:0:0:
192,192,204398,1,0,0:0:0:0:
64,192,204756,1,0,0:0:0:0:
192,192,204756,128,0,205113:0:0:0:0:
448,192,205113,1,0,0:0:0:0:
320,192,205113,128,0,205351:0:0:0:0:
64,192,205351,1,0,0:0:0:0:
448,192,205351,128,0,205589:0:0:0:0:
192,192,205589,1,0,0:0:0:0:
320,192,205589,128,0,205827:0:0:0:0:
192,192,205827,1,0,0:0:0:0:
64,192,205827,128,0,206184:0:0:0:0:
448,192,205827,1,0,0:0:0:0:
320,192,206184,1,0,0:0:0:0:
192,192,206184,128,0,206541:0:0:0:0:
320,192,206541,1,0,0:0:0:0:
448,192,206541,128,0,206779:0:0:0:0:
320,192,206779,1,0,0:0:0:0:
64,192,206779,128,0,207136:0:0:0:0:
192,192,207136,1,0,0:0:0:0:
320,192,207136,128,0,207493:0:0:0:0:
192,192,207493,1,0,0:0:0:0:
448,192,207493,128,0,207731:0:0:0:0:
320,192,207731,1,0,0:0:0:0:
64,192,207731,128,0,208088:0:0:0:0:
192,192,207731,1,0,0:0:0:0:
320,192,208088,1,0,0:0:0:0:
192,192,208088,128,0,208446:0:0:0:0:
64,192,208446,1,0,0:0:0:0:
320,192,208446,128,0,208684:0:0:0:0:
192,192,208684,1,0,0:0:0:0:
64,192,208684,128,0,208922:0:0:0:0:
448,192,208922,1,0,0:0:0:0:
320,192,208922,128,0,209160:0:0:0:0:
192,192,209160,1,0,0:0:0:0:
448,192,209160,128,0,209517:0:0:0:0:
64,192,209160,1,0,0:0:0:0:
64,192,209517,1,0,0:0:0:0:
192,192,209517,128,0,209874:0:0:0:0:
448,192,209874,1,0,0:0:0:0:
320,192,209874,128,0,210112:0:0:0:0:
64,192,210112,1,0,0:0:0:0:
192,192,210112,128,0,210469:0:0:0:0:
320,192,210469,1,0,0:0:0:0:
448,192,210469,128,0,210826:0:0:0:0:
320,192,210826,1,0,0:0:0:0:
192,192,210826,128,0,211064:0:0:0:0:
448,192,211064,1,0,0:0:0:0:
64,192,211064,128,0,211421:0:0:0:0:
320,192,211064,1,0,0:0:0:0:
320,192,211421,1,0,0:0:0:0:
448,192,211421,128,0,211779:0:0:0:0:
64,192,211779,128,0,212017:0:0:0:0:
192,192,211779,1,0,0:0:0:0:
448,192,212017,1,0,0:0:0:0:
320,192,212017,128,0,212255:0:0:0:0:
64,192,212255,1,0,0:0:0:0:
192,192,212255,128,0,212493:0:0:0:0:
320,192,212493,1,0,0:0:0:0:
64,192,212493,128,0,212850:0:0:0:0:
448,192,212493,1,0,0:0:0:0:
192,192,212850,128,0,213207:0:0:0:0:
320,192,212850,1,0,0:0:0:0:
448,192,213207,128,0,213445:0:0:0:0:
320,192,213207,1,0,0:0:0:0:
320,192,213445,1,0,0:0:0:0:
192,192,213445,128,0,213802:0:0:0:0:
64,192,213445,1,0,0:0:0:0:
320,192,213802,1,0,0:0:0:0:
64,192,213802,128,0,214159:0:0:0:0:
192,192,214159,1,0,0:0:0:0:
448,192,214159,128,0,214397:0:0:0:0:
320,192,214397,1,0,0:0:0:0:
64,192,214397,128,0,214754:0:0:0:0:
192,192,214397,1,0,0:0:0:0:
320,192,214754,1,0,0:0:0:0:
192,192,214754,128,0,215112:0:0:0:0:
320,192,215112,1,0,0:0:0:0:
448,192,215112,128,0,215350:0:0:0:0:
64,192,215350,1,0,0:0:0:0:
192,192,215350,1,0,0:0:0:0:
320,192,215588,1,0,0:0:0:0:
192,192,215588,1,0,0:0:0:0:
64,192,215826,1,0,0:0:0:0:
192,192,215826,1,0,0:0:0:0:
320,192,215906,1,0,0:0:0:0:
192,192,215985,1,0,0:0:0:0:
320,192,216065,1,0,0:0:0:0:
192,192,216144,1,0,0:0:0:0:
320,192,216223,1,0,0:0:0:0:
192,192,216303,1,0,0:0:0:0:
320,192,216382,1,0,0:0:0:0:
192,192,216461,1,0,0:0:0:0:
320,192,216541,1,0,0:0:0:0:
192,192,216620,1,0,0:0:0:0:
320,192,216700,1,0,0:0:0:0:
192,192,216779,1,0,0:0:0:0:
320,192,216858,1,0,0:0:0:0:
192,192,216938,1,0,0:0:0:0:
320,192,217017,1,0,0:0:0:0:
192,192,217096,1,0,0:0:0:0:
320,192,217176,1,0,0:0:0:0:
192,192,217255,1,0,0:0:0:0:
320,192,217334,1,0,0:0:0:0:
192,192,217414,1,0,0:0:0:0:
320,192,217493,1,0,0:0:0:0:
192,192,217573,1,0,0:0:0:0:
320,192,217652,1,0,0:0:0:0:
64,192,217731,1,0,0:0:0:0:
192,192,217731,1,0,0:0:0:0:
320,192,217811,1,0,0:0:0:0:
64,192,217890,1,0,0:0:0:0:
320,192,217969,1,0,0:0:0:0:
64,192,218049,1,0,0:0:0:0:
320,192,218128,1,0,0:0:0:0:
64,192,218207,1,0,0:0:0:0:
320,192,218287,1,0,0:0:0:0:
64,192,218366,1,0,0:0:0:0:
320,192,218446,1,0,0:0:0:0:
64,192,218525,1,0,0:0:0:0:
320,192,218604,1,0,0:0:0:0:
448,192,218684,1,0,0:0:0:0:
64,192,218684,1,0,0:0:0:0:
320,192,218763,1,0,0:0:0:0:
448,192,218842,1,0,0:0:0:0:
320,192,218922,1,0,0:0:0:0:
64,192,218922,1,0,0:0:0:0:
192,192,219001,1,0,0:0:0:0:
64,192,219080,1,0,0:0:0:0:
192,192,219160,1,0,0:0:0:0:
320,192,219239,1,0,0:0:0:0:
192,192,219318,1,0,0:0:0:0:
320,192,219398,1,0,0:0:0:0:
192,192,219477,1,0,0:0:0:0:
320,192,219556,1,0,0:0:0:0:
192,192,219636,1,0,0:0:0:0:
320,192,219715,1,0,0:0:0:0:
192,192,219794,1,0,0:0:0:0:
320,192,219874,1,0,0:0:0:0:
192,192,219953,1,0,0:0:0:0:
320,192,220033,1,0,0:0:0:0:
192,192,220112,1,0,0:0:0:0:
320,192,220191,1,0,0:0:0:0:
192,192,220271,1,0,0:0:0:0:
320,192,220350,1,0,0:0:0:0:
192,192,220429,1,0,0:0:0:0:
320,192,220509,1,0,0:0:0:0:
192,192,220588,1,0,0:0:0:0:
320,192,220667,1,0,0:0:0:0:
192,192,220747,1,0,0:0:0:0:
320,192,220826,1,0,0:0:0:0:
192,192,220906,1,0,0:0:0:0:
320,192,220985,1,0,0:0:0:0:
192,192,221064,1,0,0:0:0:0:
64,192,221064,1,0,0:0:0:0:
448,192,221144,1,0,0:0:0:0:
192,192,221223,1,0,0:0:0:0:
448,192,221302,1,0,0:0:0:0:
192,192,221382,1,0,0:0:0:0:
448,192,221461,1,0,0:0:0:0:
192,192,221540,1,0,0:0:0:0:
448,192,221620,1,0,0:0:0:0:
192,192,221699,1,0,0:0:0:0:
448,192,221779,1,0,0:0:0:0:
192,192,221858,1,0,0:0:0:0:
448,192,221937,1,0,0:0:0:0:
320,192,222017,1,0,0:0:0:0:
64,192,222096,1,0,0:0:0:0:
320,192,222175,1,0,0:0:0:0:
64,192,222255,1,0,0:0:0:0:
320,192,222334,1,0,0:0:0:0:
64,192,222413,1,0,0:0:0:0:
192,192,222493,1,0,0:0:0:0:
320,192,222572,1,0,0:0:0:0:
192,192,222651,1,0,0:0:0:0:
320,192,222731,1,0,0:0:0:0:
192,192,222810,1,0,0:0:0:0:
320,192,222889,1,0,0:0:0:0:
192,192,222969,1,0,0:0:0:0:
320,192,223048,1,0,0:0:0:0:
192,192,223127,1,0,0:0:0:0:
320,192,223207,1,0,0:0:0:0:
192,192,223286,1,0,0:0:0:0:
320,192,223366,1,0,0:0:0:0:
192,192,223445,1,0,0:0:0:0:
320,192,223524,1,0,0:0:0:0:
192,192,223604,1,0,0:0:0:0:
320,192,223683,1,0,0:0:0:0:
192,192,223762,1,0,0:0:0:0:
320,192,223842,1,0,0:0:0:0:
192,192,223921,1,0,0:0:0:0:
320,192,224000,1,0,0:0:0:0:
192,192,224080,1,0,0:0:0:0:
320,192,224159,1,0,0:0:0:0:
192,192,224239,1,0,0:0:0:0:
320,192,224318,1,0,0:0:0:0:
64,192,224397,1,0,0:0:0:0:
320,192,224477,1,0,0:0:0:0:
448,192,224477,1,0,0:0:0:0:
192,192,224556,1,0,0:0:0:0:
320,192,224635,1,0,0:0:0:0:
448,192,224635,1,0,0:0:0:0:
192,192,224715,1,0,0:0:0:0:
320,192,224794,1,0,0:0:0:0:
448,192,224794,1,0,0:0:0:0:
192,192,224873,1,0,0:0:0:0:
320,192,224953,1,0,0:0:0:0:
448,192,224953,1,0,0:0:0:0:
192,192,225032,1,0,0:0:0:0:
320,192,225112,1,0,0:0:0:0:
448,192,225112,1,0,0:0:0:0:
192,192,225191,1,0,0:0:0:0:
448,192,225270,1,0,0:0:0:0:
320,192,225270,1,0,0:0:0:0:
64,192,225350,1,0,0:0:0:0:
192,192,225429,1,0,0:0:0:0:
64,192,225508,1,0,0:0:0:0:
192,192,225588,1,0,0:0:0:0:
320,192,225588,1,0,0:0:0:0:
448,192,225667,1,0,0:0:0:0:
320,192,225746,1,0,0:0:0:0:
192,192,225826,1,0,0:0:0:0:
320,192,225906,1,0,0:0:0:0:
192,192,225985,1,0,0:0:0:0:
320,192,226065,1,0,0:0:0:0:
192,192,226144,1,0,0:0:0:0:
320,192,226223,1,0,0:0:0:0:
192,192,226303,1,0,0:0:0:0:
320,192,226382,1,0,0:0:0:0:
192,192,226461,1,0,0:0:0:0:
320,192,226541,1,0,0:0:0:0:
192,192,226620,1,0,0:0:0:0:
320,192,226700,1,0,0:0:0:0:
192,192,226779,1,0,0:0:0:0:
320,192,226858,1,0,0:0:0:0:
192,192,226938,1,0,0:0:0:0:
320,192,227017,1,0,0:0:0:0:
192,192,227096,1,0,0:0:0:0:
320,192,227176,1,0,0:0:0:0:
192,192,227255,1,0,0:0:0:0:
320,192,227334,1,0,0:0:0:0:
192,192,227414,1,0,0:0:0:0:
320,192,227493,1,0,0:0:0:0:
192,192,227573,1,0,0:0:0:0:
320,192,227652,1,0,0:0:0:0:
192,192,227731,1,0,0:0:0:0:
64,192,227731,1,0,0:0:0:0:
320,192,227811,1,0,0:0:0:0:
192,192,227890,5,0,0:0:0:0:
64,192,227890,1,0,0:0:0:0:
320,192,227969,1,0,0:0:0:0:
192,192,228049,1,0,0:0:0:0:
64,192,228049,1,0,0:0:0:0:
320,192,228128,1,0,0:0:0:0:
192,192,228207,1,0,0:0:0:0:
64,192,228207,1,0,0:0:0:0:
320,192,228287,1,0,0:0:0:0:
192,192,228366,1,0,0:0:0:0:
64,192,228366,1,0,0:0:0:0:
320,192,228446,1,0,0:0:0:0:
192,192,228525,1,0,0:0:0:0:
64,192,228525,1,0,0:0:0:0:
320,192,228604,1,0,0:0:0:0:
192,192,228684,1,0,0:0:0:0:
64,192,228684,1,0,0:0:0:0:
448,192,228684,1,0,0:0:0:0:
320,192,228922,1,0,0:0:0:0:
192,192,228922,1,0,0:0:0:0:
448,192,228922,1,0,0:0:0:0:
448,192,229160,5,0,0:0:0:0:
320,192,229160,1,0,0:0:0:0:
64,192,229160,1,0,0:0:0:0:
192,192,229160,128,0,230112:0:0:0:0:
320,192,229874,1,0,0:0:0:0:
448,192,230112,1,0,0:0:0:0:
192,192,230469,1,0,0:0:0:0:
320,192,230826,1,0,0:0:0:0:
320,192,231064,1,0,0:0:0:0:
320,192,231779,1,0,0:0:0:0:
448,192,232017,1,0,0:0:0:0:
64,192,232017,1,0,0:0:0:0:
320,192,232255,1,0,0:0:0:0:
192,192,232493,1,0,0:0:0:0:
320,192,233207,1,0,0:0:0:0:
448,192,233445,1,0,0:0:0:0:
192,192,233802,1,0,0:0:0:0:
320,192,234160,1,0,0:0:0:0:
320,192,234398,1,0,0:0:0:0:
320,192,235112,1,0,0:0:0:0:
448,192,235350,1,0,0:0:0:0:
64,192,235350,1,0,0:0:0:0:
320,192,235588,1,0,0:0:0:0:
192,192,235826,1,0,0:0:0:0:
192,192,236540,1,0,0:0:0:0:
320,192,236779,1,0,0:0:0:0:
64,192,237136,1,0,0:0:0:0:
192,192,237493,1,0,0:0:0:0:
192,192,237731,1,0,0:0:0:0:
192,192,238445,1,0,0:0:0:0:
448,192,238683,1,0,0:0:0:0:
64,192,238683,1,0,0:0:0:0:
320,192,238921,1,0,0:0:0:0:
64,192,239160,1,0,0:0:0:0:
192,192,239874,1,0,0:0:0:0:
320,192,240112,1,0,0:0:0:0:
64,192,240469,1,0,0:0:0:0:
192,192,240826,1,0,0:0:0:0:
192,192,241064,1,0,0:0:0:0:
192,192,241779,1,0,0:0:0:0:
448,192,242017,1,0,0:0:0:0:
64,192,242017,1,0,0:0:0:0:
320,192,242255,1,0,0:0:0:0:
64,192,242493,1,0,0:0:0:0:
320,192,243207,1,0,0:0:0:0:
448,192,243445,1,0,0:0:0:0:
192,192,243802,1,0,0:0:0:0:
320,192,244160,1,0,0:0:0:0:
320,192,244398,1,0,0:0:0:0:
320,192,245112,1,0,0:0:0:0:
448,192,245350,1,0,0:0:0:0:
64,192,245350,1,0,0:0:0:0:
320,192,245588,1,0,0:0:0:0:
192,192,245826,1,0,0:0:0:0:
320,192,246540,1,0,0:0:0:0:
448,192,246779,1,0,0:0:0:0:
192,192,247136,1,0,0:0:0:0:
320,192,247493,1,0,0:0:0:0:
320,192,247731,1,0,0:0:0:0:
320,192,248445,1,0,0:0:0:0:
448,192,248683,1,0,0:0:0:0:
64,192,248683,1,0,0:0:0:0:
320,192,248921,1,0,0:0:0:0:
192,192,249160,1,0,0:0:0:0:
192,192,249874,1,0,0:0:0:0:
320,192,250112,1,0,0:0:0:0:
64,192,250469,1,0,0:0:0:0:
192,192,250826,1,0,0:0:0:0:
192,192,251064,1,0,0:0:0:0:
192,192,251779,1,0,0:0:0:0:
448,192,252017,1,0,0:0:0:0:
64,192,252017,1,0,0:0:0:0:
320,192,252255,1,0,0:0:0:0:
64,192,252493,1,0,0:0:0:0:
192,192,253207,1,0,0:0:0:0:
320,192,253445,1,0,0:0:0:0:
64,192,253802,1,0,0:0:0:0:
192,192,254160,1,0,0:0:0:0:
192,192,254398,1,0,0:0:0:0:
192,192,255112,1,0,0:0:0:0:
320,192,255350,1,0,0:0:0:0:
448,192,255350,1,0,0:0:0:0:
320,192,259636,5,0,0:0:0:0:
192,192,259755,1,0,0:0:0:0:
320,192,259874,1,0,0:0:0:0:
192,192,259993,1,0,0:0:0:0:
320,192,260112,1,0,0:0:0:0:
192,192,260231,1,0,0:0:0:0:
320,192,260350,1,0,0:0:0:0:
192,192,260469,1,0,0:0:0:0:
192,192,260588,1,0,0:0:0:0:
320,192,260588,1,0,0:0:0:0:
320,192,260707,1,0,0:0:0:0:
192,192,260707,1,0,0:0:0:0:
192,192,260826,1,0,0:0:0:0:
320,192,260826,1,0,0:0:0:0:
320,192,260945,1,0,0:0:0:0:
192,192,260945,1,0,0:0:0:0:
192,192,261064,1,0,0:0:0:0:
320,192,261064,1,0,0:0:0:0:
320,192,261183,1,0,0:0:0:0:
192,192,261183,1,0,0:0:0:0:
192,192,261302,1,0,0:0:0:0:
320,192,261302,1,0,0:0:0:0:
192,192,261421,1,0,0:0:0:0:
320,192,261421,1,0,0:0:0:0:
320,192,261540,1,0,0:0:0:0:
448,192,261540,1,0,0:0:0:0:
192,192,261540,1,0,0:0:0:0:
64,192,261540,1,0,0:0:0:0:
192,192,261659,1,0,0:0:0:0:
320,192,261659,1,0,0:0:0:0:
320,192,261779,1,0,0:0:0:0:
192,192,261779,1,0,0:0:0:0:
192,192,261898,1,0,0:0:0:0:
320,192,261898,1,0,0:0:0:0:
448,192,262017,1,0,0:0:0:0:
320,192,262017,1,0,0:0:0:0:
64,192,262017,1,0,0:0:0:0:
192,192,262017,1,0,0:0:0:0:
192,192,262136,1,0,0:0:0:0:
320,192,262136,1,0,0:0:0:0:
320,192,262255,1,0,0:0:0:0:
192,192,262255,1,0,0:0:0:0:
192,192,262374,1,0,0:0:0:0:
320,192,262374,1,0,0:0:0:0:
448,192,262493,1,0,0:0:0:0:
320,192,262493,1,0,0:0:0:0:
64,192,262493,1,0,0:0:0:0:
192,192,262493,1,0,0:0:0:0:
192,192,262731,1,0,0:0:0:0:
64,192,262731,1,0,0:0:0:0:
64,192,262850,1,0,0:0:0:0:
192,192,262850,1,0,0:0:0:0:
320,192,262969,1,0,0:0:0:0:
192,192,262969,1,0,0:0:0:0:
448,192,262969,1,0,0:0:0:0:
64,192,262969,1,0,0:0:0:0:
320,192,263207,1,0,0:0:0:0:
448,192,263207,1,0,0:0:0:0:
448,192,263326,1,0,0:0:0:0:
320,192,263326,1,0,0:0:0:0:
64,192,263445,5,0,0:0:0:0:
320,192,263445,1,0,0:0:0:0:
192,192,263445,1,0,0:0:0:0:
448,192,263445,1,0,0:0:0:0:
64,192,263564,1,0,0:0:0:0:
192,192,263564,1,0,0:0:0:0:
320,192,263564,1,0,0:0:0:0:
448,192,263683,1,0,0:0:0:0:
320,192,263683,1,0,0:0:0:0:
192,192,263683,1,0,0:0:0:0:
64,192,263683,1,0,0:0:0:0:
192,192,263802,1,0,0:0:0:0:
448,192,263802,1,0,0:0:0:0:
320,192,263802,1,0,0:0:0:0:
448,192,263921,1,0,0:0:0:0:
192,192,263921,1,0,0:0:0:0:
64,192,263921,1,0,0:0:0:0:
64,192,264040,1,0,0:0:0:0:
320,192,264040,1,0,0:0:0:0:
448,192,264040,1,0,0:0:0:0:
448,192,264160,1,0,0:0:0:0:
320,192,264160,1,0,0:0:0:0:
192,192,264160,1,0,0:0:0:0:
64,192,264160,1,0,0:0:0:0:
64,192,264279,1,0,0:0:0:0:
192,192,264279,1,0,0:0:0:0:
448,192,264279,1,0,0:0:0:0:
448,192,264398,1,0,0:0:0:0:
320,192,264398,1,0,0:0:0:0:
64,192,264398,1,0,0:0:0:0:
64,192,264517,1,0,0:0:0:0:
192,192,264517,1,0,0:0:0:0:
320,192,264517,1,0,0:0:0:0:
448,192,264636,1,0,0:0:0:0:
320,192,264636,1,0,0:0:0:0:
192,192,264636,1,0,0:0:0:0:
64,192,264636,1,0,0:0:0:0:
448,192,264755,1,0,0:0:0:0:
320,192,264755,1,0,0:0:0:0:
192,192,264755,1,0,0:0:0:0:
64,192,264874,1,0,0:0:0:0:
192,192,264874,1,0,0:0:0:0:
448,192,264874,1,0,0:0:0:0:
320,192,264993,1,0,0:0:0:0:
192,192,264993,1,0,0:0:0:0:
64,192,264993,1,0,0:0:0:0:
448,192,265112,1,0,0:0:0:0:
320,192,265112,1,0,0:0:0:0:
192,192,265112,1,0,0:0:0:0:
64,192,265112,1,0,0:0:0:0:
64,192,265231,1,0,0:0:0:0:
320,192,265231,1,0,0:0:0:0:
448,192,265231,1,0,0:0:0:0:
64,192,265350,1,0,0:0:0:0:
448,192,265350,1,0,0:0:0:0:
192,192,265350,1,0,0:0:0:0:
192,192,265469,1,0,0:0:0:0:
448,192,265469,1,0,0:0:0:0:
320,192,265469,1,0,0:0:0:0:
64,192,265588,1,0,0:0:0:0:
192,192,265588,1,0,0:0:0:0:
448,192,265588,1,0,0:0:0:0:
320,192,265588,1,0,0:0:0:0:
64,192,265707,1,0,0:0:0:0:
320,192,265707,1,0,0:0:0:0:
192,192,265707,1,0,0:0:0:0:
448,192,265826,1,0,0:0:0:0:
192,192,265826,1,0,0:0:0:0:
64,192,265826,1,0,0:0:0:0:
192,192,265945,1,0,0:0:0:0:
320,192,265945,1,0,0:0:0:0:
448,192,265945,1,0,0:0:0:0:
64,192,266064,1,0,0:0:0:0:
192,192,266064,1,0,0:0:0:0:
320,192,266064,1,0,0:0:0:0:
448,192,266064,1,0,0:0:0:0:
192,192,266183,1,0,0:0:0:0:
320,192,266183,1,0,0:0:0:0:
64,192,266183,1,0,0:0:0:0:
448,192,266302,1,0,0:0:0:0:
320,192,266302,1,0,0:0:0:0:
64,192,266302,1,0,0:0:0:0:
64,192,266421,1,0,0:0:0:0:
192,192,266421,1,0,0:0:0:0:
320,192,266421,1,0,0:0:0:0:
448,192,266540,1,0,0:0:0:0:
320,192,266540,1,0,0:0:0:0:
192,192,266540,1,0,0:0:0:0:
64,192,266540,1,0,0:0:0:0:
192,192,266660,1,0,0:0:0:0:
320,192,266660,1,0,0:0:0:0:
448,192,266660,1,0,0:0:0:0:
64,192,266779,1,0,0:0:0:0:
320,192,266779,1,0,0:0:0:0:
448,192,266779,1,0,0:0:0:0:
192,192,266898,1,0,0:0:0:0:
320,192,266898,1,0,0:0:0:0:
448,192,266898,1,0,0:0:0:0:
448,192,267017,1,0,0:0:0:0:
320,192,267017,1,0,0:0:0:0:
192,192,267017,1,0,0:0:0:0:
64,192,267017,1,0,0:0:0:0:
64,192,267136,1,0,0:0:0:0:
192,192,267136,1,0,0:0:0:0:
448,192,267136,1,0,0:0:0:0:
64,192,267255,1,0,0:0:0:0:
192,192,267255,1,0,0:0:0:0:
320,192,267255,1,0,0:0:0:0:
448,192,267255,1,0,0:0:0:0:
64,192,267374,1,0,0:0:0:0:
448,192,267374,1,0,0:0:0:0:
320,192,267374,1,0,0:0:0:0:
448,192,267493,1,0,0:0:0:0:
320,192,267493,1,0,0:0:0:0:
192,192,267493,1,0,0:0:0:0:
64,192,267493,1,0,0:0:0:0:
320,192,267612,1,0,0:0:0:0:
192,192,267612,1,0,0:0:0:0:
64,192,267612,1,0,0:0:0:0:
320,192,267731,1,0,0:0:0:0:
64,192,267731,1,0,0:0:0:0:
448,192,267731,1,0,0:0:0:0:
64,192,267850,1,0,0:0:0:0:
192,192,267850,1,0,0:0:0:0:
448,192,267850,1,0,0:0:0:0:
64,192,267969,1,0,0:0:0:0:
192,192,267969,1,0,0:0:0:0:
320,192,267969,1,0,0:0:0:0:
448,192,267969,1,0,0:0:0:0:
448,192,268088,1,0,0:0:0:0:
320,192,268088,1,0,0:0:0:0:
192,192,268088,1,0,0:0:0:0:
320,192,268207,1,0,0:0:0:0:
192,192,268207,1,0,0:0:0:0:
64,192,268207,1,0,0:0:0:0:
448,192,268326,1,0,0:0:0:0:
320,192,268326,1,0,0:0:0:0:
64,192,268326,1,0,0:0:0:0:
64,192,268445,1,0,0:0:0:0:
192,192,268445,1,0,0:0:0:0:
320,192,268445,1,0,0:0:0:0:
448,192,268445,1,0,0:0:0:0:
192,192,268564,1,0,0:0:0:0:
320,192,268564,1,0,0:0:0:0:
64,192,268564,1,0,0:0:0:0:
64,192,268683,1,0,0:0:0:0:
192,192,268683,1,0,0:0:0:0:
448,192,268683,1,0,0:0:0:0:
448,192,268802,1,0,0:0:0:0:
320,192,268802,1,0,0:0:0:0:
192,192,268802,1,0,0:0:0:0:
448,192,268921,1,0,0:0:0:0:
320,192,268921,1,0,0:0:0:0:
192,192,268921,1,0,0:0:0:0:
64,192,268921,1,0,0:0:0:0:
64,192,269040,1,0,0:0:0:0:
192,192,269040,1,0,0:0:0:0:
320,192,269040,1,0,0:0:0:0:
64,192,269160,1,0,0:0:0:0:
192,192,269160,1,0,0:0:0:0:
448,192,269160,1,0,0:0:0:0:
64,192,269279,1,0,0:0:0:0:
320,192,269279,1,0,0:0:0:0:
448,192,269279,1,0,0:0:0:0:
320,192,269398,1,0,0:0:0:0:
448,192,269398,1,0,0:0:0:0:
192,192,269398,1,0,0:0:0:0:
64,192,269398,1,0,0:0:0:0:
192,192,269517,1,0,0:0:0:0:
320,192,269517,1,0,0:0:0:0:
448,192,269517,1,0,0:0:0:0:
320,192,269636,1,0,0:0:0:0:
192,192,269636,1,0,0:0:0:0:
64,192,269636,1,0,0:0:0:0:
192,192,269755,1,0,0:0:0:0:
448,192,269755,1,0,0:0:0:0:
64,192,269755,1,0,0:0:0:0:
64,192,269874,1,0,0:0:0:0:
192,192,269874,1,0,0:0:0:0:
320,192,269874,1,0,0:0:0:0:
448,192,269874,1,0,0:0:0:0:
320,192,269993,1,0,0:0:0:0:
448,192,269993,1,0,0:0:0:0:
64,192,269993,1,0,0:0:0:0:
320,192,270112,1,0,0:0:0:0:
192,192,270112,1,0,0:0:0:0:
64,192,270112,1,0,0:0:0:0:
448,192,270231,1,0,0:0:0:0:
320,192,270231,1,0,0:0:0:0:
64,192,270231,1,0,0:0:0:0:
64,192,270350,1,0,0:0:0:0:
192,192,270350,1,0,0:0:0:0:
320,192,270350,1,0,0:0:0:0:
448,192,270350,1,0,0:0:0:0:
448,192,270469,1,0,0:0:0:0:
64,192,270469,1,0,0:0:0:0:
192,192,270469,1,0,0:0:0:0:
448,192,270588,1,0,0:0:0:0:
320,192,270588,1,0,0:0:0:0:
64,192,270588,1,0,0:0:0:0:
448,192,270707,1,0,0:0:0:0:
320,192,270707,1,0,0:0:0:0:
192,192,270707,1,0,0:0:0:0:
64,192,270826,1,0,0:0:0:0:
192,192,270826,1,0,0:0:0:0:
448,192,270826,1,0,0:0:0:0:
192,192,270945,1,0,0:0:0:0:
320,192,270945,1,0,0:0:0:0:
64,192,270945,1,0,0:0:0:0:
64,192,271064,5,0,0:0:0:0:
192,192,271064,1,0,0:0:0:0:
320,192,271064,1,0,0:0:0:0:
448,192,271064,1,0,0:0:0:0:
64,192,271183,1,0,0:0:0:0:
192,192,271183,1,0,0:0:0:0:
320,192,271183,1,0,0:0:0:0:
448,192,271302,1,0,0:0:0:0:
320,192,271302,1,0,0:0:0:0:
192,192,271302,1,0,0:0:0:0:
64,192,271302,1,0,0:0:0:0:
192,192,271421,1,0,0:0:0:0:
448,192,271421,1,0,0:0:0:0:
320,192,271421,1,0,0:0:0:0:
320,192,271540,1,0,0:0:0:0:
192,192,271540,1,0,0:0:0:0:
64,192,271540,1,0,0:0:0:0:
64,192,271660,1,0,0:0:0:0:
320,192,271660,1,0,0:0:0:0:
448,192,271660,1,0,0:0:0:0:
448,192,271779,1,0,0:0:0:0:
320,192,271779,1,0,0:0:0:0:
192,192,271779,1,0,0:0:0:0:
64,192,271898,1,0,0:0:0:0:
192,192,271898,1,0,0:0:0:0:
448,192,271898,1,0,0:0:0:0:
448,192,272017,1,0,0:0:0:0:
320,192,272017,1,0,0:0:0:0:
64,192,272017,1,0,0:0:0:0:
64,192,272136,1,0,0:0:0:0:
192,192,272136,1,0,0:0:0:0:
320,192,272136,1,0,0:0:0:0:
448,192,272255,1,0,0:0:0:0:
320,192,272255,1,0,0:0:0:0:
192,192,272255,1,0,0:0:0:0:
64,192,272255,1,0,0:0:0:0:
448,192,272374,1,0,0:0:0:0:
320,192,272374,1,0,0:0:0:0:
192,192,272374,1,0,0:0:0:0:
64,192,272493,1,0,0:0:0:0:
192,192,272493,1,0,0:0:0:0:
448,192,272493,1,0,0:0:0:0:
320,192,272612,1,0,0:0:0:0:
192,192,272612,1,0,0:0:0:0:
64,192,272612,1,0,0:0:0:0:
448,192,272731,1,0,0:0:0:0:
320,192,272731,1,0,0:0:0:0:
192,192,272731,1,0,0:0:0:0:
64,192,272731,1,0,0:0:0:0:
64,192,272850,1,0,0:0:0:0:
320,192,272850,1,0,0:0:0:0:
448,192,272850,1,0,0:0:0:0:
64,192,272969,1,0,0:0:0:0:
192,192,272969,1,0,0:0:0:0:
448,192,272969,1,0,0:0:0:0:
192,192,273088,1,0,0:0:0:0:
448,192,273088,1,0,0:0:0:0:
320,192,273088,1,0,0:0:0:0:
64,192,273207,1,0,0:0:0:0:
192,192,273207,1,0,0:0:0:0:
448,192,273207,1,0,0:0:0:0:
320,192,273207,1,0,0:0:0:0:
64,192,273326,1,0,0:0:0:0:
320,192,273326,1,0,0:0:0:0:
192,192,273326,1,0,0:0:0:0:
448,192,273445,1,0,0:0:0:0:
192,192,273445,1,0,0:0:0:0:
64,192,273445,1,0,0:0:0:0:
192,192,273564,1,0,0:0:0:0:
320,192,273564,1,0,0:0:0:0:
64,192,273683,1,0,0:0:0:0:
192,192,273683,1,0,0:0:0:0:
320,192,273683,1,0,0:0:0:0:
448,192,273683,1,0,0:0:0:0:
448,192,273802,1,0,0:0:0:0:
64,192,273802,1,0,0:0:0:0:
192,192,273921,1,0,0:0:0:0:
448,192,273921,1,0,0:0:0:0:
320,192,273921,1,0,0:0:0:0:
64,192,274040,1,0,0:0:0:0:
192,192,274040,1,0,0:0:0:0:
448,192,274160,1,0,0:0:0:0:
320,192,274160,1,0,0:0:0:0:
192,192,274160,1,0,0:0:0:0:
64,192,274160,1,0,0:0:0:0:
320,192,274279,1,0,0:0:0:0:
448,192,274279,1,0,0:0:0:0:
192,192,274398,1,0,0:0:0:0:
64,192,274398,1,0,0:0:0:0:
320,192,274398,1,0,0:0:0:0:
192,192,274517,1,0,0:0:0:0:
448,192,274517,1,0,0:0:0:0:
448,192,274636,1,0,0:0:0:0:
320,192,274636,1,0,0:0:0:0:
192,192,274636,1,0,0:0:0:0:
64,192,274636,1,0,0:0:0:0:
192,192,274755,1,0,0:0:0:0:
320,192,274755,1,0,0:0:0:0:
64,192,274874,1,0,0:0:0:0:
192,192,274874,1,0,0:0:0:0:
320,192,274874,1,0,0:0:0:0:
448,192,274874,1,0,0:0:0:0:
448,192,274993,1,0,0:0:0:0:
320,192,274993,1,0,0:0:0:0:
448,192,275112,1,0,0:0:0:0:
320,192,275112,1,0,0:0:0:0:
192,192,275112,1,0,0:0:0:0:
64,192,275112,1,0,0:0:0:0:
192,192,275231,1,0,0:0:0:0:
64,192,275231,1,0,0:0:0:0:
192,192,275350,1,0,0:0:0:0:
320,192,275350,1,0,0:0:0:0:
448,192,275350,1,0,0:0:0:0:
192,192,275469,1,0,0:0:0:0:
448,192,275469,1,0,0:0:0:0:
64,192,275588,1,0,0:0:0:0:
192,192,275588,1,0,0:0:0:0:
320,192,275588,1,0,0:0:0:0:
448,192,275588,1,0,0:0:0:0:
448,192,275707,1,0,0:0:0:0:
64,192,275707,1,0,0:0:0:0:
320,192,275826,1,0,0:0:0:0:
192,192,275826,1,0,0:0:0:0:
64,192,275826,1,0,0:0:0:0:
320,192,275945,1,0,0:0:0:0:
64,192,275945,1,0,0:0:0:0:
64,192,276064,1,0,0:0:0:0:
192,192,276064,1,0,0:0:0:0:
320,192,276064,1,0,0:0:0:0:
448,192,276064,1,0,0:0:0:0:
192,192,276183,1,0,0:0:0:0:
320,192,276183,1,0,0:0:0:0:
64,192,276302,1,0,0:0:0:0:
192,192,276302,1,0,0:0:0:0:
448,192,276302,1,0,0:0:0:0:
320,192,276421,1,0,0:0:0:0:
192,192,276421,1,0,0:0:0:0:
448,192,276540,1,0,0:0:0:0:
320,192,276540,1,0,0:0:0:0:
192,192,276540,1,0,0:0:0:0:
64,192,276540,1,0,0:0:0:0:
64,192,276660,1,0,0:0:0:0:
320,192,276660,1,0,0:0:0:0:
64,192,276779,1,0,0:0:0:0:
192,192,276779,1,0,0:0:0:0:
448,192,276779,1,0,0:0:0:0:
64,192,276898,1,0,0:0:0:0:
320,192,276898,1,0,0:0:0:0:
320,192,277017,1,0,0:0:0:0:
448,192,277017,1,0,0:0:0:0:
192,192,277017,1,0,0:0:0:0:
64,192,277017,1,0,0:0:0:0:
320,192,277136,1,0,0:0:0:0:
448,192,277136,1,0,0:0:0:0:
320,192,277255,1,0,0:0:0:0:
192,192,277255,1,0,0:0:0:0:
64,192,277255,1,0,0:0:0:0:
192,192,277374,1,0,0:0:0:0:
448,192,277374,1,0,0:0:0:0:
64,192,277493,1,0,0:0:0:0:
192,192,277493,1,0,0:0:0:0:
320,192,277493,1,0,0:0:0:0:
448,192,277493,1,0,0:0:0:0:
320,192,277612,1,0,0:0:0:0:
64,192,277612,1,0,0:0:0:0:
448,192,277731,1,0,0:0:0:0:
192,192,277731,1,0,0:0:0:0:
64,192,277731,1,0,0:0:0:0:
448,192,277850,1,0,0:0:0:0:
64,192,277850,1,0,0:0:0:0:
64,192,277969,1,0,0:0:0:0:
192,192,277969,1,0,0:0:0:0:
320,192,277969,1,0,0:0:0:0:
448,192,277969,1,0,0:0:0:0:
448,192,278088,1,0,0:0:0:0:
192,192,278088,1,0,0:0:0:0:
192,192,278207,1,0,0:0:0:0:
320,192,278207,1,0,0:0:0:0:
64,192,278207,1,0,0:0:0:0:
64,192,278326,1,0,0:0:0:0:
448,192,278326,1,0,0:0:0:0:
320,192,278445,1,0,0:0:0:0:
64,192,278445,1,0,0:0:0:0:
192,192,278445,1,0,0:0:0:0:
448,192,278445,1,0,0:0:0:0:
192,192,278564,1,0,0:0:0:0:
320,192,278564,1,0,0:0:0:0:
448,192,278683,1,0,0:0:0:0:
320,192,278683,1,0,0:0:0:0:
192,192,278683,1,0,0:0:0:0:
64,192,278683,1,0,0:0:0:0:
192,192,278802,1,0,0:0:0:0:
64,192,278802,1,0,0:0:0:0:
64,192,278921,1,0,0:0:0:0:
192,192,278921,1,0,0:0:0:0:
320,192,278921,1,0,0:0:0:0:
448,192,278921,1,0,0:0:0:0:
448,192,279040,1,0,0:0:0:0:
192,192,279040,1,0,0:0:0:0:
320,192,279160,1,0,0:0:0:0:
192,192,279160,1,0,0:0:0:0:
64,192,279160,1,0,0:0:0:0:
64,192,279279,1,0,0:0:0:0:
448,192,279279,1,0,0:0:0:0:
64,192,279398,1,0,0:0:0:0:
192,192,279398,1,0,0:0:0:0:
320,192,279398,1,0,0:0:0:0:
448,192,279398,1,0,0:0:0:0:
320,192,279517,1,0,0:0:0:0:
448,192,279517,1,0,0:0:0:0:
192,192,279636,1,0,0:0:0:0:
448,192,279636,1,0,0:0:0:0:
320,192,279636,1,0,0:0:0:0:
64,192,279636,1,0,0:0:0:0:
192,192,279755,1,0,0:0:0:0:
64,192,279755,1,0,0:0:0:0:
448,192,279874,1,0,0:0:0:0:
320,192,279874,1,0,0:0:0:0:
192,192,279874,1,0,0:0:0:0:
64,192,279874,1,0,0:0:0:0:
320,192,279993,1,0,0:0:0:0:
448,192,279993,1,0,0:0:0:0:
320,192,280112,1,0,0:0:0:0:
64,192,280112,1,0,0:0:0:0:
448,192,280112,1,0,0:0:0:0:
320,192,280231,1,0,0:0:0:0:
64,192,280231,1,0,0:0:0:0:
448,192,280350,1,0,0:0:0:0:
320,192,280350,1,0,0:0:0:0:
192,192,280350,1,0,0:0:0:0:
64,192,280350,1,0,0:0:0:0:
192,192,280469,1,0,0:0:0:0:
448,192,280469,1,0,0:0:0:0:
320,192,280588,1,0,0:0:0:0:
192,192,280588,1,0,0:0:0:0:
64,192,280588,1,0,0:0:0:0:
448,192,280588,1,0,0:0:0:0:
320,192,280707,1,0,0:0:0:0:
64,192,280707,1,0,0:0:0:0:
448,192,280826,1,0,0:0:0:0:
320,192,280826,1,0,0:0:0:0:
192,192,280826,1,0,0:0:0:0:
64,192,280826,1,0,0:0:0:0:
320,192,280945,1,0,0:0:0:0:
448,192,280945,1,0,0:0:0:0:
320,192,281064,1,0,0:0:0:0:
448,192,281064,1,0,0:0:0:0:
192,192,281064,1,0,0:0:0:0:
64,192,281183,1,0,0:0:0:0:
192,192,281183,1,0,0:0:0:0:
448,192,281302,1,0,0:0:0:0:
320,192,281302,1,0,0:0:0:0:
192,192,281302,1,0,0:0:0:0:
64,192,281302,1,0,0:0:0:0:
320,192,281421,1,0,0:0:0:0:
192,192,281421,1,0,0:0:0:0:
192,192,281540,1,0,0:0:0:0:
64,192,281540,1,0,0:0:0:0:
320,192,281540,1,0,0:0:0:0:
448,192,281540,1,0,0:0:0:0:
448,192,281779,1,0,0:0:0:0:
320,192,281779,1,0,0:0:0:0:
64,192,281779,1,0,0:0:0:0:
64,192,281898,1,0,0:0:0:0:
192,192,281898,1,0,0:0:0:0:
320,192,281898,1,0,0:0:0:0:
192,192,282017,1,0,0:0:0:0:
320,192,282017,1,0,0:0:0:0:
448,192,282017,1,0,0:0:0:0:
64,192,282017,1,0,0:0:0:0:
320,192,282255,1,0,0:0:0:0:
448,192,282255,1,0,0:0:0:0:
64,192,282255,1,0,0:0:0:0:
64,192,282374,1,0,0:0:0:0:
192,192,282374,1,0,0:0:0:0:
448,192,282374,1,0,0:0:0:0:
64,192,282493,1,0,0:0:0:0:
192,192,282493,1,0,0:0:0:0:
320,192,282493,1,0,0:0:0:0:
448,192,282493,1,0,0:0:0:0:
64,192,282612,1,0,0:0:0:0:
320,192,282612,1,0,0:0:0:0:
448,192,282612,1,0,0:0:0:0:
64,192,282731,1,0,0:0:0:0:
192,192,282731,1,0,0:0:0:0:
320,192,282731,1,0,0:0:0:0:
448,192,282731,1,0,0:0:0:0:
64,192,282850,1,0,0:0:0:0:
192,192,282850,1,0,0:0:0:0:
320,192,282850,1,0,0:0:0:0:
448,192,282969,1,0,0:0:0:0:
320,192,282969,1,0,0:0:0:0:
192,192,282969,1,0,0:0:0:0:
64,192,283088,1,0,0:0:0:0:
320,192,283088,1,0,0:0:0:0:
448,192,283088,1,0,0:0:0:0:
192,192,283207,1,0,0:0:0:0:
64,192,283207,1,0,0:0:0:0:
320,192,283207,1,0,0:0:0:0:
64,192,283326,1,0,0:0:0:0:
192,192,283326,1,0,0:0:0:0:
448,192,283326,1,0,0:0:0:0:
64,192,283445,1,0,0:0:0:0:
192,192,283445,1,0,0:0:0:0:
448,192,283445,1,0,0:0:0:0:
320,192,283445,1,0,0:0:0:0:
448,192,283564,1,0,0:0:0:0:
320,192,283564,1,0,0:0:0:0:
64,192,283564,1,0,0:0:0:0:
64,192,283683,1,0,0:0:0:0:
192,192,283683,1,0,0:0:0:0:
320,192,283683,1,0,0:0:0:0:
448,192,283683,1,0,0:0:0:0:
448,192,283802,1,0,0:0:0:0:
64,192,283802,1,0,0:0:0:0:
192,192,283802,1,0,0:0:0:0:
192,192,283921,1,0,0:0:0:0:
320,192,283921,1,0,0:0:0:0:
448,192,283921,1,0,0:0:0:0:
64,192,284040,1,0,0:0:0:0:
320,192,284040,1,0,0:0:0:0:
448,192,284040,1,0,0:0:0:0:
64,192,284160,1,0,0:0:0:0:
320,192,284160,1,0,0:0:0:0:
192,192,284160,1,0,0:0:0:0:
448,192,284160,1,0,0:0:0:0:
64,192,284279,1,0,0:0:0:0:
192,192,284279,1,0,0:0:0:0:
448,192,284279,1,0,0:0:0:0:
448,192,284398,1,0,0:0:0:0:
320,192,284398,1,0,0:0:0:0:
192,192,284398,1,0,0:0:0:0:
64,192,284398,1,0,0:0:0:0:
192,192,284517,1,0,0:0:0:0:
320,192,284517,1,0,0:0:0:0:
64,192,284517,1,0,0:0:0:0:
448,192,284636,1,0,0:0:0:0:
320,192,284636,1,0,0:0:0:0:
64,192,284636,1,0,0:0:0:0:
192,192,284636,1,0,0:0:0:0:
448,192,284755,1,0,0:0:0:0:
320,192,284755,1,0,0:0:0:0:
64,192,284755,1,0,0:0:0:0:
448,192,284874,1,0,0:0:0:0:
320,192,284874,1,0,0:0:0:0:
192,192,284874,1,0,0:0:0:0:
64,192,284993,1,0,0:0:0:0:
192,192,284993,1,0,0:0:0:0:
320,192,284993,1,0,0:0:0:0:
448,192,285112,1,0,0:0:0:0:
320,192,285112,1,0,0:0:0:0:
64,192,285112,1,0,0:0:0:0:
64,192,285231,1,0,0:0:0:0:
192,192,285231,1,0,0:0:0:0:
448,192,285231,1,0,0:0:0:0:
192,192,285350,1,0,0:0:0:0:
320,192,285350,1,0,0:0:0:0:
448,192,285350,1,0,0:0:0:0:
64,192,285350,1,0,0:0:0:0:
192,192,285588,1,0,0:0:0:0:
64,192,285588,1,0,0:0:0:0:
320,192,285588,1,0,0:0:0:0:
64,192,285707,1,0,0:0:0:0:
192,192,285707,1,0,0:0:0:0:
448,192,285707,1,0,0:0:0:0:
448,192,285826,1,0,0:0:0:0:
320,192,285826,1,0,0:0:0:0:
192,192,285826,1,0,0:0:0:0:
64,192,285826,1,0,0:0:0:0:
64,192,286064,1,0,0:0:0:0:
192,192,286064,1,0,0:0:0:0:
448,192,286064,1,0,0:0:0:0:
448,192,286183,1,0,0:0:0:0:
320,192,286183,1,0,0:0:0:0:
192,192,286183,1,0,0:0:0:0:
64,192,286302,1,0,0:0:0:0:
192,192,286302,1,0,0:0:0:0:
320,192,286302,1,0,0:0:0:0:
448,192,286302,1,0,0:0:0:0:
64,192,286421,1,0,0:0:0:0:
192,192,286421,1,0,0:0:0:0:
448,192,286421,1,0,0:0:0:0:
448,192,286540,1,0,0:0:0:0:
320,192,286540,1,0,0:0:0:0:
192,192,286540,1,0,0:0:0:0:
64,192,286540,1,0,0:0:0:0:
192,192,286660,1,0,0:0:0:0:
320,192,286660,1,0,0:0:0:0:
448,192,286660,1,0,0:0:0:0:
64,192,286779,1,0,0:0:0:0:
192,192,286779,1,0,0:0:0:0:
320,192,286779,1,0,0:0:0:0:
64,192,286898,1,0,0:0:0:0:
320,192,286898,1,0,0:0:0:0:
448,192,286898,1,0,0:0:0:0:
448,192,287017,1,0,0:0:0:0:
320,192,287017,1,0,0:0:0:0:
192,192,287017,1,0,0:0:0:0:
64,192,287017,1,0,0:0:0:0:
64,192,287136,1,0,0:0:0:0:
192,192,287136,1,0,0:0:0:0:
448,192,287136,1,0,0:0:0:0:
64,192,287255,1,0,0:0:0:0:
192,192,287255,1,0,0:0:0:0:
320,192,287255,1,0,0:0:0:0:
448,192,287255,1,0,0:0:0:0:
192,192,287374,1,0,0:0:0:0:
320,192,287374,1,0,0:0:0:0:
448,192,287374,1,0,0:0:0:0:
448,192,287493,1,0,0:0:0:0:
320,192,287493,1,0,0:0:0:0:
192,192,287493,1,0,0:0:0:0:
64,192,287493,1,0,0:0:0:0:
64,192,287612,1,0,0:0:0:0:
192,192,287612,1,0,0:0:0:0:
320,192,287612,1,0,0:0:0:0:
64,192,287731,1,0,0:0:0:0:
320,192,287731,1,0,0:0:0:0:
448,192,287731,1,0,0:0:0:0:
320,192,287850,1,0,0:0:0:0:
192,192,287850,1,0,0:0:0:0:
64,192,287850,1,0,0:0:0:0:
448,192,287969,1,0,0:0:0:0:
320,192,287969,1,0,0:0:0:0:
192,192,287969,1,0,0:0:0:0:
64,192,287969,1,0,0:0:0:0:
448,192,288088,1,0,0:0:0:0:
192,192,288088,1,0,0:0:0:0:
64,192,288088,1,0,0:0:0:0:
64,192,288207,1,0,0:0:0:0:
192,192,288207,1,0,0:0:0:0:
320,192,288207,1,0,0:0:0:0:
448,192,288207,1,0,0:0:0:0:
192,192,288326,1,0,0:0:0:0:
320,192,288326,1,0,0:0:0:0:
448,192,288326,1,0,0:0:0:0:
448,192,288445,1,0,0:0:0:0:
320,192,288445,1,0,0:0:0:0:
192,192,288445,1,0,0:0:0:0:
64,192,288445,1,0,0:0:0:0:
64,192,288564,1,0,0:0:0:0:
320,192,288564,1,0,0:0:0:0:
448,192,288564,1,0,0:0:0:0:
448,192,288683,1,0,0:0:0:0:
64,192,288683,1,0,0:0:0:0:
192,192,288683,1,0,0:0:0:0:
64,192,288802,1,0,0:0:0:0:
320,192,288802,1,0,0:0:0:0:
448,192,288802,1,0,0:0:0:0:
192,192,288921,1,0,0:0:0:0:
64,192,288921,1,0,0:0:0:0:
448,192,288921,1,0,0:0:0:0:
192,192,289040,1,0,0:0:0:0:
320,192,289040,1,0,0:0:0:0:
448,192,289040,1,0,0:0:0:0:
64,192,289160,1,0,0:0:0:0:
320,192,289160,1,0,0:0:0:0:
448,192,289160,1,0,0:0:0:0:
192,192,289160,1,0,0:0:0:0:
320,192,289398,1,0,0:0:0:0:
448,192,289398,1,0,0:0:0:0:
64,192,289398,1,0,0:0:0:0:
64,192,289517,1,0,0:0:0:0:
192,192,289517,1,0,0:0:0:0:
448,192,289517,1,0,0:0:0:0:
448,192,289636,1,0,0:0:0:0:
320,192,289636,1,0,0:0:0:0:
192,192,289636,1,0,0:0:0:0:
64,192,289636,1,0,0:0:0:0:
448,192,290112,1,0,0:0:0:0:
320,192,290112,1,0,0:0:0:0:
192,192,290112,1,0,0:0:0:0:
64,192,290112,1,0,0:0:0:0:
64,192,290231,1,0,0:0:0:0:
320,192,290231,1,0,0:0:0:0:
448,192,290231,1,0,0:0:0:0:
64,192,290350,1,0,0:0:0:0:
192,192,290350,1,0,0:0:0:0:
320,192,290350,1,0,0:0:0:0:
448,192,290469,1,0,0:0:0:0:
192,192,290469,1,0,0:0:0:0:
64,192,290469,1,0,0:0:0:0:
448,192,290588,1,0,0:0:0:0:
320,192,290588,1,0,0:0:0:0:
192,192,290588,1,0,0:0:0:0:
64,192,290588,1,0,0:0:0:0:
64,192,290707,1,0,0:0:0:0:
192,192,290707,1,0,0:0:0:0:
320,192,290707,1,0,0:0:0:0:
448,192,290826,1,0,0:0:0:0:
320,192,290826,1,0,0:0:0:0:
192,192,290826,1,0,0:0:0:0:
64,192,290945,1,0,0:0:0:0:
320,192,290945,1,0,0:0:0:0:
448,192,290945,1,0,0:0:0:0:
448,192,291064,1,0,0:0:0:0:
320,192,291064,1,0,0:0:0:0:
192,192,291064,1,0,0:0:0:0:
64,192,291064,1,0,0:0:0:0:
64,192,291183,1,0,0:0:0:0:
192,192,291183,1,0,0:0:0:0:
320,192,291183,1,0,0:0:0:0:
448,192,291302,1,0,0:0:0:0:
320,192,291302,1,0,0:0:0:0:
64,192,291302,1,0,0:0:0:0:
192,192,291302,1,0,0:0:0:0:
448,192,291421,1,0,0:0:0:0:
192,192,291421,1,0,0:0:0:0:
64,192,291421,1,0,0:0:0:0:
64,192,291540,1,0,0:0:0:0:
192,192,291540,1,0,0:0:0:0:
320,192,291540,1,0,0:0:0:0:
448,192,291540,1,0,0:0:0:0:
448,192,291660,1,0,0:0:0:0:
320,192,291660,1,0,0:0:0:0:
192,192,291660,1,0,0:0:0:0:
448,192,291779,1,0,0:0:0:0:
320,192,291779,1,0,0:0:0:0:
192,192,291779,1,0,0:0:0:0:
64,192,291779,1,0,0:0:0:0:
64,192,291898,1,0,0:0:0:0:
192,192,291898,1,0,0:0:0:0:
320,192,292017,1,0,0:0:0:0:
448,192,292017,1,0,0:0:0:0:
64,192,292096,1,0,0:0:0:0:
192,192,292096,1,0,0:0:0:0:
448,192,292175,1,0,0:0:0:0:
320,192,292175,1,0,0:0:0:0:
192,192,292255,1,0,0:0:0:0:
64,192,292255,1,0,0:0:0:0:
448,192,292334,1,0,0:0:0:0:
320,192,292334,1,0,0:0:0:0:
192,192,292413,1,0,0:0:0:0:
64,192,292413,1,0,0:0:0:0:
320,192,292493,1,0,0:0:0:0:
448,192,292493,1,0,0:0:0:0:
192,192,292572,1,0,0:0:0:0:
64,192,292572,1,0,0:0:0:0:
320,192,292652,1,0,0:0:0:0:
448,192,292652,1,0,0:0:0:0:
192,192,292731,1,0,0:0:0:0:
64,192,292731,1,0,0:0:0:0:
320,192,292810,1,0,0:0:0:0:
448,192,292810,1,0,0:0:0:0:
192,192,292890,1,0,0:0:0:0:
64,192,292890,1,0,0:0:0:0:
320,192,292969,1,0,0:0:0:0:
448,192,292969,1,0,0:0:0:0:
192,192,292969,1,0,0:0:0:0:
64,192,292969,1,0,0:0:0:0:
448,192,293921,1,0,0:0:0:0:
320,192,293921,1,0,0:0:0:0:
192,192,293921,1,0,0:0:0:0:
64,192,293921,1,0,0:0:0:0:
448,192,294040,1,0,0:0:0:0:
320,192,294040,1,0,0:0:0:0:
64,192,294040,1,0,0:0:0:0:
192,192,294040,1,0,0:0:0:0:
64,192,294159,1,0,0:0:0:0:
192,192,294159,1,0,0:0:0:0:
320,192,294159,1,0,0:0:0:0:
448,192,294279,1,0,0:0:0:0:
320,192,294279,1,0,0:0:0:0:
192,192,294279,1,0,0:0:0:0:
64,192,294279,1,0,0:0:0:0:
64,192,294398,1,0,0:0:0:0:
192,192,294398,1,0,0:0:0:0:
320,192,294398,1,0,0:0:0:0:
448,192,294398,1,0,0:0:0:0:
448,192,294517,1,0,0:0:0:0:
192,192,294517,1,0,0:0:0:0:
64,192,294517,1,0,0:0:0:0:
320,192,294636,1,0,0:0:0:0:
192,192,294636,1,0,0:0:0:0:
448,192,294636,1,0,0:0:0:0:
64,192,294636,1,0,0:0:0:0:
448,192,294755,1,0,0:0:0:0:
192,192,294755,1,0,0:0:0:0:
64,192,294755,1,0,0:0:0:0:
320,192,294755,1,0,0:0:0:0:
64,192,294874,1,0,0:0:0:0:
320,192,294874,1,0,0:0:0:0:
448,192,294874,1,0,0:0:0:0:
64,192,294993,1,0,0:0:0:0:
320,192,294993,1,0,0:0:0:0:
192,192,294993,1,0,0:0:0:0:
448,192,294993,1,0,0:0:0:0:
64,192,295112,1,0,0:0:0:0:
320,192,295112,1,0,0:0:0:0:
448,192,295112,1,0,0:0:0:0:
192,192,295112,1,0,0:0:0:0:
192,192,295231,1,0,0:0:0:0:
448,192,295231,1,0,0:0:0:0:
320,192,295231,1,0,0:0:0:0:
448,192,295350,1,0,0:0:0:0:
64,192,295350,1,0,0:0:0:0:
320,192,295350,1,0,0:0:0:0:
192,192,295350,1,0,0:0:0:0:
64,192,295469,1,0,0:0:0:0:
320,192,295469,1,0,0:0:0:0:
448,192,295469,1,0,0:0:0:0:
192,192,295469,1,0,0:0:0:0:
192,192,295588,1,0,0:0:0:0:
320,192,295588,1,0,0:0:0:0:
64,192,295588,1,0,0:0:0:0:
192,192,295707,1,0,0:0:0:0:
448,192,295707,1,0,0:0:0:0:
64,192,295707,1,0,0:0:0:0:
320,192,295707,1,0,0:0:0:0:
448,192,295826,1,0,0:0:0:0:
192,192,295826,1,0,0:0:0:0:
64,192,295826,1,0,0:0:0:0:
320,192,295826,1,0,0:0:0:0:
64,192,295945,1,0,0:0:0:0:
448,192,295945,1,0,0:0:0:0:
192,192,295945,1,0,0:0:0:0:
320,192,296064,1,0,0:0:0:0:
192,192,296064,1,0,0:0:0:0:
448,192,296064,1,0,0:0:0:0:
64,192,296064,1,0,0:0:0:0:
448,192,296183,1,0,0:0:0:0:
192,192,296183,1,0,0:0:0:0:
64,192,296183,1,0,0:0:0:0:
320,192,296183,1,0,0:0:0:0:
64,192,296302,1,0,0:0:0:0:
320,192,296302,1,0,0:0:0:0:
192,192,296302,1,0,0:0:0:0:
64,192,296421,1,0,0:0:0:0:
320,192,296421,1,0,0:0:0:0:
192,192,296421,1,0,0:0:0:0:
448,192,296421,1,0,0:0:0:0:
64,192,296540,1,0,0:0:0:0:
320,192,296540,1,0,0:0:0:0:
448,192,296540,1,0,0:0:0:0:
192,192,296540,1,0,0:0:0:0:
320,192,296660,1,0,0:0:0:0:
448,192,296660,1,0,0:0:0:0:
64,192,296660,1,0,0:0:0:0:
448,192,296779,1,0,0:0:0:0:
64,192,296779,1,0,0:0:0:0:
320,192,296779,1,0,0:0:0:0:
192,192,296779,1,0,0:0:0:0:
64,192,296898,1,0,0:0:0:0:
320,192,296898,1,0,0:0:0:0:
448,192,296898,1,0,0:0:0:0:
192,192,296898,1,0,0:0:0:0:
192,192,297017,1,0,0:0:0:0:
320,192,297017,1,0,0:0:0:0:
448,192,297017,1,0,0:0:0:0:
192,192,297136,1,0,0:0:0:0:
448,192,297136,1,0,0:0:0:0:
64,192,297136,1,0,0:0:0:0:
320,192,297136,1,0,0:0:0:0:
448,192,297255,1,0,0:0:0:0:
192,192,297255,1,0,0:0:0:0:
64,192,297255,1,0,0:0:0:0:
320,192,297255,1,0,0:0:0:0:
64,192,297374,1,0,0:0:0:0:
320,192,297374,1,0,0:0:0:0:
192,192,297374,1,0,0:0:0:0:
320,192,297493,1,0,0:0:0:0:
192,192,297493,1,0,0:0:0:0:
448,192,297493,1,0,0:0:0:0:
64,192,297493,1,0,0:0:0:0:
448,192,297612,1,0,0:0:0:0:
192,192,297612,1,0,0:0:0:0:
64,192,297612,1,0,0:0:0:0:
320,192,297612,1,0,0:0:0:0:
448,192,297731,1,0,0:0:0:0:
320,192,297731,1,0,0:0:0:0:
192,192,297731,1,0,0:0:0:0:
64,192,297850,1,0,0:0:0:0:
320,192,297850,1,0,0:0:0:0:
192,192,297850,1,0,0:0:0:0:
448,192,297850,1,0,0:0:0:0:
64,192,297969,1,0,0:0:0:0:
320,192,297969,1,0,0:0:0:0:
448,192,297969,1,0,0:0:0:0:
192,192,297969,1,0,0:0:0:0:
192,192,298088,1,0,0:0:0:0:
448,192,298088,1,0,0:0:0:0:
64,192,298088,1,0,0:0:0:0:
448,192,298207,1,0,0:0:0:0:
64,192,298207,1,0,0:0:0:0:
320,192,298207,1,0,0:0:0:0:
192,192,298207,1,0,0:0:0:0:
64,192,298326,1,0,0:0:0:0:
320,192,298326,1,0,0:0:0:0:
448,192,298326,1,0,0:0:0:0:
192,192,298326,1,0,0:0:0:0:
192,192,298445,1,0,0:0:0:0:
320,192,298445,1,0,0:0:0:0:
64,192,298445,1,0,0:0:0:0:
192,192,298564,1,0,0:0:0:0:
448,192,298564,1,0,0:0:0:0:
64,192,298564,1,0,0:0:0:0:
320,192,298564,1,0,0:0:0:0:
448,192,298683,1,0,0:0:0:0:
192,192,298683,1,0,0:0:0:0:
64,192,298683,1,0,0:0:0:0:
320,192,298683,1,0,0:0:0:0:
64,192,298802,1,0,0:0:0:0:
448,192,298802,1,0,0:0:0:0:
320,192,298802,1,0,0:0:0:0:
320,192,298921,1,0,0:0:0:0:
192,192,298921,1,0,0:0:0:0:
448,192,298921,1,0,0:0:0:0:
64,192,298921,1,0,0:0:0:0:
448,192,299040,1,0,0:0:0:0:
192,192,299040,1,0,0:0:0:0:
64,192,299040,1,0,0:0:0:0:
320,192,299040,1,0,0:0:0:0:
64,192,299160,1,0,0:0:0:0:
448,192,299160,1,0,0:0:0:0:
192,192,299160,1,0,0:0:0:0:
64,192,299279,1,0,0:0:0:0:
320,192,299279,1,0,0:0:0:0:
192,192,299279,1,0,0:0:0:0:
448,192,299279,1,0,0:0:0:0:
64,192,299398,1,0,0:0:0:0:
320,192,299398,1,0,0:0:0:0:
448,192,299398,1,0,0:0:0:0:
192,192,299398,1,0,0:0:0:0:
192,192,299517,1,0,0:0:0:0:
448,192,299517,1,0,0:0:0:0:
320,192,299517,1,0,0:0:0:0:
448,192,299636,1,0,0:0:0:0:
64,192,299636,1,0,0:0:0:0:
320,192,299636,1,0,0:0:0:0:
192,192,299636,1,0,0:0:0:0:
64,192,299755,1,0,0:0:0:0:
320,192,299755,1,0,0:0:0:0:
448,192,299755,1,0,0:0:0:0:
192,192,299755,1,0,0:0:0:0:
192,192,299874,1,0,0:0:0:0:
320,192,299874,1,0,0:0:0:0:
64,192,299874,1,0,0:0:0:0:
192,192,299993,1,0,0:0:0:0:
448,192,299993,1,0,0:0:0:0:
64,192,299993,1,0,0:0:0:0:
320,192,299993,1,0,0:0:0:0:
448,192,300112,1,0,0:0:0:0:
192,192,300112,1,0,0:0:0:0:
64,192,300112,1,0,0:0:0:0:
320,192,300112,1,0,0:0:0:0:
64,192,300231,1,0,0:0:0:0:
448,192,300231,1,0,0:0:0:0:
320,192,300231,1,0,0:0:0:0:
320,192,300350,1,0,0:0:0:0:
192,192,300350,1,0,0:0:0:0:
448,192,300350,1,0,0:0:0:0:
64,192,300350,1,0,0:0:0:0:
448,192,300469,1,0,0:0:0:0:
192,192,300469,1,0,0:0:0:0:
64,192,300469,1,0,0:0:0:0:
320,192,300469,1,0,0:0:0:0:
64,192,300588,1,0,0:0:0:0:
448,192,300588,1,0,0:0:0:0:
192,192,300588,1,0,0:0:0:0:
64,192,300707,1,0,0:0:0:0:
320,192,300707,1,0,0:0:0:0:
192,192,300707,1,0,0:0:0:0:
448,192,300707,1,0,0:0:0:0:
64,192,300826,1,0,0:0:0:0:
320,192,300826,1,0,0:0:0:0:
448,192,300826,1,0,0:0:0:0:
192,192,300826,1,0,0:0:0:0:
192,192,300945,1,0,0:0:0:0:
448,192,300945,1,0,0:0:0:0:
320,192,300945,1,0,0:0:0:0:
448,192,301064,1,0,0:0:0:0:
64,192,301064,1,0,0:0:0:0:
320,192,301064,1,0,0:0:0:0:
192,192,301064,1,0,0:0:0:0:
64,192,301183,1,0,0:0:0:0:
320,192,301183,1,0,0:0:0:0:
448,192,301183,1,0,0:0:0:0:
192,192,301183,1,0,0:0:0:0:
192,192,301302,1,0,0:0:0:0:
320,192,301302,1,0,0:0:0:0:
64,192,301302,1,0,0:0:0:0:
192,192,301421,1,0,0:0:0:0:
448,192,301421,1,0,0:0:0:0:
64,192,301421,1,0,0:0:0:0:
320,192,301421,1,0,0:0:0:0:
64,192,301540,1,0,0:0:0:0:
320,192,301540,1,0,0:0:0:0:
448,192,301540,1,0,0:0:0:0:
192,192,301540,128,0,303386:0:0:0:0:
64,192,303445,1,0,0:0:0:0:
320,192,303445,1,0,0:0:0:0:
448,192,303445,1,0,0:0:0:0:
192,192,303445,128,0,305707:0:0:0:0:
64,192,306779,1,0,0:0:0:0:
