osu file format v14

[General]
AudioFilename: audio.mp3
AudioLeadIn: 0
PreviewTime: 938
Countdown: 0
SampleSet: Soft
StackLeniency: 0.4
Mode: 0
LetterboxInBreaks: 0
WidescreenStoryboard: 1

[Editor]
DistanceSpacing: 0.2
BeatDivisor: 4
GridSize: 32
TimelineZoom: 2.1

[Metadata]
Title:B.G.M
TitleUnicode:B.G.M
Artist:Utsu-P feat. KAFU
ArtistUnicode:鬱P feat. 可不
Creator:SMOKELIND
Version:gazimal's EXPERT
Source:
Tags:1/1440 Musical Isotope CeVIO AI Artificial Singing Synthesizer Kamitsubaki Studio 神椿スタジオ Japanese English Rock Youtube Shorts One Minute Minutes Boobs Girl Music BGM JRock J-Rock Mocaotic Pepekcz Zekk gazimal Nymphe Kiyoshi Guarden Kang Sae-byeok
BeatmapID:3733027
BeatmapSetID:1818864

[Difficulty]
HPDrainRate:5
CircleSize:4
OverallDifficulty:8.8
ApproachRate:9.4
SliderMultiplier:1.87
SliderTickRate:1

[Events]
//Background and Video events
0,0,"BG.jpg",0,0
Video,103,"vid.mp4"
//Break Periods
//Storyboard Layer 0 (Background)
//Storyboard Layer 1 (Fail)
//Storyboard Layer 2 (Pass)
//Storyboard Layer 3 (Foreground)
//Storyboard Layer 4 (Overlay)
//Storyboard Sound Samples

[TimingPoints]
1027,352.941176470588,4,2,77,57,1,0
1821,-100,4,2,77,5,0,0
1909,-100,4,2,77,57,0,0
1997,-100,4,2,77,5,0,0
2085,-100,4,2,77,57,0,0
2526,-100,4,2,77,5,0,0
2615,-100,4,2,77,57,0,0
2703,-100,4,2,77,5,0,0
2791,-100,4,2,77,57,0,0
2879,-100,4,2,77,5,0,0
2968,-100,4,2,77,57,0,0
3056,-100,4,2,77,5,0,0
3144,-100,4,2,77,57,0,0
3938,-100,4,2,77,5,0,0
4026,-100,4,2,77,57,0,0
4115,-100,4,2,77,5,0,0
4203,-100,4,2,77,57,0,0
4291,-100,4,2,77,5,0,0
4379,-100,4,2,77,57,0,0
4468,-100,4,2,77,5,0,0
4556,-100,4,2,77,57,0,0
4644,-100,4,2,77,5,0,0
4732,-100,4,2,77,57,0,0
4821,-100,4,2,77,5,0,0
4909,-100,4,2,77,57,0,0
4997,-100,4,2,77,5,0,0
5085,-100,4,2,77,57,0,0
5174,-100,4,2,77,5,0,0
5262,-100,4,2,77,57,0,0
5350,-100,4,2,77,5,0,0
5438,-100,4,2,77,67,0,0
5526,-100,4,2,77,5,0,0
5615,-100,4,2,77,77,0,0
5703,-100,4,2,77,5,0,0
5791,-100,4,2,77,87,0,0
5879,-100,4,2,77,5,0,0
5968,-100,4,2,77,87,0,0
6144,-83.3333333333333,4,2,77,87,0,0
6321,-100,4,2,77,87,0,0
6674,-50,4,2,77,97,0,0
6938,-50,4,2,77,5,0,0
7026,-303.030303030303,4,2,77,97,0,0
7291,-303.030303030303,4,2,77,5,0,0
7379,-100,4,2,77,97,0,0
7732,-303.030303030303,4,2,77,97,0,0
7997,-303.030303030303,4,2,77,97,0,0
8085,-66.6666666666667,4,2,77,97,0,0
8218,-303.030303030303,4,2,77,5,0,0
8262,-200,4,2,77,97,0,0
8438,-66.6666666666667,4,2,77,97,0,0
8571,-303.030303030303,4,2,77,5,0,0
8615,-200,4,2,77,97,0,0
8791,-66.6666666666667,4,2,77,97,0,0
9144,-100,4,2,77,97,0,0
9497,-55.5555555555556,4,2,77,97,0,0
9629,-303.030303030303,4,2,77,5,0,0
9674,-200,4,2,77,97,0,0
9850,-55.5555555555556,4,2,77,97,0,0
9982,-303.030303030303,4,2,77,5,0,0
10026,-200,4,2,77,97,0,0
10203,-66.6666666666667,4,2,77,97,0,0
10468,-303.030303030303,4,2,77,5,0,0
10556,-66.6666666666667,4,2,77,97,0,0
11438,-100,4,2,77,97,0,0
11615,-303.030303030303,4,2,77,97,0,0
11879,-303.030303030303,4,2,77,5,0,0
11968,-55.5555555555556,4,2,77,97,0,0
12232,-303.030303030303,4,2,77,5,0,0
12321,-100,4,2,77,97,0,0
16556,-166.666666666667,4,2,77,97,0,0
17615,-55.5555555555556,4,2,77,97,0,1
17879,-303.030303030303,4,2,77,5,0,0
17968,-83.3333333333333,4,2,77,97,0,0
18144,-55.5555555555556,4,2,77,97,0,0
18497,-83.3333333333333,4,2,77,97,0,0
19556,-55.5555555555556,4,2,77,97,0,0
19909,-83.3333333333333,4,2,77,97,0,0
22026,-66.6666666666667,4,2,77,97,0,0
22379,-83.3333333333333,4,2,77,97,0,0
22556,-83.3333333333333,4,2,77,97,0,0
23791,-55.5555555555556,4,2,77,97,0,0
24144,-83.3333333333333,4,2,77,97,0,0
25203,-55.5555555555556,4,2,77,97,0,0
25556,-83.3333333333333,4,2,77,97,0,0
27850,-55.5555555555556,4,2,77,97,0,0
28115,-303.030303030303,4,2,77,5,0,0
28203,-41.6666666666667,4,2,77,97,0,0
28291,-303.030303030303,4,2,77,5,0,0
28379,-125,4,2,77,97,0,0
28644,-303.030303030303,4,2,77,5,0,0
28732,-41.6666666666667,4,2,77,97,0,0
28821,-303.030303030303,4,2,77,5,0,0
28909,-125,4,2,77,97,0,0
29174,-303.030303030303,4,2,77,5,0,0
29262,-66.6666666666667,4,2,77,97,0,0
29615,-66.6666666666667,4,2,77,97,0,0
29968,-66.6666666666667,4,2,77,97,0,0
32438,-66.6666666666667,4,2,77,97,0,0
32791,-66.6666666666667,4,2,77,97,0,0
34909,-500.000000000003,4,2,77,97,0,1
35174,-500.000000000003,4,2,77,5,0,0
35262,-500.000000000003,4,2,77,97,0,1
35526,-303.030303030303,4,2,77,5,0,0
35615,-55.5555555555556,4,2,77,97,0,0
35968,-83.3333333333333,4,2,77,97,0,0
40556,-666.666666666667,4,2,77,57,0,0
43379,-142.857142857143,4,2,77,57,0,0
43468,-100,4,2,77,5,0,0
43556,-142.857142857143,4,2,77,57,0,0
43644,-100,4,2,77,5,0,0
43732,-142.857142857143,4,2,77,57,0,0
43821,-100,4,2,77,5,0,0
43909,-142.857142857143,4,2,77,57,0,0
43997,-100,4,2,77,5,0,0
44085,-142.857142857143,4,2,77,57,0,0
44174,-100,4,2,77,5,0,0
44262,-142.857142857143,4,2,77,57,0,0
44350,-100,4,2,77,5,0,0
44438,-142.857142857143,4,2,77,57,0,0
44526,-100,4,2,77,5,0,0
44615,-142.857142857143,4,2,77,57,0,0
44703,-100,4,2,77,5,0,0
44791,-142.857142857143,4,2,77,57,0,0
44879,-100,4,2,77,5,0,0
44967,-142.857142857143,4,2,77,67,0,0
45056,-100,4,2,77,5,0,0
45144,-142.857142857143,4,2,77,77,0,0
45232,-100,4,2,77,5,0,0
45320,-142.857142857143,4,2,77,87,0,0
45409,-100,4,2,77,5,0,0
45497,-142.857142857143,4,2,77,87,0,0
45674,-71.4285714285714,4,2,77,87,0,0
45850,-50,4,2,77,87,0,1
46115,-303.030303030303,4,2,77,5,0,0
46203,-83.3333333333333,4,2,77,97,0,0
46379,-50,4,2,77,97,0,0
46512,-303.030303030303,4,2,77,5,0,0
46556,-200,4,2,77,97,0,0
46732,-66.6666666666667,4,2,77,97,0,0
47085,-333.333333333333,4,2,77,97,0,0
47615,-83.3333333333333,4,2,77,97,0,0
47791,-50,4,2,77,97,0,0
47924,-303.030303030303,4,2,77,5,0,0
47968,-200,4,2,77,97,0,0
48144,-66.6666666666667,4,2,77,97,0,0
49203,-83.3333333333333,4,2,77,97,0,0
49379,-66.6666666666667,4,2,77,97,0,0
49732,-83.3333333333333,4,2,77,97,0,0
50262,-66.6666666666667,4,2,77,97,0,0
50615,-50,4,2,77,97,0,0
50747,-303.030303030303,4,2,77,5,0,0
50791,-125,4,2,77,97,0,0
50968,-50,4,2,77,97,0,0
51100,-303.030303030303,4,2,77,5,0,0
51144,-125,4,2,77,97,0,0
51321,-41.6666666666667,4,2,77,97,0,0
51453,-303.030303030303,4,2,77,5,0,0
51497,-200,4,2,77,97,0,0
52026,-45.4545454545455,4,2,77,97,0,0
52159,-303.030303030303,4,2,77,5,0,0
52203,-142.857142857143,4,2,77,97,0,0
52379,-40,4,2,77,97,0,0
52732,-333.333333333333,4,2,77,97,0,0
53262,-200,4,2,77,97,0,0
53438,-45.4545454545455,4,2,77,97,0,0
53571,-303.030303030303,4,2,77,5,0,0
53615,-142.857142857143,4,2,77,97,0,0
53791,-40,4,2,77,97,0,0
54144,-83.3333333333333,4,2,77,97,0,0
56262,-333.333333333333,4,2,77,57,0,0
56791,-40,4,2,77,97,0,0
57056,-303.030303030303,4,2,77,5,0,0
57144,-333.333333333333,4,2,77,97,0,0
57497,-303.030303030303,4,2,77,5,0,0

[Colours]
Combo1 : 164,255,255
Combo2 : 255,0,128

[HitObjects]
75,356,1027,6,0,L|97:251,1,93.5,2|0,1:0|0:0,0:0:0:0:
166,347,1379,2,0,L|188:242,1,93.5,2|0,1:0|0:0,0:0:0:0:
257,338,1732,2,0,L|273:259,1,46.75,2|0,1:0|0:0,0:0:0:0:
348,329,1909,2,0,L|364:250,1,46.75,2|0,0:0|0:0,0:0:0:0:
75,356,2085,2,0,L|97:251,1,93.5,2|0,1:0|0:0,0:0:0:0:
348,329,2438,6,0,L|357:283,1,46.75,2|0,1:0|0:0,0:0:0:0:
257,338,2615,2,0,L|266:292,1,46.75,2|0,0:0|0:0,0:0:0:0:
222,176,2791,2,0,L|212:130,1,46.75,2|0,1:0|0:0,0:0:0:0:
313,185,2968,2,0,L|303:139,1,46.75,2|0,0:0|0:0,0:0:0:0:
495,203,3144,2,0,L|472:98,1,93.5,2|0,1:0|0:0,0:0:0:0:
404,194,3497,2,0,L|381:89,1,93.5,2|0,1:0|0:0,0:0:0:0:
84,310,3850,6,0,L|75:356,1,46.75,2|0,1:0|0:0,0:0:0:0:
175,301,4027,2,0,L|166:347,1,46.75,0|0,1:0|0:0,0:0:0:0:
265,292,4203,2,0,L|255:337,1,46.75,2|0,1:0|0:0,0:0:0:0:
356,283,4380,2,0,L|346:328,1,46.75,0|0,1:0|0:0,0:0:0:0:
487,157,4556,6,0,L|496:202,1,46.75,2|0,1:0|0:0,0:0:0:0:
396,148,4733,2,0,L|405:193,1,46.75,2|0,1:0|0:0,0:0:0:0:
303,139,4909,2,0,L|313:185,1,46.75,2|0,1:0|0:0,0:0:0:0:
212,130,5086,2,0,L|222:176,1,46.75,2|0,1:0|1:0,0:0:0:0:
84,310,5262,6,0,L|75:356,1,46.75,2|0,1:0|0:0,0:0:0:0:
356,283,5439,2,0,L|346:328,1,46.75,2|0,1:0|0:0,0:0:0:0:
487,157,5615,6,0,L|496:202,1,46.75,2|0,1:0|0:0,0:0:0:0:
212,130,5791,2,0,L|222:176,1,46.75,2|0,1:0|0:0,0:0:0:0:
265,292,5968,5,10,0:2:0:0:
265,292,6056,1,0,0:0:0:0:
265,292,6144,6,0,L|256:335,2,28.049999143982,0|0|0,3:0|0:0|0:0,0:0:0:0:
312,184,6321,1,0,3:0:0:0:
307,161,6409,1,0,3:0:0:0:
303,139,6497,1,0,3:0:0:0:
83,68,6674,6,0,B|57:28|3:55|3:55|-5:131|65:174|136:129,1,280.5,6|0,1:0|0:0,0:0:0:0:
164,61,7026,6,0,L|153:11,1,46.282499858757,10|0,0:0|0:0,0:0:0:0:
232,0,7379,6,0,L|245:65,1,46.75,2|0,1:0|0:0,0:0:0:0:
164,61,7556,2,0,L|150:-4,1,46.75,2|0,0:0|0:0,0:0:0:0:
303,139,7732,6,0,L|292:189,1,46.282499858757,10|0,0:0|0:0,0:0:0:0:
265,292,8085,6,0,L|383:267,1,105.187504012585,2|0,1:0|0:0,0:0:0:0:
379,281,8262,2,0,L|345:288,1,23.375,2|0,0:0|0:0,0:0:0:0:
329,378,8438,2,0,L|447:353,1,105.187504012585,10|0,0:0|0:0,0:0:0:0:
443,367,8615,2,0,L|409:374,1,23.375,2|0,0:0|0:0,0:0:0:0:
221,382,8791,1,2,1:0:0:0:
0,273,8968,1,2,0:0:0:0:
117,382,9144,2,0,P|142:364|152:342,1,46.75,10|0,0:0|0:0,0:0:0:0:
98,284,9321,2,0,P|73:301|63:324,1,46.75,2|2,0:0|0:0,0:0:0:0:
210,300,9497,6,0,P|263:259|322:258,1,126.224996147919,2|0,1:0|0:0,0:0:0:0:
342,241,9674,2,0,P|352:252|358:266,1,23.375,2|0,0:0|0:0,0:0:0:0:
505,188,9850,2,0,P|452:147|393:146,1,126.224996147919,10|0,0:0|0:0,0:0:0:0:
366,136,10026,2,0,P|356:147|350:161,1,23.375,2|0,0:0|0:0,0:0:0:0:
195,172,10203,6,0,B|161:172|145:107|213:70|294:102|273:207,1,210.37500802517,2|0,1:0|0:0,0:0:0:0:
210,300,10556,1,10,0:2:0:0:
144,292,10644,1,2,3:2:0:0:
98,284,10732,1,2,3:2:0:0:
56,278,10821,1,2,3:2:0:0:
35,275,10909,1,2,1:2:0:0:
172,384,11085,1,2,0:0:0:0:
339,284,11262,5,10,0:0:0:0:
339,284,11350,1,0,0:0:0:0:
339,284,11438,2,0,L|392:273,1,46.75,10|10,0:0|0:0,0:0:0:0:
439,353,11615,6,0,L|385:363,1,46.282499858757,2|0,1:0|0:0,0:0:0:0:
253,299,11968,6,0,B|231:231|303:199|303:199|306:197|306:197|389:214|415:147,1,252.449992295838,14|0,0:2|0:0,0:0:0:0:
511,42,12321,2,0,P|494:27|473:18,1,46.75,2|0,1:0|0:0,0:0:0:0:
430,83,12497,2,0,P|452:92|469:108,1,46.75,2|2,0:0|0:0,0:0:0:0:
261,117,12674,2,0,P|259:93|260:70,1,46.75,10|0,0:0|0:0,0:0:0:0:
340,72,12850,2,0,P|338:96|340:119,1,46.75,2|0,0:0|0:0,0:0:0:0:
156,33,13026,5,2,1:0:0:0:
115,16,13115,1,0,0:0:0:0:
66,19,13203,1,2,0:0:0:0:
31,48,13291,1,2,0:0:0:0:
22,92,13379,2,0,P|47:106|65:136,1,46.75,10|0,0:0|0:0,0:0:0:0:
160,137,13556,2,0,P|160:165|143:196,1,46.75,2|0,0:0|0:0,0:0:0:0:
17,276,13732,6,0,L|61:266,1,46.75,2|0,1:0|0:0,0:0:0:0:
154,364,13909,1,2,0:0:0:0:
154,364,13997,1,2,0:0:0:0:
154,364,14085,2,0,L|109:354,1,46.75,10|0,0:0|0:0,0:0:0:0:
240,286,14262,2,0,L|285:276,1,46.75,2|0,0:0|0:0,0:0:0:0:
395,382,14438,6,0,P|369:370|356:341,1,46.75,2|0,1:0|0:0,0:0:0:0:
420,283,14615,2,0,P|446:295|459:324,1,46.75,2|0,0:0|0:0,0:0:0:0:
360,204,14791,2,0,P|366:177|372:144,1,46.75,10|0,0:0|0:0,0:0:0:0:
453,157,14968,2,0,P|447:179|442:202,1,46.75,2|0,0:0|0:0,0:0:0:0:
327,84,15144,6,0,P|320:57|314:24,1,46.75,2|0,1:0|0:0,0:0:0:0:
234,37,15321,1,2,0:0:0:0:
234,37,15409,1,2,0:0:0:0:
234,37,15497,2,0,P|239:59|244:82,1,46.75,10|0,0:0|0:0,0:0:0:0:
409,85,15674,2,0,P|402:58|396:25,1,46.75,2|0,1:0|0:0,0:0:0:0:
452,155,15850,2,0,P|445:178|440:201,1,46.75,2|0,1:0|0:0,0:0:0:0:
360,204,16026,2,0,P|364:181|368:158,1,46.75,2|0,1:0|0:0,0:0:0:0:
251,202,16203,5,10,0:0:0:0:
260,247,16291,1,8,0:0:0:0:
270,293,16379,1,2,3:0:0:0:
280,339,16467,1,0,3:0:0:0:
290,384,16556,6,0,P|304:374|325:369,1,28.049999143982,2|0,3:0|0:0,0:0:0:0:
368,295,16732,2,0,P|383:302|398:317,1,28.049999143982,2|0,3:0|0:0,0:0:0:0:
196,375,16909,1,2,3:0:0:0:
196,375,16997,1,0,0:0:0:0:
196,375,17085,2,0,P|182:365|161:360,1,28.049999143982,2|0,3:0|0:0,0:0:0:0:
37,332,17262,5,2,3:0:0:0:
19,323,17350,1,2,3:0:0:0:
4,335,17438,1,2,3:0:0:0:
7,353,17526,1,2,3:0:0:0:
25,359,17615,2,0,P|145:320|269:292,1,252.449992295838,8|0,0:0|0:0,0:0:0:0:
368,295,17968,6,0,P|345:275|338:239,1,56.0999982879639,6|0,1:0|0:0,0:0:0:0:
399,142,18144,2,0,B|413:150|442:140|442:140|377:183|377:183|354:171|325:174,1,168.299994863892,2|8,0:0|0:0,0:0:0:0:
418,56,18497,2,0,B|426:17|472:22|472:22|447:31|437:58,1,112.199996575928,2|0,0:0|1:0,0:0:0:0:
265,217,18850,1,2,0:0:0:0:
201,0,19026,1,10,0:0:0:0:
341,82,19203,1,2,0:0:0:0:
152,191,19379,6,0,L|140:135,1,56.0999982879639,6|0,1:0|0:0,0:0:0:0:
16,124,19556,2,0,B|14:140|-11:157|-11:157|62:130|62:130|65:104|85:82,1,168.299994863892,2|8,0:0|0:0,0:0:0:0:
279,8,19909,2,0,L|251:139,1,112.199996575928,2|0,0:0|1:0,0:0:0:0:
14,43,20262,1,2,0:0:0:0:
14,43,20350,1,0,0:0:0:0:
14,43,20438,1,10,0:0:0:0:
166,62,20615,2,0,B|156:30|120:22|120:22|144:37|151:63,1,112.199996575928,2|2,0:0|1:0,0:0:0:0:
329,136,20968,6,0,L|341:80,1,56.0999982879639,2|0,0:0|0:0,0:0:0:0:
244,200,21144,2,0,L|269:319,1,112.199996575928,10|2,0:0|0:0,0:0:0:0:
319,384,21409,1,2,0:0:0:0:
319,384,21497,2,0,P|336:363|366:348,1,56.0999982879639,0|0,1:0|0:0,0:0:0:0:
427,282,21674,2,0,P|453:286|481:304,1,56.0999982879639,2|0,0:0|0:0,0:0:0:0:
216,365,21850,2,0,L|152:352,1,56.0999982879639,10|0,0:0|0:0,0:0:0:0:
66,340,22026,2,0,B|73:282|129:281|129:281|97:298|93:323,1,140.250005350113,2|6,0:0|1:0,0:0:0:0:
340,266,22379,6,0,L|327:206,1,56.0999982879639,2|0,0:0|0:0,0:0:0:0:
416,210,22556,1,8,0:0:0:0:
168,164,22732,2,0,L|180:104,1,56.0999982879639,2|0,0:0|0:0,0:0:0:0:
92,108,22909,1,0,1:0:0:0:
340,62,23085,2,0,L|328:2,1,56.0999982879639,2|0,0:0|0:0,0:0:0:0:
416,6,23262,1,8,0:0:0:0:
256,84,23438,5,10,0:0:0:0:
256,84,23526,1,8,0:0:0:0:
256,84,23615,2,0,L|268:144,1,56.0999982879639,6|0,1:0|0:0,0:0:0:0:
416,210,23791,2,0,B|465:209|483:167|464:118|413:122|413:122|403:140|385:149,1,168.299994863892,2|8,0:0|0:0,0:0:0:0:
380,384,24144,2,0,P|419:353|496:338,1,112.199996575928,2|0,0:0|1:0,0:0:0:0:
337,185,24497,1,2,0:0:0:0:
190,355,24674,1,10,0:0:0:0:
358,286,24850,1,2,0:0:0:0:
233,223,25026,6,0,L|246:287,1,56.0999982879639,6|0,1:0|0:0,0:0:0:0:
72,384,25203,2,0,B|67:343|31:313|31:313|75:338|126:328,1,168.299994863892,2|8,0:0|0:0,0:0:0:0:
188,148,25556,2,0,B|143:166|153:200|153:200|158:171|186:161,1,112.199996575928,2|0,0:0|1:0,0:0:0:0:
327,104,25909,2,0,L|266:91,1,56.0999982879639,2|0,0:0|0:0,0:0:0:0:
50,59,26085,1,10,0:0:0:0:
203,0,26262,5,2,1:0:0:0:
203,0,26350,1,0,1:0:0:0:
203,0,26438,1,10,0:0:0:0:
233,223,26615,1,2,1:0:0:0:
14,153,26791,1,10,0:0:0:0:
293,9,26968,1,2,1:0:0:0:
149,215,27144,5,10,0:0:0:0:
191,148,27232,1,8,0:0:0:0:
268,148,27321,1,10,0:0:0:0:
283,162,27409,1,0,1:0:0:0:
305,164,27497,1,2,1:0:0:0:
233,223,27674,1,2,1:0:0:0:
442,48,27850,6,0,B|467:18|509:31|520:86|472:130|428:82|429:85|426:80|378:66|358:109|358:109|375:119|376:141,1,252.449992295838,10|0,0:0|0:0,0:0:0:0:
377,215,28203,6,0,P|404:263|467:288,1,112.199996575928,8|0,0:2|0:0,0:0:0:0:
454,285,28379,6,0,P|426:236|363:211,1,112.2,8|0,0:2|0:0,0:0:0:0:
191,145,28732,6,0,P|217:96|267:73,1,112.2,10|0,0:2|0:0,0:0:0:0:
266,73,28909,6,0,P|237:120|187:144,1,112.199996575928,10|0,0:2|0:0,0:0:0:0:
39,193,29262,6,0,B|23:225|33:265|86:270|87:268|88:266|142:252|171:277|166:314,1,210.37500802517,6|2,1:0|0:0,0:0:0:0:
175,307,29615,2,0,B|179:269|150:244|96:258|95:260|94:262|41:257|31:217|48:186,1,210.37500802517,2|2,1:0|0:0,0:0:0:0:
109,137,29968,1,10,0:0:0:0:
109,137,30321,5,2,1:0:0:0:
104,116,30409,1,2,1:0:0:0:
99,95,30497,1,2,1:0:0:0:
47,186,30674,1,2,1:0:0:0:
191,31,30850,5,2,1:0:0:0:
186,52,30938,1,0,1:0:0:0:
181,73,31026,1,2,1:0:0:0:
267,0,31203,1,2,1:0:0:0:
283,163,31379,5,10,0:0:0:0:
278,142,31467,1,8,0:0:0:0:
273,121,31555,1,10,0:0:0:0:
227,225,31732,1,2,1:0:0:0:
389,90,31909,1,2,1:0:0:0:
366,322,32085,6,0,B|384:313|408:309|408:309|293:279|293:279|274:303|253:303,1,210.37500802517,4|2,1:0|0:0,0:0:0:0:
254,316,32438,2,0,B|275:315|294:291|294:291|408:322|408:322|385:325|366:334,1,210.37500802517,2|0,1:0|0:0,0:0:0:0:
227,225,32791,1,10,0:0:0:0:
227,225,33144,5,2,1:0:0:0:
248,220,33232,1,0,1:0:0:0:
269,215,33320,1,2,1:0:0:0:
170,289,33497,1,6,1:0:0:0:
352,151,33674,5,2,1:0:0:0:
331,146,33762,1,2,1:0:0:0:
310,141,33850,1,2,1:0:0:0:
409,215,34027,1,2,1:0:0:0:
227,77,34203,5,10,0:0:0:0:
248,72,34291,1,8,0:0:0:0:
269,67,34379,1,10,0:0:0:0:
170,141,34556,1,6,1:0:0:0:
352,3,34732,1,0,1:0:0:0:
409,215,34909,6,0,L|416:180,1,28.05,2|0,3:0|0:0,0:0:0:0:
415,227,35262,2,0,L|422:192,1,28.05,2|0,3:0|0:0,0:0:0:0:
395,120,35615,6,0,L|434:312,1,168.299994863892,14|0,0:0|0:0,0:0:0:0:
328,343,35968,1,2,1:0:0:0:
328,343,36056,1,2,1:0:0:0:
328,343,36144,2,0,P|360:345|385:383,1,56.0999982879639,2|0,1:0|0:0,0:0:0:0:
224,383,36321,5,2,1:0:0:0:
229,362,36409,1,2,1:0:0:0:
234,341,36497,1,2,1:0:0:0:
239,320,36586,1,0,1:0:0:0:
252,306,36674,1,2,1:0:0:0:
252,306,36762,1,2,1:0:0:0:
252,306,36850,2,0,L|195:293,1,56.0999982879639,2|0,1:0|0:0,0:0:0:0:
34,239,37026,5,10,0:0:0:0:
27,254,37115,1,2,1:0:0:0:
20,269,37203,2,0,L|77:256,1,56.0999982879639,2|0,1:0|0:0,0:0:0:0:
288,194,37379,1,10,0:0:0:0:
295,209,37468,1,2,1:0:0:0:
302,224,37556,2,0,L|245:211,1,56.0999982879639,2|0,1:0|0:0,0:0:0:0:
101,367,37732,1,4,1:0:0:0:
236,137,37909,5,10,0:0:0:0:
217,120,37997,1,2,1:0:0:0:
188,116,38085,1,2,1:0:0:0:
161,128,38174,1,0,1:0:0:0:
143,150,38262,1,2,1:0:0:0:
117,160,38350,1,2,1:0:0:0:
103,151,38438,2,0,P|110:123|133:95,1,56.0999982879639,10|0,0:0|0:0,0:0:0:0:
4,21,38615,2,0,P|24:41|37:74,1,56.0999982879639,2|2,1:0|1:0,0:0:0:0:
166,0,38791,1,10,0:0:0:0:
139,7,38879,1,10,0:0:0:0:
111,5,38967,1,10,1:2:0:0:
320,0,39144,6,0,L|333:63,1,56.0999982879639,6|0,1:0|0:0,0:0:0:0:
423,189,39321,1,10,0:0:0:0:
418,200,39409,1,10,0:0:0:0:
413,211,39497,1,2,1:0:0:0:
386,227,39585,1,0,1:0:0:0:
351,226,39674,1,10,0:0:0:0:
324,208,39762,1,10,0:0:0:0:
307,182,39850,1,10,0:0:0:0:
270,161,39938,1,8,0:0:0:0:
218,158,40026,1,2,3:0:0:0:
177,193,40115,1,2,3:0:0:0:
175,248,40203,5,10,0:0:0:0:
240,233,40291,1,8,0:0:0:0:
303,219,40379,1,8,0:0:0:0:
365,206,40468,1,8,0:0:0:0:
423,189,40556,6,0,L|416:156,7,28.049999143982,2|2|2|2|2|2|2|2,1:0|1:0|1:0|1:0|1:0|1:0|1:0|1:0,0:0:0:0:
481,384,43379,6,0,P|470:370|448:359,1,32.7249990013123,2|0,1:0|0:0,0:0:0:0:
443,285,43556,2,0,P|425:282|401:290,1,32.7249990013123,0|0,1:0|0:0,0:0:0:0:
346,241,43732,2,0,P|332:251|321:274,1,32.7249990013123,2|0,1:0|0:0,0:0:0:0:
246,278,43909,2,0,P|243:295|251:319,1,32.7249990013123,0|0,1:0|0:0,0:0:0:0:
350,363,44085,6,0,P|335:352|311:347,1,32.7249990013123,2|0,1:0|0:0,0:0:0:0:
168,290,44262,2,0,P|165:307|173:331,1,32.7249990013123,2|0,1:0|0:0,0:0:0:0:
18,254,44438,6,0,P|32:243|56:238,1,32.7249990013123,2|0,1:0|0:0,0:0:0:0:
200,181,44615,2,0,P|202:198|194:222,1,32.7249990013123,2|0,1:0|0:0,0:0:0:0:
350,145,44791,6,0,P|335:134|311:129,1,32.7249990013123,2|0,1:0|0:0,0:0:0:0:
168,72,44968,2,0,P|165:89|173:113,1,32.7249990013123,2|0,1:0|0:0,0:0:0:0:
350,363,45144,6,0,P|335:352|311:347,1,32.7249990013123,2|0,1:0|0:0,0:0:0:0:
18,254,45321,2,0,P|32:243|56:238,1,32.7249990013123,2|0,1:0|0:0,0:0:0:0:
350,145,45497,5,2,3:0:0:0:
350,145,45585,1,0,3:0:0:0:
350,145,45674,6,0,P|335:134|311:129,2,32.7249990013123,0|0|0,3:0|0:0|3:0,0:0:0:0:
507,170,45850,6,0,B|479:152|494:100|494:100|458:33|367:59|367:59|398:71|413:99,1,280.5,12|0,1:2|0:0,0:0:0:0:
422,191,46203,6,0,P|440:220|467:239,1,56.0999982879639,6|0,1:0|0:0,0:0:0:0:
286,54,46379,2,0,B|239:34|211:61|211:61|191:103|148:99,1,140.25,2|0,0:0|0:0,0:0:0:0:
161,109,46556,2,0,P|177:109|188:104,1,23.375,8|0,0:0|0:0,0:0:0:0:
350,145,46732,2,0,P|366:76|392:11,1,140.250005350113,2|0,0:0|1:0,0:0:0:0:
124,7,47085,6,0,P|133:16|141:29,2,28.049999143982,2|10|2,0:0|0:0|0:0,0:0:0:0:
270,132,47615,6,0,P|259:163|252:201,1,56.0999982879639,6|0,1:0|0:0,0:0:0:0:
183,321,47791,2,0,B|184:279|228:261|228:261|270:274|302:242,1,140.25,2|0,0:0|0:0,0:0:0:0:
298,257,47968,2,0,P|287:266|273:270,1,23.375,8|0,0:0|0:0,0:0:0:0:
70,188,48144,2,0,B|59:172|25:169|25:169|73:143|106:189,1,140.250005350113,2|0,0:0|1:0,0:0:0:0:
266,349,48497,1,2,0:0:0:0:
266,349,48585,1,0,0:0:0:0:
266,349,48674,1,10,0:0:0:0:
23,247,48850,2,0,L|54:396,1,140.250005350113,2|2,0:0|1:0,0:0:0:0:
339,177,49203,6,0,B|349:168|348:150|348:150|347:166|336:176,1,56.0999982879639,2|0,0:0|0:0,0:0:0:0:
270,132,49379,2,0,L|412:101,1,140.250005350113,10|2,0:0|0:0,0:0:0:0:
478,72,49644,1,2,0:0:0:0:
478,72,49732,2,0,P|464:49|425:32,1,56.0999982879639,0|0,1:0|0:0,0:0:0:0:
200,165,49909,2,0,P|214:188|253:205,1,56.0999982879639,2|0,0:0|0:0,0:0:0:0:
365,33,50085,2,0,L|306:45,1,56.0999982879639,10|0,0:0|0:0,0:0:0:0:
201,88,50262,2,0,B|134:73|134:73|131:68|131:68|56:53,1,140.250005350113,2|6,0:0|1:0,0:0:0:0:
103,318,50615,6,0,B|146:309|182:256|124:210|102:268|122:283,1,140.25,2|0,0:0|0:0,0:0:0:0:
129,290,50791,2,0,P|151:308|162:313,1,37.4,8|0,0:0|0:0,0:0:0:0:
409,318,50968,2,0,B|366:309|330:256|388:210|410:268|390:283,1,140.25,2|0,0:0|0:0,0:0:0:0:
383,290,51144,2,0,P|361:308|350:313,1,37.4,0|0,1:0|0:0,0:0:0:0:
228,283,51321,2,0,B|255:313|258:361|258:361|260:311|289:280,1,168.299994863892,2|0,0:0|0:0,0:0:0:0:
259,210,51497,2,0,L|259:182,1,23.375,8|8,0:0|0:0,0:0:0:0:
259,23,51674,5,10,0:0:0:0:
259,23,51762,1,8,0:0:0:0:
259,23,51850,2,0,L|259:51,1,23.375,6|0,1:0|0:0,0:0:0:0:
125,116,52026,2,0,B|89:92|100:36|151:27|182:49|182:49|179:66|189:84,1,154.2750047081,2|0,0:0|0:0,0:0:0:0:
228,118,52203,2,0,P|216:129|200:134,1,32.7249990013123,8|0,0:0|0:0,0:0:0:0:
30,94,52379,2,0,L|260:44,1,233.75,2|0,0:0|1:0,0:0:0:0:
474,5,52732,6,0,L|442:-1,2,28.049999143982,2|10|2,0:0|0:0|0:0,0:0:0:0:
276,231,53262,6,0,L|276:203,1,23.375,6|0,1:0|0:0,0:0:0:0:
427,198,53438,2,0,B|449:233|416:279|366:267|347:234|347:234|356:220|355:199,1,154.2750047081,2|0,0:0|0:0,0:0:0:0:
333,154,53615,2,0,P|347:147|364:149,1,32.7249990013123,8|0,0:0|0:0,0:0:0:0:
504,256,53791,2,0,L|273:206,1,233.75,2|0,0:0|1:0,0:0:0:0:
42,375,54144,2,0,L|97:363,1,56.0999982879639,2|0,0:0|0:0,0:0:0:0:
330,320,54321,1,10,0:0:0:0:
122,152,54497,5,2,1:0:0:0:
122,152,54585,1,0,1:0:0:0:
122,152,54674,1,10,0:0:0:0:
172,384,54850,1,2,1:0:0:0:
363,149,55026,1,10,0:0:0:0:
53,232,55203,1,2,1:0:0:0:
284,384,55379,5,10,0:0:0:0:
330,320,55468,1,8,0:0:0:0:
291,254,55556,1,10,0:0:0:0:
241,239,55644,1,0,1:0:0:0:
226,215,55732,1,2,1:0:0:0:
230,198,55821,1,0,1:0:0:0:
240,188,55909,1,2,1:0:0:0:
253,187,55997,1,0,1:0:0:0:
263,192,56085,1,2,1:0:0:0:
172,384,56262,6,0,L|133:375,2,28.049999143982
484,146,56968,6,0,L|354:173,1,116.875,8|0,0:0|0:0,0:0:0:0:
54,232,57144,6,0,L|-4:244,1,56.0999982879639,12|0,0:0|0:0,0:0:0:0:
