osu file format v14

[General]
AudioFilename: audio.mp3
AudioLeadIn: 0
PreviewTime: 938
Countdown: 0
SampleSet: Soft
StackLeniency: 0.7
Mode: 0
LetterboxInBreaks: 0
WidescreenStoryboard: 0

[Editor]
DistanceSpacing: 0.1
BeatDivisor: 4
GridSize: 32
TimelineZoom: 2.3

[Metadata]
Title:B.G.M
TitleUnicode:B.G.M
Artist:Utsu-P feat. KAFU
ArtistUnicode:鬱P feat. 可不
Creator:SMOKELIND
Version:X
Source:
Tags:1/1440 Musical Isotope CeVIO AI Artificial Singing Synthesizer Kamitsubaki Studio 神椿スタジオ Japanese English Rock Youtube Shorts One Minute Minutes Boobs Girl Music BGM JRock J-Rock Mocaotic Pepekcz Zekk gazimal Nymphe Kiyoshi Guarden Kang Sae-byeok
BeatmapID:3731761
BeatmapSetID:1818864

[Difficulty]
HPDrainRate:5
CircleSize:3.8
OverallDifficulty:9
ApproachRate:9.3
SliderMultiplier:3.57
SliderTickRate:1

[Events]
//Background and Video events
Video,103,"vid.mp4"
0,0,"BG.jpg",0,0
//Break Periods
//Storyboard Layer 0 (Background)
//Storyboard Layer 1 (Fail)
//Storyboard Layer 2 (Pass)
//Storyboard Layer 3 (Foreground)
//Storyboard Layer 4 (Overlay)
//Storyboard Sound Samples

[TimingPoints]
1027,352.941176470588,4,2,77,57,1,0
1027,-129.87012987013,4,2,77,57,0,0
1291,-114.942528735632,4,2,77,5,0,0
1379,-129.87012987013,4,2,77,57,0,0
1644,-114.942528735632,4,2,77,5,0,0
1732,-129.87012987013,4,2,77,57,0,0
3409,-114.942528735632,4,2,77,5,0,0
3496,-129.87012987013,4,2,77,57,0,0
3762,-114.942528735632,4,2,77,5,0,0
3850,-129.87012987013,4,2,77,57,0,0
4821,-114.942528735632,4,2,77,5,0,0
4909,-129.87012987013,4,2,77,57,0,0
5174,-114.942528735632,4,2,77,5,0,0
5262,-114.942528735632,4,2,77,57,0,0
5394,-114.942528735632,4,2,77,5,0,0
5438,-103.092783505155,4,2,77,67,0,0
5526,-114.942528735632,4,2,77,5,0,0
5615,-93.4579439252337,4,2,77,77,0,0
5747,-93.4579439252337,4,2,77,5,0,0
5791,-85.4700854700855,4,2,77,87,0,0
5879,-114.942528735632,4,2,77,5,0,0
5968,-175.438596491228,4,2,77,87,0,0
6262,-114.942528735632,4,2,77,5,0,0
6321,-175.438596491228,4,2,77,87,0,0
6438,-114.942528735632,4,2,77,5,0,0
6497,-175.438596491228,4,2,77,87,0,0
6615,-114.942528735632,4,2,77,5,0,0
6674,-85.4700854700855,4,2,77,97,0,0
6982,-85.4700854700855,4,2,77,5,0,0
7026,-212.765957446809,4,2,77,97,0,0
7379,-85.4700854700855,4,2,77,97,0,0
7732,-212.765957446809,4,2,77,97,0,0
8085,-85.4700854700855,4,2,77,97,0,0
8217,-85.4700854700855,4,2,77,5,0,0
8262,-85.4700854700855,4,2,77,97,0,0
8570,-85.4700854700855,4,2,77,5,0,0
8615,-85.4700854700855,4,2,77,97,0,0
9144,-212.765957446809,4,2,77,97,0,0
9497,-85.4700854700855,4,2,77,97,0,0
9629,-85.4700854700855,4,2,77,5,0,0
9674,-85.4700854700855,4,2,77,97,0,0
9982,-85.4700854700855,4,2,77,5,0,0
10027,-85.4700854700855,4,2,77,97,0,0
10335,-85.4700854700855,4,2,77,5,0,0
10380,-85.4700854700855,4,2,77,97,0,0
11791,-129.87012987013,4,2,77,97,0,0
11923,-129.87012987013,4,2,77,5,0,0
11968,-68.0272108843537,4,2,77,97,0,0
12321,-85.4700854700855,4,2,77,97,0,0
14570,-85.4700854700855,4,2,77,5,0,0
14615,-175.438596491228,4,2,77,97,0,0
14747,-175.438596491228,4,2,77,5,0,0
14791,-85.4700854700855,4,2,77,97,0,0
14923,-85.4700854700855,4,2,77,5,0,0
14968,-85.4700854700855,4,2,77,97,0,0
15100,-85.4700854700855,4,2,77,5,0,0
15144,-85.4700854700855,4,2,77,97,0,0
16556,-175.438596491228,4,2,77,97,0,0
16644,-114.942528735632,4,2,77,5,0,0
16732,-175.438596491228,4,2,77,97,0,0
16821,-114.942528735632,4,2,77,5,0,0
16909,-175.438596491228,4,2,77,97,0,0
16997,-114.942528735632,4,2,77,5,0,0
17085,-175.438596491228,4,2,77,97,0,0
17174,-114.942528735632,4,2,77,5,0,0
17262,-149.253731343284,4,2,77,97,0,0
17570,-149.253731343284,4,2,77,5,0,0
17615,-85.4700854700855,4,2,77,97,0,0
17659,-85.4700854700855,4,2,77,5,0,0
17968,-68.0272108843537,4,2,77,97,0,0
18100,-68.0272108843537,4,2,77,5,0,0
18144,-68.0272108843537,4,2,77,97,0,0
18276,-68.0272108843537,4,2,77,5,0,0
18321,-68.0272108843537,4,2,77,97,0,0
18497,-175.438596491228,4,2,77,97,0,0
18850,-68.0272108843537,4,2,77,97,0,0
18982,-68.0272108843537,4,2,77,5,0,0
19026,-68.0272108843537,4,2,77,97,0,0
19158,-68.0272108843537,4,2,77,5,0,0
19203,-68.0272108843537,4,2,77,97,0,0
19511,-68.0272108843537,4,2,77,5,0,0
19556,-68.0272108843537,4,2,77,97,0,0
19688,-68.0272108843537,4,2,77,5,0,0
19732,-68.0272108843537,4,2,77,97,0,0
19909,-175.438596491228,4,2,77,97,0,0
20262,-68.0272108843537,4,2,77,97,0,0
21100,-68.0272108843537,4,2,77,5,0,0
21144,-68.0272108843537,4,2,77,97,0,0
22511,-68.0272108843537,4,2,77,5,0,0
22556,-68.0272108843537,4,2,77,97,0,0
22864,-68.0272108843537,4,2,77,5,0,0
22909,-68.0272108843537,4,2,77,97,0,0
23615,-68.0272108843537,4,2,77,97,0,0
23747,-68.0272108843537,4,2,77,5,0,0
23791,-68.0272108843537,4,2,77,97,0,0
23923,-68.0272108843537,4,2,77,5,0,0
23968,-68.0272108843537,4,2,77,97,0,0
24144,-175.438596491228,4,2,77,97,0,0
24497,-68.0272108843537,4,2,77,97,0,0
24629,-68.0272108843537,4,2,77,5,0,0
24674,-68.0272108843537,4,2,77,97,0,0
24806,-68.0272108843537,4,2,77,5,0,0
24850,-68.0272108843537,4,2,77,97,0,0
24982,-68.0272108843537,4,2,77,5,0,0
25026,-68.0272108843537,4,2,77,97,0,0
25158,-68.0272108843537,4,2,77,5,0,0
25203,-68.0272108843537,4,2,77,97,0,0
25335,-68.0272108843537,4,2,77,5,0,0
25379,-68.0272108843537,4,2,77,97,0,0
25556,-175.438596491228,4,2,77,97,0,0
25909,-68.0272108843537,4,2,77,97,0,0
26041,-68.0272108843537,4,2,77,5,0,0
26085,-68.0272108843537,4,2,77,97,0,0
26217,-68.0272108843537,4,2,77,5,0,0
26262,-68.0272108843537,4,2,77,97,0,0
26747,-68.0272108843537,4,2,77,5,0,0
26791,-68.0272108843537,4,2,77,97,0,0
26923,-68.0272108843537,4,2,77,5,0,0
26968,-68.0272108843537,4,2,77,97,0,0
27806,-68.0272108843537,4,2,77,5,0,0
27850,-93.4579439252336,4,2,77,97,0,0
27894,-93.4579439252336,4,2,77,5,0,0
28203,-93.4579439252336,4,2,77,97,0,0
29262,-85.4700854700855,4,2,77,97,0,0
29394,-85.4700854700855,4,2,77,5,0,0
29438,-85.4700854700855,4,2,77,97,0,0
37864,-85.4700854700855,4,2,77,5,0,0
37909,-85.4700854700855,4,2,77,97,0,0
40556,-129.87012987013,4,2,77,57,0,0
40821,-114.942528735632,4,2,77,5,0,0
40909,-129.87012987013,4,2,77,57,0,0
41174,-114.942528735632,4,2,77,5,0,0
41262,-129.87012987013,4,2,77,57,0,0
42938,-114.942528735632,4,2,77,5,0,0
43026,-129.87012987013,4,2,77,57,0,0
43291,-114.942528735632,4,2,77,5,0,0
43379,-129.87012987013,4,2,77,57,0,0
44350,-114.942528735632,4,2,77,5,0,0
44438,-129.87012987013,4,2,77,57,0,0
44703,-114.942528735632,4,2,77,5,0,0
44791,-114.942528735632,4,2,77,57,0,0
44923,-114.942528735632,4,2,77,5,0,0
44967,-103.092783505155,4,2,77,67,0,0
45056,-114.942528735632,4,2,77,5,0,0
45144,-93.4579439252337,4,2,77,77,0,0
45276,-93.4579439252337,4,2,77,5,0,0
45320,-85.4700854700855,4,2,77,87,0,0
45409,-114.942528735632,4,2,77,5,0,0
45497,-85.4700854700855,4,2,77,87,0,0
46203,-68.0272108843537,4,2,77,97,0,0
46335,-68.0272108843537,4,2,77,5,0,0
46379,-68.0272108843537,4,2,77,97,0,0
46511,-68.0272108843537,4,2,77,5,0,0
46556,-68.0272108843537,4,2,77,97,0,0
46732,-175.438596491228,4,2,77,97,0,0
47085,-68.0272108843537,4,2,77,97,0,0
47923,-68.0272108843537,4,2,77,5,0,0
47967,-68.0272108843537,4,2,77,97,0,0
48144,-175.438596491228,4,2,77,97,0,0
48497,-68.0272108843537,4,2,77,97,0,0
48629,-68.0272108843537,4,2,77,5,0,0
48674,-68.0272108843537,4,2,77,97,0,0
48806,-68.0272108843537,4,2,77,5,0,0
48850,-68.0272108843537,4,2,77,97,0,0
48982,-68.0272108843537,4,2,77,5,0,0
49026,-68.0272108843537,4,2,77,97,0,0
49335,-68.0272108843537,4,2,77,5,0,0
49379,-68.0272108843537,4,2,77,97,0,0
50747,-68.0272108843537,4,2,77,5,0,0
50791,-68.0272108843537,4,2,77,97,0,0
51100,-68.0272108843537,4,2,77,5,0,0
51144,-68.0272108843537,4,2,77,97,0,0
51629,-68.0272108843537,4,2,77,5,0,0
51673,-68.0272108843537,4,2,77,97,0,0
51850,-68.0272108843537,4,2,77,97,0,0
51982,-68.0272108843537,4,2,77,5,0,0
52026,-68.0272108843537,4,2,77,97,0,0
52158,-68.0272108843537,4,2,77,5,0,0
52203,-68.0272108843537,4,2,77,97,0,0
52379,-175.438596491228,4,2,77,97,0,0
52732,-68.0272108843537,4,2,77,97,0,0
52864,-68.0272108843537,4,2,77,5,0,0
52909,-68.0272108843537,4,2,77,97,0,0
53041,-68.0272108843537,4,2,77,5,0,0
53085,-68.0272108843537,4,2,77,97,0,0
53217,-68.0272108843537,4,2,77,5,0,0
53262,-68.0272108843537,4,2,77,97,0,0
53570,-68.0272108843537,4,2,77,5,0,0
53614,-68.0272108843537,4,2,77,97,0,0
53791,-175.438596491228,4,2,77,97,0,0
54144,-68.0272108843537,4,2,77,97,0,0
54982,-68.0272108843537,4,2,77,5,0,0
55026,-68.0272108843537,4,2,77,97,0,0
55158,-68.0272108843537,4,2,77,5,0,0
55203,-68.0272108843537,4,2,77,97,0,0
55909,-129.87012987013,4,2,77,97,0,0

[Colours]
Combo1 : 164,255,255
Combo2 : 255,0,128

[HitObjects]
142,57,1027,6,0,L|364:84,1,206.167495910374,2|0,1:0|0:0,0:0:0:0:
331,160,1379,2,0,L|126:134,1,206.167495910374,2|0,1:0|0:0,0:0:0:0:
247,39,1732,5,2,1:0:0:0:
227,177,1909,1,2,0:0:0:0:
460,33,2085,1,2,1:0:0:0:
460,33,2438,5,2,1:0:0:0:
438,114,2615,1,2,0:0:0:0:
484,177,2791,5,2,1:0:0:0:
389,0,2968,1,2,0:0:0:0:
240,180,3144,6,0,L|267:402,1,206.167495910374,2|0,1:0|0:0,0:0:0:0:
343,369,3497,2,0,L|317:164,1,206.167495910374,2|0,1:0|0:0,0:0:0:0:
244,96,3849,5,2,1:0:0:0:
170,77,4026,1,0,1:0:0:0:
366,77,4203,5,2,1:0:0:0:
440,58,4380,1,0,1:0:0:0:
442,224,4556,5,2,1:0:0:0:
320,3,4732,2,0,P|363:-9|399:16,1,68.7224986367913,2|0,1:0|0:0,0:0:0:0:
118,227,4909,5,2,1:0:0:0:
240,6,5085,2,0,P|197:-6|161:19,1,68.7224986367913,2|0,1:0|1:0,0:0:0:0:
317,247,5262,6,0,P|369:216|368:143,1,116.471250977466,2|0,1:0|0:0,0:0:0:0:
456,136,5438,2,0,P|435:78|379:61,1,86.5725020475369,2|0,1:0|0:0,0:0:0:0:
298,368,5615,6,0,P|236:350|218:275,1,143.246245628472,2|0,1:0|0:0,0:0:0:0:
126,290,5791,2,0,P|131:225|185:194,1,104.42250039834,2|0,1:0|0:0,0:0:0:0:
252,193,5968,5,10,0:2:0:0:
162,98,6144,6,0,P|136:115|90:112,1,67.8299991719971,0|0,3:0|0:0,0:0:0:0:
0,9,6321,6,0,P|28:22|50:62,1,67.8299991719971,0|0,3:0|0:0,0:0:0:0:
4,197,6497,6,0,P|0:166|22:126,1,67.8299991719971,0|0,3:0|0:0,0:0:0:0:
50,99,6674,6,0,B|135:66|206:158|206:158|278:249|365:219,1,365.478751394191,6|0,1:0|0:0,0:0:0:0:
441,153,7026,6,0,B|445:136|445:136|425:131|421:148|417:164|436:169|436:169|456:174|460:157|464:141|445:136|445:136,1,125.842498079796,10|0,0:0|0:0,0:0:0:0:
512,304,7379,2,0,P|482:269|417:279,1,104.42250039834,2|0,1:0|0:0,0:0:0:0:
254,365,7556,2,0,P|299:358|325:297,1,104.42250039834,2|0,0:0|0:0,0:0:0:0:
249,134,7732,6,0,B|244:117|244:117|264:112|268:129|272:145|253:150|253:150|233:155|229:138|225:122|244:117|244:117,1,125.842498079796,10|0,0:0|0:0,0:0:0:0:
23,238,8085,2,0,B|83:254|101:294|179:298,1,156.63375059751,2|0,1:0|0:0,0:0:0:0:
173,286,8262,2,0,P|114:296|60:317,1,104.42250039834,2|0,0:0|0:0,0:0:0:0:
362,208,8438,2,0,P|398:123|386:39,1,156.63375059751,10|0,0:0|0:0,0:0:0:0:
380,57,8615,2,0,P|361:109|365:159,1,104.42250039834,2|0,0:0|0:0,0:0:0:0:
455,218,8791,1,2,1:0:0:0:
185,88,8968,1,2,0:0:0:0:
250,189,9144,6,0,B|265:181|265:181|256:163|241:171|226:178|236:196|236:196|244:214|259:206|274:198|265:181|265:181,1,125.842498079796,10|2,0:0|0:0,0:0:0:0:
134,314,9497,6,0,P|90:244|14:193,1,156.63375059751,2|0,1:0|0:0,0:0:0:0:
20,207,9674,2,0,P|41:259|83:272,1,104.42250039834,2|0,0:0|0:0,0:0:0:0:
293,43,9850,6,0,P|256:117|253:208,1,156.63375059751,10|0,0:0|0:0,0:0:0:0:
262,196,10027,2,0,P|294:150|283:108,1,104.42250039834,2|0,0:0|0:0,0:0:0:0:
353,315,10203,6,0,P|435:306|514:260,1,156.63375059751,2|0,1:0|0:0,0:0:0:0:
499,260,10380,2,0,P|443:256|412:288,1,104.42250039834,2|0,0:0|0:0,0:0:0:0:
250,354,10556,5,10,0:2:0:0:
261,292,10644,1,2,3:2:0:0:
272,230,10732,1,2,3:2:0:0:
279,188,10821,1,2,3:2:0:0:
282,167,10909,1,2,1:2:0:0:
20,194,11085,6,0,P|72:207|136:231,1,104.42250039834,2|0,0:0|0:0,0:0:0:0:
349,289,11262,1,10,0:0:0:0:
256,87,11438,1,10,0:0:0:0:
207,105,11526,1,10,0:0:0:0:
198,157,11615,1,2,1:0:0:0:
400,222,11791,6,0,B|475:210|475:210|478:204|478:204|449:209,1,103.083747955187,0|0,1:0|0:0,0:0:0:0:
386,210,11968,6,0,B|354:178|304:186|271:244|271:244|290:334|218:375|138:354|121:274,1,393.592481682479,14|0,0:2|0:0,0:0:0:0:
45,26,12321,6,0,P|95:54|84:92,1,104.42250039834,2|0,1:0|0:0,0:0:0:0:
37,207,12497,1,2,0:0:0:0:
97,190,12585,1,2,0:0:0:0:
158,173,12674,1,10,0:0:0:0:
393,126,12850,1,2,0:0:0:0:
354,58,13026,6,0,P|304:86|315:124,1,104.42250039834,2|0,1:0|0:0,0:0:0:0:
362,239,13202,1,2,0:0:0:0:
302,222,13290,1,2,0:0:0:0:
241,205,13379,1,10,0:0:0:0:
224,122,13556,1,2,0:0:0:0:
431,302,13732,6,0,P|463:238|431:174,1,104.42250039834,2|0,1:0|0:0,0:0:0:0:
252,49,13909,1,2,0:0:0:0:
274,107,13997,1,2,0:0:0:0:
336,113,14085,1,10,0:0:0:0:
339,26,14262,5,2,0:0:0:0:
207,189,14438,2,0,P|132:205|12:239,1,156.63375059751,2|0,1:0|0:0,0:0:0:0:
54,225,14615,2,0,P|97:234|117:269,1,76.3087490684967,2|0,0:0|0:0,0:0:0:0:
74,324,14791,6,0,P|133:308|241:294,1,156.63375059751,10|0,0:0|0:0,0:0:0:0:
227,294,14968,2,0,P|304:284|380:264,1,156.63375059751,2|0,0:0|0:0,0:0:0:0:
438,201,15144,6,0,P|449:145|419:108,1,104.42250039834,2|0,1:0|0:0,0:0:0:0:
209,129,15321,1,2,0:0:0:0:
265,155,15409,1,2,0:0:0:0:
304,203,15497,1,10,0:0:0:0:
326,83,15674,5,2,1:0:0:0:
195,230,15850,2,0,P|139:241|102:211,1,104.42250039834,2|0,1:0|0:0,0:0:0:0:
101,8,16026,2,0,P|140:49|134:96,1,104.42250039834,2|0,1:0|0:0,0:0:0:0:
12,167,16203,5,10,0:0:0:0:
20,126,16291,1,8,0:0:0:0:
250,204,16556,6,0,P|254:177|260:150,1,50.8724993789978,2|0,3:0|0:0,0:0:0:0:
317,270,16732,2,0,P|312:296|307:324,1,50.8724993789978,2|0,3:0|0:0,0:0:0:0:
387,214,16909,6,0,P|391:187|397:160,1,50.8724993789978,2|0,3:0|0:0,0:0:0:0:
464,269,17085,2,0,P|459:295|454:323,1,50.8724993789978,2|0,3:0|0:0,0:0:0:0:
512,209,17262,6,0,L|298:246,1,209.291240100054,2|0,3:0|0:0,0:0:0:0:
289,242,17615,6,0,L|340:232,1,52.2112501991701,8|0,0:0|0:0,0:0:0:0:
76,130,17968,6,0,B|96:83|100:32|100:32|155:54|197:56,1,196.796240841239,6|0,1:0|0:0,0:0:0:0:
241,133,18144,2,0,B|220:179|216:230|216:230|161:208|119:206,1,196.796240841239,2|0,0:0|0:0,0:0:0:0:
159,130,18321,5,8,0:0:0:0:
455,325,18497,2,0,B|475:329|475:329|480:304|460:300|441:295|434:318|434:318|429:342|449:347|468:351|475:329|475:329,1,152.617498136993,2|0,0:0|0:0,0:0:0:0:
462,123,18850,6,0,B|487:72|436:22|436:22|462:72|436:123,1,196.796240841239,2|0,0:0|0:0,0:0:0:0:
369,198,19026,2,0,B|403:242|470:219|470:219|414:220|380:175,1,196.796240841239,10|0,0:0|0:0,0:0:0:0:
352,80,19203,1,2,0:0:0:0:
244,214,19379,6,0,B|226:241|215:274|215:274|151:256|65:244,1,196.796240841239,6|0,1:0|0:0,0:0:0:0:
65,152,19556,2,0,B|83:125|94:92|94:92|158:110|244:122,1,196.796240841239,2|0,0:0|0:0,0:0:0:0:
300,145,19732,5,8,0:0:0:0:
25,325,19909,2,0,B|4:329|4:329|0:304|19:300|38:295|45:318|45:318|50:342|30:347|11:351|4:329|4:329,1,152.617498136993,2|0,0:0|0:0,0:0:0:0:
247,232,20262,6,0,P|311:246|321:307,1,131.19749389416,2|0,0:0|0:0,0:0:0:0:
125,135,20438,2,0,P|102:73|149:32,1,131.19749389416,10|0,0:0|0:0,0:0:0:0:
122,288,20615,2,0,P|81:339|22:321,1,131.19749389416,2|0,0:0|0:0,0:0:0:0:
164,212,20791,5,2,1:0:0:0:
441,361,20968,2,0,B|447:275|466:236|469:150,1,196.796240841239,2|0,0:0|0:0,0:0:0:0:
457,160,21144,2,0,P|450:230|438:300,1,131.19749389416,10|0,0:0|0:0,0:0:0:0:
247,21,21321,1,2,0:0:0:0:
251,34,21409,2,0,B|311:51|324:88|376:94,1,131.19749389416,2|0,0:0|1:0,0:0:0:0:
461,57,21585,1,0,0:0:0:0:
457,70,21673,2,0,B|397:87|384:124|332:130,1,131.19749389416,2|0,0:0|0:0,0:0:0:0:
180,203,21850,1,10,0:0:0:0:
239,117,22026,5,2,0:0:0:0:
251,168,22114,1,0,0:0:0:0:
281,210,22203,1,6,1:0:0:0:
189,49,22379,6,0,P|50:5|-6:0,1,196.796240841239,2|0,0:0|0:0,0:0:0:0:
4,11,22556,2,0,P|73:20|137:39,1,131.19749389416,8|0,0:0|0:0,0:0:0:0:
318,278,22732,6,0,P|457:234|513:229,1,196.796240841239,2|0,0:0|0:0,0:0:0:0:
503,240,22909,2,0,P|434:249|370:268,1,131.19749389416,0|0,1:0|0:0,0:0:0:0:
113,308,23085,2,0,B|62:354|-47:311|-39:210|53:187|69:249,1,262.394987788319,2|8,0:0|0:0,0:0:0:0:
121,320,23438,5,10,0:0:0:0:
189,357,23526,1,8,0:0:0:0:
254,312,23615,2,0,P|269:197|289:88,1,196.796240841239,6|0,1:0|0:0,0:0:0:0:
294,111,23791,2,0,P|277:207|264:305,1,196.796240841239,2|0,0:0|0:0,0:0:0:0:
274,314,23968,5,8,0:0:0:0:
60,93,24144,2,0,B|39:89|39:89|35:114|54:118|73:123|80:100|80:100|85:76|65:71|46:67|39:89|39:89,1,152.617498136993,2|0,0:0|0:0,0:0:0:0:
354,346,24497,6,0,P|415:294|414:176,1,196.796240841239,2|0,0:0|0:0,0:0:0:0:
503,182,24674,2,0,P|466:110|350:85,1,196.796240841239,10|0,0:0|0:0,0:0:0:0:
376,0,24850,2,0,P|298:19|247:126,1,196.796240841239,2|0,0:0|0:0,0:0:0:0:
322,196,25026,6,0,B|258:164|194:260|98:228,1,196.796240841239,6|0,1:0|0:0,0:0:0:0:
57,184,25203,2,0,B|121:152|185:248|281:216,1,196.796240841239,2|0,0:0|0:0,0:0:0:0:
322,196,25379,5,8,0:0:0:0:
52,338,25556,2,0,B|48:359|48:359|73:363|77:344|82:325|59:318|59:318|35:313|30:333|26:352|48:359|48:359,1,152.617498136993,2|0,0:0|0:0,0:0:0:0:
313,190,25909,6,0,B|369:208|428:181|428:181|393:205|375:243,1,196.796240841239,2|0,0:0|0:0,0:0:0:0:
300,274,26085,2,0,B|243:255|184:282|184:282|219:258|237:220,1,196.796240841239,10|0,0:0|0:0,0:0:0:0:
241,145,26262,5,2,1:0:0:0:
222,95,26350,1,0,1:0:0:0:
204,45,26438,1,10,0:0:0:0:
14,290,26615,2,0,B|34:305|69:301|81:245|81:245|92:189|128:184|148:200,1,196.796240841239,2|0,1:0|0:0,0:0:0:0:
146,219,26791,2,0,B|125:234|90:230|78:174|78:174|67:118|31:113|11:129,1,196.796240841239,10|0,0:0|0:0,0:0:0:0:
5,208,26968,5,2,1:0:0:0:
200,67,27144,1,10,0:0:0:0:
272,26,27232,1,8,0:0:0:0:
343,59,27321,1,10,0:0:0:0:
348,70,27409,1,0,1:0:0:0:
351,82,27497,1,2,1:0:0:0:
300,337,27674,2,0,P|276:251|274:110,1,196.796240841239,2|0,1:0|0:0,0:0:0:0:
270,131,27850,6,0,L|256:183,1,47.7487485428238,10|0,0:0|0:0,0:0:0:0:
57,317,28203,5,8,0:2:0:0:
57,317,28380,1,8,0:2:0:0:
455,67,28732,5,10,0:2:0:0:
455,67,28909,1,10,0:2:0:0:
253,271,29262,6,0,B|252:237|261:204|261:204|246:185|246:185|254:153|254:119,1,156.63375059751,6|0,1:0|0:0,0:0:0:0:
202,48,29438,1,2,0:0:0:0:
167,87,29526,1,2,0:0:0:0:
175,128,29615,1,2,1:0:0:0:
333,251,29791,5,2,0:0:0:0:
373,241,29879,1,2,0:0:0:0:
414,231,29968,1,10,0:0:0:0:
233,357,30144,1,2,0:0:0:0:
54,229,30321,5,2,1:0:0:0:
67,167,30409,1,2,1:0:0:0:
80,105,30497,1,2,1:0:0:0:
388,124,30674,5,2,1:0:0:0:
326,137,30762,1,2,1:0:0:0:
264,150,30850,2,0,P|214:158|142:174,1,104.42250039834,2|0,1:0|1:0,0:0:0:0:
335,318,31026,5,2,1:0:0:0:
281,61,31203,1,2,1:0:0:0:
335,327,31379,5,10,0:0:0:0:
338,274,31467,1,8,0:0:0:0:
341,222,31555,1,10,0:0:0:0:
345,170,31643,1,8,0:0:0:0:
348,118,31731,1,2,1:0:0:0:
441,247,31909,5,2,1:0:0:0:
202,73,32085,2,0,B|101:120|119:-22|19:24,1,208.84500079668,4|2,1:0|0:0,0:0:0:0:
12,152,32350,1,2,0:0:0:0:
17,143,32438,2,0,P|77:130|100:159,1,104.42250039834,2|0,1:0|0:0,0:0:0:0:
162,277,32615,2,0,P|198:310|244:292,1,104.42250039834,2|0,0:0|0:0,0:0:0:0:
315,151,32791,6,0,P|186:177|1:238,1,313.267501195021,10|0,0:0|0:0,0:0:0:0:
220,140,33144,1,2,1:0:0:0:
238,80,33232,1,0,1:0:0:0:
205,25,33321,1,2,1:0:0:0:
393,214,33497,6,0,P|396:159|411:99,1,104.42250039834,6|0,1:0|0:0,0:0:0:0:
286,263,33674,1,2,1:0:0:0:
226,280,33762,1,2,1:0:0:0:
169,307,33850,1,2,1:0:0:0:
245,366,34026,1,2,1:0:0:0:
31,285,34203,5,10,0:0:0:0:
40,233,34291,1,8,0:0:0:0:
49,182,34379,1,10,0:0:0:0:
56,130,34467,1,2,1:0:0:0:
62,78,34555,1,6,1:0:0:0:
177,175,34732,1,0,1:0:0:0:
256,91,34909,5,2,3:0:0:0:
334,118,35085,5,2,3:0:0:0:
407,77,35262,5,2,3:0:0:0:
468,133,35438,5,2,3:0:0:0:
243,0,35615,6,0,P|202:179|176:321,1,313.267501195021,14|2,0:0|0:0,0:0:0:0:
136,102,35968,5,2,1:0:0:0:
131,50,36056,1,2,1:0:0:0:
81,34,36144,2,0,P|27:49|24:93,1,104.42250039834,2|0,1:0|0:0,0:0:0:0:
235,182,36321,5,2,1:0:0:0:
281,205,36409,1,2,1:0:0:0:
321,171,36497,2,0,P|336:117|301:91,1,104.42250039834,2|0,1:0|0:0,0:0:0:0:
114,214,36674,5,2,1:0:0:0:
70,240,36762,1,2,1:0:0:0:
77,292,36850,2,0,P|114:333|155:317,1,104.42250039834,2|0,1:0|0:0,0:0:0:0:
424,157,37026,5,10,0:0:0:0:
430,104,37115,1,2,1:0:0:0:
437,52,37203,1,2,1:0:0:0:
56,157,37379,5,10,0:0:0:0:
50,104,37468,1,2,1:0:0:0:
43,52,37556,1,2,1:0:0:0:
260,246,37732,2,0,P|351:273|406:312,1,156.63375059751,4|0,1:0|0:0,0:0:0:0:
451,230,37909,5,10,0:0:0:0:
399,234,37997,1,2,1:0:0:0:
352,257,38085,1,2,1:0:0:0:
127,361,38262,5,2,1:0:0:0:
179,357,38350,1,2,1:0:0:0:
226,334,38438,1,10,0:0:0:0:
270,130,38615,5,2,1:0:0:0:
264,139,38703,1,2,1:0:0:0:
262,150,38791,1,10,0:0:0:0:
219,207,38879,1,10,0:0:0:0:
149,211,38967,1,10,1:2:0:0:
57,40,39144,5,6,1:0:0:0:
192,298,39321,1,10,0:0:0:0:
241,315,39409,1,10,0:0:0:0:
292,321,39497,2,0,P|346:299|401:283,1,104.42250039834,2|0,1:0|0:0,0:0:0:0:
409,51,39674,1,10,0:0:0:0:
368,83,39762,1,10,0:0:0:0:
336,123,39850,2,0,P|326:180|310:235,1,104.42250039834,10|8,0:0|0:0,0:0:0:0:
92,372,40026,1,2,3:0:0:0:
79,362,40114,1,2,3:0:0:0:
59,344,40203,5,10,0:0:0:0:
55,281,40291,1,8,0:0:0:0:
49,218,40379,1,8,0:0:0:0:
40,157,40467,1,8,0:0:0:0:
34,94,40556,6,0,L|259:103,1,206.167495910374,2|0,1:0|0:0,0:0:0:0:
250,25,40909,2,0,L|24:15,1,206.167495910374,2|0,1:0|0:0,0:0:0:0:
152,56,41262,5,2,1:0:0:0:
321,163,41438,1,2,0:0:0:0:
155,243,41615,1,2,1:0:0:0:
155,243,41968,5,2,1:0:0:0:
222,287,42144,1,2,0:0:0:0:
280,229,42321,5,2,1:0:0:0:
73,284,42497,1,2,0:0:0:0:
386,358,42674,6,0,L|395:132,1,206.167495910374,2|0,1:0|0:0,0:0:0:0:
317,142,43027,2,0,L|307:367,1,206.167495910374,2|0,1:0|0:0,0:0:0:0:
364,68,43379,5,2,1:0:0:0:
286,40,43556,1,0,1:0:0:0:
152,207,43732,5,2,1:0:0:0:
230,179,43909,1,0,1:0:0:0:
29,54,44085,5,2,1:0:0:0:
50,264,44262,2,0,L|44:182,1,68.7224986367913,2|0,1:0|0:0,0:0:0:0:
483,54,44438,5,2,1:0:0:0:
462,264,44615,2,0,L|468:182,1,68.7224986367913,2|0,1:0|0:0,0:0:0:0:
146,348,44791,6,0,L|136:214,1,116.471250977466,2|0,1:0|0:0,0:0:0:0:
145,223,44968,2,0,L|138:132,1,86.5725020475369,2|0,1:0|0:0,0:0:0:0:
365,360,45144,6,0,L|377:200,1,143.246245628472,2|0,1:0|0:0,0:0:0:0:
367,210,45321,2,0,L|375:101,1,104.42250039834,2|0,1:0|0:0,0:0:0:0:
256,27,45497,5,2,3:0:0:0:
256,37,45585,1,0,3:0:0:0:
256,47,45673,1,0,3:0:0:0:
256,58,45761,1,0,3:0:0:0:
256,68,45849,1,12,1:2:0:0:
370,138,46203,6,0,B|351:123|351:123|374:104|376:54|376:54|390:102|416:115|416:115|402:134,1,196.796240841239,6|0,1:0|0:0,0:0:0:0:
409,213,46379,2,0,B|427:227|427:227|404:246|402:296|402:296|388:248|362:235|362:235|376:216,1,196.796240841239,2|0,0:0|0:0,0:0:0:0:
482,166,46556,5,8,0:0:0:0:
85,305,46732,2,0,B|64:307|64:307|61:282|81:279|101:276|106:299|106:299|109:323|89:327|70:330|64:307|64:307,1,152.617498136993,2|0,0:0|0:0,0:0:0:0:
343,33,47085,6,0,P|286:59|214:82,1,131.19749389416,2|0,0:0|0:0,0:0:0:0:
427,279,47262,2,0,P|435:216|453:143,1,131.19749389416,10|0,0:0|0:0,0:0:0:0:
173,221,47438,2,0,P|221:260|273:315,1,131.19749389416,2|0,0:0|0:0,0:0:0:0:
322,169,47615,5,6,1:0:0:0:
0,78,47791,2,0,P|98:48|198:5,1,196.796240841239,2|0,0:0|0:0,0:0:0:0:
194,7,47967,5,8,0:0:0:0:
30,196,48144,2,0,B|26:217|26:217|51:221|55:202|60:183|37:176|37:176|13:171|8:191|4:210|26:217|26:217,1,152.617498136993,2|0,0:0|0:0,0:0:0:0:
267,343,48497,6,0,P|343:331|279:270,1,196.796240841239,2|0,0:0|0:0,0:0:0:0:
293,270,48674,2,0,P|247:207|223:292,1,196.796240841239,10|0,0:0|0:0,0:0:0:0:
214,284,48850,2,0,P|185:355|270:331,1,196.796240841239,2|0,0:0|0:0,0:0:0:0:
255,298,49026,5,2,1:0:0:0:
408,187,49203,2,0,B|427:98|461:90|461:90|476:48|476:48|452:79|421:80,1,196.796240841239,2|0,0:0|0:0,0:0:0:0:
413,0,49379,2,0,P|349:-8|297:59,1,131.19749389416,10|0,0:0|0:0,0:0:0:0:
147,195,49556,1,2,0:0:0:0:
222,211,49644,2,0,P|262:160|233:81,1,131.19749389416,2|0,0:0|1:0,0:0:0:0:
90,0,49820,1,0,0:0:0:0:
97,10,49909,2,0,P|164:14|231:26,1,131.19749389416,2|0,0:0|0:0,0:0:0:0:
26,210,50085,1,10,0:0:0:0:
88,267,50262,5,2,0:0:0:0:
112,220,50350,1,0,0:0:0:0:
99,169,50438,1,6,1:0:0:0:
224,224,50615,6,0,P|320:192|416:256,1,196.796240841239,2|0,0:0|0:0,0:0:0:0:
400,233,50791,2,0,B|416:265|398:302|398:302|432:265|416:233,1,131.19749389416,8|0,0:0|0:0,0:0:0:0:
485,85,50968,6,0,P|389:53|293:117,1,196.796240841239,2|0,0:0|0:0,0:0:0:0:
309,94,51144,2,0,B|293:126|311:163|311:163|277:126|293:94,1,131.19749389416,0|0,1:0|0:0,0:0:0:0:
387,17,51321,5,2,0:0:0:0:
53,158,51497,2,0,P|120:188|178:97,1,196.796240841239,8|0,0:0|0:0,0:0:0:0:
185,89,51673,5,10,0:0:0:0:
207,168,51761,1,8,0:0:0:0:
221,251,51850,2,0,P|300:262|432:311,1,196.796240841239,6|0,1:0|0:0,0:0:0:0:
412,291,52026,2,0,P|319:257|222:242,1,196.796240841239,2|0,0:0|0:0,0:0:0:0:
213,254,52203,5,8,0:0:0:0:
439,135,52379,2,0,B|443:114|443:114|418:110|414:129|409:148|432:155|432:155|456:160|461:140|465:121|443:114|443:114,1,152.617498136993,2|0,0:0|0:0,0:0:0:0:
32,158,52732,6,0,P|95:126|127:222,1,196.796240841239,2|0,0:0|0:0,0:0:0:0:
128,220,52909,2,0,P|141:306|225:281,1,196.796240841239,10|0,0:0|0:0,0:0:0:0:
224,281,53085,2,0,P|307:256|321:342,1,196.796240841239,2|0,0:0|0:0,0:0:0:0:
314,351,53262,5,6,1:0:0:0:
511,84,53438,2,0,B|408:49|442:186|339:152,1,196.796240841239,2|0,0:0|0:0,0:0:0:0:
340,140,53614,5,8,0:0:0:0:
51,46,53791,2,0,B|55:25|55:25|30:21|26:40|21:59|44:66|44:66|68:71|73:51|77:32|55:25|55:25,1,152.617498136993,2|0,0:0|0:0,0:0:0:0:
294,240,54144,6,0,P|364:255|421:270,1,131.19749389416,2|0,0:0|0:0,0:0:0:0:
127,208,54321,2,0,P|57:193|0:177,1,131.19749389416,10|0,0:0|0:0,0:0:0:0:
244,65,54497,5,2,1:0:0:0:
232,117,54585,1,0,1:0:0:0:
220,169,54673,1,10,0:0:0:0:
466,345,54850,6,0,B|502:235|392:271|429:162,1,196.796240841239,2|0,1:0|0:0,0:0:0:0:
440,161,55026,2,0,B|404:267|514:231|478:341,1,196.796240841239,10|0,0:0|0:0,0:0:0:0:
464,357,55203,5,2,1:0:0:0:
274,180,55379,1,10,0:0:0:0:
199,156,55467,1,8,0:0:0:0:
131,197,55556,1,10,0:0:0:0:
128,209,55644,1,0,1:0:0:0:
125,221,55732,1,2,1:0:0:0:
47,28,55909,6,0,P|92:29|114:115,1,137.444997273583,2|2,1:0|1:0,0:0:0:0:
64,64,56967,5,8,0:0:0:0:
448,320,57144,1,12,0:0:0:0:
