osu file format v14

[General]
AudioFilename: audio.mp3
AudioLeadIn: 0
PreviewTime: 938
Countdown: 0
SampleSet: Soft
StackLeniency: 0.7
Mode: 0
LetterboxInBreaks: 0
WidescreenStoryboard: 1

[Editor]
DistanceSpacing: 0.1
BeatDivisor: 4
GridSize: 32
TimelineZoom: 2.3

[Metadata]
Title:B.G.M
TitleUnicode:B.G.M
Artist:Utsu-P feat. KAFU
ArtistUnicode:鬱P feat. 可不
Creator:SMOKELIND
Version:Pepekcz's HARD
Source:
Tags:1/1440 Musical Isotope CeVIO AI Artificial Singing Synthesizer Kamitsubaki Studio 神椿スタジオ Japanese English Rock Youtube Shorts One Minute Minutes Boobs Girl Music BGM JRock J-Rock Mocaotic Pepekcz Zekk gazimal Nymphe Kiyoshi Guarden Kang Sae-byeok
BeatmapID:3732138
BeatmapSetID:1818864

[Difficulty]
HPDrainRate:4.5
CircleSize:3.6
OverallDifficulty:7
ApproachRate:8
SliderMultiplier:1.4
SliderTickRate:1

[Events]
//Background and Video events
Video,103,"vid.mp4"
0,0,"BG.jpg",0,0
//Break Periods
2,40756,42629
//Storyboard Layer 0 (Background)
//Storyboard Layer 1 (Fail)
//Storyboard Layer 2 (Pass)
//Storyboard Layer 3 (Foreground)
//Storyboard Layer 4 (Overlay)
//Storyboard Sound Samples

[TimingPoints]
1027,352.941176470588,4,2,77,57,1,0
1027,-125,4,2,77,57,0,0
3850,-111.111111111111,4,2,77,57,0,0
5438,-111.111111111111,4,2,77,67,0,0
5615,-111.111111111111,4,2,77,77,0,0
5791,-111.111111111111,4,2,77,87,0,0
6674,-100,4,2,77,97,0,0
29262,-100,4,2,77,97,0,0
40556,-125,4,2,77,57,0,0
43379,-111.111111111111,4,2,77,57,0,0
44967,-100,4,2,77,67,0,0
45144,-100,4,2,77,77,0,0
45320,-100,4,2,77,87,0,0
46203,-100,4,2,77,97,0,0
56085,-125,4,2,77,57,0,0
56968,-125,4,2,77,97,0,0

[Colours]
Combo1 : 164,255,255
Combo2 : 255,0,128

[HitObjects]
9,26,1027,6,0,L|75:49,1,56,2|0,1:0|0:0,0:0:0:0:
121,95,1379,2,0,P|187:77|245:66,1,112,2|2,1:0|1:0,0:0:0:0:
310,56,1909,1,2,0:0:0:0:
310,56,2085,1,2,1:0:0:0:
444,137,2438,6,0,L|428:199,1,56,2|2,1:0|0:0,0:0:0:0:
473,256,2791,2,0,L|457:318,1,56,2|2,1:0|0:0,0:0:0:0:
396,357,3144,2,0,P|361:324|296:331,1,112,2|2,1:0|1:0,0:0:0:0:
139,359,3850,6,0,P|105:350|67:341,1,62.9999980773926,2|0,1:0|1:0,0:0:0:0:
26,279,4203,2,0,P|34:245|44:207,1,62.9999980773926,2|0,1:0|1:0,0:0:0:0:
85,148,4556,1,2,1:0:0:0:
85,148,4732,1,2,1:0:0:0:
53,72,4909,2,0,P|80:55|117:52,1,62.9999980773926,2|2,1:0|1:0,0:0:0:0:
182,90,5262,6,0,P|228:124|299:113,1,125.999996154785,2|2,1:0|1:0,0:0:0:0:
380,48,5791,1,2,1:0:0:0:
380,48,5968,1,10,0:2:0:0:
452,86,6144,2,0,P|460:52|469:17,2,62.9999980773926,0|0|0,3:0|3:0|3:0,0:0:0:0:
404,198,6674,6,0,P|417:249|432:312,1,105,6|0,1:0|0:0,0:0:0:0:
431,313,7026,2,0,P|397:347|303:327,1,140,10|2,0:0|1:0,0:0:0:0:
238,280,7556,1,2,0:0:0:0:
280,199,7732,2,0,P|288:160|297:125,1,70,10|0,0:0|0:0,0:0:0:0:
249,58,8085,5,2,1:0:0:0:
249,58,8262,1,2,0:0:0:0:
167,18,8438,2,0,P|121:30|17:60,1,140,10|2,0:0|1:0,0:0:0:0:
10,144,8968,1,2,0:0:0:0:
10,144,9144,1,10,0:0:0:0:
52,224,9321,1,2,0:0:0:0:
19,308,9497,6,0,P|52:316|97:328,1,70,2|2,1:0|0:0,0:0:0:0:
172,356,9850,2,0,P|205:347|239:338,1,70,10|2,0:0|0:0,0:0:0:0:
321,297,10203,2,0,P|369:309|427:327,1,105,2|0,1:0|0:0,0:0:0:0:
432,334,10556,2,0,L|469:322,3,35,10|2|2|2,0:2|3:2|3:2|3:2,0:0:0:0:
479,321,10909,5,2,1:2:0:0:
503,233,11085,1,2,0:0:0:0:
503,233,11262,2,0,L|477:155,1,70,10|10,0:0|0:0,0:0:0:0:
481,152,11526,1,10,0:0:0:0:
481,137,11615,2,0,L|455:59,1,70,2|0,1:0|1:0,0:0:0:0:
377,28,11968,2,0,P|326:24|279:73,1,105,14|0,0:2|0:0,0:0:0:0:
279,68,12321,6,0,P|251:90|206:90,1,70,2|2,1:0|0:0,0:0:0:0:
137,60,12674,1,10,0:0:0:0:
137,60,12850,1,2,0:0:0:0:
71,123,13026,2,0,L|91:205,1,70,2|2,1:0|0:0,0:0:0:0:
127,278,13379,1,10,0:0:0:0:
127,278,13556,1,2,0:0:0:0:
199,223,13732,5,2,1:0:0:0:
282,260,13909,1,2,0:0:0:0:
295,257,13997,1,2,0:0:0:0:
308,252,14085,2,0,L|381:230,1,70,10|2,0:0|0:0,0:0:0:0:
466,233,14438,2,0,L|488:306,1,70,2|2,1:0|0:0,0:0:0:0:
414,356,14791,2,0,L|346:376,1,70,10|2,0:0|0:0,0:0:0:0:
259,349,15144,5,2,1:0:0:0:
259,349,15321,1,2,0:0:0:0:
172,363,15497,1,10,0:0:0:0:
172,363,15674,1,2,1:0:0:0:
99,309,15850,2,0,P|91:271|81:228,1,70,2|2,1:0|1:0,0:0:0:0:
29,167,16203,1,10,0:0:0:0:
32,153,16291,1,8,0:0:0:0:
35,139,16379,1,2,3:0:0:0:
35,47,16556,6,0,P|66:31|111:36,1,70,2|2,3:0|3:0,0:0:0:0:
170,89,16909,2,0,P|201:105|246:100,1,70,2|2,3:0|3:0,0:0:0:0:
312,54,17262,2,0,P|351:23|418:31,1,105,2|0,3:0|0:0,0:0:0:0:
413,34,17615,1,8,0:0:0:0:
484,201,17968,5,6,1:0:0:0:
446,282,18144,2,0,P|412:294|380:307,1,70,2|8,0:0|0:0,0:0:0:0:
299,349,18497,2,0,P|233:333|155:316,1,140,2|2,0:0|0:0,0:0:0:0:
73,336,19026,1,10,0:0:0:0:
73,336,19203,1,2,0:0:0:0:
27,257,19379,5,6,1:0:0:0:
94,195,19556,2,0,P|112:160|106:129,1,70,2|8,0:0|0:0,0:0:0:0:
76,44,19909,2,0,B|152:28|136:84|217:70,1,140,2|2,0:0|0:0,0:0:0:0:
289,30,20438,2,0,P|324:28|356:42,1,70,10|2,0:0|0:0,0:0:0:0:
434,98,20791,5,2,1:0:0:0:
434,98,20968,1,2,0:0:0:0:
492,167,21144,2,0,L|477:249,1,70,10|2,0:0|0:0,0:0:0:0:
476,249,21409,1,2,0:0:0:0:
473,262,21497,1,0,1:0:0:0:
423,338,21674,1,2,0:0:0:0:
346,288,21850,5,10,0:0:0:0:
346,288,22026,2,0,P|331:231|319:184,1,105,2|0,0:0|0:0,0:0:0:0:
323,172,22379,2,0,P|312:134|302:93,1,70,2|8,0:0|0:0,0:0:0:0:
230,51,22732,2,0,B|154:67|170:11|89:25,1,140,2|2,0:0|0:0,0:0:0:0:
15,64,23262,1,8,0:0:0:0:
69,166,23438,5,10,0:0:0:0:
66,179,23526,1,8,0:0:0:0:
62,192,23615,2,0,P|53:223|43:268,1,70,6|2,1:0|0:0,0:0:0:0:
4,341,23968,1,8,0:0:0:0:
89,371,24144,2,0,B|165:387|149:331|230:345,1,140,2|2,0:0|0:0,0:0:0:0:
311,361,24674,1,10,0:0:0:0:
311,361,24850,1,2,0:0:0:0:
382,305,25026,5,6,1:0:0:0:
460,352,25203,2,0,P|469:318|484:267,1,70,2|8,0:0|0:0,0:0:0:0:
507,198,25556,2,0,P|492:130|475:57,1,140,2|2,0:0|0:0,0:0:0:0:
397,14,26085,1,10,0:0:0:0:
319,62,26262,5,2,1:0:0:0:
310,73,26350,1,0,1:0:0:0:
297,79,26438,2,0,P|267:90|223:84,1,70,10|2,0:0|1:0,0:0:0:0:
152,48,26791,1,10,0:0:0:0:
152,48,26968,1,2,1:0:0:0:
82,106,27144,1,10,0:0:0:0:
85,119,27232,1,8,0:0:0:0:
89,132,27321,1,10,0:0:0:0:
150,198,27497,1,2,1:0:0:0:
150,198,27674,1,2,1:0:0:0:
87,264,27850,6,0,P|150:284|234:314,1,140,10|8,0:0|0:2,0:0:0:0:
294,257,28379,1,8,0:2:0:0:
250,80,28732,1,10,0:2:0:0:
250,80,28909,2,0,P|303:62|361:47,1,105,10|0,0:2|0:0,0:0:0:0:
363,43,29262,6,0,P|413:56|463:73,1,105,6|2,1:0|0:0,0:0:0:0:
475,80,29615,2,0,P|466:111|453:158,1,70,2|2,1:0|0:0,0:0:0:0:
492,231,29968,1,10,0:0:0:0:
337,327,30321,2,0,L|347:374,2,35,2|2|2,1:0|1:0|1:0,0:0:0:0:
263,273,30674,6,0,L|270:238,2,35,2|2|2,1:0|1:0|1:0,0:0:0:0:
211,347,31026,2,0,P|177:361|138:358,1,70,2|2,1:0|1:0,0:0:0:0:
75,300,31379,2,0,L|36:315,2,35,10|8|10,0:0|0:0|0:0,0:0:0:0:
124,224,31732,1,2,1:0:0:0:
124,224,31909,1,2,1:0:0:0:
51,169,32085,6,0,P|25:132|45:76,1,105,4|2,1:0|0:0,0:0:0:0:
53,70,32438,2,0,P|89:61|125:53,1,70,2|2,1:0|0:0,0:0:0:0:
202,94,32791,1,10,0:0:0:0:
379,55,33144,2,0,L|388:17,2,35,2|0|2,1:0|1:0|1:0,0:0:0:0:
461,93,33497,6,0,L|470:55,2,35,6|0|2,1:0|1:0|1:0,0:0:0:0:
400,161,33850,2,0,L|422:258,1,70,2|2,1:0|1:0,0:0:0:0:
475,298,34203,2,0,L|461:344,3,35,10|8|10|2,0:0|0:0|0:0|1:0,0:0:0:0:
461,345,34556,2,0,B|385:361|401:305|320:319,1,140,6|2,1:0|3:0,0:0:0:0:
17,383,35615,6,0,P|55:347|26:259,1,140,14|2,0:0|1:0,0:0:0:0:
28,258,36056,1,2,1:0:0:0:
15,251,36144,1,2,1:0:0:0:
31,161,36321,2,0,L|75:148,2,35,2|2|2,1:0|1:0|1:0,0:0:0:0:
1,74,36674,2,0,P|36:62|72:51,1,70,2|2,1:0|1:0,0:0:0:0:
154,29,37026,2,0,P|171:32|186:41,2,35,10|2|2,0:0|1:0|1:0,0:0:0:0:
275,23,37379,2,0,P|280:39|279:62,2,35,10|2|2,0:0|1:0|1:0,0:0:0:0:
219,121,37732,5,4,1:0:0:0:
285,183,37909,1,10,0:0:0:0:
298,179,37997,1,2,1:0:0:0:
311,176,38085,2,0,P|389:156|452:142,1,140,2|10,1:0|0:0,0:0:0:0:
478,234,38615,1,2,1:0:0:0:
478,234,38791,2,0,L|520:223,2,35,10|10|10,0:0|0:0|1:2,0:0:0:0:
417,302,39144,5,6,1:0:0:0:
417,302,39321,1,10,0:0:0:0:
343,354,39497,2,0,P|322:352|300:345,3,35,2|0|10|10,1:0|0:0|0:0|0:0,0:0:0:0:
296,342,39850,2,0,P|275:343|253:351,3,35,10|8|2|2,0:0|0:0|3:0|3:0,0:0:0:0:
248,352,40203,2,0,P|227:350|205:343,3,35,10|8|8|8,0:0|0:0|0:0|0:0,0:0:0:0:
203,341,40556,5,2,1:0:0:0:
256,192,43379,12,2,45497,3:0:0:0:
479,12,46203,5,6,1:0:0:0:
414,75,46379,2,0,L|433:156,1,70,2|8,0:0|0:0,0:0:0:0:
500,201,46732,2,0,P|482:267|459:361,1,140,2|2,0:0|0:0,0:0:0:0:
380,363,47262,1,10,0:0:0:0:
380,363,47438,1,2,0:0:0:0:
297,324,47615,5,6,1:0:0:0:
210,352,47791,2,0,P|177:373|128:366,1,70,2|8,0:0|0:0,0:0:0:0:
67,328,48144,2,0,P|39:286|62:191,1,140,2|2,0:0|0:0,0:0:0:0:
118,136,48674,2,0,P|152:137|181:157,1,70,10|2,0:0|0:0,0:0:0:0:
256,216,49026,5,2,1:0:0:0:
256,216,49203,1,2,0:0:0:0:
324,275,49379,2,0,L|399:252,1,70,10|2,0:0|0:0,0:0:0:0:
404,251,49644,1,2,0:0:0:0:
417,247,49732,1,0,1:0:0:0:
487,188,49909,1,2,0:0:0:0:
443,108,50085,5,10,0:0:0:0:
443,108,50262,2,0,P|404:76|336:88,1,105,2|0,0:0|0:0,0:0:0:0:
341,88,50615,2,0,P|302:110|265:104,1,70,2|8,0:0|0:0,0:0:0:0:
193,73,50968,2,0,P|177:137|157:229,1,140,2|2,0:0|0:0,0:0:0:0:
103,279,51497,1,8,0:0:0:0:
196,352,51674,5,10,0:0:0:0:
208,347,51762,1,8,0:0:0:0:
221,343,51850,2,0,P|251:333|294:316,1,70,6|2,1:0|0:0,0:0:0:0:
364,271,52203,1,8,0:0:0:0:
437,324,52379,2,0,P|455:254|476:169,1,140,2|2,0:0|0:0,0:0:0:0:
511,107,52909,1,10,0:0:0:0:
511,107,53085,1,2,0:0:0:0:
434,57,53262,5,6,1:0:0:0:
349,90,53438,2,0,P|299:106|273:95,1,70,2|8,0:0|0:0,0:0:0:0:
207,52,53791,2,0,B|131:68|147:12|66:26,1,140,2|2,0:0|0:0,0:0:0:0:
12,92,54321,1,10,0:0:0:0:
34,179,54497,5,2,1:0:0:0:
39,191,54585,1,0,1:0:0:0:
43,204,54674,2,0,L|116:182,1,70,10|2,0:0|1:0,0:0:0:0:
193,144,55026,1,10,0:0:0:0:
193,144,55203,1,2,1:0:0:0:
271,190,55379,1,10,0:0:0:0:
284,194,55468,1,8,0:0:0:0:
297,198,55556,1,10,0:0:0:0:
382,162,55732,1,2,1:0:0:0:
382,162,55909,1,2,1:0:0:0:
450,200,56085,6,0,P|480:250|465:299,1,112,2|0,1:0|0:0,0:0:0:0:
408,353,56615,1,0,0:0:0:0:
257,309,56968,1,8,0:0:0:0:
162,360,57144,2,0,P|106:363|72:305,1,112,12|0,0:0|0:0,0:0:0:0:
