osu file format v14

[General]
AudioFilename: audio.mp3
AudioLeadIn: 0
PreviewTime: 938
Countdown: 0
SampleSet: Soft
StackLeniency: 0.7
Mode: 0
LetterboxInBreaks: 0
WidescreenStoryboard: 1

[Editor]
DistanceSpacing: 0.1
BeatDivisor: 4
GridSize: 32
TimelineZoom: 2.4

[Metadata]
Title:B.G.M
TitleUnicode:B.G.M
Artist:Utsu-P feat. KAFU
ArtistUnicode:鬱P feat. 可不
Creator:SMOKELIND
Version:Mocaotic's NORMAL
Source:
Tags:1/1440 Musical Isotope CeVIO AI Artificial Singing Synthesizer Kamitsubaki Studio 神椿スタジオ Japanese English Rock Youtube Shorts One Minute Minutes Boobs Girl Music BGM JRock J-Rock Mocaotic Pepekcz Zekk gazimal Nymphe Kiyoshi Guarden Kang Sae-byeok
BeatmapID:3733028
BeatmapSetID:1818864

[Difficulty]
HPDrainRate:3
CircleSize:3.5
OverallDifficulty:4
ApproachRate:5.5
SliderMultiplier:0.999999999999998
SliderTickRate:1

[Events]
//Background and Video events
Video,103,"vid.mp4"
0,0,"BG.jpg",0,0
//Break Periods
2,40756,42254
//Storyboard Layer 0 (Background)
//Storyboard Layer 1 (Fail)
//Storyboard Layer 2 (Pass)
//Storyboard Layer 3 (Foreground)
//Storyboard Layer 4 (Overlay)
//Storyboard Sound Samples

[TimingPoints]
1027,352.941176470588,4,2,77,57,1,0
5438,-100,4,2,77,67,0,0
5615,-100,4,2,77,77,0,0
5791,-100,4,2,77,87,0,0
6674,-100,4,2,77,97,0,0
40556,-100,4,2,77,57,0,0
44967,-100,4,2,77,67,0,0
45144,-100,4,2,77,77,0,0
45320,-100,4,2,77,87,0,0
46203,-100,4,2,77,97,0,0

[Colours]
Combo1 : 164,255,255
Combo2 : 255,0,128

[HitObjects]
0,320,1027,6,0,P|47:299|106:299,1,99.9999999999998,2|2,1:0|1:0,0:0:0:0:
185,253,1732,2,0,P|175:217|167:194,2,49.9999999999999,2|2|2,1:0|0:0|1:0,0:0:0:0:
256,323,2438,2,0,P|246:358|238:382,2,49.9999999999999,2|2|2,1:0|0:0|1:0,0:0:0:0:
298,294,2968,1,2,0:0:0:0:
298,294,3144,1,2,1:0:0:0:
392,327,3497,1,2,1:0:0:0:
470,265,3850,6,0,P|451:175|449:147,1,99.9999999999998,2|2,1:0|1:0,0:0:0:0:
463,121,4379,1,0,1:0:0:0:
463,121,4556,2,0,P|492:111|529:115,2,49.9999999999999,2|2|2,1:0|1:0|1:0,0:0:0:0:
380,64,5262,2,0,P|370:35|374:-2,2,49.9999999999999,2|2|2,1:0|1:0|1:0,0:0:0:0:
355,108,5791,1,2,1:0:0:0:
355,108,5968,2,0,P|323:117|281:140,1,49.9999999999999,10|0,0:2|3:0,0:0:0:0:
264,149,6321,1,0,3:0:0:0:
188,214,6674,6,0,P|114:190|69:186,1,99.9999999999998,6|10,1:0|0:0,0:0:0:0:
18,119,7379,2,0,P|27:86|31:51,1,49.9999999999999,2|2,1:0|0:0,0:0:0:0:
70,41,7732,2,0,P|144:65|189:69,1,99.9999999999998,10|2,0:0|1:0,0:0:0:0:
214,94,8262,1,2,0:0:0:0:
214,94,8438,1,10,0:0:0:0:
302,48,8791,2,0,P|307:18|316:-12,2,49.9999999999999,2|2|10,1:0|0:0|0:0,0:0:0:0:
375,116,9497,6,0,P|369:143|365:164,1,49.9999999999999,2|2,1:0|0:0,0:0:0:0:
391,207,9850,2,0,P|385:234|381:255,1,49.9999999999999,10|2,0:0|0:0,0:0:0:0:
411,295,10203,2,0,P|388:341|319:346,1,99.9999999999998,2|10,1:0|0:2,0:0:0:0:
296,370,10732,1,2,3:2:0:0:
229,295,11085,2,0,P|235:258|245:234,2,49.9999999999999,2|10|10,0:0|0:0|0:0,0:0:0:0:
197,334,11615,1,2,1:0:0:0:
102,367,11968,1,14,0:2:0:0:
23,304,12321,6,0,P|29:267|39:243,1,49.9999999999999,2|2,1:0|0:0,0:0:0:0:
57,211,12674,2,0,P|112:226|164:245,1,99.9999999999998,10|2,0:0|1:0,0:0:0:0:
196,273,13203,1,2,0:0:0:0:
196,273,13379,1,10,0:0:0:0:
281,325,13732,2,0,P|304:317|329:314,1,49.9999999999999,2|2,1:0|0:0,0:0:0:0:
372,340,14085,2,0,P|395:331|420:327,1,49.9999999999999,10|2,0:0|0:0,0:0:0:0:
469,338,14438,2,0,P|479:255|495:209,1,99.9999999999998,2|10,1:0|0:0,0:0:0:0:
418,163,15144,6,0,P|363:159|319:206,1,99.9999999999998,2|10,1:0|0:0,0:0:0:0:
309,233,15674,1,2,1:0:0:0:
309,233,15850,2,0,P|268:260|220:254,1,99.9999999999998,2|10,1:0|0:0,0:0:0:0:
122,279,16556,2,0,P|112:323|103:344,2,49.9999999999999,2|2|2,3:0|3:0|3:0,0:0:0:0:
86,251,17085,1,2,3:0:0:0:
86,251,17262,2,0,P|100:188|106:149,1,99.9999999999998,2|8,3:0|0:0,0:0:0:0:
78,56,17968,6,0,P|54:46|18:38,2,49.9999999999999,6|2|8,1:0|0:0|0:0,0:0:0:0:
124,37,18497,2,0,P|183:54|244:83,1,99.9999999999998,2|2,0:0|0:0,0:0:0:0:
257,100,19026,1,10,0:0:0:0:
347,58,19379,2,0,P|357:34|365:-2,2,49.9999999999999,6|2|8,1:0|0:0|0:0,0:0:0:0:
379,96,19909,2,0,P|349:168|339:220,1,99.9999999999998,2|2,0:0|0:0,0:0:0:0:
324,235,20438,1,10,0:0:0:0:
358,328,20791,6,0,P|429:347|470:375,1,99.9999999999998,2|10,1:0|0:0,0:0:0:0:
494,334,21321,2,0,P|521:285|502:230,1,99.9999999999998,2|2,0:0|0:0,0:0:0:0:
476,208,21850,1,10,0:0:0:0:
388,160,22203,2,0,P|343:182|294:192,1,99.9999999999998,6|8,1:0|0:0,0:0:0:0:
258,226,22732,2,0,P|213:203|164:193,1,99.9999999999998,2|2,0:0|0:0,0:0:0:0:
124,163,23262,2,0,P|90:177|58:186,1,49.9999999999999,8|10,0:0|0:0,0:0:0:0:
40,214,23615,1,6,1:0:0:0:
0,309,23968,5,8,0:0:0:0:
0,309,24144,2,0,P|48:318|93:341,1,99.9999999999998,2|2,0:0|0:0,0:0:0:0:
134,370,24674,1,10,0:0:0:0:
220,320,25026,2,0,P|258:305|290:305,2,49.9999999999999,6|2|8,1:0|0:0|0:0,0:0:0:0:
179,290,25556,2,0,P|169:241|169:182,1,99.9999999999998,2|2,0:0|0:0,0:0:0:0:
135,152,26085,2,0,P|144:115|149:83,1,49.9999999999999,10|2,0:0|1:0,0:0:0:0:
129,55,26438,1,10,0:0:0:0:
220,15,26791,6,0,P|244:19|268:26,1,49.9999999999999,10|2,0:0|1:0,0:0:0:0:
306,58,27144,2,0,P|299:82|294:106,2,49.9999999999999,10|10|2,0:0|0:0|1:0,0:0:0:0:
358,47,27674,1,2,1:0:0:0:
358,47,27850,1,10,0:0:0:0:
454,14,28203,1,8,0:2:0:0:
454,14,28379,1,8,0:2:0:0:
511,102,28732,1,10,0:2:0:0:
511,102,28909,1,10,0:2:0:0:
434,166,29262,6,0,P|377:180|332:212,1,99.9999999999998,6|2,1:0|1:0,0:0:0:0:
247,168,29968,2,0,P|237:134|229:119,1,49.9999999999999,10|2,0:0|0:0,0:0:0:0:
201,80,30321,1,2,1:0:0:0:
117,24,30674,2,0,P|74:49|25:60,1,99.9999999999998,2|2,1:0|1:0,0:0:0:0:
0,104,31203,1,2,1:0:0:0:
0,104,31379,2,0,P|15:136|19:152,1,49.9999999999999,10|10,0:0|0:0,0:0:0:0:
14,200,31732,1,2,1:0:0:0:
98,253,32085,6,0,P|140:227|189:216,1,99.9999999999998,4|2,1:0|1:0,0:0:0:0:
275,166,32791,2,0,P|310:181|339:186,1,49.9999999999999,10|2,0:0|0:0,0:0:0:0:
371,177,33144,1,2,1:0:0:0:
438,251,33497,2,0,P|417:295|409:359,1,99.9999999999998,6|2,1:0|1:0,0:0:0:0:
371,378,34026,1,2,1:0:0:0:
371,378,34203,2,0,P|336:363|307:358,1,49.9999999999999,10|10,0:0|0:0,0:0:0:0:
282,332,34556,2,0,P|238:353|174:361,1,99.9999999999998,6|2,1:0|3:0,0:0:0:0:
8,270,35615,6,0,P|22:203|21:143,1,99.9999999999998,14|2,0:0|1:0,0:0:0:0:
4,130,36144,1,2,1:0:0:0:
4,130,36321,1,2,1:0:0:0:
87,74,36674,2,0,P|130:82|153:93,1,49.9999999999999,2|2,1:0|1:0,0:0:0:0:
183,72,37026,2,0,P|191:28|202:5,2,49.9999999999999,10|2|10,0:0|1:0|0:0,0:0:0:0:
240,154,37732,6,0,P|221:229|215:289,1,99.9999999999998,4|2,1:0|1:0,0:0:0:0:
151,326,38438,1,10,0:0:0:0:
232,383,38791,2,0,P|270:366|301:363,1,49.9999999999999,10|10,0:0|1:2,0:0:0:0:
320,337,39144,2,0,P|384:362|442:373,1,99.9999999999998,6|2,1:0|1:0,0:0:0:0:
465,355,39674,1,10,0:0:0:0:
465,355,39850,2,0,P|477:320|475:288,1,49.9999999999999,10|2,0:0|3:0,0:0:0:0:
450,264,40203,2,0,P|452:239|462:216,1,49.9999999999999,10|8,0:0|0:0,0:0:0:0:
500,183,40556,1,2,1:0:0:0:
256,192,43379,12,2,45497,3:0:0:0:
500,183,46203,6,0,P|491:145|477:114,1,49.9999999999999,6|2,1:0|0:0,0:0:0:0:
450,108,46556,1,8,0:0:0:0:
450,108,46732,2,0,P|383:128|332:135,1,99.9999999999998,2|2,0:0|0:0,0:0:0:0:
303,125,47262,1,10,0:0:0:0:
238,201,47615,2,0,P|246:224|250:249,1,49.9999999999999,6|2,1:0|0:0,0:0:0:0:
220,289,47968,1,8,0:0:0:0:
220,289,48144,2,0,P|170:298|123:313,1,99.9999999999998,2|2,0:0|0:0,0:0:0:0:
79,339,48674,1,10,0:0:0:0:
4,273,49026,6,0,P|0:202|43:157,1,99.9999999999998,2|10,1:0|0:0,0:0:0:0:
59,157,49556,2,0,P|106:172|155:181,1,99.9999999999998,2|2,0:0|0:0,0:0:0:0:
196,211,50085,1,10,0:0:0:0:
281,158,50438,2,0,P|275:123|259:91,2,49.9999999999999,6|2|8,1:0|0:0|0:0,0:0:0:0:
322,187,50968,2,0,P|373:173|435:176,1,99.9999999999998,2|2,0:0|0:0,0:0:0:0:
468,160,51497,1,8,0:0:0:0:
512,249,51850,6,0,P|505:279|500:310,1,49.9999999999999,6|2,1:0|0:0,0:0:0:0:
468,335,52203,1,8,0:0:0:0:
468,335,52379,2,0,P|413:323|349:321,1,99.9999999999998,2|2,0:0|0:0,0:0:0:0:
320,331,52909,1,10,0:0:0:0:
253,256,53262,2,0,P|260:226|265:195,1,49.9999999999999,6|2,1:0|0:0,0:0:0:0:
297,170,53615,1,8,0:0:0:0:
297,170,53791,2,0,P|352:182|416:184,1,99.9999999999998,2|2,0:0|0:0,0:0:0:0:
438,158,54321,2,0,P|445:128|450:97,1,49.9999999999999,10|2,0:0|1:0,0:0:0:0:
474,66,54674,1,10,0:0:0:0:
396,2,55026,6,0,P|370:7|334:11,1,49.9999999999999,10|2,0:0|1:0,0:0:0:0:
306,40,55379,2,0,P|311:66|315:102,2,49.9999999999999,10|10|2,0:0|0:0|1:0,0:0:0:0:
262,26,55909,1,2,1:0:0:0:
262,26,56085,1,2,1:0:0:0:
30,115,56967,1,8,0:0:0:0:
30,115,57144,1,12,0:0:0:0:
