osu file format v14

[General]
AudioFilename: audio.mp3
AudioLeadIn: 0
PreviewTime: 926
Countdown: 0
SampleSet: Soft
StackLeniency: 0.3
Mode: 0
LetterboxInBreaks: 0
WidescreenStoryboard: 1

[Editor]
Bookmarks: 5958,6664,27840,29252,46193,57134
DistanceSpacing: 0.3
BeatDivisor: 4
GridSize: 32
TimelineZoom: 4.999997

[Metadata]
Title:B.G.M
TitleUnicode:B.G.M
Artist:Utsu-P feat. KAFU
ArtistUnicode:鬱P feat. 可不
Creator:AssassinAlpha
Version:O K U's INSANE
Source:
Tags:Solarmymommy dt_best_mod dt best mod o k u o_k_u oku utsup 1/1440 Musical Isotope CeVIO AI Artificial Singing Synthesizer Kamitsubaki Studio 神椿スタジオ Japanese English Rock Youtube Shorts One Minute Minutes Boobs Girl Music BGM JRock J-Rock
BeatmapID:3861444
BeatmapSetID:1875822

[Difficulty]
HPDrainRate:5
CircleSize:4.2
OverallDifficulty:8
ApproachRate:9
SliderMultiplier:1.72
SliderTickRate:1

[Events]
//Background and Video events
0,0,"BG.jpg",0,0
Video,82,"out.avi"
//Break Periods
//Storyboard Layer 0 (Background)
//Storyboard Layer 1 (Fail)
//Storyboard Layer 2 (Pass)
//Storyboard Layer 3 (Foreground)
//Storyboard Layer 4 (Overlay)
//Storyboard Sound Samples

[TimingPoints]
1015,352.941176470588,4,2,1,70,1,0
3838,-100,4,2,1,75,0,0
6662,-50,4,2,1,85,0,0
7014,-66.6666666666667,4,2,1,85,0,0
7367,-45.8666666666667,4,2,1,85,0,0
7720,-37.3913043478263,4,2,1,85,0,0
8073,-66.6666666666667,4,2,1,85,0,0
8426,-48.0467476661147,4,2,1,85,0,0
8779,-66.6666666666667,4,2,1,85,0,0
10191,-45.8666666666666,4,2,1,85,0,0
10544,-100,4,2,1,85,0,0
10897,-66.6666666666667,4,2,1,85,0,0
11603,-49.8478469120078,4,2,1,85,0,0
11956,-36.7981194507135,4,2,1,85,0,0
12662,-66.6666666666667,4,2,1,85,0,0
14603,-50,4,2,1,85,0,0
15132,-66.6666666666667,4,2,1,85,0,0
15485,-35.9175656762847,4,2,1,85,0,0
15838,-48.3980593335508,4,2,1,85,0,0
16544,-66.6666666666667,4,2,1,85,0,0
17073,-35.6337107214432,4,2,1,85,0,0
17956,-50,4,2,1,90,0,0
18838,-66.6666666666667,4,2,1,90,0,0
19367,-50,4,2,1,90,0,0
19897,-45.7718321053423,4,2,1,90,0,0
20250,-66.6666666666667,4,2,1,90,0,0
21132,-50,4,2,1,90,0,0
23073,-45.8666666666672,4,2,1,90,0,0
23603,-50,4,2,1,90,0,0
24485,-66.6666666666667,4,2,1,90,0,0
25544,-50,4,2,1,90,0,0
25897,-66.6666666666667,4,2,1,90,0,0
27838,-66.6666666666667,4,2,1,85,0,0
29250,-100,4,2,1,80,0,0
35603,-52.9705244473097,4,2,1,80,0,0
35956,-100,4,2,1,80,0,0
40544,-100,4,2,1,70,0,0
43367,-100,4,2,1,75,0,0
46191,-50,4,2,1,90,0,0
47073,-66.6666666666667,4,2,1,90,0,0
47603,-50,4,2,1,90,0,0
48485,-66.6666666666667,4,2,1,90,0,0
49367,-50,4,2,1,90,0,0
51309,-41.4902409951308,4,2,1,90,0,0
51838,-50,4,2,1,90,0,0
52367,-45.8666666666681,4,2,1,90,0,0
52720,-66.6666666666667,4,2,1,90,0,0
53779,-45.833736238418,4,2,1,90,0,0
54132,-66.6666666666667,4,2,1,90,0,0

[Colours]
Combo1 : 160,173,181
Combo2 : 254,164,166
Combo3 : 101,202,212
Combo4 : 159,218,224

[HitObjects]
19,72,1015,6,0,B|38:150|38:150|105:210,1,129,2|0,1:2|0:0,0:0:0:0:
93,189,1367,2,0,B|107:119|107:119|165:63,1,129,2|0,1:2|0:0,0:0:0:0:
169,68,1720,1,2,1:2:0:0:
209,145,1897,1,2,0:0:0:0:
249,222,2073,2,0,B|195:369,1,129,2|0,1:2|0:0,0:0:0:0:
218,368,2426,5,2,1:2:0:0:
296,330,2603,1,2,0:0:0:0:
417,358,2779,1,2,1:2:0:0:
372,283,2956,1,2,0:0:0:0:
327,208,3132,2,0,P|380:186|443:215,1,129,2|0,1:2|0:0,0:0:0:0:
451,229,3485,2,0,P|464:167|417:101,1,129,2|0,1:2|0:0,0:0:0:0:
413,100,3838,1,2,1:2:0:0:
363,30,4014,5,0,1:0:0:0:
320,100,4191,1,2,1:2:0:0:
259,153,4367,5,0,1:0:0:0:
200,87,4544,1,2,1:2:0:0:
110,52,4720,5,2,1:2:0:0:
87,146,4897,1,2,1:2:0:0:
0,198,5073,1,0,1:0:0:0:
87,239,5250,5,2,1:2:0:0:
126,345,5426,1,2,1:2:0:0:
241,254,5603,5,2,1:2:0:0:
197,380,5779,1,2,1:2:0:0:
308,356,5956,6,0,L|340:365,7,21.5,2|0|0|0|2|0|0|0,1:2|0:0|0:0|0:0|0:2|0:0|0:0|0:0,0:0:0:0:
289,373,6309,6,0,L|308:302,1,43,2|0,0:2|3:0,0:0:0:0:
386,305,6485,2,0,L|376:241,1,43,2|0,3:2|0:0,0:0:0:0:
286,250,6662,6,0,B|284:163|284:163|319:86|319:86|317:-3,1,258,6|0,1:2|0:0,0:0:0:0:
299,12,7014,2,0,P|275:30|235:37,1,64.5000024604798,10|0,1:2|0:0,0:0:0:0:
163,1,7191,2,0,P|132:7|106:26,1,64.5000024604798,2|0,0:3|0:0,0:0:0:0:
5,94,7367,6,0,B|70:139|135:94|135:94|102:104|67:91,1,187.5,0|2,1:0|0:3,0:0:0:0:
288,139,7720,2,0,B|223:151|153:169|153:169|208:149|210:89,1,229.999999999999,10|2,1:2|0:3,0:0:0:0:
0,197,8073,2,0,L|91:213,1,64.5,2|0,1:2|0:0,0:0:0:0:
164,242,8250,2,0,L|255:226,1,64.5,2|0,0:3|0:0,0:0:0:0:
296,166,8426,6,0,B|391:147|375:194|471:183,1,178.992344284423,10|2,1:2|0:3,0:0:0:0:
495,168,8691,1,0,0:0:0:0:
509,157,8779,2,0,L|494:262,1,64.5,2|0,1:2|0:0,0:0:0:0:
421,355,8956,2,0,L|430:291,1,64.5,2|0,0:3|0:0,0:0:0:0:
327,373,9132,1,10,1:2:0:0:
318,380,9309,6,0,P|279:357|232:358,1,64.5,2|0,0:3|0:0,0:0:0:0:
152,373,9485,2,0,L|83:382,1,64.5,2|0,1:2|0:0,0:0:0:0:
161,359,9662,2,0,L|92:368,1,64.5,2|0,0:3|0:0,0:0:0:0:
9,252,9838,2,0,L|78:261,1,64.5,10|0,1:2|0:0,0:0:0:0:
0,238,10014,2,0,L|69:247,1,64.5,2|0,0:3|0:0,0:0:0:0:
168,286,10191,6,0,B|33:243|22:111|173:78|174:200,1,281.25,2|0,1:2|0:0,0:0:0:0:
166,176,10544,2,0,B|215:158,2,43,8|2|2,1:2|0:0|0:3,0:0:0:0:
295,276,10897,2,0,P|326:247|334:201,1,64.5,0|0,1:0|0:0,0:0:0:0:
437,199,11073,2,0,P|427:158|392:128,1,64.5,2|2,0:3|0:0,0:0:0:0:
302,124,11250,2,0,P|312:83|347:53,1,64.5,10|0,1:2|0:0,0:0:0:0:
415,19,11426,5,2,3:3:0:0:
444,31,11514,1,8,3:2:0:0:
472,27,11603,2,0,P|481:86|394:136,1,172.525004243029,0|2,1:0|3:3,0:0:0:0:
315,223,11956,6,0,B|227:217|227:217|172:247|172:247|89:242,1,233.707595072042,10|2,1:2|3:0,0:0:0:0:
96,124,12309,5,2,1:2:0:0:
79,107,12397,1,2,0:0:0:0:
88,85,12485,1,2,0:3:0:0:
111,82,12573,1,0,0:0:0:0:
120,103,12662,2,0,L|80:243,1,129,10|2,1:2|0:3,0:0:0:0:
190,329,13014,5,0,1:0:0:0:
173,346,13103,1,2,0:0:0:0:
182,368,13191,1,2,0:3:0:0:
205,371,13279,1,2,0:0:0:0:
214,350,13367,2,0,L|174:210,1,129,10|2,1:2|0:3,0:0:0:0:
243,75,13720,6,0,P|274:52|318:48,1,64.5,2|0,1:2|0:0,0:0:0:0:
442,78,13897,1,2,0:3:0:0:
436,89,13985,1,2,0:0:0:0:
428,99,14073,2,0,P|396:121|352:125,1,64.5,10|0,1:2|0:0,0:0:0:0:
251,177,14250,1,2,0:3:0:0:
257,188,14338,1,2,0:0:0:0:
265,198,14426,2,0,P|296:220|340:224,1,64.5,2|0,1:2|0:0,0:0:0:0:
468,227,14603,6,0,P|508:252|442:247,2,172,2|10|2,0:3|1:2|0:3,0:0:0:0:
389,366,15132,2,0,L|319:347,1,64.5,2|0,1:2|0:0,0:0:0:0:
235,285,15309,1,2,0:3:0:0:
216,290,15397,1,0,0:0:0:0:
192,296,15485,2,0,B|135:325|146:273|88:259|88:259|146:276|161:240|194:294,1,239.437162237259,10|2,1:2|0:3,0:0:0:0:
62,332,15838,2,0,P|12:255|63:190,1,177.693075268377,2|2,1:2|3:0,0:0:0:0:
186,60,16191,5,10,1:2:0:0:
220,46,16279,1,8,0:0:0:0:
248,71,16367,1,2,3:3:0:0:
240,108,16456,1,0,3:0:0:0:
202,109,16544,2,0,L|234:206,1,64.5,2|0,3:2|0:0,0:0:0:0:
305,213,16720,2,0,L|273:310,1,64.5,2|0,0:3|0:0,0:0:0:0:
231,347,16897,1,8,3:0:0:0:
406,102,17073,6,1,B|413:61|456:33|522:82|514:163|434:128|426:176|432:215,1,241.344497271927,2|2,0:3|0:0,0:0:0:0:
325,191,17426,1,2,0:3:0:0:
443,289,17603,1,8,1:2:0:0:
432,215,17779,1,2,0:0:0:0:
342,324,17956,6,0,B|267:351|267:351|155:320,1,172,4|2,1:1|0:3,0:0:0:0:
39,248,18309,1,8,1:2:0:0:
48,343,18485,2,0,P|119:282|101:170,1,172,2|2,0:3|1:2,0:0:0:0:
40,106,18838,6,0,L|117:126,1,64.5,2|0,0:3|0:0,0:0:0:0:
177,156,19014,2,0,L|254:136,1,64.5,10|0,1:2|0:0,0:0:0:0:
294,86,19191,2,0,L|371:106,1,64.5,2|0,0:3|0:0,0:0:0:0:
463,199,19367,2,0,B|486:114|486:114|446:40,1,172,2|2,1:2|0:3,0:0:0:0:
327,0,19720,1,8,1:2:0:0:
371,116,19897,2,1,B|391:216|342:199|353:300,1,187.888480850131,2|2,0:3|1:2,0:0:0:0:
290,357,20250,6,0,P|264:334|248:305,1,64.5,2|0,0:3|0:0,0:0:0:0:
170,304,20426,2,0,P|180:255|206:212,1,64.5,10|0,1:2|0:0,0:0:0:0:
157,173,20603,2,0,P|203:157|252:158,1,64.5,2|0,0:3|0:0,0:0:0:0:
262,96,20779,1,0,1:2:0:0:
157,17,20956,5,2,0:3:0:0:
46,78,21132,2,0,L|73:170,1,86,10|0,1:2|0:0,0:0:0:0:
151,193,21309,1,2,0:3:0:0:
151,193,21397,2,0,P|63:293|23:195,1,258,2|2,0:0|0:3,0:0:0:0:
87,227,21838,2,0,P|125:303|202:338,1,172,10|2,1:2|0:3,0:0:0:0:
178,206,22191,5,0,1:0:0:0:
114,130,22367,2,0,L|227:110,1,86,2|0,0:3|0:0,0:0:0:0:
271,54,22544,1,8,1:2:0:0:
279,49,22720,2,0,L|392:69,1,86,2|0,0:3|0:0,0:0:0:0:
448,132,22897,1,2,1:2:0:0:
351,207,23073,6,0,B|416:252|481:207|481:207|448:217|413:204,2,187.499999999998,2|8|10,0:3|1:2|0:0,0:0:0:0:
325,193,23514,1,8,0:0:0:0:
309,169,23603,2,0,L|323:257,1,86,4|0,1:2|0:0,0:0:0:0:
230,346,23779,2,0,L|244:258,1,86,2|0,0:3|0:0,0:0:0:0:
190,174,23956,1,8,1:2:0:0:
141,302,24132,2,0,P|39:346|-5:252,1,172,2|2,0:3|1:2,0:0:0:0:
91,214,24485,6,0,L|68:274,1,64.5,2|0,0:3|0:0,0:0:0:0:
70,113,24662,2,0,L|28:63,1,64.5,10|0,1:2|0:0,0:0:0:0:
173,152,24838,2,0,L|236:141,1,64.5,2|0,0:3|0:0,0:0:0:0:
282,40,25014,6,0,L|323:89,1,64.5,2|0,1:2|0:0,0:0:0:0:
433,78,25191,2,0,L|411:138,1,64.5,2|0,0:3|0:0,0:0:0:0:
457,215,25367,1,8,1:2:0:0:
219,127,25544,2,0,P|305:122|351:220,1,172,2|2,0:3|1:2,0:0:0:0:
242,384,25897,6,0,L|257:300,1,64.5,2|0,0:3|0:0,0:0:0:0:
363,211,26073,2,0,L|279:226,1,64.5,10|0,1:2|0:0,0:0:0:0:
350,201,26250,2,0,L|266:216,1,64.5,2|0,3:0|3:0,0:0:0:0:
169,277,26426,5,8,1:2:0:0:
52,242,26603,1,2,3:2:0:0:
103,72,26779,5,10,1:2:0:0:
138,189,26956,1,0,3:0:0:0:
224,93,27132,1,10,1:2:0:0:
238,80,27220,1,8,0:2:0:0:
256,73,27309,6,0,L|336:93,1,64.5,2|0,3:2|0:0,0:0:0:0:
460,137,27485,2,0,L|380:157,1,64.5,8|0,1:2|0:0,0:0:0:0:
256,201,27662,2,0,L|336:221,1,64.5,2|0,3:2|0:0,0:0:0:0:
432,268,27838,5,2,1:2:0:0:
432,268,28191,5,2,1:2:0:0:
432,268,28367,1,2,1:2:0:0:
432,268,28720,5,2,1:2:0:0:
432,268,28897,1,2,1:2:0:0:
300,367,29250,6,0,L|223:348,1,43,4|0,1:2|0:0,0:0:0:0:
184,318,29426,2,0,L|107:337,1,43,2|2,0:0|0:0,0:0:0:0:
61,376,29603,1,2,1:2:0:0:
60,255,29779,2,0,L|80:187,1,43,2|2,0:0|0:0,0:0:0:0:
134,155,29956,6,0,P|103:127|61:127,1,86,8|2,1:2|0:0,0:0:0:0:
37,30,30309,2,0,L|9:4,6,21.5,0|0|0|0|0|0|0,1:0|0:0|3:0|0:0|3:0|0:0|0:0,0:0:0:0:
186,60,30662,5,2,1:2:0:0:
193,70,30750,1,2,0:0:0:0:
200,80,30838,2,0,L|201:37,1,43,2|0,3:2|3:0,0:0:0:0:
254,135,31014,2,0,L|280:162,2,21.5,2|0|0,1:2|0:0|0:0,0:0:0:0:
149,139,31191,2,0,L|123:166,2,21.5,2|0|0,3:2|0:0|3:0,0:0:0:0:
183,235,31367,5,10,1:2:0:0:
190,225,31456,1,0,3:0:0:0:
199,211,31544,2,0,L|201:265,1,43,0|0,3:0|0:0,0:0:0:0:
129,342,31720,2,0,L|166:320,1,43,2|0,1:2|0:0,0:0:0:0:
285,340,31897,2,0,L|247:318,1,43,2|0,3:2|0:0,0:0:0:0:
208,383,32073,1,0,1:0:0:0:
348,384,32250,6,0,L|420:363,1,43,2|2,0:0|0:0,0:0:0:0:
480,329,32426,1,0,1:0:0:0:
469,320,32514,1,0,0:0:0:0:
458,312,32603,2,0,L|386:291,1,43,2|0,3:2|0:0,0:0:0:0:
328,283,32779,2,0,P|340:249|370:227,2,43,10|0|0,1:2|0:0|0:0,0:0:0:0:
441,38,33132,6,0,L|423:20,2,21.5,0|0|0,1:0|0:0|3:0,0:0:0:0:
444,158,33309,2,0,L|467:152,2,21.5,0|0|0,3:0|0:0|0:0,0:0:0:0:
338,101,33485,2,0,L|322:148,1,43,6|0,1:2|0:0,0:0:0:0:
253,86,33662,1,2,3:2:0:0:
248,73,33750,1,0,3:2:0:0:
244,60,33838,2,0,L|228:13,1,43,0|0,1:0|0:0,0:0:0:0:
159,72,34014,6,0,L|139:87,2,21.5,2|0|0,3:2|0:0|3:0,0:0:0:0:
40,100,34191,5,10,1:2:0:0:
57,83,34279,1,0,3:0:0:0:
48,61,34367,1,2,3:2:0:0:
25,58,34456,1,0,3:0:0:0:
16,79,34544,2,0,L|50:195,1,86,10|0,1:2|3:0,0:0:0:0:
489,384,35603,6,0,B|423:382|350:385|350:385|408:376|423:318,1,243.531664724818,14|0,1:2|0:0,0:0:0:0:
428,306,35956,2,0,L|490:319,2,43,2|2|2,1:2|3:2|3:2,0:0:0:0:
323,273,36309,6,0,L|346:310,1,43,2|2,1:2|3:2,0:0:0:0:
285,201,36485,1,2,3:2:0:0:
236,281,36662,6,0,L|216:319,1,43,2|2,1:2|0:0,0:0:0:0:
281,209,36838,1,2,3:2:0:0:
194,220,37014,6,0,L|152:221,1,43,10|2,1:2|3:2,0:0:0:0:
278,217,37191,1,2,3:2:0:0:
232,158,37367,6,0,L|211:121,1,43,10|2,1:2|3:2,0:0:0:0:
275,225,37544,1,2,3:2:0:0:
385,172,37720,1,0,1:0:0:0:
385,172,37897,6,0,L|404:125,1,43,10|2,0:2|0:0,0:0:0:0:
385,20,38073,2,0,L|374:-7,2,21.5,0|0|0,1:0|0:0|0:0,0:0:0:0:
489,71,38250,2,0,L|515:63,2,21.5,0|0|0,3:0|0:0|0:0,0:0:0:0:
389,117,38426,1,10,1:2:0:0:
389,117,38603,6,0,L|326:102,1,43,2|0,3:2|0:0,0:0:0:0:
272,46,38779,2,0,L|280:20,2,21.5,8|0|8,1:2|0:0|0:2,0:0:0:0:
231,145,38956,2,0,L|239:171,2,21.5,0|0|0,3:0|0:0|0:0,0:0:0:0:
166,65,39132,1,2,1:2:0:0:
96,116,39309,5,10,0:2:0:0:
99,128,39397,1,10,0:2:0:0:
103,140,39485,2,0,L|126:209,1,43,10|10,1:2|0:2,0:0:0:0:
41,253,39662,5,10,0:2:0:0:
52,256,39750,1,8,0:2:0:0:
65,258,39838,2,0,L|136:272,1,43,8|8,1:2|0:2,0:0:0:0:
132,369,40014,5,10,0:2:0:0:
140,361,40103,1,10,0:2:0:0:
148,350,40191,2,0,L|196:295,1,43,10|8,1:2|0:2,0:0:0:0:
278,348,40367,5,8,0:2:0:0:
275,337,40456,1,8,0:2:0:0:
272,324,40544,6,0,P|299:280|377:295,1,129,2|0,1:2|0:0,0:0:0:0:
387,296,40897,2,0,P|383:250|327:192,1,129,2|0,1:2|0:0,0:0:0:0:
308,196,41250,1,2,1:2:0:0:
333,114,41426,1,2,0:0:0:0:
362,31,41603,2,0,B|219:44,1,129,2|0,1:2|0:0,0:0:0:0:
211,56,41956,5,2,1:2:0:0:
249,134,42132,1,2,0:0:0:0:
221,255,42309,1,2,1:2:0:0:
296,210,42485,1,2,0:0:0:0:
371,165,42662,2,0,B|393:218|393:218|351:291,1,129,2|0,1:2|0:0,0:0:0:0:
352,303,43014,2,0,B|405:325|405:325|478:283,1,129,2|0,1:2|0:0,0:0:0:0:
476,280,43367,1,2,1:2:0:0:
447,196,43544,5,0,1:0:0:0:
371,165,43720,1,2,1:2:0:0:
290,158,43897,5,0,1:0:0:0:
281,246,44073,1,2,1:2:0:0:
229,327,44250,5,2,1:2:0:0:
155,264,44426,1,2,1:2:0:0:
54,273,44603,1,0,1:0:0:0:
101,189,44779,5,2,1:2:0:0:
70,80,44956,1,2,1:2:0:0:
217,86,45132,5,2,1:2:0:0:
107,10,45309,1,2,1:2:0:0:
235,92,45485,2,0,L|261:108,6,21.5,2|0|0|0|2|0|0,1:2|0:0|0:0|0:0|3:2|3:0|3:0,0:0:0:0:
324,136,45838,5,8,1:2:0:0:
0,384,46191,6,0,B|7:327|7:327|34:295|34:295|44:220,1,172,4|2,1:1|0:3,0:0:0:0:
21,96,46544,1,8,1:2:0:0:
131,165,46720,2,0,P|227:170|296:113,1,172,2|2,0:3|1:2,0:0:0:0:
402,3,47073,6,0,L|416:65,1,64.5,2|0,0:3|0:0,0:0:0:0:
474,121,47250,2,0,L|459:183,1,64.5,10|0,1:2|0:0,0:0:0:0:
402,239,47426,2,0,L|416:301,1,64.5,2|0,0:3|0:0,0:0:0:0:
489,371,47603,6,0,B|421:382|421:382|318:345,1,172,2|2,1:2|0:3,0:0:0:0:
277,257,47956,1,8,1:2:0:0:
182,369,48132,2,0,P|101:302|102:215,1,172,2|2,0:3|1:2,0:0:0:0:
71,83,48485,6,0,L|85:21,1,64.5,2|0,0:3|0:0,0:0:0:0:
28,201,48662,2,0,L|13:139,1,64.5,10|0,1:2|0:0,0:0:0:0:
71,319,48838,2,0,L|85:257,1,64.5,2|0,0:3|0:0,0:0:0:0:
10,380,49014,1,0,1:0:0:0:
204,358,49191,5,2,0:3:0:0:
308,191,49367,2,0,P|333:211|346:261,1,86,10|0,1:2|0:0,0:0:0:0:
356,353,49544,1,2,0:3:0:0:
356,353,49632,2,0,P|335:251|470:217,1,258,2|2,0:0|0:3,0:0:0:0:
355,134,50073,2,0,P|409:200|414:285,1,172,10|2,1:2|0:3,0:0:0:0:
264,165,50426,5,0,1:0:0:0:
267,51,50603,2,0,L|240:162,1,86,2|0,0:3|0:0,0:0:0:0:
181,201,50779,1,10,1:2:0:0:
175,209,50956,2,0,L|188:323,1,86,2|0,0:3|0:0,0:0:0:0:
246,384,51132,1,0,1:0:0:0:
90,283,51309,6,0,B|79:211|79:211|75:207|75:207|66:156|66:156|70:154|70:154|59:81,2,207.27765840187,2|8|8,0:3|1:2|0:2,0:0:0:0:
80,300,51750,1,8,0:2:0:0:
70,314,51838,2,0,P|123:312|156:300,1,86,4|0,1:0|0:0,0:0:0:0:
296,251,52014,2,0,P|254:238|211:237,1,86,2|0,0:3|0:0,0:0:0:0:
148,168,52191,1,8,1:2:0:0:
258,95,52367,6,1,B|198:43|129:81|129:81|163:75|196:92,1,187.499999999994,2|2,0:3|1:2,0:0:0:0:
406,188,52720,6,0,L|461:221,1,64.5,2|0,0:3|0:0,0:0:0:0:
360,95,52897,2,0,L|362:30,1,64.5,8|0,1:2|0:0,0:0:0:0:
303,189,53073,2,0,L|247:219,1,64.5,2|0,0:3|0:0,0:0:0:0:
148,168,53250,6,0,P|143:205|146:232,1,64.5,2|0,1:2|0:0,0:0:0:0:
52,291,53426,2,0,P|80:314|106:325,1,64.5,2|0,0:3|0:0,0:0:0:0:
0,384,53603,1,8,1:2:0:0:
47,212,53779,2,1,B|24:167|65:176|76:131|76:131|60:179|91:188|48:213,1,187.634714204064,2|2,0:3|1:2,0:0:0:0:
0,374,54132,6,0,L|81:388,1,64.5,2|0,3:0|0:0,0:0:0:0:
250,334,54309,2,0,L|169:348,1,64.5,8|0,1:2|0:0,0:0:0:0:
243,347,54485,2,0,L|162:361,1,64.5,2|0,3:0|3:0,0:0:0:0:
67,287,54662,5,8,1:2:0:0:
117,176,54838,1,2,3:2:0:0:
279,250,55014,5,10,1:2:0:0:
158,268,55191,1,0,3:2:0:0:
251,118,55367,1,10,1:2:0:0:
261,133,55456,1,8,0:2:0:0:
266,152,55544,6,0,L|235:228,1,64.5,2|0,3:2|0:0,0:0:0:0:
174,345,55720,2,0,L|165:262,1,64.5,10|0,1:2|0:0,0:0:0:0:
139,134,55897,2,0,L|108:210,1,64.5,2|0,3:2|0:0,0:0:0:0:
48,299,56073,1,0,1:2:0:0:
139,134,56956,5,2,3:2:0:0:
48,299,57132,1,14,1:2:0:0:
