osu file format v14

[General]
AudioFilename: audio.mp3
AudioLeadIn: 0
PreviewTime: 926
Countdown: 0
SampleSet: Soft
StackLeniency: 0.5
Mode: 0
LetterboxInBreaks: 0
WidescreenStoryboard: 1

[Editor]
Bookmarks: 17958
DistanceSpacing: 1
BeatDivisor: 4
GridSize: 32
TimelineZoom: 1.6

[Metadata]
Title:B.G.M
TitleUnicode:B.G.M
Artist:Utsu-P feat. KAFU
ArtistUnicode:鬱P feat. 可不
Creator:AssassinAlpha
Version:NORMAL
Source:
Tags:Solarmymommy dt_best_mod dt best mod o k u o_k_u oku utsup 1/1440 Musical Isotope CeVIO AI Artificial Singing Synthesizer Kamitsubaki Studio 神椿スタジオ Japanese English Rock Youtube Shorts One Minute Minutes Boobs Girl Music BGM JRock J-Rock
BeatmapID:3861906
BeatmapSetID:1875822

[Difficulty]
HPDrainRate:4.3
CircleSize:3.6
OverallDifficulty:4.6
ApproachRate:5.3
SliderMultiplier:1.06
SliderTickRate:1

[Events]
//Background and Video events
Video,82,"out.avi"
0,0,"BG.jpg",0,0
//Break Periods
//Storyboard Layer 0 (Background)
//Storyboard Layer 1 (Fail)
//Storyboard Layer 2 (Pass)
//Storyboard Layer 3 (Foreground)
//Storyboard Layer 4 (Overlay)
//Storyboard Sound Samples

[TimingPoints]
1015,352.941176470588,4,2,1,70,1,0
3838,-100,4,2,1,75,0,0
6662,-100,4,2,1,85,0,0
17956,-100,4,2,1,90,0,0
27837,-100,4,2,1,85,0,0
27840,-100,4,2,1,85,0,0
29250,-111.111111111111,4,2,1,80,0,0
40544,-111.111111111111,4,2,1,70,0,0
43367,-111.111111111111,4,2,1,75,0,0
46191,-100,4,2,1,90,0,0

[Colours]
Combo1 : 160,173,181
Combo2 : 254,164,166
Combo3 : 101,202,212
Combo4 : 159,218,224

[HitObjects]
448,207,1015,6,0,B|392:204|392:204|349:242,1,106,2|2,1:2|1:2,0:0:0:0:
304,330,1720,2,0,P|307:359|328:383,2,53,2|2|2,1:2|0:0|1:2,0:0:0:0:
217,267,2426,6,0,L|230:203,1,53,2|2,1:2|0:0,0:0:0:0:
267,180,2779,2,0,L|254:116,1,53,2|2,1:2|0:0,0:0:0:0:
216,101,3132,1,2,1:2:0:0:
141,26,3485,1,2,1:2:0:0:
114,128,3838,6,0,B|127:177|127:177|133:185|133:185|147:238,1,106,2|2,1:2|1:2,0:0:0:0:
87,318,4544,2,0,P|60:315|38:300,2,53,2|2|2,1:2|1:2|1:2,0:0:0:0:
177,373,5250,2,0,P|205:370|229:354,1,53,2|2,1:2|1:2,0:0:0:0:
259,316,5603,2,0,P|287:319|311:335,1,53,2|2,1:2|1:2,0:0:0:0:
330,380,5956,1,2,1:2:0:0:
491,242,6662,6,0,L|466:128,1,106,6|10,1:2|1:2,0:0:0:0:
395,61,7367,2,0,L|407:3,2,53,0|2|10,1:0|0:3|1:2,0:0:0:0:
317,134,8073,2,0,P|285:130|253:111,1,53,2|2,1:2|0:3,0:0:0:0:
227,85,8426,2,0,P|195:89|163:108,1,53,10|2,1:2|0:3,0:0:0:0:
145,141,8779,1,2,1:2:0:0:
206,227,9132,1,10,1:2:0:0:
156,321,9485,6,0,P|130:320|99:296,1,53,2|2,1:2|0:3,0:0:0:0:
54,310,9838,2,0,P|38:289|36:250,1,53,10|2,1:2|0:3,0:0:0:0:
0,221,10191,2,0,P|5:195|34:168,1,53,2|2,1:2|0:3,0:0:0:0:
74,179,10544,1,8,1:2:0:0:
39,78,10897,6,0,L|145:61,1,106,0|10,1:0|1:2,0:0:0:0:
181,24,11426,1,2,3:3:0:0:
181,24,11603,1,0,1:0:0:0:
286,29,11956,1,10,1:2:0:0:
270,133,12309,6,0,P|324:140|363:104,1,106,2|10,1:2|1:2,0:0:0:0:
397,9,13014,6,0,P|426:-4|451:1,1,53,0|2,1:0|0:3,0:0:0:0:
486,33,13367,1,10,1:2:0:0:
508,136,13720,2,0,L|491:191,1,53,2|2,1:2|0:3,0:0:0:0:
446,211,14073,2,0,L|463:266,1,53,10|2,1:2|0:3,0:0:0:0:
507,289,14426,2,0,L|490:344,1,53,2|2,1:2|0:3,0:0:0:0:
451,375,14779,1,10,1:2:0:0:
346,373,15132,6,0,L|224:337,1,106,2|10,1:2|1:2,0:0:0:0:
198,367,15662,1,2,0:3:0:0:
198,367,15838,2,0,P|160:313|167:259,1,106,2|10,1:2|1:2,0:0:0:0:
225,190,16544,2,0,L|209:129,2,53,2|2|8,3:2|0:3|3:0,0:0:0:0:
273,222,17073,1,2,0:3:0:0:
273,222,17250,1,2,0:0:0:0:
473,291,17956,6,0,B|420:302|420:302|410:309|410:309|363:319,1,106,4|8,1:1|1:2,0:0:0:0:
323,308,18485,1,2,0:3:0:0:
323,308,18662,2,0,P|298:326|285:354,2,53,2|2|10,1:2|0:3|1:2,0:0:0:0:
386,223,19367,6,0,P|389:159|350:136,1,106,2|8,1:2|1:2,0:0:0:0:
311,156,19897,1,2,0:3:0:0:
311,156,20073,2,0,P|282:144|266:115,2,53,2|2|10,1:2|0:3|1:2,0:0:0:0:
338,53,20779,6,0,L|398:42,1,53,0|2,1:2|0:3,0:0:0:0:
424,3,21132,2,0,L|484:14,1,53,10|2,1:2|0:3,0:0:0:0:
512,49,21485,2,0,P|513:79|498:105,1,53,0|2,1:0|0:3,0:0:0:0:
453,118,21838,1,10,1:2:0:0:
453,118,22014,1,2,0:3:0:0:
469,168,22191,6,0,L|445:287,1,106,0|8,1:0|1:2,0:0:0:0:
407,370,22897,2,0,B|353:347|377:330|321:304,1,106,2|8,1:2|1:2,0:0:0:0:
248,236,23603,6,0,L|127:268,1,106,4|8,1:2|1:2,0:0:0:0:
116,308,24132,1,2,0:3:0:0:
116,308,24309,2,0,P|78:301|57:281,2,53,2|2|10,1:2|0:3|1:2,0:0:0:0:
165,214,25014,6,0,P|178:155|154:118,1,106,2|8,1:2|1:2,0:0:0:0:
116,89,25544,1,2,0:3:0:0:
116,89,25720,2,0,L|59:104,2,53,2|2|10,1:2|0:3|1:2,0:0:0:0:
203,56,26426,6,0,L|261:68,1,53,8|2,1:2|3:2,0:0:0:0:
294,101,26779,2,0,L|352:89,1,53,10|0,1:2|3:0,0:0:0:0:
395,110,27132,2,0,P|428:104|449:77,1,53,10|2,1:2|3:2,0:0:0:0:
466,44,27485,2,0,P|499:50|520:77,2,53,8|2|2,1:2|3:2|1:2,0:0:0:0:
403,209,28720,1,2,1:2:0:0:
403,209,28897,1,2,1:2:0:0:
330,270,29250,6,0,B|287:243|287:243|231:247,1,95.4000000000001,4|2,1:2|1:2,0:0:0:0:
175,314,29956,2,0,B|153:327|153:327|125:325,1,47.7,8|2,1:2|0:0,0:0:0:0:
99,289,30309,1,0,1:0:0:0:
36,216,30662,6,0,L|60:104,1,95.4000000000001,2|2,1:2|1:2,0:0:0:0:
17,35,31367,2,0,P|70:-1|102:7,1,95.4000000000001,10|2,1:2|1:2,0:0:0:0:
133,43,31897,1,2,3:2:0:0:
133,43,32073,6,0,B|174:47|174:47|181:51|181:51|229:56,1,95.4000000000001,0|0,1:0|1:0,0:0:0:0:
298,119,32779,2,0,L|351:112,1,47.7,10|0,1:2|0:0,0:0:0:0:
376,90,33132,1,0,1:0:0:0:
434,14,33485,6,0,P|485:26|506:75,1,95.4000000000001,6|0,1:2|1:0,0:0:0:0:
458,144,34191,2,0,L|474:197,1,47.7,10|2,1:2|3:2,0:0:0:0:
508,220,34544,1,10,1:2:0:0:
448,294,34897,6,0,P|419:307|386:307,1,47.7,0|2,1:0|0:0,0:0:0:0:
370,274,35250,2,0,P|341:261|308:261,1,47.7,2|2,0:0|0:0,0:0:0:0:
284,283,35603,1,14,1:2:0:0:
238,366,35956,6,0,L|180:352,1,47.7,2|2,1:2|3:2,0:0:0:0:
159,318,36309,2,0,L|101:332,1,47.7,2|2,1:2|3:2,0:0:0:0:
80,364,36662,1,2,1:2:0:0:
14,294,37014,6,0,P|-2:272|0:247,1,47.7,10|2,1:2|3:2,0:0:0:0:
30,216,37367,2,0,P|46:194|44:169,1,47.7,10|2,1:2|3:2,0:0:0:0:
9,143,37720,2,0,P|-7:89|30:53,1,95.4000000000001,0|0,1:0|1:0,0:0:0:0:
94,8,38426,2,0,L|143:18,1,47.7,10|2,1:2|3:2,0:0:0:0:
175,50,38779,1,8,1:2:0:0:
251,107,39132,6,0,L|361:90,1,95.4000000000001,2|10,1:2|1:2,0:0:0:0:
430,135,39838,2,0,P|430:168|420:186,1,47.7,8|10,1:2|0:2,0:0:0:0:
389,213,40191,1,10,1:2:0:0:
303,255,40544,6,0,B|254:242|254:242|222:196,1,95.4000000000001,2|2,1:2|1:2,0:0:0:0:
236,109,41250,2,0,P|260:99|284:105,2,47.7,2|2|2,1:2|0:0|1:2,0:0:0:0:
157,164,41956,2,0,L|95:179,1,47.7,2|2,1:2|0:0,0:0:0:0:
72,147,42309,2,0,L|10:162,1,47.7,2|2,1:2|0:0,0:0:0:0:
3,200,42662,1,2,1:2:0:0:
2,295,43014,1,2,1:2:0:0:
88,334,43367,6,0,B|130:325|130:325|143:325|143:325|188:311,1,95.4000000000001,2|2,1:2|1:2,0:0:0:0:
230,231,44073,2,0,P|220:207|203:190,2,47.7,2|2|2,1:2|1:2|1:2,0:0:0:0:
273,316,44779,2,0,L|328:327,1,47.7,2|2,1:2|1:2,0:0:0:0:
357,355,45132,2,0,L|412:344,1,47.7,2|2,1:2|1:2,0:0:0:0:
445,369,45485,1,2,1:2:0:0:
447,156,46191,6,0,B|398:168|398:168|382:166|382:166|333:180,1,106,4|8,1:1|1:2,0:0:0:0:
307,145,46720,1,2,0:3:0:0:
307,145,46897,2,0,L|296:87,2,53,2|2|10,1:2|0:3|1:2,0:0:0:0:
232,218,47603,6,0,B|172:222|172:222|129:188,1,106,2|8,1:2|1:2,0:0:0:0:
101,160,48132,1,2,0:3:0:0:
101,160,48309,2,0,L|119:107,2,53,2|2|10,1:2|0:3|1:2,0:0:0:0:
27,236,49014,6,0,L|59:349,1,106,0|10,1:0|1:2,0:0:0:0:
103,372,49544,1,2,0:3:0:0:
103,372,49720,2,0,P|136:369|160:348,1,53,0|2,1:0|0:3,0:0:0:0:
180,313,50073,2,0,P|213:315|237:336,1,53,10|2,1:2|0:3,0:0:0:0:
253,373,50426,6,0,P|311:372|353:348,1,106,0|10,1:0|1:2,0:0:0:0:
390,261,51132,2,0,L|356:146,1,106,0|8,1:0|1:2,0:0:0:0:
434,83,51838,6,0,P|385:47|330:58,1,106,4|8,1:0|1:2,0:0:0:0:
304,88,52367,1,2,0:3:0:0:
304,88,52544,2,0,P|277:101|251:100,2,53,2|2|8,1:2|0:3|1:2,0:0:0:0:
359,159,53250,2,0,L|332:272,1,106,2|8,1:2|1:2,0:0:0:0:
300,303,53779,1,2,0:3:0:0:
300,303,53956,2,0,L|313:360,2,53,2|2|8,1:2|3:0|1:2,0:0:0:0:
217,235,54662,6,0,P|194:220|160:219,1,53,8|2,1:2|3:2,0:0:0:0:
130,180,55014,2,0,P|103:187|81:213,1,53,10|0,1:2|3:2,0:0:0:0:
40,232,55367,1,10,1:2:0:0:
40,232,55544,2,0,L|55:287,1,53,2|10,3:2|1:2,0:0:0:0:
101,317,55897,1,2,3:2:0:0:
101,317,56073,1,0,1:2:0:0:
256,192,56956,5,2,3:2:0:0:
256,192,57132,1,14,1:2:0:0:
