osu file format v14

[General]
AudioFilename: audio.mp3
AudioLeadIn: 0
PreviewTime: 926
Countdown: 0
SampleSet: Soft
StackLeniency: 0.5
Mode: 0
LetterboxInBreaks: 0
WidescreenStoryboard: 1

[Editor]
Bookmarks: 17958
DistanceSpacing: 1
BeatDivisor: 4
GridSize: 32
TimelineZoom: 1.6

[Metadata]
Title:B.G.M
TitleUnicode:B.G.M
Artist:Utsu-P feat. KAFU
ArtistUnicode:鬱P feat. 可不
Creator:AssassinAlpha
Version:HARD
Source:
Tags:Solarmymommy dt_best_mod dt best mod o k u o_k_u oku utsup 1/1440 Musical Isotope CeVIO AI Artificial Singing Synthesizer Kamitsubaki Studio 神椿スタジオ Japanese English Rock Youtube Shorts One Minute Minutes Boobs Girl Music BGM JRock J-Rock
BeatmapID:3861848
BeatmapSetID:1875822

[Difficulty]
HPDrainRate:5
CircleSize:3.7
OverallDifficulty:6.3
ApproachRate:7.6
SliderMultiplier:1.64
SliderTickRate:1

[Events]
//Background and Video events
Video,82,"out.avi"
0,0,"BG.jpg",0,0
//Break Periods
//Storyboard Layer 0 (Background)
//Storyboard Layer 1 (Fail)
//Storyboard Layer 2 (Pass)
//Storyboard Layer 3 (Foreground)
//Storyboard Layer 4 (Overlay)
//Storyboard Sound Samples

[TimingPoints]
1015,352.941176470588,4,2,1,70,1,0
1720,-125,4,2,1,70,0,0
3838,-111.111111111111,4,2,1,75,0,0
5603,-100,4,2,1,75,0,0
6662,-83.3333333333333,4,2,1,85,0,0
7367,-100,4,2,1,85,0,0
17956,-100,4,2,1,90,0,0
19544,-95.2380952380952,4,2,1,90,0,0
20779,-90.9090909090909,4,2,1,90,0,0
22191,-95.2380952380952,4,2,1,90,0,0
22897,-86.9565217391304,4,2,1,90,0,0
23603,-100,4,2,1,90,0,0
25191,-95.2380952380952,4,2,1,90,0,0
26779,-90.9090909090909,4,2,1,90,0,0
27132,-95.2380952380952,4,2,1,90,0,0
27838,-166.666666666667,4,2,1,85,0,0
29250,-100,4,2,1,80,0,0
40544,-100,4,2,1,70,0,0
41250,-125,4,2,1,70,0,0
43367,-111.111111111111,4,2,1,75,0,0
45132,-100,4,2,1,75,0,0
46191,-100,4,2,1,90,0,0
47779,-95.2380952380952,4,2,1,90,0,0
49014,-90.9090909090909,4,2,1,90,0,0
50426,-95.2380952380952,4,2,1,90,0,0
51132,-86.9565217391304,4,2,1,90,0,0
51838,-100,4,2,1,90,0,0
53426,-95.2380952380952,4,2,1,90,0,0
55014,-90.9090909090909,4,2,1,90,0,0
55367,-95.2380952380952,4,2,1,90,0,0

[Colours]
Combo1 : 160,173,181
Combo2 : 254,164,166
Combo3 : 101,202,212
Combo4 : 159,218,224

[HitObjects]
147,24,1015,5,2,1:2:0:0:
302,0,1367,1,2,1:2:0:0:
402,121,1720,2,0,L|383:197,1,65.6,2|2,1:2|0:0,0:0:0:0:
323,232,2073,2,0,L|351:339,1,98.4,2|0,1:2|0:0,0:0:0:0:
376,354,2426,6,0,P|398:353|433:322,1,65.6,2|2,1:2|0:0,0:0:0:0:
485,269,2779,2,0,P|462:246|430:241,1,65.6,2|2,1:2|0:0,0:0:0:0:
382,178,3132,2,0,B|319:193|319:193|303:203|303:203|241:217,1,131.2,2|2,1:2|1:2,0:0:0:0:
185,192,3662,1,0,0:0:0:0:
185,192,3838,6,0,P|164:156|174:116,1,73.8000000000001,2|0,1:2|1:0,0:0:0:0:
253,98,4191,2,0,P|272:67|269:31,1,73.8000000000001,2|0,1:2|1:0,0:0:0:0:
184,3,4544,1,2,1:2:0:0:
184,3,4720,1,2,1:2:0:0:
117,61,4897,2,0,L|42:84,1,73.8000000000001,2|0,1:2|1:0,0:0:0:0:
105,168,5250,5,2,1:2:0:0:
105,168,5426,1,2,1:2:0:0:
35,238,5603,2,0,L|23:197,2,41,2|0|2,1:2|0:0|1:2,0:0:0:0:
106,278,5956,1,2,1:2:0:0:
182,284,6662,6,0,B|276:296|228:334|315:353,1,147.6,6|0,1:2|0:0,0:0:0:0:
348,378,7014,2,0,B|389:368|389:368|397:371|397:371|451:355,1,98.4,10|2,1:2|0:3,0:0:0:0:
499,298,7367,2,0,P|499:268|488:248,2,41,0|0|2,1:0|0:0|0:3,0:0:0:0:
431,211,7720,2,0,P|390:201|358:233,1,82,10|2,1:2|0:3,0:0:0:0:
320,295,8073,6,0,L|222:274,1,82,2|2,1:2|0:3,0:0:0:0:
203,296,8338,1,0,0:0:0:0:
203,296,8426,2,0,P|179:257|197:214,1,82,10|2,1:2|0:3,0:0:0:0:
258,182,8779,2,0,P|282:143|264:100,2,82,2|2|10,1:2|0:3|1:2,0:0:0:0:
190,134,9309,1,2,0:3:0:0:
195,52,9485,6,0,P|234:45|280:33,1,82,2|2,1:2|0:3,0:0:0:0:
354,12,9838,2,0,P|393:19|439:31,1,82,10|2,1:2|0:3,0:0:0:0:
492,86,10191,2,0,B|458:126|458:126|489:194,1,123,2|0,1:2|0:0,0:0:0:0:
511,223,10544,2,0,L|499:270,2,41,8|2|2,1:2|0:0|0:3,0:0:0:0:
452,333,10897,6,0,P|402:331|379:300,1,82,0|2,1:0|0:3,0:0:0:0:
332,243,11250,2,0,L|347:147,1,82,10|2,1:2|3:3,0:0:0:0:
331,123,11514,1,8,3:2:0:0:
331,123,11603,2,0,P|264:119|235:166,1,123,0|0,1:0|0:0,0:0:0:0:
224,200,11956,2,0,P|177:202|158:170,1,82,10|2,1:2|3:0,0:0:0:0:
109,110,12309,6,0,L|123:57,2,41,2|2|2,1:2|0:0|0:3,0:0:0:0:
186,23,12662,1,10,1:2:0:0:
186,23,12838,1,2,0:3:0:0:
247,76,13014,6,0,L|261:129,2,41,0|2|2,1:0|0:0|0:3,0:0:0:0:
324,162,13367,1,10,1:2:0:0:
324,162,13544,1,2,0:3:0:0:
296,239,13720,6,0,P|254:263|211:242,1,82,2|2,1:2|0:3,0:0:0:0:
202,219,13985,1,2,0:0:0:0:
202,219,14073,2,0,P|160:195|117:216,1,82,10|2,1:2|0:3,0:0:0:0:
66,255,14426,2,0,L|88:343,1,82,2|2,1:2|0:3,0:0:0:0:
173,380,14779,1,10,1:2:0:0:
173,380,14956,1,2,0:3:0:0:
241,335,15132,6,0,P|286:335|317:370,1,82,2|2,1:2|0:3,0:0:0:0:
370,300,15485,2,0,L|346:211,1,82,10|2,1:2|0:3,0:0:0:0:
287,165,15838,6,0,P|242:165|211:200,1,82,2|2,1:2|3:0,0:0:0:0:
150,139,16191,1,10,1:2:0:0:
150,139,16279,1,8,0:0:0:0:
150,139,16367,1,2,3:3:0:0:
150,139,17603,5,8,1:2:0:0:
150,139,17956,6,0,B|234:124|234:124|269:149,1,123,4|0,1:1|0:0,0:0:0:0:
278,184,18309,2,0,P|321:219|361:213,1,82,8|2,1:2|0:3,0:0:0:0:
406,164,18662,2,0,L|385:76,1,82,2|2,1:2|0:3,0:0:0:0:
442,23,19014,1,10,1:2:0:0:
442,23,19191,1,2,0:3:0:0:
363,1,19367,6,0,B|306:7|306:7|289:19|289:19|241:25,1,123,2|0,1:2|0:0,0:0:0:0:
206,4,19720,2,0,P|183:44|195:83,1,86.1,8|2,1:2|0:3,0:0:0:0:
273,111,20073,2,0,P|296:151|284:190,1,86.1,2|2,1:2|0:3,0:0:0:0:
244,263,20426,1,10,1:2:0:0:
244,263,20603,1,2,0:3:0:0:
186,194,20779,6,0,L|81:160,1,90.2,0|2,1:2|0:3,0:0:0:0:
46,99,21132,1,10,1:2:0:0:
46,99,21309,2,0,P|50:68|74:53,2,45.1,2|2|0,0:3|0:0|1:0,0:0:0:0:
109,173,21662,1,2,0:3:0:0:
109,173,21838,2,0,P|113:231|76:259,1,90.2,10|2,1:2|0:3,0:0:0:0:
42,321,22191,6,0,B|99:329|99:329|112:341|112:341|169:349,1,129.15,0|0,1:0|0:0,0:0:0:0:
198,376,22544,2,0,B|237:370|237:370|246:361|246:361|284:356,1,86.1,8|2,1:2|0:3,0:0:0:0:
339,283,22897,2,0,P|344:233|258:205,1,141.45,2|0,1:2|0:0,0:0:0:0:
243,237,23250,1,8,1:2:0:0:
199,165,23426,1,10,0:0:0:0:
199,165,23514,1,8,0:0:0:0:
199,165,23603,6,0,B|187:109|187:109|188:90|188:90|176:39,1,123,4|0,1:2|0:0,0:0:0:0:
153,10,23956,2,0,P|105:8|82:45,1,82,8|2,1:2|0:3,0:0:0:0:
20,82,24309,2,0,L|47:165,1,82,2|2,1:2|0:3,0:0:0:0:
125,194,24662,1,10,1:2:0:0:
125,194,24838,1,2,0:3:0:0:
86,270,25014,6,0,P|141:280|196:232,1,123,2|0,1:2|0:0,0:0:0:0:
209,202,25367,2,0,P|264:192|303:223,1,86.1,8|2,1:2|0:3,0:0:0:0:
337,273,25720,2,0,P|392:283|431:252,1,86.1,2|2,1:2|0:3,0:0:0:0:
470,201,26073,1,10,1:2:0:0:
470,201,26250,2,0,L|453:153,2,43.0499986862183,2|0|8,3:0|3:0|1:2,0:0:0:0:
401,101,26603,5,2,3:2:0:0:
401,101,26779,2,0,L|302:86,1,90.2000027526856,10|0,1:2|3:0,0:0:0:0:
240,39,27132,2,0,L|190:46,2,43.0499986862183,10|8|2,1:2|0:2|3:2,0:0:0:0:
151,113,27485,1,8,1:2:0:0:
151,113,27662,1,2,3:2:0:0:
206,171,27838,5,2,1:2:0:0:
163,259,28191,5,2,1:2:0:0:
163,259,28367,1,2,1:2:0:0:
276,228,28720,5,2,1:2:0:0:
276,228,28896,1,2,1:2:0:0:
260,118,29250,6,0,B|354:130|299:182|407:206,2,164,4|2|8,1:2|1:2|1:2,0:0:0:0:
417,58,30309,1,0,1:0:0:0:
417,58,30397,1,0,3:0:0:0:
417,58,30485,1,0,3:0:0:0:
355,3,30662,2,0,L|316:18,2,41,2|2|2,1:2|0:0|3:2,0:0:0:0:
267,82,31014,1,2,1:2:0:0:
267,82,31191,1,2,3:2:0:0:
200,129,31367,2,0,L|161:114,2,41,10|0|0,1:2|3:0|3:0,0:0:0:0:
112,50,31720,1,2,1:2:0:0:
112,50,31897,1,2,3:2:0:0:
60,113,32073,6,0,B|77:186|77:186|89:205|89:205|107:276,2,164,0|0|10,1:0|1:0|1:2,0:0:0:0:
196,204,33132,1,0,1:0:0:0:
196,204,33220,1,0,3:0:0:0:
196,204,33309,1,0,3:0:0:0:
254,261,33485,6,0,P|298:259|330:222,1,82,6|2,1:2|3:2,0:0:0:0:
326,193,33750,1,0,3:2:0:0:
326,193,33838,1,0,1:0:0:0:
273,130,34014,1,2,3:2:0:0:
327,68,34191,2,0,L|375:82,2,41,10|0|2,1:2|3:0|3:2,0:0:0:0:
267,10,34544,2,0,L|174:31,1,82,10|0,1:2|3:0,0:0:0:0:
108,2,34897,5,0,1:0:0:0:
108,2,35603,2,0,B|90:61|120:55|99:126,1,123,14|0,1:2|0:0,0:0:0:0:
70,152,35956,6,0,L|22:137,2,41,2|2|2,1:2|3:2|3:2,0:0:0:0:
146,202,36309,1,2,1:2:0:0:
146,202,36397,1,2,3:2:0:0:
146,202,36485,1,2,3:2:0:0:
173,279,36662,2,0,L|125:294,2,41,2|2|2,1:2|0:0|3:2,0:0:0:0:
249,229,37014,1,10,1:2:0:0:
249,229,37103,1,2,3:2:0:0:
249,229,37191,1,2,3:2:0:0:
277,152,37367,2,0,L|229:137,2,41,10|2|2,1:2|3:2|3:2,0:0:0:0:
346,106,37720,5,0,1:0:0:0:
346,106,37897,2,0,L|360:57,1,41,10|2,0:2|0:0,0:0:0:0:
346,27,38073,2,0,P|305:3|260:26,1,82,0|0,1:0|3:0,0:0:0:0:
250,45,38338,1,0,0:0:0:0:
250,45,38426,2,0,P|209:69|164:46,1,82,10|2,1:2|3:2,0:0:0:0:
116,5,38779,2,0,P|88:10|71:24,2,41,8|8|0,1:2|0:2|3:0,0:0:0:0:
39,87,39132,5,2,1:2:0:0:
106,147,39309,1,10,0:2:0:0:
106,147,39397,1,10,0:2:0:0:
106,147,39485,2,0,L|95:200,2,41,10|10|10,1:2|0:2|0:2,0:0:0:0:
161,236,39838,1,8,1:2:0:0:
123,308,40014,1,10,0:2:0:0:
123,308,40103,1,10,0:2:0:0:
123,308,40191,2,0,L|68:290,3,41,10|8|8|8,1:2|0:2|0:2|0:2,0:0:0:0:
55,311,40544,5,2,1:2:0:0:
161,236,40897,1,2,1:2:0:0:
270,344,41250,2,0,P|310:357|342:339,1,65.6,2|2,1:2|0:0,0:0:0:0:
373,283,41603,2,0,L|344:178,1,98.4,2|0,1:2|0:0,0:0:0:0:
314,164,41956,6,0,P|325:123|362:117,1,65.6,2|2,1:2|0:0,0:0:0:0:
390,51,42309,2,0,P|432:51|447:85,1,65.6,2|2,1:2|0:0,0:0:0:0:
509,112,42662,2,0,B|496:172|496:172|491:185|491:185|478:257,1,131.2,2|2,1:2|1:2,0:0:0:0:
502,315,43191,1,0,0:0:0:0:
502,315,43367,6,0,P|461:341|428:330,1,73.8000000000001,2|0,1:2|1:0,0:0:0:0:
377,272,43720,2,0,P|336:246|303:257,1,73.8000000000001,2|0,1:2|1:0,0:0:0:0:
260,322,44073,1,2,1:2:0:0:
260,322,44250,1,2,1:2:0:0:
193,264,44426,2,0,L|211:174,1,73.8000000000001,2|0,1:2|1:0,0:0:0:0:
161,123,44779,1,2,1:2:0:0:
161,123,44956,1,2,1:2:0:0:
218,64,45132,2,0,L|261:78,2,41,2|0|2,1:2|0:0|1:2,0:0:0:0:
317,138,45485,1,2,1:2:0:0:
317,138,45662,2,0,L|360:124,2,41,2|0|8,3:2|3:0|1:2,0:0:0:0:
317,138,46191,6,0,B|346:193|346:193|348:263,1,123,4|0,1:1|0:0,0:0:0:0:
326,289,46544,2,0,B|287:281|287:281|275:283|275:283|245:277,1,82,8|2,1:2|0:3,0:0:0:0:
190,215,46897,2,0,B|151:222|151:222|139:221|139:221|109:227,1,82,2|2,1:2|0:3,0:0:0:0:
52,286,47250,1,10,1:2:0:0:
52,286,47426,1,2,0:3:0:0:
4,218,47603,2,0,P|-11:160|37:124,1,123,2|0,1:2|0:0,0:0:0:0:
65,95,47956,2,0,L|165:110,1,86.0999973724366,8|2,1:2|0:3,0:0:0:0:
206,173,48309,2,0,L|306:158,1,86.0999973724366,2|2,1:2|0:3,0:0:0:0:
354,101,48662,1,10,1:2:0:0:
354,101,48838,1,2,0:3:0:0:
300,28,49014,6,0,P|263:6|208:16,1,90.2000027526856,0|2,1:0|0:3,0:0:0:0:
247,90,49367,1,10,1:2:0:0:
247,90,49544,2,0,L|262:141,2,45.1000013763428,2|2|0,0:3|0:0|1:0,0:0:0:0:
231,209,49897,1,2,0:3:0:0:
231,209,50073,2,0,P|186:213|148:191,1,90.2000027526856,10|2,1:2|0:3,0:0:0:0:
65,166,50426,6,0,L|97:301,1,129.149996058655,0|0,1:0|0:0,0:0:0:0:
75,330,50779,2,0,P|120:359|155:348,1,86.0999973724366,10|2,1:2|0:3,0:0:0:0:
221,291,51132,6,0,B|260:234|260:234|239:156,1,141.45,0|0,1:0|0:0,0:0:0:0:
200,141,51485,1,8,1:2:0:0:
194,54,51662,1,8,0:2:0:0:
194,54,51750,1,8,0:2:0:0:
194,54,51838,6,0,B|119:67|157:92|91:114,1,123,4|0,1:0|0:0,0:0:0:0:
66,80,52191,2,0,P|27:93|17:144,1,82,8|2,1:2|0:3,0:0:0:0:
7,210,52544,2,0,L|32:299,1,82,2|2,1:2|0:3,0:0:0:0:
102,336,52897,1,8,1:2:0:0:
102,336,53073,1,2,0:3:0:0:
138,262,53250,6,0,P|197:246|238:299,1,123,2|0,1:2|0:0,0:0:0:0:
251,326,53603,2,0,P|302:326|328:296,1,86.1,8|2,1:2|0:3,0:0:0:0:
392,248,53956,2,0,L|362:158,1,86.0999973724366,2|2,1:2|3:0,0:0:0:0:
311,105,54309,1,8,1:2:0:0:
311,105,54485,2,0,L|329:54,2,43.05,2|0|8,3:0|3:0|1:2,0:0:0:0:
265,9,54838,1,2,3:2:0:0:
265,9,55014,6,0,B|220:14|220:14|208:21|208:21|169:27,1,90.2000027526856,10|0,1:2|3:2,0:0:0:0:
119,90,55367,2,0,L|68:78,2,43.0499986862183,10|8|2,1:2|0:2|3:2,0:0:0:0:
181,149,55720,1,10,1:2:0:0:
181,149,55897,1,2,3:2:0:0:
249,208,56956,5,2,3:2:0:0:
168,238,57132,1,14,1:2:0:0:
