osu file format v14

[General]
AudioFilename: audio.mp3
AudioLeadIn: 0
PreviewTime: 926
Countdown: 0
SampleSet: Soft
StackLeniency: 0.5
Mode: 0
LetterboxInBreaks: 0
WidescreenStoryboard: 1

[Editor]
DistanceSpacing: 0.1
BeatDivisor: 4
GridSize: 32
TimelineZoom: 1.6

[Metadata]
Title:B.G.M
TitleUnicode:B.G.M
Artist:Utsu-P feat. KAFU
ArtistUnicode:鬱P feat. 可不
Creator:AssassinAlpha
Version:EXPERT
Source:
Tags:Solarmymommy dt_best_mod dt best mod o k u o_k_u oku utsup 1/1440 Musical Isotope CeVIO AI Artificial Singing Synthesizer Kamitsubaki Studio 神椿スタジオ Japanese English Rock Youtube Shorts One Minute Minutes Boobs Girl Music BGM JRock J-Rock
BeatmapID:3860229
BeatmapSetID:1875822

[Difficulty]
HPDrainRate:5.5
CircleSize:4.4
OverallDifficulty:8.8
ApproachRate:9.2
SliderMultiplier:2.02
SliderTickRate:1

[Events]
//Background and Video events
Video,82,"out.avi"
0,0,"BG.jpg",0,0
//Break Periods
//Storyboard Layer 0 (Background)
//Storyboard Layer 1 (Fail)
//Storyboard Layer 2 (Pass)
//Storyboard Layer 3 (Foreground)
//Storyboard Layer 4 (Overlay)
//Storyboard Sound Samples

[TimingPoints]
1015,352.941176470588,4,2,1,70,1,0
1279,-100,4,2,1,70,0,0
1367,-125,4,2,1,70,0,0
1632,-125,4,2,1,70,0,0
1720,-125,4,2,1,70,0,0
2073,-125,4,2,1,70,0,0
2338,-125,4,2,1,70,0,0
2426,-125,4,2,1,70,0,0
3397,-125,4,2,1,70,0,0
3485,-125,4,2,1,70,0,0
3750,-125,4,2,1,70,0,0
3838,-125,4,2,1,75,0,0
5250,-99.9999999999999,4,2,1,75,0,0
5338,-99.9999999999999,4,2,1,75,0,0
5426,-90.9090909090909,4,2,1,75,0,0
5514,-90.9090909090909,4,2,1,75,0,0
5603,-83.3333333333333,4,2,1,75,0,0
6132,-71.4285714285714,4,2,1,75,0,0
6662,-58.8235294117647,4,2,1,85,0,0
7014,-83.3333333333333,4,2,1,85,0,0
7367,-62.5,4,2,1,85,0,0
7720,-83.3333333333333,4,2,1,85,0,0
8073,-71.4285714285714,4,2,1,85,0,0
8426,-58.8235294117647,4,2,1,85,0,0
8603,-62.5,4,2,1,85,0,0
8779,-66.6666666666667,4,2,1,85,0,0
8956,-71.4285714285714,4,2,1,85,0,0
9485,-55.5555555555556,4,2,1,85,0,0
9662,-71.4285714285714,4,2,1,85,0,0
9838,-55.5555555555556,4,2,1,85,0,0
10014,-71.4285714285714,4,2,1,85,0,0
10544,-62.5,4,2,1,85,0,0
10897,-83.3333333333333,4,2,1,85,0,0
11250,-62.5,4,2,1,85,0,0
11603,-71.4285714285714,4,2,1,85,0,0
11956,-55.5555555555556,4,2,1,85,0,0
12132,-71.4285714285714,4,2,1,85,0,0
12662,-62.5,4,2,1,85,0,0
13191,-71.4285714285714,4,2,1,85,0,0
13367,-62.5,4,2,1,85,0,0
13720,-71.4285714285714,4,2,1,85,0,0
14073,-62.5,4,2,1,85,0,0
14250,-66.6666666666667,4,2,1,85,0,0
14426,-71.4285714285714,4,2,1,85,0,0
14603,-76.9230769230769,4,2,1,85,0,0
14779,-62.5,4,2,1,85,0,0
14956,-83.3333333333333,4,2,1,85,0,0
15132,-71.4285714285714,4,2,1,85,0,0
15485,-62.5,4,2,1,85,0,0
15838,-71.4285714285714,4,2,1,85,0,0
16367,-62.5,4,2,1,85,0,0
16544,-142.857142857143,4,2,1,85,0,0
17603,-166.666666666667,4,2,1,85,0,0
17956,-55.5555555555556,4,2,1,90,0,1
18309,-62.5,4,2,1,90,0,1
18662,-71.4285714285714,4,2,1,90,0,1
19367,-55.5555555555556,4,2,1,90,0,1
19720,-62.5,4,2,1,90,0,1
20073,-71.4285714285714,4,2,1,90,0,1
20779,-62.5,4,2,1,90,0,1
21485,-71.4285714285714,4,2,1,90,0,1
21838,-62.5,4,2,1,90,0,1
22191,-71.4285714285714,4,2,1,90,0,1
22897,-62.5,4,2,1,90,0,1
23603,-55.5555555555556,4,2,1,90,0,1
23956,-62.5,4,2,1,90,0,1
24309,-71.4285714285714,4,2,1,90,0,1
27838,-71.4285714285714,4,2,1,85,0,0
27882,-71.4285714285714,4,2,1,5,0,0
27926,-71.4285714285714,4,2,1,85,0,0
28235,-71.4285714285714,4,2,1,5,0,0
28279,-71.4285714285714,4,2,1,85,0,0
28412,-71.4285714285714,4,2,1,5,0,0
28456,-71.4285714285714,4,2,1,85,0,0
28764,-71.4285714285714,4,2,1,5,0,0
28809,-71.4285714285714,4,2,1,85,0,0
29206,-71.4285714285714,4,2,1,5,0,0
29250,-71.4285714285714,4,2,1,80,0,0
29956,-100,4,2,1,80,0,0
30838,-83.3333333333333,4,2,1,80,0,0
32073,-71.4285714285714,4,2,1,80,0,0
32956,-100,4,2,1,80,0,0
33485,-83.3333333333333,4,2,1,80,0,0
35603,-62.5,4,2,1,80,0,0
35956,-71.4285714285714,4,2,1,80,0,0
38426,-100,4,2,1,80,0,0
39132,-71.4285714285714,4,2,1,80,0,0
40544,-125,4,2,1,70,0,0
40809,-125,4,2,1,70,0,0
40897,-125,4,2,1,70,0,0
41162,-125,4,2,1,70,0,0
41250,-125,4,2,1,70,0,0
41867,-125,4,2,1,70,0,0
41956,-125,4,2,1,70,0,0
42926,-125,4,2,1,70,0,0
43014,-125,4,2,1,70,0,0
43279,-125,4,2,1,70,0,0
43367,-125,4,2,1,75,0,0
44779,-100,4,2,1,75,0,0
44867,-100,4,2,1,75,0,0
44956,-90.9090909090909,4,2,1,75,0,0
45044,-90.9090909090909,4,2,1,75,0,0
45132,-83.3333333333333,4,2,1,75,0,0
45662,-71.4285714285714,4,2,1,75,0,0
46191,-55.5555555555556,4,2,1,90,0,1
46544,-62.5,4,2,1,90,0,1
46897,-71.4285714285714,4,2,1,90,0,1
47603,-55.5555555555556,4,2,1,90,0,1
47956,-62.5,4,2,1,90,0,1
48309,-71.4285714285714,4,2,1,90,0,1
49014,-62.5,4,2,1,90,0,1
49720,-71.4285714285714,4,2,1,90,0,1
50073,-62.5,4,2,1,90,0,1
50426,-71.4285714285714,4,2,1,90,0,1
51132,-62.5,4,2,1,90,0,1
51838,-55.5555555555556,4,2,1,90,0,1
52191,-62.5,4,2,1,90,0,1
52544,-71.4285714285714,4,2,1,90,0,1
56073,-333.333333333333,4,2,1,90,0,0

[Colours]
Combo1 : 160,173,181
Combo2 : 254,164,166
Combo3 : 101,202,212
Combo4 : 159,218,224

[HitObjects]
27,96,1015,6,0,B|65:73|105:120|96:120|91:125|103:165|155:168,1,151.5,2|0,1:2|0:0,0:0:0:0:
188,112,1367,2,0,P|121:126|69:147,1,121.2,2|0,1:2|0:0,0:0:0:0:
42,211,1720,1,2,1:2:0:0:
137,236,1897,1,2,0:0:0:0:
109,311,2073,2,0,B|159:319|159:319|178:339|178:339|225:344,1,121.2,2|0,1:2|0:0,0:0:0:0:
280,298,2426,5,2,1:2:0:0:
369,331,2603,1,2,0:0:0:0:
462,198,2779,5,2,1:2:0:0:
373,231,2956,1,2,0:0:0:0:
429,77,3132,6,0,P|364:70|282:43,1,121.2,2|0,1:2|0:0,0:0:0:0:
261,0,3485,2,0,P|202:-6|178:54,1,121.2,2|0,1:2|0:0,0:0:0:0:
228,93,3838,5,2,1:2:0:0:
217,131,4014,1,0,1:0:0:0:
133,177,4191,5,2,1:2:0:0:
155,247,4367,1,0,1:0:0:0:
299,222,4544,5,2,1:2:0:0:
215,203,4720,1,2,1:2:0:0:
166,369,4897,5,2,1:2:0:0:
251,292,5073,1,0,1:0:0:0:
33,250,5250,6,0,P|41:278|59:293,1,50.5000000000001,2|0,1:2|0:0,0:0:0:0:
119,161,5426,2,0,P|87:153|63:162,1,55.55,2|0,1:2|0:0,0:0:0:0:
148,289,5603,2,0,P|171:264|176:237,1,60.6,2|0,1:2|0:0,0:0:0:0:
101,232,5779,1,2,1:2:0:0:
230,108,5956,1,2,1:2:0:0:
230,108,6132,6,0,L|275:121,2,35.35,2|0|0,0:2|0:0|0:0,0:0:0:0:
349,74,6309,2,0,P|336:38|297:23,1,70.7,2|0,0:2|3:0,0:0:0:0:
223,120,6485,2,0,P|236:156|275:171,1,70.7,2|0,3:2|0:0,0:0:0:0:
448,224,6662,6,0,B|493:197|460:142|460:142|359:158|377:256,1,257.55,6|0,1:2|0:0,0:0:0:0:
421,364,7014,2,0,B|473:354|460:275|384:265|348:340,1,181.8,10|0,1:2|0:0,0:0:0:0:
267,348,7367,2,0,P|231:345|203:307,1,80.8,0|0,1:0|0:0,0:0:0:0:
207,220,7544,2,0,P|243:223|271:261,1,80.8,2|0,0:3|0:0,0:0:0:0:
62,225,7720,2,0,B|74:194|80:158|80:158|123:133|123:133|131:102|146:68,1,181.8,10|0,1:2|0:0,0:0:0:0:
105,12,8073,6,0,P|118:51|127:87,1,70.7,2|0,1:2|0:0,0:0:0:0:
301,112,8250,1,2,0:3:0:0:
305,106,8338,1,0,0:0:0:0:
310,99,8426,2,0,P|278:68|233:74,1,85.85,10|0,1:2|0:0,0:0:0:0:
360,175,8603,2,0,P|399:175|424:145,1,80.8,2|0,0:3|0:0,0:0:0:0:
429,41,8779,2,0,B|408:28|398:15|398:15|402:30|396:55,1,75.75,2|0,1:2|0:0,0:0:0:0:
424,144,8956,2,0,B|441:155|450:166|450:166|447:152|452:130,1,70.7,2|0,0:3|0:0,0:0:0:0:
512,61,9132,1,10,1:2:0:0:
281,170,9309,1,2,0:3:0:0:
489,297,9485,6,0,P|452:268|403:281,1,90.8999999999999,2|0,1:2|0:0,0:0:0:0:
367,337,9662,2,0,P|335:361|294:350,1,70.7,2|0,0:3|0:0,0:0:0:0:
491,292,9838,2,0,P|454:263|405:276,1,90.8999999999999,10|0,1:2|0:0,0:0:0:0:
372,339,10014,2,0,P|340:363|299:352,1,70.7,2|0,0:3|0:0,0:0:0:0:
176,235,10191,2,0,B|170:184|216:137|272:139|272:139|248:159|242:192,1,212.1,2|0,1:2|0:0,0:0:0:0:
320,199,10544,2,0,P|279:182|235:172,1,80.8,8|2,1:2|0:0,0:0:0:0:
178,91,10720,1,2,0:3:0:0:
181,84,10809,1,0,0:0:0:0:
183,78,10897,2,0,P|216:69|248:55,1,60.6,0|0,1:0|0:0,0:0:0:0:
38,0,11073,5,2,0:3:0:0:
32,2,11162,1,2,0:0:0:0:
26,3,11250,2,0,P|-1:21|1:74,1,80.8,10|0,1:2|0:0,0:0:0:0:
74,98,11426,2,0,P|101:80|99:27,1,80.8,2|8,3:3|3:2,0:0:0:0:
11,162,11603,2,0,B|35:171|62:175|62:175|82:209|82:209|106:215|132:227,1,141.399995684815,0|2,1:0|3:3,0:0:0:0:
340,16,11956,2,0,B|309:28|273:34|273:34|248:77|248:77|217:85|183:100,1,181.8,10|2,1:2|3:0,0:0:0:0:
288,167,12309,5,2,1:2:0:0:
292,161,12397,1,2,0:0:0:0:
297,156,12485,2,0,B|329:164|329:164|336:169|336:169|365:177,1,70.7,2|0,0:3|0:0,0:0:0:0:
401,292,12662,2,0,P|390:329|340:338,1,80.8,10|0,1:2|0:0,0:0:0:0:
261,303,12838,2,0,P|272:266|322:257,1,80.8,2|2,0:3|0:3,0:0:0:0:
285,160,13014,5,0,1:0:0:0:
289,153,13103,1,2,0:0:0:0:
294,147,13191,2,0,B|329:156|329:156|336:161|336:161|368:170,1,70.7,2|2,0:3|0:0,0:0:0:0:
407,301,13367,2,0,P|396:338|346:347,1,80.8,10|0,1:2|0:0,0:0:0:0:
253,296,13544,2,0,P|264:259|314:250,1,80.8,2|0,0:3|0:0,0:0:0:0:
198,381,13720,6,0,P|163:364|127:358,1,70.7,2|0,1:2|0:0,0:0:0:0:
42,256,13897,1,2,0:3:0:0:
37,250,13985,1,2,0:0:0:0:
32,243,14073,2,0,P|50:209|98:209,1,80.8,10|0,1:2|0:0,0:0:0:0:
120,285,14250,2,0,P|102:317|66:321,1,75.75,2|2,0:3|0:0,0:0:0:0:
283,187,14426,2,0,P|268:159|228:159,1,70.7,2|0,1:2|0:0,0:0:0:0:
201,223,14603,2,0,P|216:251|247:254,1,65.65,2|0,0:3|0:0,0:0:0:0:
65,125,14779,2,0,P|50:83|32:46,1,80.8,10|0,1:2|0:0,0:0:0:0:
178,0,14956,2,0,P|163:31|151:64,1,60.6,2|0,0:3|0:0,0:0:0:0:
304,72,15132,6,0,B|280:46|280:46|244:53,1,70.7,2|0,1:2|0:0,0:0:0:0:
219,141,15309,2,0,B|243:167|243:167|279:160,1,70.7,2|0,0:3|0:0,0:0:0:0:
448,137,15485,2,0,P|463:95|481:58,1,80.8,10|0,1:2|0:0,0:0:0:0:
355,0,15662,2,0,P|372:36|386:74,1,80.8,2|0,0:3|0:0,0:0:0:0:
318,221,15838,2,0,P|288:200|288:158,1,70.7,2|0,1:2|0:0,0:0:0:0:
421,281,16014,2,0,P|451:260|451:218,1,70.7,2|0,3:0|0:0,0:0:0:0:
333,360,16191,1,10,1:2:0:0:
294,349,16279,1,8,0:0:0:0:
278,356,16367,2,0,L|367:341,1,80.8,2|0,3:3|3:0,0:0:0:0:
191,287,16544,6,0,L|176:359,1,70.6999999999999,2|2,3:2|0:3,0:0:0:0:
106,320,16897,2,0,L|116:270,2,35.35,8|8|2,3:0|3:0|0:3,0:0:0:0:
27,324,17250,2,0,L|41:254,1,70.6999999999999,2|2,0:0|0:3,0:0:0:0:
124,153,17603,2,0,P|107:111|46:111,1,90.8999999999998,8|0,1:2|0:0,0:0:0:0:
34,185,17956,6,0,B|48:211|87:225|131:209|145:170|141:168|139:162|145:129|179:91|218:91|255:113,1,272.7,4|0,1:1|0:0,0:0:0:0:
299,164,18309,2,0,P|182:126|56:100,1,242.4,8|0,1:2|0:0,0:0:0:0:
13,50,18662,1,2,1:2:0:0:
169,0,18838,1,2,0:3:0:0:
185,200,19014,2,0,P|156:186|152:138,1,70.6999978424073,10|0,1:2|0:0,0:0:0:0:
237,116,19191,1,2,0:3:0:0:
433,125,19367,6,0,B|492:102|484:21|391:4|330:93|365:170,1,272.7,2|0,1:2|0:0,0:0:0:0:
418,232,19720,2,0,B|474:221|474:221|387:206|387:206|358:214|358:214|288:200,1,242.4,8|0,1:2|0:0,0:0:0:0:
221,237,20073,1,2,1:2:0:0:
278,121,20250,1,2,0:3:0:0:
43,192,20426,2,0,P|43:222|78:249,1,70.7,10|0,1:2|0:0,0:0:0:0:
142,219,20603,1,2,0:3:0:0:
153,32,20779,6,0,B|239:53|239:53|272:106|272:106|363:126,1,242.4,0|0,1:2|0:0,0:0:0:0:
420,79,21132,2,0,P|410:50|347:33,1,80.8,10|0,1:2|0:0,0:0:0:0:
512,174,21309,1,2,0:3:0:0:
512,174,21397,1,2,0:0:0:0:
512,174,21485,1,0,1:0:0:0:
459,276,21662,1,2,0:3:0:0:
227,147,21838,2,0,B|240:129|237:105|237:105|248:124|266:135,1,80.8,10|0,1:2|0:0,0:0:0:0:
281,276,22014,1,2,0:3:0:0:
101,318,22191,6,0,P|196:333|309:361,1,212.1,0|0,1:0|0:0,0:0:0:0:
384,309,22544,2,0,B|404:297|415:267|402:233|373:222|371:225|366:227|340:222|311:196|311:166|328:137,1,212.1,8|0,1:2|0:0,0:0:0:0:
394,111,22897,1,2,1:2:0:0:
232,160,23073,1,2,0:3:0:0:
190,2,23250,2,0,L|275:22,1,80.8,8|0,1:2|0:0,0:0:0:0:
89,197,23426,1,10,0:0:0:0:
54,184,23514,1,8,0:0:0:0:
45,150,23603,6,0,B|60:123|99:108|144:125|159:164|154:167|152:172|159:207|193:245|233:245|271:222,1,272.7,4|0,1:2|0:0,0:0:0:0:
262,214,23956,2,0,B|248:190|213:178|174:192|161:226|165:228|167:234|161:263|132:298|96:297|63:277,1,242.4,8|0,1:2|0:0,0:0:0:0:
2,233,24309,1,2,1:2:0:0:
58,356,24485,1,2,0:3:0:0:
263,304,24662,2,0,P|224:312|188:325,1,70.6999978424073,10|0,1:2|0:0,0:0:0:0:
328,372,24838,1,2,0:3:0:0:
330,130,25014,6,0,B|376:60|448:116|448:116|442:162|399:167,1,212.1,2|0,1:2|0:0,0:0:0:0:
349,223,25367,2,0,B|264:208|264:208|219:229|219:229|142:210,1,212.1,8|0,1:2|0:0,0:0:0:0:
81,246,25720,1,2,1:2:0:0:
195,306,25897,1,2,0:3:0:0:
151,124,26073,2,0,P|112:123|83:147,1,70.7,10|0,1:2|0:0,0:0:0:0:
31,189,26250,1,2,3:0:0:0:
64,3,26426,5,8,1:2:0:0:
226,105,26603,1,2,3:2:0:0:
383,22,26779,5,10,1:2:0:0:
179,180,26956,1,0,3:0:0:0:
471,253,27132,6,0,P|463:223|426:209,1,70.7,10|8,1:2|0:2,0:0:0:0:
370,253,27309,1,2,3:2:0:0:
498,145,27485,1,8,1:2:0:0:
419,336,27662,1,2,3:2:0:0:
305,113,27838,6,0,L|314:73,1,35.35,2|0,1:2|0:0,0:0:0:0:
298,109,28191,2,0,L|307:69,1,35.35,2|0,1:2|0:0,0:0:0:0:
252,205,28367,2,0,L|261:245,1,35.35,2|0,1:2|0:0,0:0:0:0:
246,209,28720,2,0,L|255:249,1,35.35,2|0,1:2|0:0,0:0:0:0:
167,369,28897,2,0,B|77:371|70:269|70:269|130:248|152:297,1,247.45,2|0,1:2|0:0,0:0:0:0:
146,296,29250,6,0,B|154:259|155:218|155:218|199:183|199:183|203:147|215:106,1,212.1,4|2,1:2|0:0,0:0:0:0:
170,45,29603,2,0,P|179:81|185:121,1,70.7,2|0,1:2|0:0,0:0:0:0:
331,36,29779,1,2,0:0:0:0:
334,29,29867,1,2,0:0:0:0:
337,22,29956,2,0,P|304:12|270:-1,1,50.5,8|0,1:2|0:0,0:0:0:0:
292,166,30132,2,0,P|316:142|345:119,1,50.5,2|0,0:0|0:0,0:0:0:0:
233,256,30309,1,0,1:0:0:0:
236,265,30397,1,0,3:0:0:0:
239,274,30485,1,0,3:0:0:0:
454,240,30662,5,2,1:2:0:0:
457,231,30750,1,2,0:0:0:0:
460,222,30838,2,0,L|396:238,1,60.6,2|0,3:2|3:0,0:0:0:0:
386,355,31014,2,0,P|409:343|413:305,1,60.6,2|0,1:2|0:0,0:0:0:0:
333,271,31191,2,0,P|310:283|306:321,1,60.6,2|0,3:2|3:0,0:0:0:0:
391,153,31367,5,10,1:2:0:0:
382,136,31456,1,0,3:0:0:0:
373,122,31544,2,0,L|321:228,1,60.6,0|0,3:0|0:0,0:0:0:0:
391,364,31720,2,0,P|414:352|418:314,1,60.6,2|0,1:2|0:0,0:0:0:0:
328,266,31897,2,0,P|305:278|301:316,1,60.6,2|0,3:2|0:0,0:0:0:0:
162,204,32073,6,0,B|195:214|195:170|204:157|236:144|236:144|203:147|151:155|163:204,1,212.099993527222,0|2,1:0|0:0,0:0:0:0:
105,282,32426,2,0,B|117:317|117:317|121:321|121:321|132:353,1,70.7,0|0,1:0|0:0,0:0:0:0:
22,208,32603,2,0,B|34:173|34:173|38:169|38:169|49:137,1,70.7,2|0,3:2|0:0,0:0:0:0:
45,20,32779,1,10,1:2:0:0:
42,15,32867,1,0,0:0:0:0:
41,9,32956,2,0,P|16:15|-3:37,1,50.5
130,92,33132,1,0,1:0:0:0:
133,97,33220,1,0,3:0:0:0:
134,103,33309,2,0,P|158:96|178:74,1,50.5,0|0,3:0|0:0,0:0:0:0:
263,60,33485,6,0,B|249:55|240:42|240:42|246:57|245:76,1,60.5999981506348,6|0,1:2|0:0,0:0:0:0:
391,128,33662,2,0,B|401:118|416:116|416:116|400:114|385:104,1,60.5999981506348,2|0,3:2|3:2,0:0:0:0:
261,209,33838,2,0,B|262:222|256:237|256:237|267:224|283:215,1,60.5999981506348,0|0,1:0|0:0,0:0:0:0:
303,138,34014,1,2,3:2:0:0:
412,246,34191,1,10,1:2:0:0:
411,241,34279,1,0,3:0:0:0:
410,235,34367,2,0,P|377:246|347:262,1,60.6,2|0,3:2|3:0,0:0:0:0:
270,354,34544,2,0,B|194:388|102:317|155:236|211:248|238:290,1,242.4,10|0,1:2|1:0,0:0:0:0:
96,189,35073,5,2,0:0:0:0:
84,192,35250,1,2,0:0:0:0:
93,201,35426,1,2,0:0:0:0:
230,280,35603,2,0,B|196:132|196:132|210:103|238:88|272:102,1,242.4,14|0,1:2|0:0,0:0:0:0:
336,147,35956,6,0,P|295:147|266:119,1,70.7,2|2,1:2|3:2,0:0:0:0:
397,60,36132,1,2,3:2:0:0:
333,155,36309,2,0,P|292:155|263:127,1,70.7,2|2,1:2|3:2,0:0:0:0:
411,46,36485,1,2,3:2:0:0:
453,236,36662,6,0,L|433:313,1,70.7,2|2,1:2|0:0,0:0:0:0:
487,363,36838,1,2,3:2:0:0:
182,253,37014,6,0,P|210:225|251:235,1,70.7,10|2,1:2|3:2,0:0:0:0:
338,323,37191,1,2,3:2:0:0:
177,245,37367,2,0,P|205:217|246:227,1,70.7,10|2,1:2|3:2,0:0:0:0:
347,340,37544,1,2,3:2:0:0:
172,236,37720,1,0,1:0:0:0:
291,60,37897,6,0,L|360:83,1,70.7,10|2,0:2|0:0,0:0:0:0:
456,55,38073,2,0,B|441:36|410:29|378:47|371:79|375:80|377:84|376:111|355:144|324:149|293:136,1,212.1,0|0,1:0|0:0,0:0:0:0:
226,156,38426,2,0,P|202:178|200:203,1,50.5,10|0,1:2|0:0,0:0:0:0:
283,256,38603,2,0,P|303:241|311:218,1,50.5,2|0,3:2|0:0,0:0:0:0:
211,354,38779,1,8,1:2:0:0:
235,378,38867,1,8,0:2:0:0:
249,370,38956,1,0,3:0:0:0:
60,203,39132,6,0,P|82:138|96:66,1,141.4,2|10,1:2|0:2,0:0:0:0:
48,4,39397,1,10,0:2:0:0:
48,4,39485,2,0,P|22:3|-3:46,1,70.7,10|10,1:2|0:2,0:0:0:0:
115,117,39662,2,0,P|141:118|166:75,1,70.7,10|8,0:2|0:2,0:0:0:0:
246,9,39838,1,8,1:2:0:0:
273,5,39926,1,8,0:2:0:0:
298,16,40014,1,10,0:2:0:0:
313,39,40103,1,10,0:2:0:0:
309,71,40191,1,10,1:2:0:0:
360,49,40279,1,8,0:2:0:0:
413,66,40367,1,8,0:2:0:0:
443,114,40456,1,8,0:2:0:0:
435,132,40544,6,0,B|379:144|379:144|366:159|366:159|316:171,1,121.2,2|0,1:2|0:0,0:0:0:0:
238,138,40897,2,0,B|264:107|264:107|239:200,1,121.2,2|0,1:2|0:0,0:0:0:0:
183,238,41250,1,2,1:2:0:0:
99,208,41426,1,2,0:0:0:0:
151,314,41603,2,0,B|227:311|194:343|267:347,1,121.2,2|0,1:2|0:0,0:0:0:0:
324,301,41956,5,2,1:2:0:0:
292,227,42132,1,2,0:0:0:0:
433,296,42309,5,2,1:2:0:0:
401,370,42485,1,2,0:0:0:0:
511,284,42662,6,0,P|489:219|480:161,1,121.2,2|0,1:2|0:0,0:0:0:0:
427,102,43014,2,0,P|367:99|351:151,1,121.2,2|0,1:2|0:0,0:0:0:0:
413,188,43367,5,2,1:2:0:0:
346,237,43544,1,0,1:0:0:0:
233,263,43720,5,2,1:2:0:0:
337,316,43897,1,0,1:0:0:0:
149,352,44073,5,2,1:2:0:0:
99,227,44250,1,2,1:2:0:0:
257,129,44426,5,2,1:2:0:0:
225,251,44603,1,0,1:0:0:0:
95,48,44779,6,0,P|112:23|144:16,1,50.5,2|0,1:2|0:0,0:0:0:0:
81,140,44956,2,0,P|50:137|28:113,1,55.55,2|0,1:2|0:0,0:0:0:0:
157,105,45132,2,0,P|170:132|160:163,1,60.6,2|0,1:2|0:0,0:0:0:0:
107,98,45309,1,2,1:2:0:0:
140,275,45485,1,2,1:2:0:0:
140,275,45662,6,0,L|100:287,4,35.35,2|0|0|0|8,3:2|3:0|3:0|3:0|1:2,0:0:0:0:
140,275,46191,6,0,B|153:217|215:198|213:230|266:241|311:172|311:172|285:191|253:186,1,272.699991677857,4|0,1:1|0:0,0:0:0:0:
225,120,46544,2,0,B|241:98|277:91|313:111|321:147|316:149|314:153|315:184|339:221|373:227|409:212,1,242.4,8|0,1:2|0:0,0:0:0:0:
451,156,46897,1,2,1:2:0:0:
381,93,47073,1,2,0:3:0:0:
249,237,47250,2,0,P|283:223|324:216,1,70.7,10|0,1:2|0:0,0:0:0:0:
386,286,47426,1,2,0:3:0:0:
205,384,47603,6,0,B|109:359|118:262|118:262|190:247|206:298,1,272.7,2|0,1:2|0:0,0:0:0:0:
208,309,47956,2,0,B|242:161|242:161|228:132|200:117|166:131,1,242.4,8|0,1:2|0:0,0:0:0:0:
110,181,48309,1,2,1:2:0:0:
143,62,48485,1,2,0:3:0:0:
332,232,48662,2,0,B|317:240|310:257|310:257|309:238|302:222,1,70.7,10|0,1:2|0:0,0:0:0:0:
348,104,48838,1,2,0:3:0:0:
451,247,49014,6,0,B|354:234|354:234|325:191|325:191|206:172,1,242.4,0|0,1:0|0:0,0:0:0:0:
183,118,49367,2,0,P|145:123|121:163,1,80.8,10|0,1:2|0:0,0:0:0:0:
124,240,49544,1,2,0:3:0:0:
124,240,49632,1,2,0:0:0:0:
124,240,49720,1,0,1:0:0:0:
252,285,49897,1,2,0:3:0:0:
362,185,50073,2,0,P|321:183|284:169,1,80.8,10|0,1:2|0:0,0:0:0:0:
255,101,50250,1,2,0:3:0:0:
443,121,50426,6,0,B|465:126|484:152|482:188|457:207|455:205|449:204|426:217|406:250|414:279|437:299,1,212.1,0|0,1:0|0:0,0:0:0:0:
482,357,50779,2,0,B|498:338|532:326|532:326|462:339|462:339|440:357|440:357|386:368,1,212.1,10|0,1:2|0:0,0:0:0:0:
310,368,51132,1,0,1:0:0:0:
355,269,51309,1,2,0:3:0:0:
152,166,51485,2,0,P|109:165|78:201,1,80.8,8|0,1:2|0:0,0:0:0:0:
348,117,51662,1,8,0:2:0:0:
378,123,51750,1,8,0:2:0:0:
396,150,51838,6,0,B|378:174|338:182|298:159|289:120|295:117|297:113|296:79|269:38|232:31|192:48,1,272.7,4|0,1:0|0:0,0:0:0:0:
137,95,52191,2,0,B|240:75|240:75|253:77|253:77|381:52,1,242.4,8|0,1:2|0:0,0:0:0:0:
425,0,52544,1,2,1:2:0:0:
485,84,52720,1,2,0:3:0:0:
349,211,52897,2,0,P|320:190|321:147,1,70.6999978424073,8|0,1:2|0:0,0:0:0:0:
396,150,53073,1,2,0:3:0:0:
137,292,53250,6,0,B|152:207|232:201|232:201|206:227|202:267,1,212.099993527222,2|0,1:2|0:0,0:0:0:0:
280,265,53603,2,0,B|270:228|268:187|268:187|223:153|223:153|217:118|204:77,1,212.1,8|0,1:2|0:0,0:0:0:0:
138,55,53956,1,2,1:2:0:0:
269,0,54132,1,2,3:0:0:0:
404,120,54309,2,0,P|372:106|331:98,1,70.7,8|0,1:2|0:0,0:0:0:0:
480,36,54485,1,2,3:0:0:0:
504,263,54662,5,8,1:2:0:0:
352,183,54838,1,2,3:2:0:0:
226,217,55014,5,10,1:2:0:0:
490,132,55191,1,0,3:2:0:0:
339,384,55367,6,0,P|302:370|287:334,1,70.7,10|8,1:2|0:2,0:0:0:0:
341,290,55544,1,2,3:2:0:0:
168,364,55720,1,10,1:2:0:0:
445,363,55897,1,2,3:2:0:0:
205,69,56250,6,0,L|196:32,1,30.2999990753174,2|0,0:3|0:0,0:0:0:0:
213,76,56603,6,0,L|222:39,1,30.2999990753174,2|0,0:3|0:0,0:0:0:0:
284,0,56956,5,2,3:2:0:0:
98,272,57132,1,14,1:2:0:0:
