osu file format v14

[General]
AudioFilename: audio.mp3
AudioLeadIn: 0
PreviewTime: 57140
Countdown: 0
SampleSet: Soft
StackLeniency: 0.7
Mode: 0
LetterboxInBreaks: 0
WidescreenStoryboard: 1

[Editor]
Bookmarks: 9590,19190,28790,38390,47990,57590,76790,86390,95990,105590,124790,129590,138740,139190,148790,165590,170390,189590,196790,206390
DistanceSpacing: 1
BeatDivisor: 4
GridSize: 4
TimelineZoom: 3.299999

[Metadata]
Title:Nyanmoku no Ryoukai
TitleUnicode:ニャン黙の了解
Artist:Utsu-P feat. Hatsune Miku & Kagamine Rin
ArtistUnicode:鬱P feat. 初音ミク & 鏡音リン
Creator:Net0
Version:Reiji Maigo's Expert
Source:
Tags:last sonata reiji maigo lkxemmeji edgyking japanese metal jrock rock metalcore vocaloid my song is shit nyan-spoken understanding old style jump warufukaze 2010's 2013 depressionp utsup depression-p 悪巫山戯 Nyan Shijima and
BeatmapID:3370155
BeatmapSetID:1574589

[Difficulty]
HPDrainRate:5
CircleSize:4
OverallDifficulty:8
ApproachRate:8
SliderMultiplier:1.7
SliderTickRate:1

[Events]
//Background and Video events
0,0,"bgmikugoestocatworld.jpg",0,0
//Break Periods
2,124977,128077
//Storyboard Layer 0 (Background)
//Storyboard Layer 1 (Fail)
//Storyboard Layer 2 (Pass)
//Storyboard Layer 3 (Foreground)
//Storyboard Layer 4 (Overlay)
//Storyboard Sound Samples

[TimingPoints]
-23,300,4,2,1,50,1,0
8527,300,4,2,1,50,1,0
8677,-100,4,2,1,55,0,0
8977,-100,4,2,1,60,0,0
9277,-100,4,2,1,65,0,0
9577,-100,4,2,1,70,0,0
17977,-100,4,2,1,50,0,0
18052,-100,4,2,1,5,0,0
18277,-100,4,2,1,60,0,0
18352,-100,4,2,1,5,0,0
18577,-100,4,2,1,70,0,0
18652,-100,4,2,1,5,0,0
18877,-100,4,2,1,80,0,0
18952,-100,4,2,1,5,0,0
19177,-100,4,2,1,65,0,0
20977,-100,4,2,1,65,0,0
21127,-100,4,2,1,65,0,0
28777,-100,4,2,1,75,0,0
38377,-100,4,2,1,70,0,0
41602,-100,4,2,1,70,0,0
41677,-100,4,2,1,70,0,0
47977,-133.333333333333,4,2,1,90,0,0
48427,-133.333333333333,4,2,1,65,0,0
49327,-133.333333333333,4,2,1,90,0,0
50827,-133.333333333333,4,2,1,65,0,0
51727,-133.333333333333,4,2,1,90,0,0
53227,-133.333333333333,4,2,1,65,0,0
54127,-133.333333333333,4,2,1,90,0,0
55177,-133.333333333333,4,2,1,60,0,0
55477,-133.333333333333,4,2,1,65,0,0
55927,-133.333333333333,4,2,1,70,0,0
56227,-133.333333333333,4,2,1,75,0,0
57127,-133.333333333333,4,2,1,80,0,0
57277,-133.333333333333,4,2,2,90,0,0
57577,-83.3333333333333,4,2,2,80,0,1
57876,-83.3333333333333,4,2,1,80,0,1
76777,-100,4,2,1,75,0,0
85177,-100,4,2,1,80,0,0
85252,-100,4,2,1,5,0,0
85477,-100,4,2,1,90,0,0
85552,-100,4,2,1,5,0,0
85777,-100,4,2,1,80,0,0
85852,-100,4,2,1,5,0,0
86077,-100,4,2,1,80,0,0
86377,-100,4,2,1,80,0,0
91177,-100,4,2,1,84,0,0
92377,-100,4,2,1,88,0,0
93577,-100,4,2,1,92,0,0
94777,-100,4,2,1,96,0,0
95977,-100,4,2,1,70,0,0
103177,-83.3333333333333,4,2,1,70,0,0
103627,-100,4,2,1,50,0,0
103927,-100,4,2,1,60,0,0
104227,-100,4,2,1,70,0,0
104527,-100,4,2,1,80,0,0
104827,-100,4,2,1,90,0,0
105277,-100,4,2,1,100,0,0
105577,-83.3333333333333,4,2,2,80,0,1
105876,-83.3333333333333,4,2,1,80,0,1
124777,-100,4,2,1,80,0,0
129727,-100,4,2,1,70,0,0
138352,-100,4,2,1,70,0,0
138427,-100,4,2,1,70,0,0
138652,-100,4,2,1,70,0,0
138727,-100,4,2,1,70,0,0
138952,-100,4,2,1,70,0,0
139027,-100,4,2,1,70,0,0
139252,-100,4,2,1,70,0,0
139327,-83.3333333333333,4,2,1,70,0,0
139551,-83.3333333333333,4,2,1,70,0,0
139627,-83.3333333333333,4,2,1,70,0,0
139852,-83.3333333333333,4,2,1,70,0,0
139927,-83.3333333333333,4,2,1,70,0,0
140451,-83.3333333333333,4,2,1,70,0,0
140527,-83.3333333333333,4,2,1,70,0,0
140751,-83.3333333333333,4,2,1,70,0,0
140827,-83.3333333333333,4,2,1,70,0,0
141951,-83.3333333333333,4,2,1,70,0,0
142027,-83.3333333333333,4,2,1,70,0,0
142252,-83.3333333333333,4,2,1,70,0,0
142327,-83.3333333333333,4,2,1,70,0,0
144351,-83.3333333333333,4,2,1,70,0,0
144427,-83.3333333333333,4,2,1,70,0,0
144652,-83.3333333333333,4,2,1,70,0,0
144727,-83.3333333333333,4,2,1,70,0,0
145251,-83.3333333333333,4,2,1,70,0,0
145327,-83.3333333333333,4,2,1,70,0,0
145551,-83.3333333333333,4,2,1,70,0,0
145627,-83.3333333333333,4,2,1,70,0,0
147652,-83.3333333333333,4,2,1,70,0,0
147727,-133.333333333333,4,2,1,70,0,0
147802,-133.333333333333,4,2,1,5,0,0
148027,-133.333333333333,4,2,1,85,0,0
148102,-133.333333333333,4,2,1,90,0,0
148327,-133.333333333333,4,2,1,95,0,0
148477,-133.333333333333,4,2,1,95,0,0
148927,-133.333333333333,4,2,1,65,0,0
152527,-200,4,2,1,65,0,0
153427,-133.333333333333,4,2,1,65,0,0
157327,-200,4,2,1,65,0,0
158227,-133.333333333333,4,2,1,65,0,0
162127,-200,4,2,1,65,0,0
163027,-133.333333333333,4,2,1,65,0,0
165577,-133.333333333333,4,2,1,65,0,0
165727,-133.333333333333,4,2,1,70,0,0
166177,-133.333333333333,4,2,1,75,0,0
166627,-133.333333333333,4,2,1,80,0,0
166927,-133.333333333333,4,2,1,85,0,0
169102,-133.333333333333,4,2,1,85,0,0
169177,-133.333333333333,4,2,1,85,0,0
169327,-100,4,2,1,85,0,0
170377,-133.333333333333,4,2,1,85,0,0
170677,-133.333333333333,4,2,1,50,0,0
170827,-133.333333333333,4,2,1,60,0,0
171127,-133.333333333333,4,2,1,70,0,0
171427,-133.333333333333,4,2,1,80,0,0
171727,-133.333333333333,4,2,1,90,0,0
172027,-133.333333333333,4,2,1,50,0,0
172327,-133.333333333333,4,2,1,80,0,0
172777,-83.3333333333333,4,2,2,80,0,1
173076,-83.3333333333333,4,2,1,80,0,1
189577,-133.333333333333,4,2,1,70,0,0
193627,-100,4,2,1,70,0,0
194377,-133.333333333333,4,2,1,70,0,0
196777,-100,4,2,1,70,0,0
205252,-100,4,2,1,5,0,0
205477,-100,4,2,1,80,0,0
205552,-100,4,2,1,5,0,0
205777,-100,4,2,1,90,0,0
205852,-100,4,2,1,5,0,0
206077,-100,4,2,1,80,0,0
206152,-100,4,2,1,5,0,0
206377,-100,4,2,1,80,0,0
206452,-100,4,2,1,10,0,0
209227,-100,4,2,1,100,0,0
209302,-100,4,2,1,10,0,0

[Colours]
Combo1 : 255,128,192
Combo2 : 128,0,64

[HitObjects]
432,100,8527,5,0,1:0:0:0:
432,100,8602,1,0,1:0:0:0:
432,100,8677,2,0,L|372:108,5,42.5,0|0|0|0|0|0,1:0|1:0|1:0|1:0|1:0|1:0,0:0:0:0:
368,136,9127,2,0,L|313:111,1,42.5,0|0,1:0|1:0,0:0:0:0:
296,140,9277,2,0,L|262:90,1,42.5,0|0,1:0|1:0,0:0:0:0:
236,112,9427,1,0,1:0:0:0:
200,124,9502,1,0,1:0:0:0:
164,136,9577,6,0,B|164:192|164:192|131:240|131:240|131:312,1,170,6|0,3:2|3:0,0:0:0:0:
192,344,10027,1,0,1:0:0:0:
256,300,10177,1,0,3:0:0:0:
294,300,10252,1,0,3:0:0:0:
332,300,10327,1,0,1:0:0:0:
332,223,10477,1,0,3:0:0:0:
255,223,10627,1,0,1:0:0:0:
332,300,10777,2,0,B|416:300|416:300|416:196,1,170,0|0,3:0|3:0,0:0:0:0:
416,137,11227,1,0,1:0:0:0:
416,64,11377,1,0,3:0:0:0:
416,64,11452,1,0,3:0:0:0:
416,64,11527,2,0,L|228:64,1,170,0|0,1:0|1:0,0:0:0:0:
168,64,11977,6,0,B|168:120|168:120|136:168|136:168|135:240,1,170,6|0,3:2|3:0,0:0:0:0:
192,276,12427,1,0,1:0:0:0:
268,276,12577,1,0,3:0:0:0:
306,276,12652,1,0,3:0:0:0:
344,276,12727,1,0,1:0:0:0:
344,199,12877,1,0,3:0:0:0:
267,199,13027,1,0,1:0:0:0:
344,276,13177,2,0,B|428:276|428:276|428:380,1,170,0|0,3:0|3:0,0:0:0:0:
351,362,13627,1,0,1:0:0:0:
274,362,13777,1,0,3:0:0:0:
197,362,13927,1,0,1:0:0:0:
197,362,14227,1,0,1:0:0:0:
197,362,14377,6,0,B|197:305|197:305|165:258|165:258|165:186,1,170,6|0,3:2|3:0,0:0:0:0:
87,201,14827,1,0,1:0:0:0:
87,124,14977,1,0,3:0:0:0:
87,85,15052,1,0,3:0:0:0:
87,46,15127,1,0,1:0:0:0:
163,46,15277,1,0,3:0:0:0:
163,122,15427,1,0,1:0:0:0:
87,46,15577,1,0,3:0:0:0:
87,46,15652,1,0,3:0:0:0:
87,46,15727,2,0,L|183:46,1,85,0|0,1:0|3:0,0:0:0:0:
248,46,16027,1,0,1:0:0:0:
324,46,16177,1,0,3:0:0:0:
400,46,16327,2,0,L|399:232,1,170,0|0,1:0|1:0,0:0:0:0:
399,292,16777,6,0,B|343:292|343:292|295:260|295:260|223:260,1,170,6|0,3:2|3:0,0:0:0:0:
184,314,17227,1,0,1:0:0:0:
107,314,17377,1,0,3:0:0:0:
68,314,17452,1,0,3:0:0:0:
29,314,17527,1,0,1:0:0:0:
29,237,17677,1,0,3:0:0:0:
105,237,17827,1,0,1:0:0:0:
29,314,17977,5,2,3:0:0:0:
29,237,18277,1,2,3:0:0:0:
29,160,18577,1,2,3:0:0:0:
29,83,18877,1,2,3:0:0:0:
168,16,19177,6,0,L|168:208,1,170,6|2,3:2|3:2,0:0:0:0:
244,248,19627,2,0,L|244:140,1,85,0|2,1:0|2:2,0:0:0:0:
92,300,19927,2,0,L|92:192,1,85,2|2,3:2|3:2,0:0:0:0:
92,140,20227,1,0,1:0:0:0:
16,64,20377,6,0,L|16:236,1,170,2|2,3:2|3:2,0:0:0:0:
92,300,20827,2,0,L|92:192,1,85,0|2,1:0|2:2,0:0:0:0:
168,352,21127,2,0,L|168:244,2,85,2|2|0,3:2|3:2|1:0,0:0:0:0:
244,272,21577,6,0,L|244:95,1,170,2|2,3:2|3:2,0:0:0:0:
168,182,22027,2,0,L|168:294,1,85,0|2,1:0|2:2,0:0:0:0:
320,104,22327,2,0,L|320:216,1,85,2|2,3:2|3:2,0:0:0:0:
320,265,22627,1,0,1:0:0:0:
408,220,22777,6,0,L|232:220,1,170,2|2,3:2|3:2,0:0:0:0:
238,296,23227,2,0,L|144:296,1,85,0|2,1:0|2:2,0:0:0:0:
76,296,23527,1,2,3:2:0:0:
76,164,23677,1,2,3:0:0:0:
76,164,23977,6,0,L|268:164,1,170,6|2,3:2|3:2,0:0:0:0:
300,218,24427,1,0,1:0:0:0:
354,273,24577,1,2,2:2:0:0:
299,328,24727,1,2,3:2:0:0:
244,274,24877,2,0,L|156:274,1,85,2|0,3:2|1:0,0:0:0:0:
159,350,25177,6,0,L|351:350,1,170,2|2,3:2|3:2,0:0:0:0:
383,295,25627,1,0,1:0:0:0:
383,295,25777,1,2,2:2:0:0:
383,221,25927,1,2,3:2:0:0:
383,221,26077,2,0,L|479:221,1,85,2|0,3:2|1:0,0:0:0:0:
303,218,26377,6,0,L|119:218,1,170,2|2,3:2|3:2,0:0:0:0:
78,272,26827,1,0,1:0:0:0:
24,327,26977,1,2,2:2:0:0:
79,377,27127,1,2,3:2:0:0:
135,328,27277,2,0,L|223:328,1,85,2|0,3:2|1:0,0:0:0:0:
274,382,27577,6,0,L|450:382,1,170,2|0,3:2|3:0,0:0:0:0:
498,327,28027,1,0,1:0:0:0:
498,327,28177,1,2,2:2:0:0:
443,272,28327,5,2,3:2:0:0:
316,260,28477,1,2,3:0:0:0:
274,382,28627,1,2,3:1:0:0:
196,376,28777,6,0,B|148:336|148:336|192:236,1,170,6|2,3:2|3:2,0:0:0:0:
124,196,29227,2,0,L|160:112,1,85,2|2,1:2|3:2,0:0:0:0:
200,116,29452,1,0,3:0:0:0:
244,112,29527,2,0,L|280:28,1,85,2|2,1:2|3:2,0:0:0:0:
352,32,29827,1,2,1:2:0:0:
381,103,29977,2,0,L|309:275,1,170,2|2,3:3|3:2,0:0:0:0:
376,336,30427,2,0,L|412:252,1,85,2|2,1:2|3:2,0:0:0:0:
256,196,30727,2,0,L|184:368,1,170,2|0,1:2|1:0,0:0:0:0:
315,259,31177,6,0,B|363:219|363:219|319:120,1,170,2|2,3:3|3:2,0:0:0:0:
372,48,31627,2,0,L|408:132,1,85,2|2,1:2|3:2,0:0:0:0:
380,160,31852,1,0,3:0:0:0:
352,192,31927,2,0,L|388:276,1,85,2|2,1:2|3:2,0:0:0:0:
340,332,32227,1,2,1:2:0:0:
264,332,32377,2,0,L|192:160,1,170,2|2,3:3|3:2,0:0:0:0:
108,172,32827,2,0,L|144:256,1,85,2|2,1:2|3:2,0:0:0:0:
198,175,33127,2,0,L|126:3,1,170,2|0,1:2|1:0,0:0:0:0:
260,108,33577,6,0,B|308:148|308:148|264:248,1,170,6|2,3:2|3:2,0:0:0:0:
196,208,34027,2,0,L|160:292,1,85,2|2,1:2|3:2,0:0:0:0:
120,280,34252,1,0,3:0:0:0:
76,284,34327,2,0,L|40:368,1,85,2|2,1:2|3:2,0:0:0:0:
116,384,34627,1,2,1:2:0:0:
42,362,34777,2,0,L|114:190,1,170,2|2,3:3|3:2,0:0:0:0:
56,132,35227,2,0,L|20:216,1,85,2|2,1:2|3:2,0:0:0:0:
176,232,35527,2,0,L|248:60,1,170,2|0,1:2|1:0,0:0:0:0:
316,36,35977,6,0,B|268:76|268:76|312:176,1,170,2|2,3:3|3:2,0:0:0:0:
388,160,36427,2,0,L|424:244,1,85,2|2,1:2|3:2,0:0:0:0:
392,268,36652,1,0,3:0:0:0:
364,300,36727,2,0,L|400:384,1,85,2|2,1:2|3:2,0:0:0:0:
320,384,37027,1,2,1:2:0:0:
244,372,37177,2,0,L|172:200,1,170,2|2,3:3|3:2,0:0:0:0:
100,188,37627,1,2,1:2:0:0:
176,188,37777,1,2,1:2:0:0:
216,188,37852,1,0,1:0:0:0:
256,188,37927,1,2,1:2:0:0:
332,184,38077,1,0,1:0:0:0:
408,184,38227,1,0,1:0:0:0:
484,184,38377,6,0,P|500:264|484:352,1,170,6|2,3:2|3:2,0:0:0:0:
408,364,38827,2,0,P|368:348|316:344,1,85,2|2,1:2|2:2,0:0:0:0:
260,380,39127,2,0,L|172:380,2,85,2|2|2,3:2|3:2|1:2,0:0:0:0:
204,304,39577,2,0,L|28:304,1,170,2|2,3:2|3:2,0:0:0:0:
16,228,40027,2,0,P|60:200|76:168,1,85,2|2,1:2|2:2,0:0:0:0:
20,116,40327,2,0,L|20:20,2,85,2|0|0,3:2|3:0|1:0,0:0:0:0:
96,32,40777,6,0,B|144:68|144:68|260:36,1,170,2|2,3:2|3:2,0:0:0:0:
326,38,41227,2,0,L|326:130,1,85,2|2,1:2|2:2,0:0:0:0:
402,123,41527,1,2,3:2:0:0:
402,161,41602,1,2,3:2:0:0:
402,199,41677,1,2,3:2:0:0:
402,275,41827,1,2,1:2:0:0:
326,293,41977,2,0,L|326:117,1,170,2|2,3:2|3:2,0:0:0:0:
248,64,42427,2,0,L|248:152,1,85,2|2,1:2|2:2,0:0:0:0:
172,192,42727,2,0,L|172:92,2,85,2|0|0,3:2|3:0|1:0,0:0:0:0:
124,260,43177,6,0,B|208:300|204:224|308:268,1,170,4|2,3:2|3:2,0:0:0:0:
328,328,43627,2,0,P|376:340|428:328,1,85,2|2,1:2|2:2,0:0:0:0:
456,272,43927,1,2,3:2:0:0:
433,198,44077,1,2,3:2:0:0:
377,250,44227,1,0,1:0:0:0:
456,272,44377,2,0,L|456:88,1,170,2|2,3:2|3:2,0:0:0:0:
376,40,44827,2,0,L|376:136,1,85,2|2,1:2|2:2,0:0:0:0:
320,180,45127,2,0,P|264:164|132:168,1,170,2|0,3:2|1:0,0:0:0:0:
92,212,45577,6,0,L|92:408,1,170,2|2,3:2|3:2,0:0:0:0:
15,382,46027,1,2,1:2:0:0:
15,305,46177,1,2,2:2:0:0:
15,228,46327,2,0,L|15:120,2,85,2|2|2,3:2|3:2|1:2,0:0:0:0:
92,212,46777,2,0,P|156:208|240:144,1,170,2|2,3:2|3:2,0:0:0:0:
284,84,47227,2,0,L|376:84,1,85,2|2,1:2|2:2,0:0:0:0:
464,36,47527,5,2,1:2:0:0:
464,129,47677,1,2,1:3:0:0:
464,222,47827,1,2,1:1:0:0:
464,222,47977,6,0,B|432:228|432:228|400:222|400:222|376:248|376:248|352:286,1,127.500004863739,6|0,3:2|0:0,0:0:0:0:
300,316,48427,2,0,B|276:320|276:320|236:316|236:316|204:328|204:328|168:328,2,127.500004863739,0|0|0,3:0|1:2|3:2,0:0:0:0:
120,376,49327,1,2,3:2:0:0:
120,376,49477,1,2,2:2:0:0:
120,376,49627,1,2,3:2:0:0:
120,376,49777,1,2,2:2:0:0:
120,376,49927,1,2,1:2:0:0:
120,376,50227,1,0,3:0:0:0:
16,308,50377,6,0,B|48:302|48:302|80:308|80:308|104:282|104:282|128:244,1,127.500004863739,6|0,2:2|0:0,0:0:0:0:
180,214,50827,2,0,B|204:210|204:210|244:214|244:214|276:202|276:202|312:202,2,127.500004863739,0|0|0,3:0|1:2|3:2,0:0:0:0:
360,154,51727,1,2,3:2:0:0:
360,154,51877,1,2,2:2:0:0:
360,154,52027,1,2,3:2:0:0:
360,154,52177,1,2,2:2:0:0:
360,154,52327,1,2,3:2:0:0:
360,154,52627,1,0,1:0:0:0:
464,222,52777,6,0,B|432:228|432:228|400:222|400:222|376:248|376:248|352:286,1,127.500004863739,6|0,3:2|0:0,0:0:0:0:
300,316,53227,2,0,B|276:320|276:320|236:316|236:316|204:328|204:328|168:328,2,127.500004863739,0|0|0,3:0|1:2|3:2,0:0:0:0:
120,376,54127,1,2,3:2:0:0:
120,376,54277,1,2,2:2:0:0:
120,376,54427,1,2,3:2:0:0:
120,376,54577,1,2,2:2:0:0:
120,376,54727,1,2,3:2:0:0:
120,376,55027,1,0,1:2:0:0:
48,348,55177,6,0,B|32:316|32:316|48:272,2,63.7500024318696,6|0|2,3:2|0:0|3:2,0:0:0:0:
120,376,55627,1,2,3:2:0:0:
196,364,55777,1,2,3:2:0:0:
248,308,55927,1,2,3:2:0:0:
224,236,56077,1,2,3:2:0:0:
248,164,56227,1,2,3:2:0:0:
320,140,56377,1,2,3:2:0:0:
400,192,56527,5,2,3:2:0:0:
320,244,56677,1,2,3:2:0:0:
224,236,56827,1,2,3:2:0:0:
168,160,56977,1,2,3:2:0:0:
320,140,57127,5,2,1:2:0:0:
248,308,57277,1,2,3:3:0:0:
248,308,57577,6,0,P|320:328|448:388,1,203.999993774414,6|2,3:2|3:2,0:0:0:0:
504,320,58027,2,0,L|504:212,1,101.999996887207,2|2,1:2|2:2,0:0:0:0:
460,208,58252,1,0,3:0:0:0:
416,196,58327,2,0,L|416:88,1,101.999996887207,2|0,3:2|3:0,0:0:0:0:
484,32,58627,1,2,1:2:0:0:
360,0,58777,2,0,P|308:32|244:180,1,203.999993774414,2|2,3:2|3:2,0:0:0:0:
176,220,59227,2,0,L|60:220,1,101.999996887207,2|2,1:2|2:2,0:0:0:0:
44,256,59452,1,0,3:0:0:0:
16,292,59527,1,2,3:2:0:0:
60,372,59677,1,0,3:0:0:0:
152,356,59827,1,0,1:0:0:0:
220,296,59977,6,0,P|280:272|440:272,1,203.999993774414,6|2,3:2|3:2,0:0:0:0:
476,196,60427,1,2,1:2:0:0:
440,168,60502,1,0,3:0:0:0:
404,140,60577,1,2,2:2:0:0:
316,160,60727,2,0,L|316:292,1,101.999996887207,2|2,3:2|3:2,0:0:0:0:
316,353,61027,1,2,1:2:0:0:
188,380,61177,2,0,P|136:336|128:192,1,203.999993774414,2|2,3:2|3:2,0:0:0:0:
208,176,61627,2,0,L|208:56,1,101.999996887207,2|2,1:2|2:2,0:0:0:0:
240,40,61852,1,0,3:0:0:0:
276,12,61927,1,2,3:2:0:0:
340,76,62077,1,0,3:0:0:0:
428,48,62227,1,0,1:2:0:0:
460,132,62377,6,0,L|460:272,1,101.999996887207,14|0,3:2|0:0,0:0:0:0:
404,308,62677,1,2,3:2:0:0:
320,276,62827,1,2,1:2:0:0:
296,188,62977,1,2,2:2:0:0:
324,100,63127,1,2,3:2:0:0:
104,56,63427,1,0,1:2:0:0:
52,132,63577,6,0,L|52:272,1,101.999996887207,14|0,3:2|0:0,0:0:0:0:
108,308,63877,1,2,3:2:0:0:
192,276,64027,1,2,1:2:0:0:
216,188,64177,1,2,2:2:0:0:
188,100,64327,1,2,3:2:0:0:
408,56,64627,1,0,1:2:0:0:
352,128,64777,6,0,P|257:95|161:127,1,203.999993774414,14|2,3:2|3:2,0:0:0:0:
128,212,65227,2,0,L|145:334,1,101.999996887207,2|2,1:2|2:2,0:0:0:0:
369,313,65527,2,0,L|384:212,2,101.999996887207,2|2|2,3:2|3:2|1:2,0:0:0:0:
256,384,65977,2,0,L|256:180,1,203.999993774414,14|0,3:2|3:0,0:0:0:0:
172,120,66427,5,10,1:2:0:0:
256,80,66577,1,2,3:2:0:0:
340,120,66727,1,10,1:2:0:0:
376,100,66802,1,0,3:0:0:0:
412,80,66877,1,2,3:2:0:0:
448,100,66952,1,0,3:0:0:0:
484,120,67027,1,10,1:2:0:0:
472,220,67177,5,6,3:2:0:0:
472,220,67477,1,2,3:2:0:0:
436,304,67627,1,2,1:2:0:0:
348,284,67777,1,2,2:2:0:0:
283,219,67927,5,2,3:2:0:0:
374,219,68077,1,2,3:2:0:0:
374,310,68227,1,2,1:2:0:0:
282,310,68377,2,0,P|227:331|192:368,1,101.999996887207,2|0,3:2|0:0,0:0:0:0:
108,380,68677,1,2,3:2:0:0:
36,324,68827,2,0,L|36:212,1,101.999996887207,2|2,1:2|2:2,0:0:0:0:
80,224,69052,1,0,3:0:0:0:
125,224,69127,1,2,3:2:0:0:
200,168,69277,1,0,3:0:0:0:
156,88,69427,1,0,1:0:0:0:
256,20,69577,5,6,3:2:0:0:
256,20,69877,1,2,3:2:0:0:
292,96,70027,1,2,1:2:0:0:
372,88,70177,1,2,2:2:0:0:
429,30,70327,5,2,3:2:0:0:
347,30,70477,1,2,3:2:0:0:
347,111,70627,1,2,1:2:0:0:
428,111,70777,2,0,L|428:221,1,101.999996887207,2|0,3:2|0:0,0:0:0:0:
492,280,71077,1,2,3:2:0:0:
416,332,71227,2,0,P|368:352|300:344,2,101.999996887207,2|2|2,1:2|2:2|3:2,0:0:0:0:
356,268,71677,1,0,3:0:0:0:
356,268,71827,1,0,1:2:0:0:
256,192,71977,6,0,L|256:332,1,101.999996887207,14|0,3:2|0:0,0:0:0:0:
318,350,72277,1,2,3:2:0:0:
408,336,72427,1,2,1:2:0:0:
432,248,72577,1,2,2:2:0:0:
368,180,72727,1,2,3:2:0:0:
172,220,73027,1,0,1:2:0:0:
256,192,73177,6,0,L|256:52,1,101.999996887207,14|0,3:2|0:0,0:0:0:0:
194,34,73477,1,2,3:2:0:0:
104,48,73627,1,2,1:2:0:0:
80,136,73777,1,2,2:2:0:0:
144,204,73927,1,2,3:2:0:0:
340,164,74227,1,0,1:2:0:0:
412,224,74377,6,0,P|452:160|456:16,1,203.999993774414,14|2,3:2|3:2,0:0:0:0:
376,64,74827,2,0,L|268:64,1,101.999996887207,2|2,1:2|2:2,0:0:0:0:
136,172,75127,2,0,L|238:172,2,101.999996887207,2|2|2,3:2|3:2|1:2,0:0:0:0:
72,236,75577,2,0,P|32:172|28:28,1,203.999993774414,14|2,3:2|3:2,0:0:0:0:
108,4,76027,1,10,1:2:0:0:
108,4,76177,1,2,2:2:0:0:
180,64,76327,5,10,1:2:0:0:
332,64,76477,1,2,3:3:0:0:
332,64,76777,6,0,L|332:236,1,170,6|2,3:2|3:2,0:0:0:0:
408,264,77227,2,0,L|408:168,1,85,0|2,1:0|2:2,0:0:0:0:
260,328,77527,2,0,L|260:232,1,85,2|2,3:2|3:2,0:0:0:0:
260,168,77827,1,0,1:0:0:0:
180,100,77977,6,0,L|180:292,1,170,2|2,3:2|3:2,0:0:0:0:
104,304,78427,2,0,L|104:216,1,85,0|2,1:0|2:2,0:0:0:0:
32,164,78727,2,0,L|32:260,2,85,2|2|0,3:2|3:2|1:0,0:0:0:0:
32,88,79177,6,0,L|220:88,1,170,2|2,3:2|3:2,0:0:0:0:
252,12,79627,2,0,L|156:12,1,85,0|2,1:0|2:2,0:0:0:0:
272,164,79927,2,0,L|176:164,1,85,2|2,3:2|3:2,0:0:0:0:
112,164,80227,1,0,1:0:0:0:
232,240,80377,6,0,L|420:240,1,170,2|2,3:2|3:2,0:0:0:0:
460,316,80827,2,0,L|376:316,1,85,0|2,1:0|2:2,0:0:0:0:
320,368,81127,1,2,3:2:0:0:
192,368,81277,1,2,3:0:0:0:
192,368,81577,6,0,L|191:198,1,170,6|2,3:2|3:2,0:0:0:0:
299,87,82027,1,0,1:0:0:0:
244,141,82177,1,2,2:2:0:0:
299,196,82327,1,2,3:2:0:0:
353,141,82477,2,0,L|449:141,1,85,2|0,3:2|1:0,0:0:0:0:
438,64,82777,6,0,L|262:64,1,170,2|2,3:2|3:2,0:0:0:0:
191,64,83227,1,0,1:0:0:0:
191,64,83377,1,2,2:2:0:0:
114,64,83527,1,2,3:2:0:0:
114,64,83677,2,0,L|114:172,1,85,2|0,3:2|1:0,0:0:0:0:
37,149,83977,6,0,L|37:341,1,170,2|2,3:2|3:2,0:0:0:0:
91,373,84427,1,0,1:0:0:0:
164,356,84577,1,2,2:2:0:0:
112,300,84727,5,2,3:2:0:0:
240,360,84877,1,2,1:2:0:0:
336,256,85027,1,0,1:0:0:0:
412,272,85177,5,2,3:0:0:0:
412,195,85477,1,2,3:0:0:0:
412,118,85777,1,2,3:0:0:0:
412,41,86077,1,2,3:0:0:0:
412,41,86227,1,0,1:0:0:0:
328,16,86377,6,0,B|288:52|288:52|224:52|224:52|185:16,1,170,6|0,3:2|3:0,0:0:0:0:
120,56,86827,2,0,P|88:92|116:128,1,85,0|0,1:0|3:0,0:0:0:0:
88,156,87052,1,0,3:0:0:0:
112,184,87127,2,0,P|80:220|108:256,1,85,0|0,1:0|3:0,0:0:0:0:
152,296,87427,1,0,1:0:0:0:
184,368,87577,6,0,B|224:332|224:332|288:332|288:332|327:368,1,170,4|0,3:2|3:0,0:0:0:0:
392,328,88027,2,0,P|424:292|396:256,1,85,0|0,1:0|3:0,0:0:0:0:
424,228,88252,1,0,3:0:0:0:
400,200,88327,2,0,P|432:164|404:128,1,85,0|0,1:0|3:0,0:0:0:0:
360,88,88627,1,0,1:0:0:0:
320,160,88777,6,0,B|284:120|284:120|284:56|284:56|320:17,1,170,4|0,3:2|3:0,0:0:0:0:
360,88,89227,2,0,L|252:88,1,85,0|0,1:0|3:0,0:0:0:0:
252,60,89452,1,0,3:0:0:0:
216,76,89527,2,0,P|184:112|212:148,1,85,0|0,1:0|3:0,0:0:0:0:
132,180,89827,1,0,1:0:0:0:
192,224,89977,6,0,B|228:264|228:264|228:328|228:328|192:367,1,170,4|0,3:2|3:0,0:0:0:0:
152,296,90427,2,0,L|260:296,1,85,0|0,1:0|3:0,0:0:0:0:
260,324,90652,1,0,3:0:0:0:
296,308,90727,2,0,P|328:272|300:236,1,85,0|0,1:0|3:0,0:0:0:0:
380,204,91027,1,0,1:0:0:0:
344,136,91177,6,0,B|304:172|304:172|240:172|240:172|201:136,1,170,6|0,3:2|3:0,0:0:0:0:
180,64,91627,2,0,P|216:32|252:60,1,85,0|0,1:0|3:0,0:0:0:0:
272,72,91852,1,0,3:0:0:0:
308,56,91927,2,0,P|344:24|380:52,1,85,0|0,1:0|3:0,0:0:0:0:
412,104,92227,1,0,1:0:0:0:
344,136,92377,6,0,B|304:172|304:172|240:172|240:172|201:136,1,170,6|0,3:2|3:0,0:0:0:0:
180,64,92827,2,0,P|216:32|252:60,1,85,0|0,1:0|3:0,0:0:0:0:
272,72,93052,1,0,3:0:0:0:
308,56,93127,2,0,P|344:24|380:52,1,85,0|0,1:0|3:0,0:0:0:0:
412,104,93427,1,0,1:0:0:0:
344,136,93577,6,0,B|344:172|344:172|356:195|356:195|328:232|328:232|344:256|344:256|344:312,1,170,6|0,3:2|3:0,0:0:0:0:
276,320,94027,2,0,P|248:272|204:252,1,85,0|0,1:0|3:0,0:0:0:0:
192,280,94252,1,0,3:0:0:0:
160,260,94327,2,0,P|128:224|156:188,1,85,0|0,1:0|3:0,0:0:0:0:
60,256,94627,1,0,1:0:0:0:
48,332,94777,6,0,B|84:332|84:332|108:320|108:320|144:348|144:348|168:332|168:332|224:332,1,170,6|0,3:2|3:0,0:0:0:0:
256,280,95227,1,0,1:0:0:0:
332,280,95377,1,0,3:0:0:0:
372,280,95452,1,0,3:0:0:0:
412,280,95527,1,0,1:0:0:0:
488,280,95677,1,4,3:3:0:0:
488,280,95827,1,4,3:3:0:0:
488,280,95977,6,0,P|500:208|480:92,1,170,6|2,3:2|3:2,0:0:0:0:
436,56,96427,2,0,P|376:72|336:68,1,85,2|2,1:2|2:2,0:0:0:0:
296,20,96727,2,0,L|204:20,2,85,2|2|2,3:2|3:2|1:2,0:0:0:0:
220,96,97177,2,0,L|48:96,1,170,2|2,3:2|3:2,0:0:0:0:
8,160,97627,2,0,P|32:212|20:264,1,85,2|2,1:2|2:2,0:0:0:0:
100,272,97927,2,0,L|100:364,2,85,2|0|0,3:2|3:0|1:0,0:0:0:0:
176,356,98377,6,0,B|232:324|232:324|344:360,1,170,2|2,3:2|3:2,0:0:0:0:
408,356,98827,2,0,P|440:324|452:268,1,85,2|2,1:2|2:2,0:0:0:0:
432,212,99127,1,2,3:2:0:0:
420,176,99202,1,2,3:2:0:0:
432,140,99277,1,2,3:2:0:0:
500,104,99427,1,2,1:2:0:0:
400,36,99577,2,0,L|404:216,1,170,2|2,3:2|3:2,0:0:0:0:
328,244,100027,2,0,L|328:156,2,85,2|2|2,1:2|2:2|3:2,0:0:0:0:
260,280,100477,1,0,3:0:0:0:
192,248,100627,1,0,1:0:0:0:
120,308,100777,6,0,B|164:276|164:276|136:144,1,170,4|2,3:2|3:2,0:0:0:0:
72,128,101227,1,2,1:2:0:0:
256,40,101527,1,2,3:2:0:0:
332,40,101677,1,2,3:2:0:0:
408,40,101827,1,0,1:0:0:0:
484,40,101977,2,0,L|484:220,1,170,2|2,3:2|3:2,0:0:0:0:
407,210,102427,2,0,L|407:294,1,85,2|2,1:2|2:2,0:0:0:0:
330,295,102727,2,0,L|330:380,2,85,2|0|0,3:2|3:0|1:0,0:0:0:0:
248,264,103177,6,0,B|220:284|220:284|188:292|188:292|172:312|172:312|120:328|120:328|64:280,1,203.999993774414,4|2,3:2|2:2,0:0:0:0:
32,228,103627,1,2,1:2:0:0:
13,194,103702,1,0,1:0:0:0:
8,156,103777,1,0,1:0:0:0:
17,119,103852,1,0,1:0:0:0:
48,96,103927,2,0,L|106:83,1,42.5,2|0,1:2|1:0,0:0:0:0:
120,108,104077,2,0,L|178:95,1,42.5,0|0,1:0|1:0,0:0:0:0:
192,120,104227,2,0,L|250:107,1,42.5,2|0,1:2|1:0,0:0:0:0:
312,172,104377,5,0,1:0:0:0:
312,172,104452,1,0,1:0:0:0:
312,172,104527,2,0,L|254:185,1,42.5,2|0,1:2|1:0,0:0:0:0:
312,172,104677,2,0,L|329:115,1,42.5,0|0,1:0|1:0,0:0:0:0:
312,172,104827,2,0,L|352:215,1,42.5,2|0,1:2|1:0,0:0:0:0:
400,256,104977,1,0,1:0:0:0:
380,288,105052,1,0,1:0:0:0:
360,320,105127,1,2,1:2:0:0:
360,320,105277,1,2,3:3:0:0:
360,320,105577,6,0,P|272:272|140:276,1,203.999993774414,6|2,3:2|3:2,0:0:0:0:
92,220,106027,2,0,L|92:104,1,101.999996887207,2|2,1:2|2:2,0:0:0:0:
136,112,106252,1,0,3:0:0:0:
180,104,106327,2,0,L|181:-2,1,101.999996887207,2|0,3:2|3:0,0:0:0:0:
264,60,106627,1,2,1:2:0:0:
308,140,106777,2,0,P|380:120|520:136,1,203.999993774414,2|2,3:2|3:2,0:0:0:0:
484,220,107227,2,0,P|464:280|472:340,1,101.999996887207,2|2,1:2|2:2,0:0:0:0:
440,356,107452,1,0,3:0:0:0:
396,368,107527,1,2,3:2:0:0:
336,296,107677,1,0,3:0:0:0:
256,340,107827,1,0,1:0:0:0:
168,308,107977,6,0,P|136:236|236:192,1,203.999993774414,6|2,3:2|3:2,0:0:0:0:
308,140,108427,2,0,P|316:84|304:20,2,101.999996887207,2|2|2,1:2|2:2|3:2,0:0:0:0:
372,208,108877,1,2,3:2:0:0:
464,192,109027,1,2,1:2:0:0:
500,296,109177,2,0,L|292:296,1,203.999993774414,2|2,3:2|3:2,0:0:0:0:
236,364,109627,2,0,L|120:364,1,101.999996887207,2|2,1:2|2:2,0:0:0:0:
88,364,109852,1,0,3:0:0:0:
88,320,109927,1,2,3:2:0:0:
20,260,110077,1,0,3:0:0:0:
20,168,110227,1,0,1:2:0:0:
88,108,110377,6,0,L|88:0,1,101.999996887207,14|0,3:2|0:0,0:0:0:0:
176,28,110677,1,2,3:2:0:0:
228,104,110827,1,2,1:2:0:0:
216,196,110977,1,2,2:2:0:0:
140,252,111127,1,2,3:2:0:0:
344,328,111427,1,0,1:2:0:0:
424,276,111577,6,0,L|424:384,1,101.999996887207,14|0,3:2|0:0,0:0:0:0:
336,356,111877,1,2,3:2:0:0:
284,280,112027,1,2,1:2:0:0:
296,188,112177,1,2,2:2:0:0:
372,132,112327,1,2,3:2:0:0:
168,56,112627,1,0,1:2:0:0:
177,148,112777,6,0,B|256:84|256:84|337:148,1,203.999993774414,14|2,3:2|3:2,0:0:0:0:
384,224,113227,2,0,P|376:300|400:352,1,101.999996887207,2|2,1:2|2:2,0:0:0:0:
128,323,113527,2,0,P|138:273|128:224,2,101.999996887207,2|2|2,3:2|3:2|1:2,0:0:0:0:
300,364,113977,2,0,B|256:272|256:272|212:364,1,203.999993774414,14|0,3:2|3:0,0:0:0:0:
132,328,114427,1,10,1:2:0:0:
44,356,114577,1,2,3:2:0:0:
4,272,114727,1,10,3:2:0:0:
32,240,114802,1,0,3:0:0:0:
60,208,114877,1,2,3:2:0:0:
32,176,114952,1,0,3:0:0:0:
4,144,115027,1,10,1:2:0:0:
40,72,115177,5,6,3:2:0:0:
40,72,115477,1,2,3:2:0:0:
128,92,115627,1,2,1:2:0:0:
168,8,115777,1,2,2:2:0:0:
259,8,115927,5,2,3:2:0:0:
259,99,116077,1,2,3:2:0:0:
259,190,116227,1,2,1:2:0:0:
259,281,116377,2,0,L|259:385,1,101.999996887207,2|0,3:2|0:0,0:0:0:0:
348,296,116677,1,2,3:2:0:0:
416,232,116827,2,0,L|416:120,1,101.999996887207,2|2,1:2|2:2,0:0:0:0:
452,100,117052,1,0,3:0:0:0:
492,120,117127,1,2,3:2:0:0:
508,212,117277,1,0,3:0:0:0:
416,232,117427,1,0,1:0:0:0:
332,192,117577,5,6,3:2:0:0:
332,192,117877,1,2,3:2:0:0:
252,240,118027,1,2,1:2:0:0:
292,324,118177,1,2,2:2:0:0:
212,368,118327,5,2,3:2:0:0:
120,368,118477,1,2,3:2:0:0:
28,368,118627,1,2,1:2:0:0:
28,276,118777,2,0,L|28:160,1,101.999996887207,2|0,3:2|0:0,0:0:0:0:
116,192,119077,1,2,3:2:0:0:
116,100,119227,1,2,1:2:0:0:
116,8,119377,1,2,2:2:0:0:
156,28,119452,1,0,3:0:0:0:
196,48,119527,2,0,L|304:48,2,101.999996887207,2|0|0,3:2|3:0|1:2,0:0:0:0:
116,100,119977,6,0,L|116:204,1,101.999996887207,14|0,3:2|0:0,0:0:0:0:
116,292,120277,1,2,3:2:0:0:
204,268,120427,1,2,1:2:0:0:
204,176,120577,1,2,2:2:0:0:
204,84,120727,1,2,3:2:0:0:
464,36,121027,1,0,1:2:0:0:
396,100,121177,6,0,L|396:204,1,101.999996887207,14|0,3:2|0:0,0:0:0:0:
396,292,121477,1,2,3:2:0:0:
308,268,121627,1,2,1:2:0:0:
308,176,121777,1,2,2:2:0:0:
308,84,121927,1,2,3:2:0:0:
48,36,122227,1,0,1:2:0:0:
24,124,122377,6,0,P|108:120|228:188,1,203.999993774414,14|2,3:2|3:2,0:0:0:0:
208,264,122827,2,0,L|106:264,1,101.999996887207,2|2,1:2|2:2,0:0:0:0:
304,120,123127,2,0,L|406:120,2,101.999996887207,2|2|2,3:2|3:2|1:2,0:0:0:0:
488,260,123577,2,0,P|404:264|284:196,1,203.999993774414,14|2,3:2|3:2,0:0:0:0:
304,120,124027,1,10,1:2:0:0:
184,288,124177,1,2,2:2:0:0:
106,264,124327,1,4,3:3:0:0:
106,264,124477,1,10,3:3:0:0:
106,264,124627,1,0,3:2:0:0:
160,209,124777,5,6,3:2:0:0:
256,192,128827,12,2,129427,2:3:0:0:
148,120,129727,5,0,3:0:0:0:
148,120,129802,1,0,3:0:0:0:
148,120,129877,1,0,3:0:0:0:
224,120,130027,1,0,3:0:0:0:
224,120,130177,1,0,3:0:0:0:
70,120,130327,5,0,1:0:0:0:
148,120,130477,1,0,3:0:0:0:
148,120,130552,1,0,3:0:0:0:
148,120,130627,1,0,3:0:0:0:
224,120,130777,1,0,3:0:0:0:
300,120,130927,1,0,3:0:0:0:
300,120,131002,1,0,3:0:0:0:
300,120,131077,1,0,3:0:0:0:
376,120,131227,1,0,3:0:0:0:
376,120,131377,1,0,3:0:0:0:
224,120,131527,5,0,1:0:0:0:
300,120,131677,1,0,3:0:0:0:
376,120,131827,2,0,B|432:120|432:120|416:248,1,170,2|0,3:2|3:0,0:0:0:0:
390,260,132202,1,0,3:0:0:0:
390,260,132277,1,0,3:0:0:0:
317,260,132427,1,0,3:0:0:0:
317,260,132577,1,0,3:0:0:0:
466,260,132727,5,0,1:0:0:0:
389,260,132877,1,0,3:0:0:0:
389,260,132952,1,0,3:0:0:0:
389,260,133027,1,0,3:0:0:0:
317,260,133177,1,0,3:0:0:0:
163,260,133327,5,2,3:2:0:0:
240,260,133477,1,2,3:2:0:0:
317,260,133627,2,0,L|317:84,1,170,2|2,3:2|1:2,0:0:0:0:
262,35,134077,1,2,3:2:0:0:
395,8,134227,2,0,L|395:188,1,170,2|0,3:2|3:0,0:0:0:0:
431,204,134602,1,0,3:0:0:0:
431,204,134677,1,0,3:0:0:0:
507,204,134827,1,0,3:0:0:0:
507,204,134977,1,0,3:0:0:0:
348,200,135127,5,0,1:0:0:0:
277,204,135277,1,0,3:0:0:0:
277,204,135352,1,0,3:0:0:0:
277,204,135427,1,0,3:0:0:0:
200,204,135577,1,0,3:0:0:0:
130,204,135727,1,0,3:0:0:0:
130,204,135802,1,0,3:0:0:0:
130,204,135877,1,0,3:0:0:0:
56,204,136027,1,0,3:0:0:0:
56,204,136177,1,0,3:0:0:0:
200,204,136327,5,0,1:0:0:0:
130,204,136477,1,0,3:0:0:0:
56,204,136627,2,0,B|56:120|56:120|160:120,1,170,2|0,3:2|3:0,0:0:0:0:
183,120,137002,1,0,3:0:0:0:
183,120,137077,1,0,3:0:0:0:
183,46,137227,1,0,3:0:0:0:
183,46,137377,1,0,3:0:0:0:
180,192,137527,5,0,1:0:0:0:
183,272,137677,1,0,3:0:0:0:
183,272,137752,1,0,3:0:0:0:
183,272,137827,1,0,3:0:0:0:
183,348,137977,1,0,3:0:0:0:
259,348,138127,6,0,B|307:348|307:348|335:372|335:372|391:372,1,127.5,2|0,3:2|0:0,0:0:0:0:
408,300,138427,2,0,B|360:300|360:300|336:276|336:276|276:276,1,127.5,2|0,3:3|0:0,0:0:0:0:
316,204,138727,2,0,B|364:204|364:204|392:228|392:228|448:228,1,127.5,2|0,1:2|0:0,0:0:0:0:
465,156,139027,2,0,B|417:156|417:156|393:132|393:132|333:132,1,127.5,2|0,3:2|0:0,0:0:0:0:
271,133,139327,6,0,B|240:108|240:108|172:112|172:112|184:40,1,152.999995330811,0|0,3:0|0:0,0:0:0:0:
184,12,139627,2,0,B|152:12|152:12|124:28|124:28|80:28,1,101.999996887207,0|0,3:0|3:0,0:0:0:0:
32,4,139852,1,0,3:0:0:0:
8,56,139927,2,0,B|0:112|0:112|44:152,1,101.999996887207,0|0,1:0|3:0,0:0:0:0:
92,136,140152,1,0,3:0:0:0:
128,176,140227,2,0,B|160:220|160:220|124:256|124:256|128:312,1,152.999995330811,0|0,3:0|0:0,0:0:0:0:
92,348,140527,2,0,B|140:380|140:380|176:360|176:360|232:372,1,152.999995330811,0|0,3:0|0:0,0:0:0:0:
284,380,140827,2,0,B|324:348|324:348|304:296,1,101.999996887207,0|0,3:0|3:0,0:0:0:0:
236,260,141127,1,0,1:0:0:0:
304,168,141277,1,0,3:0:0:0:
416,200,141427,1,2,3:2:0:0:
416,200,141727,6,0,B|456:164|456:164|440:128|440:128|452:48,1,152.999995330811,0|0,3:0|0:0,0:0:0:0:
424,20,142027,2,0,B|396:32|396:32|372:16|372:16|316:16,1,101.999996887207,0|0,3:0|3:0,0:0:0:0:
276,36,142252,1,0,3:0:0:0:
224,12,142327,2,0,B|196:60|196:60|232:116,1,101.999996887207,0|0,1:0|3:0,0:0:0:0:
272,120,142552,1,0,3:0:0:0:
328,132,142627,2,0,B|340:160|340:160|324:184|324:184|324:240,1,101.999996887207,0|0,3:0|3:0,0:0:0:0:
156,196,142927,5,2,3:2:0:0:
156,196,143077,1,2,3:2:0:0:
156,196,143227,1,2,3:2:0:0:
384,92,143527,5,2,1:2:0:0:
384,92,143677,1,2,3:2:0:0:
384,92,143827,1,2,3:2:0:0:
384,92,144127,6,0,B|328:120|328:120|364:216,1,152.999995330811,0|0,3:0|0:0,0:0:0:0:
308,224,144427,2,0,L|292:328,1,101.999996887207,0|0,3:0|3:0,0:0:0:0:
332,364,144652,1,0,3:0:0:0:
388,352,144727,2,0,B|405:325|405:325|448:340|448:340|496:320,1,101.999996887207,0|0,1:0|3:0,0:0:0:0:
508,288,144952,1,0,3:0:0:0:
472,244,145027,2,0,B|448:212|448:212|480:160|480:160|460:104,1,152.999995330811,0|0,3:0|0:0,0:0:0:0:
436,64,145327,2,0,B|336:36|336:36|296:76,1,152.999995330811,0|0,3:0|0:0,0:0:0:0:
252,100,145627,2,0,B|252:132|252:132|264:172|264:172|264:212,1,101.999996887207,0|0,3:0|3:0,0:0:0:0:
188,220,145927,1,0,1:0:0:0:
116,136,146077,1,0,3:0:0:0:
8,152,146227,1,2,3:2:0:0:
8,152,146527,5,0,3:0:0:0:
8,192,146602,1,0,3:0:0:0:
8,232,146677,2,0,L|8:352,2,101.999996887207,0|0|0,3:0|3:0|3:0,0:0:0:0:
88,280,147127,2,0,L|88:408,1,101.999996887207,0|0,1:0|3:0,0:0:0:0:
144,380,147352,1,0,3:0:0:0:
188,344,147427,2,0,B|216:320|216:320|280:340,1,101.999996887207,0|0,3:0|3:0,0:0:0:0:
320,380,147652,1,0,3:0:0:0:
376,376,147727,6,0,P|444:284|296:240,1,318.750012159348,2|0,3:2|0:0,0:0:0:0:
232,272,148627,1,2,3:2:0:0:
232,272,148927,6,0,P|176:240|152:180,2,127.500004863739,6|2|2,3:2|3:2|1:2,0:0:0:0:
80,224,149827,1,2,3:2:0:0:
80,224,150127,2,0,P|79:159|119:108,2,127.500004863739,2|2|2,3:2|3:2|1:2,0:0:0:0:
240,184,151027,1,2,3:2:0:0:
240,184,151327,2,0,L|508:184,1,255.000009727478,2|2,3:2|1:2,0:0:0:0:
240,264,152527,2,0,L|420:264,1,170,0|0,3:2|1:2,0:0:0:0:
240,348,153427,5,2,3:2:0:0:
240,348,153727,2,0,P|182:318|155:260,2,127.500004863739,6|2|2,3:2|3:2|1:2,0:0:0:0:
84,308,154627,1,2,3:2:0:0:
84,308,154927,2,0,P|80:243|117:190,2,127.500004863739,2|2|2,3:2|3:2|1:2,0:0:0:0:
0,112,155827,1,2,3:2:0:0:
0,112,156127,2,0,L|276:112,1,255.000009727478,2|2,3:2|1:2,0:0:0:0:
0,32,157327,2,0,L|180:32,1,170,0|2,3:2|1:1,0:0:0:0:
326,32,158227,5,2,3:2:0:0:
326,32,158527,2,0,P|376:72|390:135,2,127.500004863739,6|2|2,3:2|3:2|1:2,0:0:0:0:
472,108,159427,1,2,3:2:0:0:
472,108,159727,2,0,P|462:171|414:215,2,127.500004863739,2|2|2,3:2|3:2|1:2,0:0:0:0:
304,116,160627,1,2,3:2:0:0:
304,116,160927,2,0,L|36:116,1,255.000009727478,2|2,3:2|1:2,0:0:0:0:
304,192,162127,2,0,L|124:192,1,170,0|0,3:2|1:2,0:0:0:0:
324,276,163027,5,2,3:2:0:0:
324,276,163327,2,0,P|374:236|388:173,2,127.500004863739,6|2|0,3:2|3:2|1:2,0:0:0:0:
260,332,164227,1,2,3:2:0:0:
260,332,164527,2,0,P|319:355|381:335,2,127.500004863739,2|2|0,3:2|3:2|1:2,0:0:0:0:
148,228,165427,2,0,B|148:148,1,63.7500024318696,2|0,3:2|0:0,0:0:0:0:
200,112,165727,5,6,3:2:0:0:
128,96,165877,1,2,0:2:0:0:
60,128,166027,1,2,0:2:0:0:
36,200,166177,1,2,0:2:0:0:
52,272,166327,1,0,3:2:0:0:
112,316,166477,1,0,3:2:0:0:
184,300,166627,1,0,3:2:0:0:
260,304,166777,1,0,3:2:0:0:
312,376,166927,5,0,3:2:0:0:
224,380,167077,1,0,3:2:0:0:
184,300,167227,1,0,3:2:0:0:
232,224,167377,1,0,3:2:0:0:
320,236,167527,1,0,3:2:0:0:
396,192,167677,1,0,3:2:0:0:
404,104,167827,1,0,3:2:0:0:
336,48,167977,1,0,3:2:0:0:
260,124,168127,5,2,1:2:0:0:
364,196,168277,1,0,3:2:0:0:
332,216,168352,1,0,3:2:0:0:
300,236,168427,1,0,3:2:0:0:
196,164,168577,1,2,1:2:0:0:
300,236,168727,1,0,3:2:0:0:
268,256,168802,1,0,3:0:0:0:
236,276,168877,1,0,3:2:0:0:
148,228,169027,1,2,1:2:0:0:
148,228,169102,1,0,1:2:0:0:
148,228,169177,1,0,3:2:0:0:
196,164,169327,6,0,L|196:120,2,42.5,2|0|0,3:2|3:2|3:2,0:0:0:0:
268,256,169627,2,0,L|268:308,2,42.5,2|0|0,3:2|3:2|3:2,0:0:0:0:
336,232,169927,5,2,1:2:0:0:
124,152,170077,1,2,3:3:0:0:
124,152,170377,6,0,P|252:64|420:72,1,318.750012159348,6|2,3:2|3:3,0:0:0:0:
500,196,171427,1,2,3:3:0:0:
500,196,171727,1,2,3:3:0:0:
500,196,172027,1,2,3:3:0:0:
408,316,172327,5,0,3:3:0:0:
344,276,172477,1,0,1:2:0:0:
305,276,172552,1,0,1:2:0:0:
266,276,172627,1,0,1:2:0:0:
227,276,172702,1,0,1:2:0:0:
188,276,172777,6,0,P|204:196|324:124,1,203.999993774414,6|2,3:2|3:2,0:0:0:0:
388,152,173227,2,0,L|388:40,2,101.999996887207,2|2|2,1:2|2:2|3:2,0:0:0:0:
480,96,173677,1,2,3:2:0:0:
480,4,173827,1,0,1:2:0:0:
388,50,173977,2,0,P|296:40|176:96,1,203.999993774414,2|2,3:2|3:2,0:0:0:0:
140,152,174427,2,0,P|108:112|104:48,1,101.999996887207,2|2,1:2|2:2,0:0:0:0:
72,28,174652,1,0,3:0:0:0:
28,44,174727,1,2,3:2:0:0:
0,132,174877,1,0,3:0:0:0:
60,200,175027,1,0,1:0:0:0:
140,152,175177,6,0,L|264:152,1,101.999996887207,14|0,3:2|0:0,0:0:0:0:
316,96,175477,1,2,3:2:0:0:
256,28,175627,1,2,1:2:0:0:
164,12,175777,1,2,2:2:0:0:
72,28,175927,1,2,3:2:0:0:
48,232,176227,1,0,1:2:0:0:
140,232,176377,6,0,L|264:232,1,101.999996887207,10|0,3:2|0:0,0:0:0:0:
316,288,176677,1,2,3:2:0:0:
256,356,176827,1,2,1:2:0:0:
164,372,176977,1,2,2:2:0:0:
72,356,177127,1,2,3:2:0:0:
48,152,177427,1,0,1:2:0:0:
119,91,177577,6,0,P|147:188|119:285,1,203.999993774414,14|2,3:2|3:2,0:0:0:0:
256,344,178027,2,0,L|256:224,1,101.999996887207,2|2,1:2|2:2,0:0:0:0:
256,40,178327,2,0,L|256:142,2,101.999996887207,2|2|2,3:2|3:2|1:2,0:0:0:0:
393,293,178777,2,0,P|365:196|393:99,1,203.999993774414,14|0,3:2|3:2,0:0:0:0:
484,308,179227,1,2,1:2:0:0:
393,293,179377,1,2,2:2:0:0:
348,296,179452,1,0,3:2:0:0:
312,324,179527,1,2,3:2:0:0:
228,360,179677,1,2,3:2:0:0:
144,324,179827,1,2,1:2:0:0:
56,348,179977,6,0,L|27:142,1,203.999993774414,6|2,3:2|3:2,0:0:0:0:
88,76,180427,1,2,1:2:0:0:
176,96,180577,1,2,2:2:0:0:
244,36,180727,5,2,3:2:0:0:
244,127,180877,1,2,3:2:0:0:
152,127,181027,1,2,1:2:0:0:
152,35,181177,2,0,L|32:35,1,101.999996887207,6|2,3:2|2:2,0:0:0:0:
152,127,181477,1,2,3:2:0:0:
200,204,181627,2,0,L|320:204,1,101.999996887207,2|2,1:2|3:2,0:0:0:0:
364,268,181927,1,2,1:2:0:0:
308,344,182077,5,2,3:2:0:0:
152,308,182227,1,2,1:3:0:0:
96,236,182377,2,0,P|128:164|112:16,1,203.999993774414,6|2,3:2|3:2,0:0:0:0:
212,20,182827,1,2,1:2:0:0:
276,88,182977,1,2,2:2:0:0:
364,60,183127,1,2,3:2:0:0:
408,60,183202,1,2,3:2:0:0:
452,60,183277,1,2,3:2:0:0:
508,132,183427,2,0,L|508:248,1,101.999996887207,2|2,1:2|3:2,0:0:0:0:
508,234,184027,1,2,1:2:0:0:
420,264,184177,1,2,2:2:0:0:
384,348,184327,2,0,P|304:344|196:256,1,203.999993774414,2|0,3:2|1:0,0:0:0:0:
120,344,184777,6,0,L|120:124,1,203.999993774414,14|2,3:2|3:2,0:0:0:0:
120,48,185227,1,2,1:2:0:0:
206,80,185377,1,2,2:2:0:0:
206,171,185527,2,0,L|206:292,2,101.999996887207,2|0|0,3:2|3:2|1:2,0:0:0:0:
392,344,185977,6,0,L|392:124,1,203.999993774414,14|2,3:2|3:2,0:0:0:0:
392,48,186427,1,2,1:2:0:0:
306,80,186577,1,2,2:2:0:0:
306,171,186727,2,0,L|306:292,2,101.999996887207,2|0|0,3:2|3:0|1:2,0:0:0:0:
168,332,187177,6,0,P|256:287|344:332,1,203.999993774414,14|2,3:2|3:2,0:0:0:0:
344,192,187627,1,2,1:2:0:0:
168,192,187777,1,2,2:2:0:0:
168,52,187927,2,0,P|256:96|344:51,1,203.999993774414,2|2,3:2|1:2,0:0:0:0:
256,0,188377,6,0,L|256:232,1,203.999993774414,14|2,3:2|3:2,0:0:0:0:
168,284,188827,1,2,1:2:0:0:
168,192,188977,1,2,1:2:0:0:
168,146,189052,1,0,1:2:0:0:
168,100,189127,1,2,1:2:0:0:
168,11,189277,1,0,3:0:0:0:
168,11,189427,1,2,1:2:0:0:
168,11,189577,6,0,P|340:28|464:132,1,318.750012159348,6|0,3:2|1:2,0:0:0:0:
400,316,190627,1,0,3:2:0:0:
332,352,190777,2,0,P|300:316|292:232,1,127.500004863739,2|2,3:2|1:2,0:0:0:0:
348,192,191227,1,2,3:2:0:0:
424,208,191377,1,2,3:2:0:0:
432,176,191452,1,0,3:0:0:0:
440,144,191527,2,0,L|520:144,2,63.7500024318696,2|0|2,1:2|3:2|1:2,0:0:0:0:
392,84,191977,6,0,L|260:84,1,127.500004863739,6|0,3:2|1:2,0:0:0:0:
200,124,192427,1,6,3:2:0:0:
128,96,192577,1,0,1:2:0:0:
96,72,192652,1,0,1:2:0:0:
80,36,192727,1,0,1:2:0:0:
16,88,192877,1,0,1:2:0:0:
4,164,193027,1,0,1:2:0:0:
28,236,193177,1,6,3:2:0:0:
28,236,193477,1,0,3:2:0:0:
96,268,193627,2,0,B|140:224|140:224|256:244,1,170,0|4,1:2|3:3,0:0:0:0:
284,308,194077,1,4,3:3:0:0:
348,348,194227,1,4,3:3:0:0:
424,344,194377,2,0,L|448:148,1,191.250007295609,6|0,3:2|3:2,0:0:0:0:
504,12,195127,1,0,1:2:0:0:
296,128,195577,6,0,P|240:84|216:8,2,127.500004863739,0|0|0,3:2|1:2|0:0,0:0:0:0:
256,192,196327,1,0,1:2:0:0:
256,192,196627,1,2,2:2:0:0:
204,248,196777,6,0,L|24:248,1,170,6|2,3:2|3:2,0:0:0:0:
28,324,197227,2,0,L|120:324,1,85,0|2,1:0|2:2,0:0:0:0:
116,172,197527,2,0,L|208:172,1,85,2|2,3:2|3:2,0:0:0:0:
276,172,197827,1,0,1:0:0:0:
374,248,197977,6,0,L|174:248,1,170,2|2,3:2|3:2,0:0:0:0:
352,172,198427,2,0,L|456:172,1,85,0|2,1:0|2:2,0:0:0:0:
372,96,198727,2,0,L|268:96,2,85,2|2|0,3:2|3:2|1:0,0:0:0:0:
212,96,199177,6,0,L|212:288,1,170,2|2,3:2|3:2,0:0:0:0:
136,312,199627,2,0,L|136:208,1,85,2|2,1:3|2:2,0:0:0:0:
288,352,199927,2,0,L|288:248,1,85,2|2,3:3|3:2,0:0:0:0:
288,190,200227,1,2,1:3:0:0:
364,272,200377,6,0,L|364:80,1,170,2|2,3:2|3:2,0:0:0:0:
448,228,200827,2,0,L|448:340,1,85,2|2,1:3|2:2,0:0:0:0:
388,360,201127,1,2,3:3:0:0:
256,360,201277,1,2,3:0:0:0:
256,360,201577,6,0,L|256:188,1,170,6|2,3:2|3:2,0:0:0:0:
146,81,202027,1,0,1:0:0:0:
201,135,202177,1,2,2:2:0:0:
146,190,202327,1,2,3:2:0:0:
92,135,202477,2,0,L|-4:135,1,85,2|0,3:2|1:0,0:0:0:0:
7,211,202777,6,0,L|191:211,1,170,2|2,3:2|3:2,0:0:0:0:
231,265,203227,1,0,1:0:0:0:
231,265,203377,1,2,2:2:0:0:
307,265,203527,1,2,3:2:0:0:
307,265,203677,2,0,L|307:165,1,85,2|0,3:2|1:0,0:0:0:0:
384,96,203977,6,0,L|384:284,1,170,2|2,3:2|3:2,0:0:0:0:
274,374,204427,1,0,1:0:0:0:
329,320,204577,1,2,2:2:0:0:
274,265,204727,1,2,3:2:0:0:
220,320,204877,2,0,L|124:320,1,85,2|0,3:2|1:0,0:0:0:0:
58,320,205177,5,6,3:2:0:0:
116,160,205477,1,2,3:3:0:0:
272,92,205777,1,2,3:3:0:0:
424,164,206077,1,2,3:3:0:0:
472,328,206377,1,6,3:2:0:0:
