osu file format v14

[General]
AudioFilename: audio.mp3
AudioLeadIn: 0
PreviewTime: 57140
Countdown: 0
SampleSet: Soft
StackLeniency: 0.3
Mode: 0
LetterboxInBreaks: 0
WidescreenStoryboard: 1

[Editor]
Bookmarks: 9595,19195,28795,38395,47995,57595,76795,86395,95995,105595,124795,129595,139195,148795,165595,170395,189595,196795,206395
DistanceSpacing: 1
BeatDivisor: 4
GridSize: 8
TimelineZoom: 2.8

[Metadata]
Title:Nyanmoku no Ryoukai
TitleUnicode:ニャン黙の了解
Artist:Utsu-P feat. Hatsune Miku & Kagamine Rin
ArtistUnicode:鬱P feat. 初音ミク & 鏡音リン
Creator:Net0
Version:Normal
Source:
Tags:last sonata reiji maigo lkxemmeji edgyking japanese metal jrock rock metalcore vocaloid my song is shit nyan-spoken understanding old style jump warufukaze 2010's 2013 depressionp utsup depression-p 悪巫山戯 Nyan Shijima and
BeatmapID:4070690
BeatmapSetID:1574589

[Difficulty]
HPDrainRate:4
CircleSize:3
OverallDifficulty:5
ApproachRate:6
SliderMultiplier:0.96
SliderTickRate:1

[Events]
//Background and Video events
0,0,"bgmikugoestocatworld.jpg",0,0
//Break Periods
2,124977,128677
//Storyboard Layer 0 (Background)
//Storyboard Layer 1 (Fail)
//Storyboard Layer 2 (Pass)
//Storyboard Layer 3 (Foreground)
//Storyboard Layer 4 (Overlay)
//Storyboard Sound Samples

[TimingPoints]
-23,300,4,2,1,50,1,0
8527,300,4,2,1,50,1,0
9577,-100,4,2,1,70,0,0
28777,-111.111111111111,4,2,1,75,0,0
38377,-100,4,2,1,70,0,0
57577,-100,4,2,2,80,0,1
76777,-100,4,2,1,70,0,0
86377,-111.111111111111,4,2,1,75,0,0
95977,-100,4,2,1,70,0,0
105577,-100,4,2,1,80,0,1
124777,-100,4,2,1,70,0,0
172777,-100,4,2,1,80,0,1
189577,-100,4,2,1,70,0,0
211777,-100,4,2,1,10,0,0

[Colours]
Combo1 : 255,128,192
Combo2 : 128,0,64

[HitObjects]
48,48,9577,5,6,3:2:0:0:
48,144,9877,1,0,3:0:0:0:
81,177,10027,2,0,L|149:177,2,48,0|0|0,1:0|3:0|1:0,0:0:0:0:
47,210,10477,1,0,3:0:0:0:
47,306,10777,1,0,3:0:0:0:
143,306,11077,2,0,L|195:306,1,48,0|0,3:0|1:0,0:0:0:0:
239,306,11377,2,0,L|239:358,2,48,0|0|0,3:0|1:0|3:0,0:0:0:0:
335,306,11977,5,6,3:2:0:0:
335,210,12277,1,0,3:0:0:0:
368,177,12427,2,0,L|368:109,2,48,0|0|0,1:0|3:0|1:0,0:0:0:0:
415,182,12877,1,0,3:0:0:0:
493,236,13177,1,0,3:0:0:0:
493,332,13477,2,0,L|493:384,1,48,0|0,3:0|1:0,0:0:0:0:
445,380,13777,2,0,L|393:380,1,48,0|0,3:0|1:0,0:0:0:0:
305,380,14227,5,0,1:0:0:0:
305,380,14377,1,6,3:2:0:0:
305,284,14677,1,0,3:0:0:0:
272,251,14827,2,0,L|204:251,2,48,0|0|0,1:0|3:0|1:0,0:0:0:0:
306,218,15277,1,0,3:0:0:0:
306,122,15577,1,0,3:0:0:0:
210,122,15877,2,0,L|158:122,1,48,0|0,3:0|1:0,0:0:0:0:
114,122,16177,2,0,L|114:70,2,48,0|0|0,3:0|1:0|3:0,0:0:0:0:
114,218,16777,5,6,3:2:0:0:
113,313,17077,1,0,3:0:0:0:
147,347,17227,2,0,L|215:347,2,48,0|0|0,1:0|3:0|1:0,0:0:0:0:
113,380,17677,1,0,3:0:0:0:
17,380,17977,1,2,3:0:0:0:
17,284,18277,1,2,3:0:0:0:
84,216,18577,1,2,3:0:0:0:
180,216,18877,1,2,3:0:0:0:
247,283,19177,6,0,L|345:283,1,96,6|2,3:2|3:2,0:0:0:0:
443,283,19777,1,2,2:2:0:0:
443,283,19927,2,0,P|455:237|442:192,1,96,2|0,3:2|1:0,0:0:0:0:
442,143,20377,2,0,L|346:143,1,96,2|2,3:2|3:2,0:0:0:0:
298,143,20827,1,0,1:0:0:0:
298,50,21127,1,2,3:2:0:0:
298,50,21277,1,2,3:2:0:0:
394,50,21577,6,0,P|439:36|484:49,1,96,2|2,3:2|3:2,0:0:0:0:
484,97,22027,2,0,L|484:193,1,96,0|2,1:0|3:2,0:0:0:0:
484,241,22477,1,2,3:2:0:0:
388,241,22777,2,0,L|292:241,1,96,2|2,3:2|3:2,0:0:0:0:
244,241,23227,1,0,1:0:0:0:
231,125,23527,2,0,L|178:125,1,48,2|2,3:2|3:0,0:0:0:0:
87,125,23977,6,0,L|87:223,1,96,6|2,3:2|3:2,0:0:0:0:
87,321,24577,1,2,2:2:0:0:
87,321,24727,2,0,P|132:333|177:320,1,96,2|0,3:2|1:0,0:0:0:0:
227,320,25177,2,0,L|227:224,1,96,2|2,3:2|3:2,0:0:0:0:
227,176,25627,1,0,1:0:0:0:
227,84,25927,1,2,3:2:0:0:
227,84,26077,1,2,3:2:0:0:
159,16,26377,6,0,P|113:2|68:15,1,96,2|2,3:2|3:2,0:0:0:0:
69,63,26827,1,0,1:0:0:0:
69,63,26977,2,0,L|102:96,2,48,2|2|2,2:2|3:2|3:2,0:0:0:0:
0,131,27577,1,2,3:2:0:0:
0,227,27877,2,0,L|0:280,1,48,0|0,3:0|1:0,0:0:0:0:
96,275,28327,2,0,L|96:222,2,48,2|2|2,3:2|3:0|3:1,0:0:0:0:
96,318,28777,6,0,L|182:318,1,86.4000000000001,6|2,3:2|3:2,0:0:0:0:
213,287,29227,2,0,B|226:246|226:246|212:204,1,86.4000000000001,2|2,1:2|1:2,0:0:0:0:
181,173,29677,1,2,3:2:0:0:
94,173,29977,6,0,L|94:86,1,86.4000000000001,2|2,3:3|3:2,0:0:0:0:
124,56,30427,2,0,L|185:56,1,43.1999986816407,2|2,1:2|3:2,0:0:0:0:
197,86,30727,1,2,1:2:0:0:
258,147,31027,1,0,1:0:0:0:
300,149,31177,6,0,L|386:149,1,86.4000000000001,2|2,3:3|3:2,0:0:0:0:
417,118,31627,2,0,B|430:77|430:77|416:35,1,86.4000000000001,2|2,1:2|1:2,0:0:0:0:
385,4,32077,1,2,3:2:0:0:
298,4,32377,2,0,L|212:4,1,86.4000000000001,2|2,3:3|3:2,0:0:0:0:
211,47,32827,2,0,L|167:47,2,43.2,2|2|2,1:2|3:2|1:2,0:0:0:0:
211,90,33277,1,0,3:0:0:0:
211,176,33577,6,0,L|122:176,1,86.3999973632813,6|2,3:2|3:2,0:0:0:0:
81,176,34027,2,0,L|81:229,1,43.1999986816407,2|2,1:2|3:2,0:0:0:0:
50,249,34327,1,2,1:2:0:0:
50,335,34627,1,2,1:2:0:0:
80,365,34777,6,0,L|167:364,1,86.4000000000001,2|2,3:3|3:2,0:0:0:0:
197,333,35227,1,2,1:2:0:0:
227,302,35377,2,0,L|276:302,2,43.1999986816407,2|2|0,3:2|1:2|3:0,0:0:0:0:
244,209,35977,6,0,L|244:122,1,86.4000000000001,2|2,3:3|3:2,0:0:0:0:
274,92,36427,2,0,L|328:92,1,43.1999986816407,2|2,1:2|3:2,0:0:0:0:
347,122,36727,1,2,1:2:0:0:
433,122,37027,1,2,1:2:0:0:
463,152,37177,2,0,L|463:251,1,86.3999973632813,2|2,3:3|3:2,0:0:0:0:
432,269,37627,2,0,L|432:326,1,43.2,2|2,1:2|1:2,0:0:0:0:
401,342,37927,2,0,L|359:383,1,43.2,2|0,1:2|1:0,0:0:0:0:
291,331,38377,6,0,P|245:344|200:331,1,96,6|2,3:2|3:2,0:0:0:0:
166,297,38827,2,0,P|152:251|165:206,2,96,2|2|2,1:2|3:2|1:2,0:0:0:0:
199,330,39577,1,2,3:2:0:0:
267,261,39877,1,2,3:2:0:0:
267,261,40027,2,0,L|324:261,2,48,2|2|2,1:2|2:2|3:2,0:0:0:0:
271,102,40777,6,0,L|204:35,1,96,2|2,3:2|3:2,0:0:0:0:
156,35,41227,2,0,L|103:35,1,48,2|2,1:2|2:2,0:0:0:0:
60,35,41527,2,0,L|22:-2,2,48,2|2|2,3:2|3:2|1:2,0:0:0:0:
60,83,41977,1,2,3:2:0:0:
60,182,42277,1,2,3:2:0:0:
60,182,42427,2,0,L|22:219,2,48,2|2|2,1:2|2:2|3:2,0:0:0:0:
162,284,43177,6,0,P|184:242|225:219,1,96,4|2,3:2|3:2,0:0:0:0:
274,219,43627,2,0,P|315:241|338:282,2,96,2|2|0,1:2|3:2|1:0,0:0:0:0:
225,218,44377,1,2,3:2:0:0:
161,154,44677,1,2,3:2:0:0:
161,154,44827,2,0,L|161:92,1,48,2|2,1:2|2:2,0:0:0:0:
161,58,45127,2,0,L|161:-3,1,48,2|0,3:2|3:0,0:0:0:0:
245,8,45577,6,0,L|293:8,1,48,2|0,3:2|0:0,0:0:0:0:
341,8,45877,1,2,3:2:0:0:
408,75,46177,1,2,2:2:0:0:
408,123,46327,2,0,L|360:123,2,48,2|2|2,3:2|3:2|1:2,0:0:0:0:
456,123,46777,1,2,3:2:0:0:
456,219,47077,2,0,L|408:219,2,48,2|2|2,3:2|1:2|2:2,0:0:0:0:
489,252,47527,1,2,1:2:0:0:
489,300,47677,2,0,L|489:348,2,48,2|2|6,1:3|1:1|3:2,0:0:0:0:
335,299,48427,5,0,3:0:0:0:
267,366,48727,1,0,1:2:0:0:
199,298,49027,1,0,3:2:0:0:
266,230,49327,1,2,3:2:0:0:
333,162,49627,1,2,3:2:0:0:
265,94,49927,1,2,1:2:0:0:
197,161,50227,2,0,L|149:161,1,48,0|6,3:0|2:2,0:0:0:0:
149,17,50827,5,0,3:0:0:0:
83,85,51127,1,0,1:2:0:0:
150,153,51427,1,0,3:2:0:0:
218,86,51727,1,2,3:2:0:0:
286,19,52027,1,2,3:2:0:0:
354,87,52327,1,2,3:2:0:0:
287,155,52627,2,0,L|287:203,1,48,0|6,1:0|3:2,0:0:0:0:
430,210,53227,5,0,3:0:0:0:
362,277,53527,1,0,1:2:0:0:
294,209,53827,1,0,3:2:0:0:
361,141,54127,1,2,3:2:0:0:
428,73,54427,1,2,3:2:0:0:
360,5,54727,1,2,3:2:0:0:
292,72,55027,2,0,L|244:72,1,48,0|6,1:2|3:2,0:0:0:0:
176,139,55477,6,0,L|142:105,2,48,2|2|2,3:2|3:2|3:2,0:0:0:0:
176,235,56077,2,0,L|128:235,2,48,2|2|2,3:2|3:2|3:2,0:0:0:0:
272,235,56677,2,0,L|306:202,2,48,2|2|2,3:2|3:2|3:2,0:0:0:0:
272,286,57127,1,2,1:2:0:0:
272,286,57277,1,2,3:3:0:0:
257,384,57577,6,0,L|353:384,1,96,6|2,3:2|3:2,0:0:0:0:
386,350,58027,2,0,L|386:284,1,48,2|2,1:2|2:2,0:0:0:0:
386,254,58327,1,2,3:2:0:0:
482,254,58627,1,2,1:2:0:0:
482,206,58777,2,0,L|482:101,1,96,2|2,3:2|3:2,0:0:0:0:
448,77,59227,2,0,L|415:44,1,48,2|2,1:2|2:2,0:0:0:0:
365,44,59527,2,0,L|332:78,1,48,2|0,3:2|3:0,0:0:0:0:
263,146,59977,6,0,B|220:163|220:163|174:147,1,96,6|2,3:2|3:2,0:0:0:0:
141,112,60427,1,2,1:2:0:0:
108,79,60577,2,0,L|108:24,2,48,2|2|2,2:2|3:2|3:2,0:0:0:0:
75,113,61027,2,0,B|55:159|55:159,1,48,2|2,1:2|3:2,0:0:0:0:
40,255,61477,1,2,3:2:0:0:
40,255,61627,2,0,B|12:317|12:317,2,48,2|2|2,1:2|2:2|3:2,0:0:0:0:
134,225,62227,5,0,1:2:0:0:
134,225,62377,1,14,3:2:0:0:
230,225,62677,2,0,L|292:225,1,48,2|2,3:2|1:2,0:0:0:0:
326,225,62977,2,0,L|388:225,1,48,2|2,2:2|3:2,0:0:0:0:
374,317,63427,5,0,1:2:0:0:
374,317,63577,1,14,3:2:0:0:
278,317,63877,2,0,L|216:317,1,48,2|2,3:2|1:2,0:0:0:0:
182,317,64177,2,0,L|120:317,2,48,2|2|0,2:2|3:2|3:0,0:0:0:0:
182,221,64777,6,0,L|77:221,1,96,14|2,3:2|3:2,0:0:0:0:
53,188,65227,1,2,1:2:0:0:
53,92,65527,1,2,3:2:0:0:
87,59,65677,2,0,L|140:59,1,48,2|2,3:2|1:2,0:0:0:0:
169,26,65977,6,0,B|212:9|212:9|259:26,1,96,14|0,3:2|3:0,0:0:0:0:
294,60,66427,1,10,1:2:0:0:
328,27,66577,2,0,L|384:27,2,48,2|10|2,3:2|1:2|3:2,0:0:0:0:
328,123,67177,6,0,L|328:219,1,96,6|2,3:2|3:2,0:0:0:0:
362,253,67627,2,0,L|428:253,1,48,2|2,1:2|2:2,0:0:0:0:
445,219,67927,1,2,3:2:0:0:
445,219,68077,1,2,3:2:0:0:
512,152,68377,2,0,L|512:47,1,96,2|2,3:2|3:2,0:0:0:0:
479,23,68827,2,0,L|446:56,1,48,2|2,1:2|2:2,0:0:0:0:
396,56,69127,2,0,L|363:22,1,48,2|0,3:2|3:0,0:0:0:0:
295,90,69577,6,0,B|278:133|278:133|295:180,1,96,6|2,3:2|3:2,0:0:0:0:
329,212,70027,1,2,1:2:0:0:
362,245,70177,2,0,L|417:245,2,48,2|2|2,2:2|3:2|3:2,0:0:0:0:
328,278,70627,2,0,L|295:312,1,48,2|2,1:2|3:2,0:0:0:0:
195,313,71077,1,2,3:2:0:0:
195,313,71227,2,0,L|162:347,2,48,2|2|2,1:2|2:2|3:2,0:0:0:0:
195,217,71827,5,0,1:2:0:0:
195,217,71977,1,14,3:2:0:0:
195,121,72277,2,0,L|133:121,1,48,2|2,3:2|1:2,0:0:0:0:
99,121,72577,2,0,L|37:121,1,48,2|2,2:2|3:2,0:0:0:0:
51,214,73027,5,0,1:2:0:0:
51,214,73177,1,14,3:2:0:0:
51,310,73477,2,0,L|113:310,1,48,2|2,3:2|1:2,0:0:0:0:
147,310,73777,2,0,L|209:310,2,48,2|2|0,2:2|3:2|3:0,0:0:0:0:
147,214,74377,6,0,L|252:214,1,96,14|2,3:2|3:2,0:0:0:0:
277,181,74827,2,0,L|277:129,1,48,2|2,1:2|2:2,0:0:0:0:
244,100,75127,2,0,L|192:100,1,48,2|2,3:2|3:2,0:0:0:0:
162,66,75427,1,2,1:2:0:0:
128,32,75577,1,14,3:2:0:0:
63,102,75877,2,0,L|63:150,1,48,2|10,3:2|1:2,0:0:0:0:
63,198,76177,1,2,2:2:0:0:
63,198,76327,2,0,L|63:246,1,48,10|2,1:2|3:3,0:0:0:0:
63,342,76777,6,0,L|159:342,1,96,6|2,3:2|3:2,0:0:0:0:
192,309,77227,2,0,L|192:241,2,48,0|2|2,1:0|2:2|3:2,0:0:0:0:
225,343,77677,1,2,3:2:0:0:
321,343,77977,1,2,3:2:0:0:
321,247,78277,2,0,L|373:247,1,48,2|0,3:2|1:0,0:0:0:0:
417,247,78577,2,0,L|417:299,2,48,2|2|2,2:2|3:2|3:2,0:0:0:0:
484,179,79177,6,0,L|484:83,1,96,2|2,3:2|3:2,0:0:0:0:
450,49,79627,2,0,L|450:-19,2,48,0|2|2,1:0|2:2|3:2,0:0:0:0:
403,54,80077,1,2,3:2:0:0:
307,54,80377,1,2,3:2:0:0:
307,150,80677,1,2,3:2:0:0:
211,150,80977,1,2,2:2:0:0:
177,183,81127,2,0,L|140:219,1,48,2|2,3:2|3:0,0:0:0:0:
60,250,81577,2,0,L|60:152,1,96,6|2,3:2|3:2,0:0:0:0:
60,54,82177,1,2,2:2:0:0:
60,54,82327,2,0,P|105:41|150:54,1,96,2|0,3:2|1:0,0:0:0:0:
200,55,82777,2,0,L|200:151,1,96,2|2,3:2|3:2,0:0:0:0:
200,199,83227,1,0,1:0:0:0:
293,199,83527,1,2,3:2:0:0:
293,199,83677,1,2,3:2:0:0:
293,103,83977,6,0,P|306:57|293:12,1,96,2|2,3:2|3:2,0:0:0:0:
246,13,84427,2,0,L|150:13,1,96,0|2,1:0|3:2,0:0:0:0:
102,13,84877,2,0,L|102:66,1,48,2|0,1:2|1:0,0:0:0:0:
68,94,85177,1,2,3:0:0:0:
149,149,85477,1,2,3:0:0:0:
245,149,85777,1,2,3:0:0:0:
341,149,86077,1,2,3:0:0:0:
341,62,86377,6,0,L|427:62,1,86.4000000000001,6|0,3:2|3:0,0:0:0:0:
458,93,86827,2,0,B|471:134|471:134|457:175,1,86.4000000000001,0|0,1:0|1:0,0:0:0:0:
426,207,87277,1,0,3:0:0:0:
339,207,87577,6,0,L|339:293,1,86.4000000000001,4|0,3:2|3:0,0:0:0:0:
308,324,88027,2,0,L|258:324,1,43.1999986816407,0|0,1:0|3:0,0:0:0:0:
234,293,88327,1,0,1:0:0:0:
234,206,88627,1,0,1:0:0:0:
194,205,88777,6,0,L|107:205,1,86.4000000000001,4|0,3:2|3:0,0:0:0:0:
77,236,89227,2,0,B|64:277|64:277|77:318,1,86.4000000000001,0|0,1:0|1:0,0:0:0:0:
109,350,89677,1,0,3:0:0:0:
196,350,89977,2,0,L|283:350,1,86.4000000000001,4|0,3:2|3:0,0:0:0:0:
325,350,90427,2,0,L|325:306,2,43.1999986816407,0|0|0,1:0|3:0|1:0,0:0:0:0:
368,350,90877,1,0,3:0:0:0:
430,288,91177,6,0,L|430:199,1,86.4000000000001,6|0,3:2|3:0,0:0:0:0:
430,158,91627,2,0,L|430:115,1,43.1999986816407,0|0,1:0|3:0,0:0:0:0:
430,71,91927,1,0,1:0:0:0:
347,71,92227,1,0,1:0:0:0:
347,71,92377,6,0,L|346:158,1,86.4000000000001,6|0,3:2|3:0,0:0:0:0:
315,188,92827,1,0,1:0:0:0:
271,188,92977,2,0,L|271:237,2,43.2,0|0|0,3:0|1:0|3:0,0:0:0:0:
209,126,93577,6,0,L|122:126,1,86.4000000000001,6|0,3:2|3:0,0:0:0:0:
92,156,94027,2,0,L|92:206,1,43.1999986816407,0|0,1:0|3:0,0:0:0:0:
122,229,94327,1,0,1:0:0:0:
122,315,94627,1,0,1:0:0:0:
165,315,94777,2,0,L|259:315,1,86.3999973632813,6|0,3:2|3:0,0:0:0:0:
251,271,95227,2,0,L|309:271,1,43.2,0|0,1:0|3:0,0:0:0:0:
337,271,95527,2,0,L|378:229,1,43.1999986816407,0|4,1:0|3:3,0:0:0:0:
447,177,95977,6,0,P|460:131|447:86,1,96,6|2,3:2|3:2,0:0:0:0:
413,52,96427,2,0,P|367:38|322:51,2,96,2|2|2,1:2|3:2|1:2,0:0:0:0:
447,86,97177,1,2,3:2:0:0:
379,153,97477,1,2,3:2:0:0:
379,153,97627,2,0,L|379:202,2,48,2|2|2,1:2|2:2|3:2,0:0:0:0:
235,153,98377,6,0,L|200:118,1,48,2|0,3:2|0:0,0:0:0:0:
153,119,98677,1,2,3:2:0:0:
153,119,98827,2,0,P|111:141|88:182,1,96,2|2,1:2|3:2,0:0:0:0:
88,230,99277,2,0,L|136:230,2,48,2|2|2,3:2|1:2|3:2,0:0:0:0:
88,330,99877,1,2,3:2:0:0:
88,330,100027,2,0,L|88:395,2,48,2|2|2,1:2|2:2|3:2,0:0:0:0:
216,362,100777,6,0,P|238:320|279:297,1,96,4|2,3:2|3:2,0:0:0:0:
328,297,101227,2,0,P|369:319|392:360,2,96,2|2|0,1:2|3:2|1:0,0:0:0:0:
280,297,101977,1,2,3:2:0:0:
212,229,102277,1,2,3:2:0:0:
212,229,102427,2,0,L|212:180,1,48,2|2,1:2|2:2,0:0:0:0:
212,133,102727,2,0,L|212:84,1,48,2|0,3:2|3:0,0:0:0:0:
245,6,103177,6,0,L|293:6,1,48,4|0,3:2|0:0,0:0:0:0:
341,6,103477,2,0,P|382:28|405:69,1,96,2|0,2:2|1:0,0:0:0:0:
371,104,103927,2,0,L|323:104,2,48,2|0|2,1:2|1:0|1:2,0:0:0:0:
371,152,104377,2,0,L|336:185,2,48,0|2|0,1:0|1:2|1:0,0:0:0:0:
419,152,104827,1,2,1:2:0:0:
486,219,105127,2,0,L|486:267,1,48,2|2,1:2|3:3,0:0:0:0:
486,363,105577,6,0,L|390:363,1,96,6|2,3:2|3:2,0:0:0:0:
357,329,106027,2,0,L|357:263,1,48,2|2,1:2|2:2,0:0:0:0:
323,247,106327,1,2,3:2:0:0:
255,314,106627,1,2,1:2:0:0:
255,314,106777,2,0,L|150:314,1,96,2|2,3:2|3:2,0:0:0:0:
122,276,107227,2,0,L|89:243,1,48,2|2,1:2|2:2,0:0:0:0:
89,193,107527,2,0,L|123:160,1,48,2|0,3:2|3:0,0:0:0:0:
219,159,107977,6,0,B|262:176|262:176|308:160,1,96,6|2,3:2|3:2,0:0:0:0:
341,125,108427,1,2,1:2:0:0:
374,92,108577,2,0,L|374:37,2,48,2|2|2,2:2|3:2|3:2,0:0:0:0:
407,126,109027,2,0,B|427:172|427:172,1,48,2|2,1:2|3:2,0:0:0:0:
426,270,109477,1,2,3:2:0:0:
426,270,109627,2,0,B|454:332|454:332,2,48,2|2|2,1:2|2:2|3:2,0:0:0:0:
334,270,110227,5,0,1:2:0:0:
334,270,110377,1,14,3:2:0:0:
238,270,110677,2,0,L|176:270,1,48,2|2,3:2|1:2,0:0:0:0:
142,270,110977,2,0,L|80:270,1,48,2|2,2:2|3:2,0:0:0:0:
94,362,111427,5,0,1:2:0:0:
94,362,111577,1,14,3:2:0:0:
190,362,111877,2,0,L|252:362,1,48,2|2,3:2|1:2,0:0:0:0:
286,362,112177,2,0,L|348:362,2,48,2|2|0,2:2|3:2|3:0,0:0:0:0:
286,266,112777,6,0,L|286:161,1,96,14|2,3:2|3:2,0:0:0:0:
319,137,113227,1,2,1:2:0:0:
415,137,113527,1,2,3:2:0:0:
448,171,113677,2,0,L|448:224,1,48,2|2,3:2|1:2,0:0:0:0:
445,267,113977,6,0,B|402:284|402:284|355:267,1,96,14|0,3:2|3:0,0:0:0:0:
321,301,114427,1,10,1:2:0:0:
287,334,114577,2,0,L|287:390,2,48,2|10|2,3:2|3:2|3:2,0:0:0:0:
219,266,115177,6,0,L|123:266,1,96,6|2,3:2|3:2,0:0:0:0:
89,299,115627,2,0,L|23:299,1,48,2|2,1:2|2:2,0:0:0:0:
15,265,115927,1,2,3:2:0:0:
15,265,116077,1,2,3:2:0:0:
15,169,116377,2,0,L|15:64,1,96,2|2,3:2|3:2,0:0:0:0:
48,40,116827,2,0,L|81:73,1,48,2|2,1:2|2:2,0:0:0:0:
131,73,117127,2,0,L|164:39,1,48,2|0,3:2|3:0,0:0:0:0:
232,106,117577,6,0,B|249:149|249:149|232:196,1,96,6|2,3:2|3:2,0:0:0:0:
198,228,118027,1,2,1:2:0:0:
165,261,118177,2,0,L|110:261,2,48,2|2|2,2:2|3:2|3:2,0:0:0:0:
199,294,118627,2,0,L|232:328,1,48,2|2,1:2|3:2,0:0:0:0:
333,328,119077,1,2,3:2:0:0:
333,328,119227,2,0,L|366:362,2,48,2|2|2,1:2|2:2|3:2,0:0:0:0:
333,235,119827,5,0,1:2:0:0:
333,235,119977,1,14,3:2:0:0:
333,139,120277,2,0,L|395:139,1,48,2|2,3:2|1:2,0:0:0:0:
429,139,120577,2,0,L|491:139,1,48,2|2,2:2|3:2,0:0:0:0:
477,232,121027,5,0,1:2:0:0:
477,232,121177,1,14,3:2:0:0:
477,328,121477,2,0,L|415:328,1,48,2|2,3:2|1:2,0:0:0:0:
381,328,121777,2,0,L|319:328,2,48,2|2|0,2:2|3:2|3:0,0:0:0:0:
381,232,122377,6,0,L|276:232,1,96,14|2,3:2|3:2,0:0:0:0:
251,199,122827,1,2,1:2:0:0:
284,166,122977,2,0,L|284:114,1,48,2|2,2:2|3:2,0:0:0:0:
317,85,123277,2,0,L|369:85,1,48,2|2,3:2|1:2,0:0:0:0:
398,52,123577,1,14,3:2:0:0:
469,123,123877,1,2,3:2:0:0:
469,123,124027,2,0,L|469:171,1,48,10|2,1:2|2:2,0:0:0:0:
435,204,124327,2,0,L|369:204,2,48,4|10|0,3:3|3:3|3:2,0:0:0:0:
468,237,124777,1,6,3:2:0:0:
19,261,129727,6,0,P|7:216|20:171,2,96,0|0|0,3:0|3:0|1:0,0:0:0:0:
67,261,130477,2,0,L|163:260,1,96,0|0,3:0|3:0,0:0:0:0:
212,260,130927,2,0,P|224:305|211:350,2,96,0|0|0,3:0|3:0|1:0,0:0:0:0:
212,163,131827,1,2,3:2:0:0:
212,67,132127,6,0,L|315:67,1,96,0|0,3:0|3:0,0:0:0:0:
356,67,132577,1,0,3:0:0:0:
356,67,132727,1,0,1:0:0:0:
423,134,133027,1,0,3:0:0:0:
355,201,133327,2,0,L|321:167,2,48,2|2|2,3:2|3:2|3:2,0:0:0:0:
422,268,133927,2,0,L|470:268,2,48,2|2|2,1:2|3:2|3:2,0:0:0:0:
354,335,134527,6,0,P|399:347|444:334,2,96,0|0|0,3:0|3:0|1:0,0:0:0:0:
320,300,135277,2,0,L|319:204,1,96,0|0,3:0|3:0,0:0:0:0:
284,169,135727,2,0,P|239:157|194:170,2,96,0|0|0,3:0|3:0|1:0,0:0:0:0:
352,100,136627,1,2,3:2:0:0:
284,32,136927,6,0,L|180:32,1,96,0|0,3:0|3:0,0:0:0:0:
140,32,137377,1,0,3:0:0:0:
140,32,137527,1,0,1:0:0:0:
72,99,137827,1,0,3:0:0:0:
140,166,138127,2,0,L|214:240,1,96,2|2,3:2|3:3,0:0:0:0:
139,301,138727,2,0,L|71:233,1,96,2|2,1:2|3:2,0:0:0:0:
140,166,139327,6,0,B|184:151|184:151|230:167,1,96,0|0,3:0|3:0,0:0:0:0:
265,201,139777,1,0,3:0:0:0:
298,234,139927,2,0,B|342:248|342:248|388:232,1,96,0|0,1:0|3:0,0:0:0:0:
423,198,140377,1,0,3:0:0:0:
423,198,140527,1,0,3:0:0:0:
423,102,140827,1,0,3:0:0:0:
423,6,141127,2,0,B|378:-8|378:-8|332:7,1,96,0|2,1:0|3:2,0:0:0:0:
235,7,141727,6,0,L|235:111,1,96,0|0,3:0|3:0,0:0:0:0:
201,136,142177,1,0,3:0:0:0:
201,136,142327,1,0,1:0:0:0:
133,68,142627,1,0,3:0:0:0:
65,135,142927,2,0,L|12:135,2,48,2|2|2,3:2|3:2|3:2,0:0:0:0:
65,231,143527,2,0,L|12:231,2,48,2|2|2,1:2|3:2|3:2,0:0:0:0:
132,298,144127,6,0,B|176:313|176:313|222:297,1,96,0|0,3:0|3:0,0:0:0:0:
222,248,144577,1,0,3:0:0:0:
222,200,144727,2,0,B|266:185|266:185|312:202,1,96,0|0,1:0|3:0,0:0:0:0:
313,255,145177,1,0,3:0:0:0:
313,255,145327,1,0,3:0:0:0:
380,322,145627,1,0,3:0:0:0:
447,254,145927,2,0,B|461:209|461:209|446:163,1,96,0|2,1:0|3:2,0:0:0:0:
377,94,146527,6,0,L|273:94,1,96,0|0,3:0|3:0,0:0:0:0:
248,128,146977,2,0,L|189:128,1,48,0|0,3:0|1:0,0:0:0:0:
166,161,147277,2,0,L|107:161,2,48,0|0|0,3:0|3:0|3:0,0:0:0:0:
199,194,147727,1,2,3:2:0:0:
63,329,148327,1,2,1:2:0:0:
63,137,148927,6,0,L|63:41,2,96,6|2|2,3:2|3:2|1:2,0:0:0:0:
131,205,149827,1,2,3:2:0:0:
199,138,150127,2,0,L|199:42,2,96,2|2|2,3:2|3:2|1:2,0:0:0:0:
266,205,151027,1,2,3:2:0:0:
198,272,151327,2,0,L|198:368,1,96,2|2,3:2|3:2,0:0:0:0:
102,368,151927,2,0,L|102:272,1,96,2|0,1:2|3:2,0:0:0:0:
6,272,152527,2,0,L|6:368,2,96,0|0|0,3:2|3:2|1:2,0:0:0:0:
73,204,153427,1,2,3:2:0:0:
169,204,153727,6,0,L|265:204,2,96,6|2|2,3:2|3:2|1:2,0:0:0:0:
101,136,154627,1,2,3:2:0:0:
168,68,154927,2,0,L|264:68,2,96,2|2|2,3:2|3:2|1:2,0:0:0:0:
100,0,155827,1,2,3:2:0:0:
32,67,156127,2,0,L|32:175,1,96,2|0,3:2|3:2,0:0:0:0:
128,163,156727,1,2,1:2:0:0:
224,163,157027,1,0,3:2:0:0:
320,163,157327,2,0,L|320:67,2,96,0|0|2,3:2|3:2|1:1,0:0:0:0:
449,247,158527,6,0,L|449:343,2,96,6|2|2,3:2|3:2|1:2,0:0:0:0:
381,179,159427,1,2,3:2:0:0:
313,246,159727,2,0,L|313:342,2,96,2|2|2,3:2|3:2|1:2,0:0:0:0:
246,179,160627,1,2,3:2:0:0:
314,112,160927,2,0,L|314:16,1,96,2|2,3:2|3:2,0:0:0:0:
410,16,161527,2,0,L|410:112,1,96,2|0,1:2|3:2,0:0:0:0:
506,112,162127,2,0,L|506:16,2,96,0|0|0,3:2|3:2|1:2,0:0:0:0:
439,180,163027,1,2,3:2:0:0:
343,180,163327,6,0,L|247:180,2,96,6|2|0,3:2|3:2|1:2,0:0:0:0:
411,248,164227,1,2,3:2:0:0:
344,316,164527,2,0,L|248:316,2,96,2|2|0,3:2|3:2|1:2,0:0:0:0:
412,384,165427,1,2,3:2:0:0:
480,317,165727,6,0,L|480:209,1,96,6|2,3:2|0:2,0:0:0:0:
412,153,166327,1,0,3:2:0:0:
344,220,166627,1,0,3:2:0:0:
276,152,166927,1,0,3:2:0:0:
208,219,167227,1,0,3:2:0:0:
140,151,167527,1,0,3:2:0:0:
72,218,167827,1,0,3:2:0:0:
139,285,168127,6,0,L|195:285,2,48,2|0|0,1:2|3:2|3:2,0:0:0:0:
106,319,168577,2,0,L|50:319,2,48,2|0|0,1:2|3:2|3:2,0:0:0:0:
140,353,169027,2,0,L|196:353,1,48,2|0,1:2|3:2,0:0:0:0:
236,353,169327,2,0,L|334:353,1,96,2|2,3:2|3:2,0:0:0:0:
399,285,169927,1,2,1:2:0:0:
399,285,170077,1,2,3:3:0:0:
495,285,170377,6,0,L|495:189,1,96,6|0,3:2|0:0,0:0:0:0:
495,141,170827,1,2,3:3:0:0:
495,45,171127,1,2,3:3:0:0:
399,45,171427,1,2,3:3:0:0:
303,45,171727,1,2,3:3:0:0:
207,45,172027,1,2,3:3:0:0:
207,141,172327,1,0,3:3:0:0:
240,174,172477,2,0,L|287:173,1,48,0|0,1:2|1:2,0:0:0:0:
343,172,172777,6,0,B|360:215|360:215|344:261,1,96,6|2,3:2|3:2,0:0:0:0:
309,294,173227,1,2,1:2:0:0:
276,327,173377,2,0,L|221:327,2,48,2|2|2,2:2|3:2|3:2,0:0:0:0:
310,360,173827,2,0,B|356:380|356:380,1,48,0|2,1:2|3:2,0:0:0:0:
453,379,174277,1,2,3:2:0:0:
453,379,174427,2,0,B|515:351|515:351,2,48,2|2|2,1:2|2:2|3:2,0:0:0:0:
388,314,175027,5,0,1:0:0:0:
388,314,175177,1,14,3:2:0:0:
388,218,175477,2,0,L|388:156,1,48,2|2,3:2|1:2,0:0:0:0:
388,122,175777,2,0,L|388:60,1,48,2|2,2:2|3:2,0:0:0:0:
296,74,176227,5,0,1:2:0:0:
296,74,176377,1,10,3:2:0:0:
296,170,176677,2,0,L|296:232,1,48,2|2,3:2|1:2,0:0:0:0:
296,266,176977,2,0,L|296:328,2,48,2|2|0,2:2|3:2|3:0,0:0:0:0:
200,266,177577,6,0,L|95:266,1,96,14|2,3:2|3:2,0:0:0:0:
71,233,178027,1,2,1:2:0:0:
71,137,178327,1,2,3:2:0:0:
105,104,178477,2,0,L|158:104,1,48,2|2,3:2|1:2,0:0:0:0:
187,71,178777,6,0,B|230:54|230:54|277:71,1,96,14|0,3:2|3:2,0:0:0:0:
312,105,179227,1,2,1:2:0:0:
346,72,179377,2,0,L|402:72,2,48,2|2|2,2:2|3:2|3:2,0:0:0:0:
346,168,179977,6,0,L|346:264,1,96,6|2,3:2|3:2,0:0:0:0:
346,312,180427,2,0,L|392:358,1,48,2|2,1:2|2:2,0:0:0:0:
413,379,180727,1,2,3:2:0:0:
480,311,181027,1,2,1:2:0:0:
509,272,181177,2,0,L|509:167,1,96,6|2,3:2|3:2,0:0:0:0:
475,143,181627,2,0,L|442:110,1,48,2|2,1:2|3:2,0:0:0:0:
392,110,181927,2,0,L|359:144,1,48,2|2,1:2|3:2,0:0:0:0:
280,81,182377,6,0,B|237:64|237:64|191:80,1,96,6|2,3:2|3:2,0:0:0:0:
158,115,182827,1,2,1:2:0:0:
158,115,182977,2,0,L|158:170,1,48,2|2,2:2|3:2,0:0:0:0:
124,196,183277,1,2,3:2:0:0:
124,196,183427,2,0,B|86:233|86:233,1,48,2|2,1:2|3:2,0:0:0:0:
162,302,183877,1,0,3:2:0:0:
162,302,184027,2,0,B|162:369|162:369,2,48,2|2|2,1:2|2:2|3:2,0:0:0:0:
262,302,184627,5,0,1:0:0:0:
262,302,184777,1,14,3:2:0:0:
358,302,185077,2,0,L|358:240,1,48,2|2,3:2|1:2,0:0:0:0:
358,206,185377,2,0,L|358:144,1,48,2|2,2:2|3:2,0:0:0:0:
265,158,185827,5,0,1:2:0:0:
265,158,185977,1,14,3:2:0:0:
169,158,186277,2,0,L|169:220,1,48,2|2,3:2|1:2,0:0:0:0:
169,254,186577,2,0,L|169:316,2,48,2|2|0,2:2|3:2|3:0,0:0:0:0:
265,254,187177,6,0,L|265:359,1,96,14|2,3:2|3:2,0:0:0:0:
298,384,187627,1,2,1:2:0:0:
331,351,187777,2,0,L|383:351,1,48,2|2,2:2|3:2,0:0:0:0:
412,318,188077,2,0,L|412:266,1,48,2|2,3:2|1:2,0:0:0:0:
445,237,188377,1,14,3:2:0:0:
445,141,188677,2,0,L|478:107,2,48,2|2|2,3:2|1:2|1:2,0:0:0:0:
411,107,189127,2,0,L|411:58,2,48,2|0|2,1:2|3:0|1:2,0:0:0:0:
363,107,189577,1,6,3:2:0:0:
295,174,189877,6,0,L|261:140,1,48,0|0,3:2|3:2,0:0:0:0:
193,207,190327,2,0,L|125:139,1,96,0|0,1:2|3:2,0:0:0:0:
91,105,190777,1,2,3:2:0:0:
158,37,191077,2,0,L|125:3,2,48,2|2|2,1:2|3:2|3:2,0:0:0:0:
191,70,191527,1,2,1:2:0:0:
259,138,191827,5,2,1:2:0:0:
259,138,191977,2,0,L|185:213,1,96,6|0,3:2|1:2,0:0:0:0:
192,254,192427,2,0,L|265:329,2,96,6|0|0,3:2|1:2|1:2,0:0:0:0:
144,254,193177,1,6,3:2:0:0:
48,254,193477,1,0,3:2:0:0:
48,254,193627,1,0,1:2:0:0:
48,350,193927,1,4,3:3:0:0:
147,350,194227,5,4,3:3:0:0:
147,350,194377,2,0,L|222:276,1,96,6|0,3:2|3:2,0:0:0:0:
215,235,194827,2,0,L|146:168,2,96,0|0|2,3:2|1:2|3:0,0:0:0:0:
248,268,195577,1,0,3:2:0:0:
248,368,195877,5,0,1:2:0:0:
248,368,196027,2,0,L|353:368,1,96,6|0,3:2|1:2,0:0:0:0:
448,346,196777,6,0,L|448:250,1,96,6|2,3:2|3:2,0:0:0:0:
415,217,197227,2,0,L|347:217,2,48,0|2|2,1:0|2:2|3:2,0:0:0:0:
449,184,197677,1,2,3:2:0:0:
449,88,197977,1,2,3:2:0:0:
353,88,198277,2,0,L|301:88,1,48,2|0,3:2|1:0,0:0:0:0:
257,88,198577,2,0,L|257:36,2,48,2|2|2,2:2|3:2|3:2,0:0:0:0:
257,184,199177,6,0,L|161:184,1,96,2|2,3:2|3:2,0:0:0:0:
128,217,199627,2,0,L|128:285,2,48,2|2|2,1:3|2:2|3:3,0:0:0:0:
81,212,200077,1,2,3:2:0:0:
3,158,200377,1,2,3:2:0:0:
3,62,200677,1,2,3:2:0:0:
99,62,200977,1,2,2:2:0:0:
99,62,201127,2,0,L|99:10,1,48,2|2,3:3|3:0,0:0:0:0:
191,14,201577,6,0,L|191:110,1,96,6|2,3:2|3:2,0:0:0:0:
224,143,202027,2,0,L|292:143,2,48,0|2|2,1:0|2:2|3:2,0:0:0:0:
190,176,202477,1,2,3:2:0:0:
190,272,202777,1,2,3:2:0:0:
286,272,203077,2,0,L|338:272,1,48,2|0,3:2|1:0,0:0:0:0:
382,272,203377,2,0,L|382:324,2,48,2|2|2,2:2|3:2|3:2,0:0:0:0:
382,176,203977,6,0,L|383:80,1,96,2|2,3:2|3:2,0:0:0:0:
349,47,204427,2,0,L|281:47,2,48,0|2|2,1:0|2:2|3:2,0:0:0:0:
383,14,204877,1,2,3:2:0:0:
479,14,205177,1,6,3:2:0:0:
479,110,205477,1,2,3:3:0:0:
412,178,205777,1,2,3:3:0:0:
316,178,206077,1,2,3:3:0:0:
248,245,206377,1,6,3:2:0:0:
256,192,206527,12,0,211777,0:0:0:0:
