osu file format v14

[General]
AudioFilename: audio.mp3
AudioLeadIn: 0
PreviewTime: 57140
Countdown: 0
SampleSet: Soft
StackLeniency: 0.7
Mode: 0
LetterboxInBreaks: 0
WidescreenStoryboard: 1

[Editor]
Bookmarks: 9590,19190,28790,38390,47990,57590,76790,86390,95990,105590,124790,129590,138740,139190,148790,165590,170390,189590,196790,206390
DistanceSpacing: 0.5
BeatDivisor: 8
GridSize: 16
TimelineZoom: 3.699999

[Metadata]
Title:Nyanmoku no Ryoukai
TitleUnicode:ニャン黙の了解
Artist:Utsu-P feat. Hatsune Miku & Kagamine Rin
ArtistUnicode:鬱P feat. 初音ミク & 鏡音リン
Creator:Net0
Version:Lkxemmeji's Insane
Source:
Tags:last sonata reiji maigo lkxemmeji edgyking japanese metal jrock rock metalcore vocaloid my song is shit nyan-spoken understanding old style jump warufukaze 2010's 2013 depressionp utsup depression-p 悪巫山戯 Nyan Shijima and
BeatmapID:3386510
BeatmapSetID:1574589

[Difficulty]
HPDrainRate:5
CircleSize:3.8
OverallDifficulty:7
ApproachRate:8
SliderMultiplier:1.7
SliderTickRate:1

[Events]
//Background and Video events
0,0,"bgmikugoestocatworld.jpg",0,0
//Break Periods
2,77015,84427
2,124977,128977
//Storyboard Layer 0 (Background)
//Storyboard Layer 1 (Fail)
//Storyboard Layer 2 (Pass)
//Storyboard Layer 3 (Foreground)
//Storyboard Layer 4 (Overlay)
//Storyboard Sound Samples

[TimingPoints]
-23,300,4,2,1,50,1,0
8527,300,4,2,1,50,1,0
8677,-100,4,2,1,55,0,0
8977,-100,4,2,1,60,0,0
9277,-100,4,2,1,65,0,0
9577,-100,4,2,1,70,0,0
9802,-100,4,2,1,70,0,0
9877,-100,4,2,1,70,0,0
10702,-100,4,2,1,70,0,0
10777,-100,4,2,1,70,0,0
11902,-100,4,2,1,70,0,0
11977,-100,4,2,1,70,0,0
12202,-100,4,2,1,70,0,0
12277,-100,4,2,1,70,0,0
13102,-100,4,2,1,70,0,0
13177,-100,4,2,1,70,0,0
14602,-100,4,2,1,70,0,0
14677,-100,4,2,1,70,0,0
15502,-100,4,2,1,70,0,0
15577,-100,4,2,1,70,0,0
16702,-100,4,2,1,70,0,0
16777,-100,4,2,1,70,0,0
17002,-100,4,2,1,70,0,0
17077,-100,4,2,1,70,0,0
17902,-100,4,2,1,70,0,0
17977,-100,4,2,1,50,0,0
18052,-100,4,2,1,5,0,0
18277,-100,4,2,1,60,0,0
18352,-100,4,2,1,5,0,0
18577,-100,4,2,1,70,0,0
18652,-100,4,2,1,5,0,0
18877,-100,4,2,1,80,0,0
18952,-100,4,2,1,5,0,0
19177,-100,4,2,1,65,0,0
19402,-100,4,2,1,65,0,0
19477,-100,4,2,1,65,0,0
20602,-100,4,2,1,65,0,0
20677,-100,4,2,1,65,0,0
20977,-100,4,2,1,65,0,0
21127,-100,4,2,1,65,0,0
21802,-100,4,2,1,65,0,0
21877,-100,4,2,1,65,0,0
23002,-100,4,2,1,65,0,0
23077,-100,4,2,1,65,0,0
24202,-100,4,2,1,65,0,0
24277,-100,4,2,1,65,0,0
25402,-100,4,2,1,65,0,0
25477,-100,4,2,1,65,0,0
26602,-100,4,2,1,65,0,0
26677,-100,4,2,1,65,0,0
27802,-100,4,2,1,65,0,0
27877,-100,4,2,1,65,0,0
28777,-133.333333333333,4,2,1,75,0,0
37402,-133.333333333333,4,2,1,75,0,0
37477,-133.333333333333,4,2,1,75,0,0
38377,-133.333333333333,4,2,1,70,0,0
41602,-133.333333333333,4,2,1,70,0,0
41677,-133.333333333333,4,2,1,70,0,0
41902,-133.333333333333,4,2,1,70,0,0
41977,-133.333333333333,4,2,1,70,0,0
47002,-133.333333333333,4,2,1,70,0,0
47077,-133.333333333333,4,2,1,70,0,0
47452,-133.333333333333,4,2,1,70,0,0
47527,-133.333333333333,4,2,1,70,0,0
47977,-133.333333333333,4,2,1,90,0,0
48427,-133.333333333333,4,2,1,65,0,0
48952,-133.333333333333,4,2,1,65,0,0
49027,-133.333333333333,4,2,1,65,0,0
49327,-133.333333333333,4,2,1,90,0,0
50152,-133.333333333333,4,2,1,90,0,0
50227,-133.333333333333,4,2,1,90,0,0
50827,-133.333333333333,4,2,1,65,0,0
51352,-133.333333333333,4,2,1,65,0,0
51427,-133.333333333333,4,2,1,65,0,0
51727,-133.333333333333,4,2,1,90,0,0
52552,-133.333333333333,4,2,1,90,0,0
52627,-133.333333333333,4,2,1,90,0,0
53227,-133.333333333333,4,2,1,65,0,0
53752,-133.333333333333,4,2,1,65,0,0
53827,-133.333333333333,4,2,1,65,0,0
54127,-133.333333333333,4,2,1,90,0,0
54952,-133.333333333333,4,2,1,90,0,0
55027,-133.333333333333,4,2,1,90,0,0
55177,-133.333333333333,4,2,1,60,0,0
55477,-133.333333333333,4,2,1,65,0,0
55927,-133.333333333333,4,2,1,70,0,0
56227,-133.333333333333,4,2,1,75,0,0
57127,-133.333333333333,4,2,1,80,0,0
57277,-133.333333333333,4,2,2,90,0,0
57577,-100,4,2,2,80,0,1
57877,-100,4,2,1,80,0,1
76777,-100,4,2,1,75,0,0
85177,-100,4,2,1,80,0,0
85252,-100,4,2,1,5,0,0
85477,-100,4,2,1,90,0,0
85552,-100,4,2,1,5,0,0
85777,-100,4,2,1,80,0,0
85852,-100,4,2,1,5,0,0
86077,-100,4,2,1,80,0,0
86377,-100,4,2,1,80,0,0
91177,-100,4,2,1,84,0,0
92377,-100,4,2,1,88,0,0
93577,-100,4,2,1,92,0,0
94777,-100,4,2,1,96,0,0
95977,-133.333333333333,4,2,1,70,0,0
99502,-133.333333333333,4,2,1,70,0,0
99577,-133.333333333333,4,2,1,70,0,0
103177,-100,4,2,1,70,0,0
103627,-100,4,2,1,50,0,0
103927,-100,4,2,1,60,0,0
104227,-100,4,2,1,70,0,0
104527,-100,4,2,1,80,0,0
104827,-100,4,2,1,90,0,0
105277,-100,4,2,1,100,0,0
105577,-100,4,2,2,80,0,1
105877,-100,4,2,1,80,0,1
124777,-100,4,2,1,80,0,0
129727,-133.333333333333,4,2,1,70,0,0
132052,-133.333333333333,4,2,1,70,0,0
132127,-133.333333333333,4,2,1,70,0,0
136852,-133.333333333333,4,2,1,70,0,0
136927,-133.333333333333,4,2,1,70,0,0
138352,-133.333333333333,4,2,1,70,0,0
138427,-133.333333333333,4,2,1,70,0,0
138652,-133.333333333333,4,2,1,70,0,0
138727,-133.333333333333,4,2,1,70,0,0
138952,-133.333333333333,4,2,1,70,0,0
139027,-133.333333333333,4,2,1,70,0,0
139252,-133.333333333333,4,2,1,70,0,0
139327,-133.333333333333,4,2,1,70,0,0
139702,-133.333333333333,4,2,1,70,0,0
139777,-133.333333333333,4,2,1,70,0,0
141652,-133.333333333333,4,2,1,70,0,0
141727,-133.333333333333,4,2,1,70,0,0
146452,-133.333333333333,4,2,1,70,0,0
146527,-133.333333333333,4,2,1,70,0,0
147727,-133.333333333333,4,2,1,70,0,0
147802,-133.333333333333,4,2,1,5,0,0
147952,-133.333333333333,4,2,1,5,0,0
148027,-133.333333333333,4,2,1,85,0,0
148102,-133.333333333333,4,2,1,90,0,0
148252,-133.333333333333,4,2,1,90,0,0
148327,-133.333333333333,4,2,1,95,0,0
148552,-133.333333333333,4,2,1,95,0,0
148627,-133.333333333333,4,2,1,95,0,0
148777,-200,4,2,1,95,0,0
148927,-200,4,2,1,65,0,0
151777,-200,4,2,1,65,0,0
151927,-200,4,2,1,65,0,0
152527,-333.333333333333,4,2,1,65,0,0
153727,-200,4,2,1,65,0,0
157177,-333.333333333333,4,2,1,65,0,0
157327,-333.333333333333,4,2,1,65,0,0
160927,-200,4,2,1,65,0,0
161377,-200,4,2,1,65,0,0
161527,-200,4,2,1,65,0,0
162127,-333.333333333333,4,2,1,65,0,0
163027,-200,4,2,1,65,0,0
165727,-133.333333333333,4,2,1,70,0,0
166177,-133.333333333333,4,2,1,75,0,0
166627,-133.333333333333,4,2,1,80,0,0
166927,-133.333333333333,4,2,1,85,0,0
168277,-100,4,2,1,85,0,0
169102,-100,4,2,1,85,0,0
169177,-100,4,2,1,85,0,0
170377,-133.333333333333,4,2,1,85,0,0
170677,-133.333333333333,4,2,1,50,0,0
170827,-133.333333333333,4,2,1,60,0,0
171127,-133.333333333333,4,2,1,70,0,0
171427,-133.333333333333,4,2,1,80,0,0
171727,-133.333333333333,4,2,1,90,0,0
172027,-133.333333333333,4,2,1,50,0,0
172327,-133.333333333333,4,2,1,80,0,0
172777,-100,4,2,2,80,0,1
173077,-100,4,2,1,80,0,1
189577,-133.333333333333,4,2,1,70,0,0
194377,-133.333333333333,4,2,1,70,0,0
196777,-100,4,2,1,70,0,0
205252,-100,4,2,1,5,0,0
205477,-100,4,2,1,80,0,0
205552,-100,4,2,1,5,0,0
205777,-100,4,2,1,90,0,0
205852,-100,4,2,1,5,0,0
206077,-100,4,2,1,80,0,0
206152,-100,4,2,1,5,0,0
206377,-100,4,2,1,80,0,0
206452,-100,4,2,1,10,0,0
209227,-100,4,2,1,100,0,0
209302,-100,4,2,1,10,0,0

[Colours]
Combo1 : 255,128,192
Combo2 : 128,0,64

[HitObjects]
46,154,9577,6,0,P|104:178|162:154,1,127.5,6|0,3:2|0:0,0:0:0:0:
176,128,9877,2,0,L|176:16,1,85,0|0,3:0|1:0,0:0:0:0:
272,16,10177,1,0,3:0:0:0:
272,16,10327,1,0,1:0:0:0:
379,40,10477,2,0,P|436:16|494:40,1,127.5,0|0,3:0|0:0,0:0:0:0:
508,70,10777,2,0,L|508:249,1,170,0|0,3:0|3:0,0:0:0:0:
416,280,11227,1,0,1:0:0:0:
416,280,11377,1,0,3:0:0:0:
315,258,11527,2,0,P|264:249|239:378,1,212.5,0|0,1:0|0:0,0:0:0:0:
264,376,11977,6,0,L|392:376,1,127.5,6|0,3:2|0:0,0:0:0:0:
408,355,12277,2,0,P|427:318|415:279,1,85,0|0,3:0|1:0,0:0:0:0:
356,195,12577,1,0,3:0:0:0:
356,195,12727,1,0,1:0:0:0:
415,104,12877,2,0,B|356:85|356:85|293:103,1,127.5,0|0,3:0|0:0,0:0:0:0:
261,118,13177,2,0,L|261:295,1,170,0|0,3:0|3:0,0:0:0:0:
167,289,13627,1,0,1:0:0:0:
112,364,13777,1,0,3:0:0:0:
21,368,13927,1,0,1:0:0:0:
21,368,14227,1,0,1:0:0:0:
167,289,14377,6,0,P|190:232|167:174,1,127.5,6|0,3:2|0:0,0:0:0:0:
136,161,14677,2,0,L|52:161,1,85,0|0,3:0|1:0,0:0:0:0:
3,71,14977,1,0,3:0:0:0:
3,71,15127,1,0,1:0:0:0:
102,40,15277,2,0,P|159:16|217:40,1,127.5,0|0,3:0|0:0,0:0:0:0:
221,73,15577,2,0,B|221:282,1,170,0|0,3:0|3:0,0:0:0:0:
306,309,16027,1,0,1:0:0:0:
306,309,16177,1,0,3:0:0:0:
395,267,16327,2,0,P|491:246|495:147,1,212.5,0|0,1:0|0:0,0:0:0:0:
464,156,16777,6,0,L|315:187,1,127.5,6|0,3:2|0:0,0:0:0:0:
307,188,17077,2,0,L|221:205,1,85,0|0,3:0|1:0,0:0:0:0:
163,301,17377,1,0,3:0:0:0:
163,301,17527,1,0,1:0:0:0:
59,360,17677,2,0,B|40:301|40:301|58:238,1,127.5,0|0,3:0|0:0,0:0:0:0:
141,222,17977,6,0,L|66:237,1,42.5,2|0,3:0|0:0,0:0:0:0:
224,205,18277,6,0,L|149:220,1,42.5,2|0,3:0|0:0,0:0:0:0:
307,188,18577,6,0,L|232:203,1,42.5,2|0,3:0|0:0,0:0:0:0:
390,171,18877,6,0,L|315:186,1,42.5,2|0,3:0|0:0,0:0:0:0:
477,111,19177,6,0,P|501:168|477:226,1,127.5,6|0,3:2|0:0,0:0:0:0:
449,241,19477,1,2,3:2:0:0:
256,192,19777,1,2,2:2:0:0:
256,192,19927,1,2,3:2:0:0:
297,60,20077,1,2,3:2:0:0:
35,111,20377,6,0,P|11:168|35:226,1,127.5,2|0,3:2|0:0,0:0:0:0:
63,241,20677,1,2,3:2:0:0:
215,60,20977,1,2,2:2:0:0:
215,60,21127,1,2,3:2:0:0:
256,192,21277,1,2,3:2:0:0:
167,373,21577,6,0,B|184:333|184:333|166:247,1,127.5,2|0,3:2|0:0,0:0:0:0:
161,219,21877,1,2,3:2:0:0:
256,362,22177,1,2,2:2:0:0:
256,362,22327,1,2,3:2:0:0:
85,383,22477,1,2,3:2:0:0:
345,373,22777,6,0,B|327:333|327:333|345:247,1,127.5,2|0,3:2|0:0,0:0:0:0:
351,219,23077,1,2,3:2:0:0:
427,383,23377,1,2,2:2:0:0:
427,383,23527,1,2,3:2:0:0:
256,362,23677,1,2,3:0:0:0:
149,45,23977,6,0,B|3:74,1,127.5,6|0,3:2|0:0,0:0:0:0:
8,99,24277,1,2,3:2:0:0:
212,207,24577,1,2,2:2:0:0:
256,48,24727,1,2,3:2:0:0:
256,48,24877,1,2,3:2:0:0:
363,45,25177,6,0,B|509:74,1,127.5,2|0,3:2|0:0,0:0:0:0:
504,99,25477,1,2,3:2:0:0:
256,48,25777,1,2,2:2:0:0:
300,207,25927,1,2,3:2:0:0:
300,207,26077,1,2,3:2:0:0:
144,336,26377,6,0,B|99:374|42:346|42:346|60:303,1,127.5,2|0,3:2|0:0,0:0:0:0:
60,299,26677,1,2,3:2:0:0:
256,384,26977,1,2,2:2:0:0:
208,256,27127,1,2,3:2:0:0:
208,256,27277,1,2,3:2:0:0:
368,336,27577,6,0,B|413:374|469:346|469:346|452:303,1,127.5,2|0,3:2|0:0,0:0:0:0:
452,299,27877,1,0,3:0:0:0:
304,256,28027,1,0,1:0:0:0:
304,256,28177,1,2,2:2:0:0:
347,179,28327,1,2,3:2:0:0:
287,115,28477,1,2,3:0:0:0:
207,152,28627,1,2,3:1:0:0:
217,235,28777,6,0,L|227:369,1,127.500004863739,6|2,3:2|3:2,0:0:0:0:
140,353,29227,1,2,1:2:0:0:
133,208,29377,1,2,3:2:0:0:
133,208,29452,1,0,3:0:0:0:
133,208,29527,2,0,L|138:275,1,63.7500024318696,2|2,1:2|3:2,0:0:0:0:
43,130,29827,1,2,1:2:0:0:
48,211,29977,2,0,L|58:345,1,127.500004863739,2|2,3:3|3:2,0:0:0:0:
143,352,30427,1,2,1:2:0:0:
235,374,30577,1,2,3:2:0:0:
235,374,30652,1,0,3:0:0:0:
235,374,30727,2,0,L|317:387,2,63.7500024318696,2|0|0,1:2|3:0|1:0,0:0:0:0:
295,258,31177,6,0,L|426:249,1,127.500004863739,2|2,3:3|3:2,0:0:0:0:
499,195,31627,1,2,1:2:0:0:
411,93,31777,1,2,3:2:0:0:
411,93,31852,1,0,3:0:0:0:
411,93,31927,2,0,L|416:172,1,63.7500024318696,2|2,1:2|3:2,0:0:0:0:
495,99,32227,1,2,1:2:0:0:
324,84,32377,2,0,L|190:74,1,127.500004863739,2|2,3:3|3:2,0:0:0:0:
219,176,32827,1,2,1:2:0:0:
249,278,32977,1,2,3:2:0:0:
249,278,33052,1,0,3:0:0:0:
249,278,33127,2,0,L|312:282,2,63.7500024318696,2|0|0,1:2|3:0|1:0,0:0:0:0:
135,317,33577,6,0,L|147:178,1,127.500004863739,6|2,3:2|3:2,0:0:0:0:
54,227,34027,1,2,1:2:0:0:
46,114,34177,1,2,3:2:0:0:
46,114,34252,1,0,3:0:0:0:
46,114,34327,2,0,L|40:34,1,63.7500024318696,2|2,1:2|3:2,0:0:0:0:
154,76,34627,1,2,1:2:0:0:
265,101,34777,2,0,L|251:233,1,127.500004863739,2|2,3:3|3:2,0:0:0:0:
354,202,35227,1,2,1:2:0:0:
460,189,35377,1,2,3:2:0:0:
460,189,35452,1,0,3:0:0:0:
460,189,35527,2,0,L|467:123,2,63.7500024318696,2|0|0,1:2|3:0|1:0,0:0:0:0:
437,310,35977,6,0,L|299:320,1,127.500004863739,2|2,3:3|3:2,0:0:0:0:
212,373,36427,1,2,1:2:0:0:
227,260,36577,1,2,3:2:0:0:
227,260,36652,1,0,3:0:0:0:
227,260,36727,2,0,L|234:194,2,63.7500024318696,2|2|2,1:2|3:2|1:2,0:0:0:0:
124,303,37177,2,0,L|9:295,1,95.6250036478044,2|0,3:3|0:0,0:0:0:0:
4,293,37477,5,2,3:2:0:0:
84,197,37627,5,2,1:2:0:0:
32,91,37777,1,2,1:2:0:0:
32,91,37852,1,0,1:0:0:0:
32,91,37927,5,2,1:2:0:0:
82,64,38077,5,0,1:0:0:0:
135,43,38227,5,0,1:0:0:0:
188,22,38377,6,0,P|254:48|253:120,1,127.500004863739,6|2,3:2|3:2,0:0:0:0:
195,167,38827,2,0,L|131:172,1,63.7500024318696,2|2,1:2|2:2,0:0:0:0:
93,273,39127,2,0,L|156:267,1,63.7500024318696,2|2,3:2|3:2,0:0:0:0:
210,351,39427,1,2,1:2:0:0:
210,351,39577,2,0,L|346:336,1,127.500004863739,2|2,3:2|3:2,0:0:0:0:
383,251,40027,1,2,1:2:0:0:
383,251,40177,1,2,2:2:0:0:
488,182,40327,2,0,L|499:54,1,127.500004863739,2|0,3:2|1:0,0:0:0:0:
363,26,40777,6,0,P|324:74|359:145,1,127.500004863739,2|2,3:2|3:2,0:0:0:0:
236,186,41227,1,2,1:2:0:0:
236,186,41377,1,2,2:2:0:0:
132,146,41527,1,2,3:2:0:0:
132,146,41602,1,2,2:2:0:0:
132,146,41677,2,0,L|124:270,1,95.6250036478044,2|0,3:2|0:0,0:0:0:0:
124,266,41977,2,0,L|-6:277,1,127.500004863739,2|2,3:2|3:2,0:0:0:0:
125,355,42427,1,2,1:2:0:0:
125,355,42577,1,2,2:2:0:0:
213,258,42727,2,0,L|221:130,1,127.500004863739,2|0,3:2|1:0,0:0:0:0:
58,38,43177,6,0,L|50:166,1,127.500004863739,4|2,3:2|3:2,0:0:0:0:
224,67,43627,2,0,L|220:131,1,63.7500024318696,2|2,1:2|2:2,0:0:0:0:
135,147,43927,2,0,L|139:83,1,63.7500024318696,2|2,3:2|3:2,0:0:0:0:
306,50,44227,1,0,1:0:0:0:
384,156,44377,2,0,L|393:24,1,127.500004863739,2|2,3:2|3:2,0:0:0:0:
303,169,44827,1,2,1:2:0:0:
303,169,44977,1,2,2:2:0:0:
470,145,45127,2,0,L|480:-2,1,127.500004863739,2|0,3:2|1:0,0:0:0:0:
331,85,45577,6,0,P|284:76|223:134,1,127.500004863739,2|2,3:2|3:2,0:0:0:0:
126,99,46027,2,0,L|134:171,1,63.7500024318696,2|2,1:2|2:2,0:0:0:0:
37,161,46327,2,0,L|29:97,1,63.7500024318696,2|2,3:2|3:2,0:0:0:0:
115,7,46627,1,2,1:2:0:0:
138,198,46777,2,0,P|126:243|87:270,1,95.6250036478044,2|0,3:2|0:0,0:0:0:0:
49,279,47077,1,2,3:2:0:0:
49,279,47227,2,0,L|60:396,1,95.6250036478044,2|0,1:2|0:0,0:0:0:0:
86,373,47527,5,2,1:2:0:0:
142,364,47677,5,2,1:3:0:0:
198,356,47827,5,2,1:1:0:0:
253,347,47977,6,0,B|285:301|285:301|285:162,1,191.250007295609,6|0,3:2|3:0,0:0:0:0:
308,41,48577,1,0,0:0:0:0:
287,58,48727,2,0,L|191:58,1,95.6250036478044,0|0,1:2|0:0,0:0:0:0:
143,42,49027,2,0,L|63:42,1,63.7500024318696,0|0,3:2|0:0,0:0:0:0:
154,133,49327,5,2,3:2:0:0:
158,168,49477,1,2,2:2:0:0:
162,203,49627,1,2,3:2:0:0:
166,238,49777,1,2,2:2:0:0:
36,326,49927,6,0,L|132:326,1,95.6250036478044,2|0,1:2|0:0,0:0:0:0:
175,346,50227,1,0,3:0:0:0:
220,326,50377,6,0,B|255:294|255:294|402:295,1,191.250007295609,6|0,2:2|3:0,0:0:0:0:
512,352,50977,1,0,0:0:0:0:
498,331,51127,2,0,L|498:235,1,95.6250036478044,0|0,1:2|0:0,0:0:0:0:
473,192,51427,2,0,L|473:112,1,63.7500024318696,0|0,3:2|0:0,0:0:0:0:
371,206,51727,5,2,3:2:0:0:
336,210,51877,1,2,2:2:0:0:
301,214,52027,1,2,3:2:0:0:
266,218,52177,1,2,2:2:0:0:
179,93,52327,6,0,L|179:189,1,95.6250036478044,2|0,3:2|0:0,0:0:0:0:
159,228,52627,1,0,1:0:0:0:
178,277,52777,6,0,B|143:309|143:309|-15:309,1,191.250007295609,6|0,3:2|3:0,0:0:0:0:
50,196,53377,1,0,0:0:0:0:
33,175,53527,2,0,L|33:79,1,95.6250036478044,0|0,1:2|0:0,0:0:0:0:
62,45,53827,2,0,L|126:45,1,63.7500024318696,0|0,3:2|0:0,0:0:0:0:
260,85,54127,5,2,3:2:0:0:
256,120,54277,1,2,2:2:0:0:
252,155,54427,1,2,3:2:0:0:
248,190,54577,1,2,2:2:0:0:
151,281,54727,6,0,L|151:185,1,95.6250036478044,2|0,3:2|0:0,0:0:0:0:
114,149,55027,1,0,1:2:0:0:
75,113,55177,6,0,B|48:149|48:149|53:249,1,127.500004863739,6|2,3:2|3:2,0:0:0:0:
58,314,55627,1,2,3:2:0:0:
94,352,55777,1,2,3:2:0:0:
144,369,55927,1,2,3:2:0:0:
194,364,56077,1,2,3:2:0:0:
237,335,56227,1,2,3:2:0:0:
263,290,56377,5,2,3:2:0:0:
266,258,56527,1,2,3:2:0:0:
289,234,56677,1,2,3:2:0:0:
319,229,56827,1,2,3:2:0:0:
348,241,56977,1,2,3:2:0:0:
365,267,57127,5,2,1:2:0:0:
408,106,57277,1,2,3:3:0:0:
408,106,57577,6,0,P|314:84|329:160,1,170,6|2,3:2|3:2,0:0:0:0:
429,197,58027,2,0,L|528:177,1,85,2|2,1:2|2:2,0:0:0:0:
457,296,58327,1,2,3:2:0:0:
457,296,58477,1,0,3:0:0:0:
457,296,58627,1,2,1:2:0:0:
296,370,58777,2,0,P|214:371|158:310,1,170,2|2,3:2|3:2,0:0:0:0:
256,275,59227,2,0,L|256:165,1,85,2|2,1:2|2:2,0:0:0:0:
172,216,59527,1,2,3:2:0:0:
172,216,59677,1,0,3:0:0:0:
172,216,59827,1,0,1:0:0:0:
104,106,59977,6,0,B|167:47|167:47|203:133,1,170,6|2,3:2|3:2,0:0:0:0:
83,197,60427,2,0,L|-16:177,1,85,2|2,1:2|2:2,0:0:0:0:
55,296,60727,1,2,3:2:0:0:
55,296,60877,1,2,3:2:0:0:
55,296,61027,1,2,1:2:0:0:
215,370,61177,2,0,P|299:366|355:296,1,170,2|2,3:2|3:2,0:0:0:0:
256,266,61627,2,0,L|256:156,1,85,2|2,1:2|2:2,0:0:0:0:
362,215,61927,1,2,3:2:0:0:
362,215,62077,1,0,3:0:0:0:
362,215,62227,1,0,1:2:0:0:
500,246,62377,6,0,B|513:199|513:199|491:79,1,170,14|2,3:2|3:2,0:0:0:0:
359,32,62827,2,0,B|381:152,1,85,2|2,1:2|2:2,0:0:0:0:
256,144,63127,1,2,3:2:0:0:
200,125,63277,1,0,3:2:0:0:
145,107,63427,1,0,1:2:0:0:
11,142,63577,6,0,B|-2:189|-2:189|20:309,1,170,14|2,3:2|3:2,0:0:0:0:
154,345,64027,2,0,L|133:231,1,85,2|2,1:2|2:2,0:0:0:0:
256,208,64327,1,2,3:2:0:0:
256,256,64477,1,0,3:0:0:0:
256,304,64627,1,0,1:2:0:0:
432,384,64777,6,0,B|451:299|451:299|432:219,1,170,14|2,3:2|3:2,0:0:0:0:
290,32,65227,2,0,L|309:114,1,85,2|2,1:2|2:2,0:0:0:0:
470,74,65527,1,2,3:2:0:0:
388,52,65677,1,2,3:2:0:0:
410,133,65827,1,2,1:2:0:0:
341,244,65977,6,0,B|256:263|256:263|176:244,1,170,14|0,3:2|3:0,0:0:0:0:
103,130,66427,1,10,1:2:0:0:
32,213,66577,1,2,3:2:0:0:
32,213,66652,1,0,3:0:0:0:
32,213,66727,2,0,L|73:222,4,42.5,10|0|2|0|10,1:2|3:0|3:2|3:0|1:2,0:0:0:0:
100,37,67177,6,0,P|159:60|189:155,1,170,6|2,3:2|3:2,0:0:0:0:
167,268,67627,2,0,L|146:361,1,85,2|2,1:2|2:2,0:0:0:0:
47,381,67927,1,2,3:2:0:0:
47,381,68077,1,2,3:2:0:0:
47,381,68227,1,2,1:2:0:0:
47,201,68377,2,0,B|178:181|178:181|237:202,1,170,2|2,3:2|3:2,0:0:0:0:
323,228,68827,2,0,L|311:134,1,85,2|2,1:2|2:2,0:0:0:0:
436,193,69127,1,2,3:2:0:0:
436,193,69277,1,0,3:0:0:0:
436,193,69427,1,0,1:0:0:0:
414,343,69577,6,0,B|336:313|336:313|321:216,1,170,6|2,3:2|3:2,0:0:0:0:
305,98,70027,2,0,L|291:-4,1,85,2|2,1:2|2:2,0:0:0:0:
426,72,70327,1,2,3:2:0:0:
426,72,70477,1,2,3:2:0:0:
426,72,70627,1,2,1:2:0:0:
426,247,70777,2,0,B|301:267|301:267|259:253,1,170,2|2,3:2|3:2,0:0:0:0:
142,214,71227,2,0,B|30:175,1,85,2|2,1:2|2:2,0:0:0:0:
0,275,71527,1,2,3:2:0:0:
0,275,71677,1,0,3:0:0:0:
0,275,71827,1,0,1:2:0:0:
6,81,71977,6,0,P|74:49|98:121,1,170,14|2,3:2|3:2,0:0:0:0:
205,92,72427,2,0,B|205:-3,1,85,2|2,1:2|2:2,0:0:0:0:
256,175,72727,1,2,3:2:0:0:
320,196,72877,1,0,3:0:0:0:
384,217,73027,1,0,1:2:0:0:
506,81,73177,6,0,P|437:49|413:121,1,170,14|2,3:2|3:2,0:0:0:0:
307,92,73627,2,0,B|307:-3,1,85,2|2,1:2|2:2,0:0:0:0:
256,175,73927,1,2,3:2:0:0:
192,196,74077,1,0,3:0:0:0:
128,217,74227,1,0,1:2:0:0:
32,100,74377,6,0,B|-11:176|34:244|34:244|23:291,1,170,14|2,3:2|3:2,0:0:0:0:
93,374,74827,2,0,L|113:292,1,85,2|2,1:2|2:2,0:0:0:0:
160,112,75127,1,2,3:2:0:0:
103,172,75277,1,2,3:2:0:0:
183,192,75427,1,2,1:2:0:0:
297,117,75577,6,0,B|377:134|394:219|394:219|416:233,1,170,14|2,3:2|3:2,0:0:0:0:
487,271,76027,1,10,1:2:0:0:
460,149,76177,1,2,2:2:0:0:
292,219,76327,1,10,1:2:0:0:
292,219,76477,1,2,3:3:0:0:
120,288,76777,5,6,3:2:0:0:
112,144,85177,5,2,3:0:0:0:
256,192,85477,1,2,3:0:0:0:
400,144,85777,1,2,3:0:0:0:
256,80,86077,1,2,3:0:0:0:
256,80,86227,1,0,1:0:0:0:
256,192,86377,6,0,L|256:368,1,170,6|0,3:2|3:0,0:0:0:0:
154,330,86827,1,0,1:0:0:0:
58,300,86977,1,0,3:0:0:0:
58,300,87052,1,0,3:0:0:0:
58,300,87127,2,0,L|58:212,1,85,0|0,1:0|3:0,0:0:0:0:
58,117,87427,1,0,1:0:0:0:
155,0,87577,6,0,L|155:176,1,170,4|0,3:2|3:0,0:0:0:0:
256,80,88027,1,0,1:0:0:0:
357,0,88177,1,0,3:0:0:0:
357,0,88252,1,0,3:0:0:0:
357,0,88327,2,0,L|357:87,1,85,0|0,1:0|3:0,0:0:0:0:
357,183,88627,1,0,1:0:0:0:
480,160,88777,6,0,B|480:285|480:285|428:330,1,170,4|0,3:2|3:0,0:0:0:0:
357,384,89227,1,0,1:0:0:0:
256,352,89377,1,0,3:0:0:0:
256,352,89452,1,0,3:0:0:0:
256,352,89527,2,0,L|256:264,1,85,0|0,1:0|3:0,0:0:0:0:
155,384,89827,1,0,1:0:0:0:
77,227,89977,6,0,B|46:259|46:259|46:384,1,170,4|0,3:2|3:0,0:0:0:0:
155,289,90427,1,0,1:0:0:0:
154,158,90577,1,0,3:0:0:0:
154,158,90652,1,0,3:0:0:0:
154,158,90727,2,0,L|154:70,1,85,0|0,1:0|3:0,0:0:0:0:
256,157,91027,1,0,1:0:0:0:
256,0,91177,6,0,B|400:0|400:0|360:39,1,170,6|0,3:2|3:0,0:0:0:0:
319,92,91627,1,0,1:0:0:0:
193,92,91777,1,0,3:0:0:0:
193,92,91852,1,0,3:0:0:0:
193,92,91927,2,0,L|105:92,1,85,0|0,1:0|3:0,0:0:0:0:
32,160,92227,1,0,1:0:0:0:
171,223,92377,6,0,L|341:223,1,170,6|0,3:2|3:0,0:0:0:0:
480,160,92827,1,0,1:0:0:0:
319,92,92977,1,0,3:0:0:0:
319,92,93052,1,0,3:0:0:0:
319,92,93127,2,0,L|406:92,1,85,0|0,1:0|3:0,0:0:0:0:
480,24,93427,1,0,1:0:0:0:
255,10,93577,6,0,B|226:93|226:93|256:169,1,170,6|0,3:2|3:0,0:0:0:0:
358,204,94027,1,0,1:0:0:0:
471,248,94177,1,0,3:0:0:0:
471,248,94252,1,0,3:0:0:0:
471,248,94327,2,0,B|484:207|484:207|470:168,1,85,0|0,1:0|3:0,0:0:0:0:
429,75,94627,1,0,1:0:0:0:
358,204,94777,6,0,B|340:264|340:264|353:317|353:317|337:367,1,170,6|0,3:2|3:0,0:0:0:0:
238,318,95227,1,0,1:0:0:0:
183,211,95377,1,0,3:0:0:0:
183,211,95452,1,0,3:0:0:0:
183,211,95527,5,0,1:0:0:0:
131,187,95677,5,4,3:3:0:0:
78,166,95827,5,4,3:3:0:0:
25,145,95977,6,0,P|-9:178|8:262,1,127.500004863739,6|2,3:2|3:2,0:0:0:0:
110,294,96427,2,0,L|195:283,1,63.7500024318696,2|2,1:2|2:2,0:0:0:0:
269,223,96727,2,0,L|332:214,1,63.7500024318696,2|2,3:2|3:2,0:0:0:0:
420,299,97027,1,2,1:2:0:0:
420,299,97177,2,0,L|293:316,1,127.500004863739,2|2,3:2|3:2,0:0:0:0:
227,384,97627,1,2,1:2:0:0:
227,384,97777,1,2,2:2:0:0:
206,232,97927,2,0,L|189:105,1,127.500004863739,2|0,3:2|1:0,0:0:0:0:
304,32,98377,6,0,P|342:38|361:137,1,127.500004863739,2|2,3:2|3:2,0:0:0:0:
340,233,98827,1,2,1:2:0:0:
340,233,98977,1,2,2:2:0:0:
464,214,99127,1,2,3:2:0:0:
464,214,99202,1,2,2:2:0:0:
464,214,99277,2,0,L|478:329,1,95.6250036478044,2|0,3:2|0:0,0:0:0:0:
480,333,99577,2,0,L|353:317,1,127.500004863739,2|2,3:2|3:2,0:0:0:0:
256,368,100027,1,2,1:2:0:0:
256,368,100177,1,2,2:2:0:0:
145,241,100327,2,0,P|203:219|255:252,1,127.500004863739,2|0,3:2|1:0,0:0:0:0:
128,350,100777,6,0,L|2:335,1,127.500004863739,4|2,3:2|3:2,0:0:0:0:
82,234,101227,2,0,L|145:241,1,63.7500024318696,2|2,1:2|2:2,0:0:0:0:
165,137,101527,1,2,3:2:0:0:
165,137,101677,1,2,3:2:0:0:
165,137,101827,1,0,1:0:0:0:
103,26,101977,6,0,L|-24:10,1,127.500004863739,2|2,3:2|3:2,0:0:0:0:
62,127,102427,1,2,1:2:0:0:
62,127,102577,1,2,2:2:0:0:
220,40,102727,2,0,L|347:56,1,127.500004863739,2|0,3:2|1:0,0:0:0:0:
256,192,103177,6,0,B|256:327|256:327|289:369,1,170,4|2,3:2|2:2,0:0:0:0:
361,279,103627,2,0,L|361:231,3,42.5,2|0|0|0,1:2|1:0|1:0|1:0,0:0:0:0:
463,315,103927,2,0,L|463:272,3,42.5,2|0|0|0,1:2|1:0|1:0|1:0,0:0:0:0:
463,172,104227,2,0,L|463:129,3,42.5,2|0|0|0,1:2|1:0|1:0|1:0,0:0:0:0:
361,128,104527,1,2,1:2:0:0:
361,128,104602,1,0,1:0:0:0:
361,128,104677,2,0,L|361:85,1,42.5,0|0,1:0|1:0,0:0:0:0:
256,32,104827,1,2,1:2:0:0:
256,32,104902,1,0,1:0:0:0:
256,32,104977,2,0,L|256:74,1,42.5,0|0,1:0|1:0,0:0:0:0:
256,108,105127,5,2,1:2:0:0:
98,149,105277,1,2,3:3:0:0:
98,149,105577,6,0,P|174:178|200:277,1,170,6|2,3:2|3:2,0:0:0:0:
157,361,106027,2,0,L|60:377,1,85,2|2,1:2|2:2,0:0:0:0:
103,264,106327,1,2,3:2:0:0:
103,264,106477,1,0,3:0:0:0:
103,264,106627,1,2,1:2:0:0:
284,288,106777,2,0,B|320:210|320:210|308:126,1,170,2|2,3:2|3:2,0:0:0:0:
191,0,107227,2,0,L|203:84,1,85,2|2,1:2|2:2,0:0:0:0:
224,193,107527,1,2,3:2:0:0:
224,193,107677,1,0,3:0:0:0:
224,193,107827,1,0,1:0:0:0:
415,235,107977,6,0,B|336:208|336:208|308:126,1,170,6|2,3:2|3:2,0:0:0:0:
374,27,108427,2,0,B|418:19|418:19|471:11,1,85,2|2,1:2|2:2,0:0:0:0:
421,139,108727,1,2,3:2:0:0:
421,139,108877,1,2,3:2:0:0:
421,139,109027,1,2,1:2:0:0:
238,97,109177,2,0,B|201:174|201:174|213:258,1,170,2|2,3:2|3:2,0:0:0:0:
116,276,109627,2,0,L|104:192,1,85,2|2,1:2|2:2,0:0:0:0:
27,303,109927,1,2,3:2:0:0:
27,303,110077,1,0,3:0:0:0:
27,303,110227,1,0,1:2:0:0:
29,95,110377,6,0,B|61:60|104:53|145:68|145:68|129:146,1,170,14|2,3:2|3:2,0:0:0:0:
244,157,110827,2,0,L|227:240,1,85,2|2,1:2|2:2,0:0:0:0:
335,288,111127,1,2,3:2:0:0:
393,276,111277,1,0,3:2:0:0:
451,264,111427,1,0,1:2:0:0:
483,95,111577,6,0,B|451:60|408:53|366:68|366:68|383:146,1,170,14|2,3:2|3:2,0:0:0:0:
268,157,112027,2,0,L|285:240,1,85,2|2,1:2|2:2,0:0:0:0:
177,288,112327,1,2,3:2:0:0:
119,276,112477,1,0,3:0:0:0:
61,264,112627,1,0,1:2:0:0:
213,384,112777,6,0,B|261:349|261:349|294:206,1,170,14|2,3:2|3:2,0:0:0:0:
119,183,113227,2,0,L|138:101,1,85,2|2,1:2|2:2,0:0:0:0:
299,141,113527,1,2,3:2:0:0:
217,163,113677,1,2,3:2:0:0:
239,82,113827,1,2,1:2:0:0:
285,241,113977,6,0,B|320:289|320:289|463:322,1,170,14|0,3:2|3:0,0:0:0:0:
510,237,114427,1,10,1:2:0:0:
470,101,114577,1,2,3:2:0:0:
470,101,114652,1,0,3:0:0:0:
470,101,114727,2,0,B|460:142,4,42.5,10|0|2|0|10,3:2|3:0|3:2|3:0|1:2,0:0:0:0:
364,223,115177,6,0,P|263:251|187:191,1,170,6|2,3:2|3:2,0:0:0:0:
134,132,115627,2,0,P|131:83|153:39,1,85,2|2,1:2|2:2,0:0:0:0:
249,113,115927,1,2,3:2:0:0:
249,113,116077,1,2,3:2:0:0:
249,113,116227,1,2,1:2:0:0:
416,161,116377,2,0,B|423:118|423:118|403:-6,1,170,2|2,3:2|3:2,0:0:0:0:
265,21,116827,2,0,L|181:7,1,85,2|2,1:2|2:2,0:0:0:0:
57,54,117127,1,2,3:2:0:0:
57,54,117277,1,0,3:0:0:0:
57,54,117427,1,0,1:0:0:0:
0,231,117577,6,0,B|87:243|87:243|167:218,1,170,6|2,3:2|3:2,0:0:0:0:
290,180,118027,2,0,L|379:152,1,85,2|2,1:2|2:2,0:0:0:0:
209,123,118327,1,2,3:2:0:0:
209,123,118477,1,2,3:2:0:0:
209,123,118627,1,2,1:2:0:0:
258,296,118777,2,0,P|337:343|424:317,1,170,2|2,3:2|3:2,0:0:0:0:
370,153,119227,2,0,L|351:235,1,85,2|2,1:2|2:2,0:0:0:0:
466,242,119527,1,2,3:2:0:0:
466,242,119677,1,0,3:0:0:0:
466,242,119827,1,0,1:2:0:0:
468,39,119977,6,0,B|388:72|388:72|369:159,1,170,14|2,3:2|3:2,0:0:0:0:
272,286,120427,2,0,B|314:293|314:293|350:269,1,85,2|2,1:2|2:2,0:0:0:0:
162,269,120727,1,2,3:2:0:0:
103,257,120877,1,0,3:0:0:0:
44,246,121027,1,0,1:2:0:0:
44,39,121177,6,0,B|124:72|124:72|141:153,1,170,14|2,3:2|3:2,0:0:0:0:
240,286,121627,2,0,B|198:293|198:293|162:269,1,85,2|2,1:2|2:2,0:0:0:0:
350,269,121927,1,2,3:2:0:0:
409,257,122077,1,0,3:0:0:0:
468,246,122227,1,0,1:2:0:0:
431,30,122377,6,0,B|488:34|525:87|507:146|507:146|461:135,1,170,14|2,3:2|3:2,0:0:0:0:
373,114,122827,2,0,B|330:105|330:105|293:126,1,85,2|2,1:2|2:2,0:0:0:0:
318,283,123127,1,2,3:2:0:0:
349,208,123277,1,2,3:2:0:0:
269,219,123427,1,2,1:2:0:0:
447,296,123577,6,0,B|504:292|541:239|523:180|523:180|477:187,1,170,14|2,3:2|3:2,0:0:0:0:
431,193,124027,1,10,1:2:0:0:
269,219,124177,1,2,2:2:0:0:
303,120,124327,1,4,3:3:0:0:
303,120,124477,1,10,3:3:0:0:
303,120,124627,1,0,3:2:0:0:
240,320,124777,5,6,3:2:0:0:
176,192,129727,6,0,L|128:192,2,31.8750012159348,0|0|0,3:0|3:0|3:0,0:0:0:0:
256,240,130027,1,0,3:0:0:0:
256,240,130177,1,0,3:0:0:0:
256,96,130327,1,0,1:0:0:0:
336,192,130477,2,0,L|384:192,2,31.8750012159348,0|0|0,3:0|3:0|3:0,0:0:0:0:
336,288,130777,1,0,3:0:0:0:
256,340,130927,2,0,L|256:388,2,31.8750012159348,0|0|0,3:0|3:0|3:0,0:0:0:0:
176,288,131227,1,0,3:0:0:0:
176,288,131377,1,0,3:0:0:0:
42,384,131527,5,0,1:0:0:0:
42,288,131677,1,0,3:0:0:0:
42,192,131827,2,0,B|42:128|42:128|74:96,1,95.6250036478044,2|0,3:2|0:0,0:0:0:0:
91,84,132127,6,0,L|91:36,2,31.8750012159348,0|0|0,3:0|3:0|3:0,0:0:0:0:
186,128,132427,1,0,3:0:0:0:
186,128,132577,1,0,3:0:0:0:
256,0,132727,1,0,1:0:0:0:
326,128,132877,2,0,L|326:80,2,31.8750012159348,0|0|0,3:0|3:0|3:0,0:0:0:0:
421,84,133177,1,0,3:0:0:0:
486,205,133327,5,2,3:2:0:0:
406,221,133477,1,2,3:2:0:0:
326,237,133627,1,2,3:2:0:0:
26,205,133927,5,2,1:2:0:0:
106,221,134077,1,2,3:2:0:0:
186,237,134227,1,2,3:2:0:0:
105,341,134527,6,0,L|105:309,2,31.8750012159348,0|0|0,3:0|3:0|3:0,0:0:0:0:
25,371,134827,1,0,3:0:0:0:
25,371,134977,1,0,3:0:0:0:
187,369,135127,1,0,1:0:0:0:
256,288,135277,2,0,L|256:349,2,31.8750012159348,0|0|0,3:0|3:0|3:0,0:0:0:0:
325,369,135577,1,0,3:0:0:0:
407,341,135727,2,0,L|407:309,2,31.8750012159348,0|0|0,3:0|3:0|3:0,0:0:0:0:
492,373,136027,1,0,3:0:0:0:
492,373,136177,1,0,3:0:0:0:
495,222,136327,5,0,1:0:0:0:
407,176,136477,1,0,3:0:0:0:
320,224,136627,2,0,B|256:224|256:224|224:192,1,95.6250036478044,2|0,3:2|0:0,0:0:0:0:
216,176,136927,6,0,L|216:144,2,31.8750012159348,0|0|0,3:0|3:0|3:0,0:0:0:0:
324,130,137227,1,0,3:0:0:0:
324,130,137377,1,0,3:0:0:0:
216,41,137527,1,0,1:0:0:0:
112,80,137677,2,0,L|112:112,2,31.8750012159348,0|0|0,3:0|3:0|3:0,0:0:0:0:
8,41,137977,1,0,3:0:0:0:
0,192,138127,6,0,L|112:192,1,95.6250036478044,2|0,3:2|0:0,0:0:0:0:
128,192,138427,2,0,L|240:192,1,95.6250036478044,2|0,3:3|0:0,0:0:0:0:
256,192,138727,2,0,L|368:192,1,95.6250036478044,2|0,1:2|0:0,0:0:0:0:
384,192,139027,2,0,L|496:192,1,95.6250036478044,2|0,3:2|0:0,0:0:0:0:
496,224,139327,6,0,L|496:255,2,31.8750012159348,0|0|0,3:0|3:0|3:0,0:0:0:0:
400,288,139627,2,0,L|400:319,2,31.8750012159348,0|0|0,3:0|0:0|3:0,0:0:0:0:
256,256,139927,1,0,1:0:0:0:
304,336,140077,2,0,L|304:367,2,31.8750012159348,0|0|0,3:0|3:0|3:0,0:0:0:0:
256,256,140377,1,0,3:0:0:0:
208,336,140527,2,0,L|208:367,2,31.8750012159348,0|0|0,3:0|3:0|3:0,0:0:0:0:
112,288,140827,1,0,3:0:0:0:
112,288,140977,1,0,3:0:0:0:
56,144,141127,5,0,1:0:0:0:
132,176,141277,1,0,3:0:0:0:
208,208,141427,2,0,B|208:144|208:144|240:112,1,95.6250036478044,2|0,3:2|0:0,0:0:0:0:
256,103,141727,6,0,L|256:55,2,31.8750012159348,0|0|0,3:0|3:0|3:0,0:0:0:0:
336,128,142027,1,0,3:0:0:0:
336,128,142177,1,0,3:0:0:0:
496,80,142327,1,0,1:0:0:0:
416,48,142477,2,0,L|416:79,2,31.8750012159348,0|0|0,3:0|3:0|3:0,0:0:0:0:
416,160,142777,1,0,3:0:0:0:
416,256,142927,5,2,3:2:0:0:
336,288,143077,1,2,3:2:0:0:
256,256,143227,1,2,3:2:0:0:
96,128,143527,5,2,1:2:0:0:
176,96,143677,1,2,3:2:0:0:
256,128,143827,1,2,3:2:0:0:
96,208,144127,6,0,L|48:208,2,31.8750012159348,0|0|0,3:0|3:0|3:0,0:0:0:0:
176,256,144427,1,0,3:0:0:0:
176,256,144577,1,0,3:0:0:0:
256,128,144727,1,0,1:0:0:0:
256,208,144877,2,0,L|256:256,2,31.8750012159348,0|0|0,3:0|3:0|3:0,0:0:0:0:
336,256,145177,1,0,3:0:0:0:
408,208,145327,2,0,L|456:208,2,31.8750012159348,0|0|0,3:0|3:0|3:0,0:0:0:0:
422,298,145627,1,0,3:0:0:0:
422,298,145777,1,0,3:0:0:0:
336,368,145927,5,0,1:0:0:0:
256,368,146077,1,0,3:0:0:0:
176,368,146227,2,0,B|128:368|128:368|90:328,1,95.6250036478044,2|0,3:2|0:0,0:0:0:0:
68,301,146527,6,0,L|17:308,2,31.8750012159348,0|0|0,3:0|3:0|3:0,0:0:0:0:
167,290,146827,1,0,3:0:0:0:
167,290,146977,1,0,3:0:0:0:
304,352,147127,1,0,1:0:0:0:
290,270,147277,2,0,L|239:277,2,31.8750012159348,0|0|0,3:0|3:0|3:0,0:0:0:0:
383,257,147577,1,0,3:0:0:0:
478,244,147727,6,0,P|461:182|480:127,1,95.6250036478044,2|0,3:2|0:0,0:0:0:0:
485,124,148027,2,0,P|490:76|473:32,1,95.6250036478044,2|0,3:3|0:0,0:0:0:0:
454,5,148327,2,0,P|406:0|362:16,1,95.6250036478044,2|0,1:2|0:0,0:0:0:0:
345,44,148627,5,2,3:2:0:0:
376,192,148927,1,6,3:2:0:0:
294,162,149227,1,2,3:2:0:0:
325,310,149527,1,2,1:2:0:0:
436,335,149827,5,2,3:2:0:0:
459,253,150127,1,2,3:2:0:0:
459,253,150427,1,2,3:2:0:0:
331,233,150727,1,2,1:2:0:0:
230,315,151027,1,2,3:2:0:0:
230,315,151327,6,0,L|102:335,1,127.5,2|0,3:2|0:0,0:0:0:0:
23,327,151927,2,0,P|41:282|87:258,1,85,2|0,1:2|3:2,0:0:0:0:
188,238,152527,6,0,L|269:225,1,76.4999976654053,0|0,3:2|0:0,0:0:0:0:
332,182,153127,2,0,P|308:156|272:148,1,50.9999984436036,0|2,1:2|3:2,0:0:0:0:
153,307,153727,1,6,3:2:0:0:
230,295,154027,1,2,3:2:0:0:
97,179,154327,1,2,1:2:0:0:
90,255,154627,5,2,3:2:0:0:
35,128,154927,1,2,3:2:0:0:
35,128,155227,1,2,3:2:0:0:
169,140,155527,1,2,1:2:0:0:
112,17,155827,5,2,3:2:0:0:
112,17,156127,2,0,L|239:31,1,127.5,2|0,3:2|0:0,0:0:0:0:
268,105,156727,2,0,P|242:72|238:31,1,85,2|0,1:2|3:2,0:0:0:0:
330,39,157327,6,0,L|406:47,1,76.4999976654053,0|0,3:2|0:0,0:0:0:0:
418,95,157927,2,0,P|407:72|406:47,1,50.9999984436036,2|2,1:1|3:2,0:0:0:0:
496,56,158377,1,0,3:0:0:0:
496,56,158527,5,6,3:2:0:0:
482,151,158827,1,2,3:2:0:0:
326,90,159127,1,2,1:2:0:0:
312,185,159427,5,2,3:2:0:0:
226,213,159727,1,2,3:2:0:0:
226,213,160027,1,2,3:2:0:0:
250,32,160327,1,2,1:2:0:0:
133,113,160627,5,2,3:2:0:0:
133,113,160927,2,0,L|262:129,1,127.5,2|0,3:2|0:0,0:0:0:0:
294,199,161527,2,0,P|289:159|243:123,1,85,2|0,1:2|3:2,0:0:0:0:
282,279,162127,6,0,L|206:269,1,76.4999976654053,0|0,3:2|0:0,0:0:0:0:
165,297,162727,2,0,P|181:277|205:269,1,50.9999984436036,0|2,1:2|3:2,0:0:0:0:
349,358,163327,1,6,3:2:0:0:
452,340,163627,1,2,3:2:0:0:
394,159,163927,1,0,1:2:0:0:
482,231,164227,5,2,3:2:0:0:
511,110,164527,1,2,3:2:0:0:
511,110,164827,1,2,3:2:0:0:
321,190,165127,1,0,1:2:0:0:
366,65,165427,5,2,3:2:0:0:
366,65,165727,2,0,L|296:57,1,63.7500024318696,6|2,3:2|0:2,0:0:0:0:
192,147,166027,2,0,L|255:139,1,63.7500024318696,2|2,0:2|0:2,0:0:0:0:
121,28,166327,2,0,L|114:94,1,63.7500024318696,0|0,3:2|3:2,0:0:0:0:
97,250,166627,2,0,L|104:186,1,63.7500024318696,0|0,3:2|3:2,0:0:0:0:
198,238,166927,5,0,3:2:0:0:
198,238,167077,1,0,3:2:0:0:
297,224,167227,5,0,3:2:0:0:
297,224,167377,1,0,3:2:0:0:
396,210,167527,5,0,3:2:0:0:
396,210,167677,1,0,3:2:0:0:
495,196,167827,5,0,3:2:0:0:
495,196,167977,1,0,3:2:0:0:
451,332,168127,5,2,1:2:0:0:
345,313,168277,2,0,L|303:305,2,42.5,0|0|0,3:2|3:2|3:2,0:0:0:0:
326,158,168577,5,2,1:2:0:0:
432,139,168727,2,0,L|473:131,2,42.5,0|0|0,3:2|0:0|3:2,0:0:0:0:
313,38,169027,1,2,1:2:0:0:
313,38,169102,1,0,1:2:0:0:
313,38,169177,1,0,3:2:0:0:
224,176,169327,2,0,L|219:219,2,42.5,2|0|0,3:2|3:2|3:2,0:0:0:0:
115,98,169627,2,0,L|110:55,2,42.5,2|0|0,3:2|3:2|3:2,0:0:0:0:
125,192,169927,5,2,1:2:0:0:
326,158,170077,1,2,3:3:0:0:
256,192,170377,12,0,172327,3:3:0:0:
472,187,172477,6,0,B|471:219,3,31.8750012159348,0|0|0|0,1:0|1:0|1:0|1:0,0:0:0:0:
471,219,172777,6,0,B|392:250|392:250|330:192,1,170,6|2,3:2|3:2,0:0:0:0:
413,146,173227,2,0,L|429:63,1,85,2|2,1:2|2:2,0:0:0:0:
333,100,173527,1,2,3:2:0:0:
333,100,173677,1,2,3:2:0:0:
333,100,173827,1,0,1:2:0:0:
223,33,173977,2,0,P|150:38|100:137,1,170,2|2,3:2|3:2,0:0:0:0:
214,211,174427,2,0,L|194:115,1,85,2|2,1:2|2:2,0:0:0:0:
126,206,174727,1,2,3:2:0:0:
126,206,174877,1,0,3:0:0:0:
126,206,175027,1,0,1:0:0:0:
222,330,175177,6,0,B|130:369|130:369|92:349|99:304,1,170,14|2,3:2|3:2,0:0:0:0:
257,244,175627,2,0,P|302:270|311:335,1,85,2|2,1:2|2:2,0:0:0:0:
497,216,175927,1,2,3:2:0:0:
439,201,176077,1,0,3:2:0:0:
380,188,176227,1,0,1:2:0:0:
290,54,176377,6,0,B|382:15|382:15|420:35|413:80,1,170,10|2,3:2|3:2,0:0:0:0:
255,140,176827,2,0,P|210:114|201:49,1,85,2|2,1:2|2:2,0:0:0:0:
15,168,177127,1,2,3:2:0:0:
73,183,177277,1,0,3:0:0:0:
132,196,177427,1,0,1:2:0:0:
207,311,177577,6,0,B|152:336|152:336|40:310,1,170,14|2,3:2|3:2,0:0:0:0:
132,196,178027,2,0,B|215:214,1,85,2|2,1:2|2:2,0:0:0:0:
363,247,178327,1,2,3:2:0:0:
284,275,178477,1,2,3:2:0:0:
303,189,178627,1,2,1:2:0:0:
351,353,178777,6,0,B|434:328|434:328|471:234,1,170,14|0,3:2|3:2,0:0:0:0:
503,134,179227,1,2,1:2:0:0:
395,94,179377,1,2,2:2:0:0:
395,94,179452,1,0,3:2:0:0:
395,94,179527,2,0,B|410:133,1,42.5,2|0,3:2|0:0,0:0:0:0:
423,165,179677,1,2,3:2:0:0:
202,117,179827,1,2,1:2:0:0:
256,32,179977,6,0,P|135:43|104:99,1,170,6|2,3:2|3:2,0:0:0:0:
190,224,180427,2,0,P|181:174|155:138,1,85,2|2,1:2|2:2,0:0:0:0:
77,162,180727,1,2,3:2:0:0:
77,162,180877,1,2,3:2:0:0:
77,162,181027,1,2,1:2:0:0:
10,336,181177,2,0,L|191:306,1,170,6|2,3:2|3:2,0:0:0:0:
327,365,181627,2,0,L|243:378,1,85,2|2,1:2|3:2,0:0:0:0:
266,289,181927,1,2,1:2:0:0:
425,355,182077,5,2,3:2:0:0:
425,355,182227,1,2,1:3:0:0:
425,355,182377,2,0,P|460:298|364:289,1,170,6|2,3:2|3:2,0:0:0:0:
266,289,182827,2,0,L|283:205,1,85,2|2,1:2|2:2,0:0:0:0:
167,133,183127,1,2,3:2:0:0:
167,133,183202,1,2,2:2:0:0:
167,133,183277,2,0,P|162:184|185:216,1,85,2|2,3:2|1:2,0:0:0:0:
302,125,183577,1,2,3:2:0:0:
486,0,184027,2,0,P|505:36|498:78,1,85,2|2,1:2|2:2,0:0:0:0:
414,144,184327,1,2,3:2:0:0:
414,144,184477,1,0,3:0:0:0:
414,144,184627,1,0,1:0:0:0:
256,48,184777,6,0,B|143:30|143:30|187:114,1,170,14|2,3:2|3:2,0:0:0:0:
234,238,185227,2,0,L|247:154,1,85,2|2,1:2|2:2,0:0:0:0:
119,182,185527,1,2,3:2:0:0:
108,244,185677,1,0,3:2:0:0:
98,307,185827,1,0,1:2:0:0:
256,336,185977,6,0,B|314:329|369:354|369:354|348:328|346:305,1,170,14|2,3:2|3:2,0:0:0:0:
398,208,186427,2,0,P|382:164|384:124,1,85,2|2,1:2|2:2,0:0:0:0:
483,21,186727,1,2,3:2:0:0:
420,11,186877,1,0,3:0:0:0:
358,0,187027,1,0,1:2:0:0:
208,112,187177,6,0,P|112:114|74:-4,1,170,14|2,3:2|3:2,0:0:0:0:
306,84,187627,2,0,L|287:184,1,85,2|2,1:2|2:2,0:0:0:0:
261,316,187927,1,2,3:2:0:0:
319,249,188077,1,2,3:2:0:0:
233,232,188227,1,2,1:2:0:0:
371,349,188377,6,0,P|467:351|505:233,1,170,14|2,3:2|3:2,0:0:0:0:
494,179,188827,1,2,1:2:0:0:
479,61,188977,2,0,L|472:2,2,42.5,2|0|2,1:2|1:2|1:2,0:0:0:0:
387,137,189277,1,0,3:0:0:0:
387,137,189427,1,2,1:2:0:0:
387,137,189577,6,0,P|261:158|136:138,1,255.000009727478,6|0,3:2|0:0,0:0:0:0:
40,81,190327,1,0,1:2:0:0:
52,249,190627,1,0,3:2:0:0:
52,249,190777,2,0,L|57:333,1,63.7500024318696,2|0,3:2|0:0,0:0:0:0:
169,362,191077,1,2,1:2:0:0:
169,362,191227,1,2,3:2:0:0:
169,362,191377,1,2,3:2:0:0:
169,362,191527,2,0,L|174:278,1,63.7500024318696,2|0,1:2|3:2,0:0:0:0:
278,343,191827,1,2,1:2:0:0:
278,343,191977,2,0,P|333:332|425:370,1,127.500004863739,6|0,3:2|1:2,0:0:0:0:
480,286,192427,5,6,3:2:0:0:
395,190,192577,2,0,L|400:233,2,31.8750012159348,0|0|0,1:2|1:2|1:2,0:0:0:0:
309,216,192877,1,0,1:2:0:0:
221,197,193027,1,0,1:2:0:0:
177,119,193177,2,0,B|188:12|188:12|205:44,1,127.500004863739,6|0,3:2|3:2,0:0:0:0:
321,64,193627,5,0,1:2:0:0:
417,31,193777,2,0,L|420:0,3,21.2500008106232,4|4|4|4,3:3|3:3|3:3|3:0,0:0:0:0:
412,161,194077,1,4,3:3:0:0:
412,161,194227,1,4,3:3:0:0:
412,161,194377,6,0,P|503:227|487:127,1,255.000009727478,6|0,3:2|0:0,0:0:0:0:
437,48,195127,1,0,1:2:0:0:
325,77,195427,1,2,3:0:0:0:
325,77,195577,2,0,L|315:164,1,63.7500024318696,0|0,3:2|0:0,0:0:0:0:
203,180,195877,1,0,1:2:0:0:
203,180,196027,1,6,3:2:0:0:
203,180,196177,1,0,0:0:0:0:
203,180,196327,1,0,1:2:0:0:
48,128,196627,1,2,2:2:0:0:
48,128,196777,6,0,P|35:199|82:259,1,127.5,6|0,3:2|0:0,0:0:0:0:
91,259,197077,1,2,3:2:0:0:
160,80,197377,1,2,2:2:0:0:
256,147,197527,1,2,3:2:0:0:
256,147,197677,1,2,3:2:0:0:
464,128,197977,6,0,P|477:199|430:259,1,127.5,2|0,3:2|0:0,0:0:0:0:
421,259,198277,1,2,3:2:0:0:
256,147,198577,1,2,2:2:0:0:
352,80,198727,1,2,3:2:0:0:
352,80,198877,1,2,3:2:0:0:
169,163,199177,6,0,B|74:178|74:178|51:204,1,127.5,2|0,3:2|0:0,0:0:0:0:
40,227,199477,1,2,3:2:0:0:
241,326,199777,1,2,2:2:0:0:
263,223,199927,1,2,3:3:0:0:
263,223,200077,1,2,3:2:0:0:
323,356,200377,6,0,B|419:342|419:342|442:316,1,127.5,2|0,3:2|0:0,0:0:0:0:
453,293,200677,1,2,3:2:0:0:
241,326,200977,1,2,2:2:0:0:
263,223,201127,1,2,3:3:0:0:
263,223,201277,1,2,3:0:0:0:
13,265,201577,6,0,L|146:240,1,127.5,6|0,3:2|0:0,0:0:0:0:
175,236,201877,1,2,3:2:0:0:
139,38,202177,1,2,2:2:0:0:
215,110,202327,1,2,3:2:0:0:
215,110,202477,1,2,3:2:0:0:
499,119,202777,6,0,L|366:144,1,127.5,2|0,3:2|0:0,0:0:0:0:
337,148,203077,1,2,3:2:0:0:
507,226,203377,1,2,2:2:0:0:
478,322,203527,1,2,3:2:0:0:
478,322,203677,1,2,3:2:0:0:
256,272,203977,6,0,L|256:144,1,127.5,2|0,3:2|0:0,0:0:0:0:
256,112,204277,1,2,3:2:0:0:
174,272,204577,1,2,2:2:0:0:
342,276,204727,1,2,3:2:0:0:
342,276,204877,1,2,3:2:0:0:
256,272,205177,5,6,3:2:0:0:
256,288,205477,1,2,3:3:0:0:
256,304,205777,1,2,3:3:0:0:
256,320,206077,1,2,3:3:0:0:
256,336,206377,1,6,3:2:0:0:
