osu file format v14

[General]
AudioFilename: audio.mp3
AudioLeadIn: 0
PreviewTime: 57140
Countdown: 0
SampleSet: Soft
StackLeniency: 0.3
Mode: 0
LetterboxInBreaks: 0
WidescreenStoryboard: 1

[Editor]
Bookmarks: 9590,19190,28790,38390,47990,57590,76790,86390,95990,105590,124790,129590,138740,139190,148790,165590,170390,189590,196790,206390
DistanceSpacing: 1.3
BeatDivisor: 4
GridSize: 32
TimelineZoom: 1.4

[Metadata]
Title:Nyanmoku no Ryoukai
TitleUnicode:ニャン黙の了解
Artist:Utsu-P feat. Hatsune Miku & Kagamine Rin
ArtistUnicode:鬱P feat. 初音ミク & 鏡音リン
Creator:Net0
Version:Edgy's Hard
Source:
Tags:last sonata reiji maigo lkxemmeji edgyking japanese metal jrock rock metalcore vocaloid my song is shit nyan-spoken understanding old style jump warufukaze 2010's 2013 depressionp utsup depression-p 悪巫山戯 Nyan Shijima and
BeatmapID:3744282
BeatmapSetID:1574589

[Difficulty]
HPDrainRate:5
CircleSize:4
OverallDifficulty:6
ApproachRate:7
SliderMultiplier:1.4
SliderTickRate:1

[Events]
//Background and Video events
0,0,"bgmikugoestocatworld.jpg",0,0
//Break Periods
2,76977,84277
2,124977,127477
//Storyboard Layer 0 (Background)
//Storyboard Layer 1 (Fail)
//Storyboard Layer 2 (Pass)
//Storyboard Layer 3 (Foreground)
//Storyboard Layer 4 (Overlay)
//Storyboard Sound Samples

[TimingPoints]
-23,300,4,2,1,50,1,0
8527,300,4,2,1,50,1,0
8677,-100,4,2,1,55,0,0
8977,-100,4,2,1,60,0,0
9277,-100,4,2,1,65,0,0
9577,-100,4,2,1,70,0,0
17977,-100,4,2,1,50,0,0
18052,-100,4,2,1,5,0,0
18277,-100,4,2,1,60,0,0
18352,-100,4,2,1,5,0,0
18577,-100,4,2,1,70,0,0
18652,-100,4,2,1,5,0,0
18877,-100,4,2,1,80,0,0
18952,-100,4,2,1,5,0,0
19177,-100,4,2,1,65,0,0
20977,-100,4,2,1,65,0,0
21127,-100,4,2,1,65,0,0
28777,-125,4,2,1,75,0,0
38377,-125,4,2,1,70,0,0
47977,-125,4,2,1,90,0,0
48427,-125,4,2,1,65,0,0
49027,-125,4,2,1,65,0,0
49327,-125,4,2,1,90,0,0
50827,-125,4,2,1,65,0,0
51427,-125,4,2,1,65,0,0
51727,-125,4,2,1,90,0,0
53227,-125,4,2,1,65,0,0
53827,-125,4,2,1,65,0,0
54127,-125,4,2,1,90,0,0
55177,-125,4,2,1,60,0,0
55477,-125,4,2,1,65,0,0
55926,-125,4,2,1,70,0,0
56227,-125,4,2,1,75,0,0
57127,-125,4,2,1,80,0,0
57277,-125,4,2,2,90,0,0
57577,-100,4,2,2,80,0,1
57877,-100,4,2,1,80,0,1
76777,-100,4,2,1,75,0,0
85177,-100,4,2,1,80,0,0
85252,-100,4,2,1,5,0,0
85477,-100,4,2,1,90,0,0
85552,-100,4,2,1,5,0,0
85777,-100,4,2,1,80,0,0
85852,-100,4,2,1,5,0,0
86077,-100,4,2,1,80,0,0
86377,-125,4,2,1,80,0,0
91177,-125,4,2,1,84,0,0
92377,-125,4,2,1,88,0,0
93577,-125,4,2,1,92,0,0
94777,-125,4,2,1,96,0,0
95977,-125,4,2,1,70,0,0
103552,-125,4,2,1,70,0,0
103627,-125,4,2,1,50,0,0
103927,-125,4,2,1,60,0,0
104227,-125,4,2,1,70,0,0
104527,-125,4,2,1,80,0,0
104827,-125,4,2,1,90,0,0
105277,-125,4,2,1,100,0,0
105577,-100,4,2,2,80,0,1
105877,-100,4,2,1,80,0,1
116527,-100,4,2,1,80,0,1
116677,-100,4,2,1,80,0,1
122077,-100,4,2,1,80,0,1
122227,-100,4,2,1,80,0,1
124777,-100,4,2,1,80,0,0
128377,-100,4,2,1,80,0,0
129727,-100,4,2,1,70,0,0
132052,-100,4,2,1,70,0,0
132127,-100,4,2,1,70,0,0
136852,-100,4,2,1,70,0,0
136927,-100,4,2,1,70,0,0
147727,-125,4,2,1,70,0,0
147802,-125,4,2,1,5,0,0
148027,-125,4,2,1,85,0,0
148102,-125,4,2,1,90,0,0
148327,-125,4,2,1,95,0,0
148627,-125,4,2,1,95,0,0
148927,-125,4,2,1,65,0,0
165727,-125,4,2,1,70,0,0
166177,-125,4,2,1,75,0,0
166627,-125,4,2,1,80,0,0
166927,-125,4,2,1,85,0,0
168202,-125,4,2,1,85,0,0
168277,-125,4,2,1,85,0,0
168652,-125,4,2,1,85,0,0
168727,-125,4,2,1,85,0,0
170377,-166.666666666667,4,2,1,85,0,0
170677,-166.666666666667,4,2,1,50,0,0
170827,-166.666666666667,4,2,1,60,0,0
171127,-166.666666666667,4,2,1,70,0,0
171427,-166.666666666667,4,2,1,80,0,0
171727,-166.666666666667,4,2,1,90,0,0
172027,-166.666666666667,4,2,1,50,0,0
172326,-166.666666666667,4,2,1,80,0,0
172477,-125,4,2,1,80,0,0
172777,-100,4,2,2,80,0,1
173077,-100,4,2,1,80,0,1
189052,-100,4,2,1,80,0,1
189127,-100,4,2,1,80,0,1
189577,-125,4,2,1,70,0,0
194827,-125,4,2,1,70,0,0
195127,-125,4,2,1,70,0,0
196777,-100,4,2,1,70,0,0
198577,-100,4,2,1,70,0,0
198727,-100,4,2,1,70,0,0
205252,-100,4,2,1,5,0,0
205477,-100,4,2,1,80,0,0
205552,-100,4,2,1,5,0,0
205777,-100,4,2,1,90,0,0
205852,-100,4,2,1,5,0,0
206077,-100,4,2,1,80,0,0
206152,-100,4,2,1,5,0,0
206377,-100,4,2,1,80,0,0
206452,-100,4,2,1,10,0,0
209227,-100,4,2,1,100,0,0
209302,-100,4,2,1,10,0,0
209377,-100,4,2,1,10,0,0

[Colours]
Combo1 : 255,128,192
Combo2 : 128,0,64

[HitObjects]
256,192,8527,12,6,9577,3:2:0:0:
112,33,9877,5,0,3:0:0:0:
41,78,10027,2,0,L|30:160,1,70,0|0,1:0|3:0,0:0:0:0:
73,220,10327,2,0,L|3:229,2,70,0|0|0,1:0|3:0|1:0,0:0:0:0:
121,151,10777,6,0,P|156:202|119:287,1,140,0|0,3:0|3:0,0:0:0:0:
58,320,11227,2,0,P|97:345|126:377,1,70,0|0,1:0|3:0,0:0:0:0:
197,331,11527,2,0,B|255:332|255:332|275:340|275:340|347:341,1,140,0|0,1:0|1:0,0:0:0:0:
433,380,11977,5,6,3:2:0:0:
433,380,12277,1,0,3:0:0:0:
497,326,12427,2,0,P|482:278|460:254,1,70,0|0,1:0|3:0,0:0:0:0:
385,263,12727,2,0,L|301:269,2,70,0|0|0,1:0|3:0|1:0,0:0:0:0:
425,189,13177,6,0,P|416:128|440:39,1,140,0|0,3:0|3:0,0:0:0:0:
362,6,13627,2,0,L|263:11,1,70,0|0,1:0|3:0,0:0:0:0:
213,40,13927,1,0,1:0:0:0:
213,40,14227,1,0,1:0:0:0:
275,124,14377,6,0,B|297:177|266:227|266:227|226:207,1,140,6|0,3:2|3:0,0:0:0:0:
156,234,14827,2,0,P|83:228|67:228,1,70,0|0,1:0|3:0,0:0:0:0:
116,306,15127,2,0,P|43:300|27:300,2,70,0|0|0,1:0|3:0|1:0,0:0:0:0:
180,360,15577,2,0,B|256:348|328:371,1,140,0|0,3:0|3:0,0:0:0:0:
383,315,16027,2,0,P|379:264|384:237,1,70,0|0,1:0|3:0,0:0:0:0:
454,203,16327,2,0,B|434:180|395:168|395:168|352:166|312:188,1,140,0|0,1:0|1:0,0:0:0:0:
250,107,16777,5,6,3:2:0:0:
250,107,17077,1,0,3:0:0:0:
322,64,17227,2,0,P|359:68|406:71,1,70,0|0,1:0|3:0,0:0:0:0:
459,119,17527,2,0,P|482:90|513:54,2,70,0|0|0,1:0|3:0|1:0,0:0:0:0:
375,140,17977,5,2,3:0:0:0:
511,238,18277,1,2,3:0:0:0:
423,381,18577,1,2,3:0:0:0:
257,351,18877,1,2,3:0:0:0:
229,185,19177,6,0,P|200:99|211:43,1,140,6|2,3:2|3:2,0:0:0:0:
138,5,19627,2,0,P|125:49|120:80,1,70,0|2,1:0|2:2,0:0:0:0:
40,80,19927,1,2,3:2:0:0:
40,80,20077,1,2,3:2:0:0:
131,221,20377,6,0,P|80:228|-5:266,2,140,2|2|2,3:2|3:2|2:2,0:0:0:0:
204,263,21127,1,2,3:2:0:0:
204,263,21277,2,0,P|261:273|296:293,1,70,2|0,3:2|1:0,0:0:0:0:
362,225,21577,6,0,P|381:158|366:91,1,140,2|2,3:2|3:2,0:0:0:0:
296,139,22027,2,0,P|248:164|202:163,1,70,0|2,1:0|2:2,0:0:0:0:
180,107,22327,1,2,3:2:0:0:
180,107,22477,1,2,3:2:0:0:
366,90,22777,6,0,P|428:86|506:54,2,140,2|2|2,3:2|3:2|2:2,0:0:0:0:
290,52,23527,1,2,3:2:0:0:
290,52,23677,1,2,3:0:0:0:
483,153,23977,6,0,L|446:320,1,140,6|2,3:2|3:2,0:0:0:0:
390,345,24427,2,0,L|310:377,1,70,0|2,1:0|2:2,0:0:0:0:
245,364,24727,1,2,3:2:0:0:
245,364,24877,1,2,3:2:0:0:
67,232,25177,6,0,P|139:266|212:324,2,140,2|2|2,3:2|3:2|2:2,0:0:0:0:
173,193,25927,1,2,3:2:0:0:
173,193,26077,2,0,L|254:173,1,70,2|0,3:2|1:0,0:0:0:0:
335,138,26377,6,0,L|372:-5,1,140,2|2,3:2|3:2,0:0:0:0:
288,21,26827,2,0,B|248:21|248:21|221:35,1,70,0|2,1:0|2:2,0:0:0:0:
144,14,27127,1,2,3:2:0:0:
144,14,27277,1,2,3:2:0:0:
2,104,27577,6,0,B|63:125|63:125|123:175,1,140,2|0,3:2|3:0,0:0:0:0:
48,215,28027,2,0,B|70:249|70:249|81:292,1,70,0|2,1:0|2:2,0:0:0:0:
17,346,28327,1,2,3:2:0:0:
17,346,28477,1,2,3:0:0:0:
17,346,28627,1,2,3:1:0:0:
17,346,28777,6,0,L|143:350,1,112,6|2,3:2|3:2,0:0:0:0:
193,315,29227,1,2,1:2:0:0:
324,377,29527,1,2,1:2:0:0:
465,316,29827,1,2,1:2:0:0:
465,316,29977,6,0,L|353:312,1,112,2|2,3:3|3:2,0:0:0:0:
260,206,30427,1,2,1:2:0:0:
126,232,30727,1,2,1:2:0:0:
51,80,31027,1,0,1:0:0:0:
51,80,31177,6,0,L|54:191,1,112,2|2,3:3|3:2,0:0:0:0:
8,248,31627,1,2,1:2:0:0:
169,306,31927,1,2,1:2:0:0:
156,136,32227,1,2,1:2:0:0:
156,136,32377,6,0,L|163:12,1,112,2|2,3:3|3:2,0:0:0:0:
232,4,32827,1,2,1:2:0:0:
339,109,33127,1,2,1:2:0:0:
476,46,33427,1,0,1:0:0:0:
476,46,33577,6,0,L|485:171,1,112,6|2,3:2|3:2,0:0:0:0:
478,230,34027,1,2,1:2:0:0:
314,236,34327,1,2,1:2:0:0:
250,376,34627,1,2,1:2:0:0:
250,376,34777,6,0,L|362:379,1,112,2|2,3:3|3:2,0:0:0:0:
415,329,35227,1,2,1:2:0:0:
488,203,35527,1,2,1:2:0:0:
360,132,35827,1,0,1:0:0:0:
360,132,35977,6,0,L|230:121,1,112,2|2,3:3|3:2,0:0:0:0:
184,164,36427,1,2,1:2:0:0:
0,103,36727,1,2,1:2:0:0:
162,35,37027,1,2,1:2:0:0:
162,35,37177,6,0,L|296:59,1,112,2|2,3:3|3:2,0:0:0:0:
334,14,37627,2,0,L|412:-2,1,56,2|2,1:2|1:2,0:0:0:0:
411,12,37852,1,0,1:0:0:0:
435,20,37927,2,0,L|489:31,2,56,2|0|0,1:2|1:0|1:0,0:0:0:0:
377,82,38377,6,0,B|320:172|403:253,1,168,6|2,3:2|1:2,0:0:0:0:
456,275,38977,1,2,2:2:0:0:
456,275,39127,2,0,P|503:276|533:265,2,56,2|2|2,3:2|3:2|1:2,0:0:0:0:
395,319,39577,2,0,P|324:324|265:340,1,112,2|2,3:2|3:2,0:0:0:0:
230,384,40027,1,2,1:2:0:0:
108,314,40327,2,0,L|-10:342,1,112,2|0,3:2|1:0,0:0:0:0:
131,319,40777,6,0,B|188:239|131:145,1,168,2|2,3:2|1:2,0:0:0:0:
55,122,41377,1,2,2:2:0:0:
55,122,41527,2,0,P|13:119|-17:130,2,56,2|2|2,3:2|3:2|1:2,0:0:0:0:
106,63,41977,2,0,P|191:41|223:16,1,112,2|2,3:2|3:2,0:0:0:0:
278,0,42427,1,2,1:2:0:0:
422,54,42727,2,0,P|479:77|520:127,1,112,2|0,3:2|1:0,0:0:0:0:
408,57,43177,6,0,B|345:133|401:220,1,168,4|2,3:2|1:2,0:0:0:0:
457,262,43777,1,2,2:2:0:0:
457,262,43927,2,0,P|500:268|519:274,2,56,2|2|0,3:2|3:2|1:0,0:0:0:0:
383,288,44377,2,0,P|354:275|271:274,1,112,2|2,3:2|3:2,0:0:0:0:
222,331,44827,1,2,1:2:0:0:
108,384,45127,2,0,P|103:350|71:257,1,112,2|0,3:2|1:0,0:0:0:0:
3,240,45577,6,0,P|65:231|124:196,1,112,2|2,3:2|3:2,0:0:0:0:
181,236,46027,1,2,1:2:0:0:
206,98,46327,2,0,P|208:48|212:25,2,56,2|2|2,3:2|3:2|1:2,0:0:0:0:
132,115,46777,2,0,P|74:92|5:87,1,112,0|0,3:2|3:2,3:2:0:0:
80,7,47227,6,0,P|113:15|158:31,1,56,2|0,1:2|0:0,0:0:0:0:
208,42,47527,1,2,1:2:0:0:
286,48,47677,1,2,1:3:0:0:
363,58,47827,1,2,1:1:0:0:
256,192,47977,12,0,49027,3:2:0:0:
8,210,49327,6,0,L|0:273,1,56,2|2,3:2|2:2,0:0:0:0:
79,239,49627,2,0,L|72:294,1,56,2|2,3:2|2:2,0:0:0:0:
155,232,49927,2,0,L|139:358,1,112,2|0,1:2|3:0,0:0:0:0:
256,192,50377,12,0,51427,3:2:0:0:
504,210,51727,6,0,L|511:273,1,56,2|2,3:2|2:2,0:0:0:0:
433,239,52027,2,0,L|439:294,1,56,2|2,3:2|2:2,0:0:0:0:
355,232,52327,2,0,L|370:358,1,112,2|0,3:2|1:0,0:0:0:0:
256,192,52777,12,0,53827,3:2:0:0:
216,56,54127,6,0,L|216:0,1,56,2|2,3:2|2:2,0:0:0:0:
297,0,54427,2,0,L|297:56,1,56,2|2,3:2|2:2,0:0:0:0:
256,120,54727,2,0,L|256:232,1,112,2|0,3:2|1:2,0:0:0:0:
183,190,55177,6,0,B|132:166|132:166|80:188,1,112,6|2,3:2|3:2,0:0:0:0:
131,244,55627,2,0,L|179:271,1,56,2|2,3:2|3:2,0:0:0:0:
256,300,55926,2,0,L|256:355,1,56,2|2,3:2|3:2,0:0:0:0:
333,271,56227,2,0,L|381:244,1,56,2|2,3:2|3:2,0:0:0:0:
329,190,56527,1,2,3:2:0:0:
398,168,56677,1,2,3:2:0:0:
452,216,56827,1,2,3:2:0:0:
442,288,56977,1,2,3:2:0:0:
380,326,57127,6,0,L|393:391,1,56,2|2,1:2|3:3,0:0:0:0:
18,46,57577,6,0,P|81:65|165:61,1,140,6|2,3:2|3:2,0:0:0:0:
151,147,58027,1,2,1:2:0:0:
225,184,58177,1,2,2:2:0:0:
292,134,58327,2,0,P|328:80|351:-1,1,140,2|2,3:2|1:2,0:0:0:0:
434,8,58777,2,0,P|462:68|521:128,1,140,2|2,3:2|3:2,0:0:0:0:
434,155,59227,2,0,L|336:161,1,70,2|2,1:2|2:2,0:0:0:0:
334,238,59527,2,0,B|349:309|349:309|328:334|332:372,1,140,2|0,3:2|1:0,0:0:0:0:
245,291,59977,6,0,P|167:306|76:315,1,140,6|2,3:2|3:2,0:0:0:0:
22,314,60427,1,2,1:2:0:0:
2,232,60577,1,2,2:2:0:0:
61,172,60727,2,0,P|129:161|177:223,1,140,2|2,3:2|1:2,0:0:0:0:
244,161,61177,2,0,P|220:96|273:38,1,140,2|2,3:2|3:2,0:0:0:0:
330,0,61627,2,0,L|419:20,1,70,2|2,1:2|2:2,0:0:0:0:
481,0,61927,2,0,B|486:47|456:80|456:80|401:100,1,140,2|0,3:2|1:2,0:0:0:0:
512,194,62377,6,0,B|444:185|406:212|406:212|423:266,1,140,14|2,3:2|3:2,0:0:0:0:
442,319,62827,1,2,1:2:0:0:
365,353,62977,1,2,2:2:0:0:
335,274,63127,2,0,L|286:124,1,140,2|0,3:2|1:2,0:0:0:0:
210,146,63577,2,0,L|167:279,1,140,14|2,3:2|3:2,0:0:0:0:
139,358,64027,1,2,1:2:0:0:
61,326,64177,1,2,2:2:0:0:
97,241,64327,2,0,B|106:212|106:212|68:185|0:194,1,140,2|0,3:2|1:2,0:0:0:0:
2,90,64777,6,0,P|84:86|162:110,1,140,14|2,3:2|3:2,0:0:0:0:
210,146,65227,2,0,P|202:197|206:231,1,70,2|2,1:2|2:2,0:0:0:0:
247,287,65527,1,2,3:2:0:0:
456,257,65827,1,2,1:2:0:0:
512,197,65977,2,0,P|473:182|365:173,1,140,14|0,3:2|3:0,0:0:0:0:
300,209,66427,2,0,L|205:227,1,70,10|2,1:2|3:2,0:0:0:0:
227,146,66727,1,10,1:2:0:0:
227,146,66802,1,0,3:0:0:0:
227,146,66877,2,0,L|159:132,1,70,2|10,3:2|1:2,0:0:0:0:
75,65,67177,6,0,P|66:142|29:228,1,140,6|2,3:2|3:2,0:0:0:0:
9,276,67627,1,2,1:2:0:0:
29,357,67777,1,2,2:2:0:0:
91,300,67927,2,0,P|147:285|171:282,1,70,2|2,3:2|3:2,0:0:0:0:
213,219,68227,1,2,1:2:0:0:
213,219,68377,2,0,B|260:242|260:242|271:291|229:340,1,140,2|2,3:2|3:2,0:0:0:0:
301,383,68827,2,0,P|327:335|334:312,1,70,2|2,1:2|2:2,0:0:0:0:
385,255,69127,2,0,B|338:232|338:232|327:183|369:134,1,140,2|0,3:2|1:0,0:0:0:0:
288,89,69577,6,0,B|328:57|375:65|375:65|411:54|419:21,1,140,6|2,3:2|3:2,0:0:0:0:
493,14,70027,1,2,1:2:0:0:
508,96,70177,1,2,2:2:0:0:
432,132,70327,2,0,P|424:176|427:213,1,70,2|2,3:2|3:2,0:0:0:0:
505,241,70627,1,2,1:2:0:0:
505,241,70777,2,0,B|475:255|440:246|440:246|416:288|356:291,1,140,2|2,3:2|3:2,0:0:0:0:
330,344,71227,2,0,P|309:290|311:262,1,70,2|2,1:2|2:2,0:0:0:0:
242,316,71527,2,0,B|210:321|178:304|178:304|144:338|86:325,1,140,2|0,3:2|1:2,0:0:0:0:
30,244,71977,6,0,B|73:193|73:193|53:122,1,140,14|2,3:2|3:2,0:0:0:0:
72,40,72427,1,2,1:2:0:0:
131,100,72577,1,2,2:2:0:0:
155,19,72727,2,0,P|205:60|192:147,1,140,2|0,3:2|1:2,0:0:0:0:
308,130,73177,2,0,P|305:63|357:19,1,140,14|2,3:2|3:2,0:0:0:0:
381,100,73626,1,2,1:2:0:0:
440,40,73776,1,2,2:2:0:0:
459,122,73927,2,0,B|439:193|439:193|482:244,1,140,2|0,3:2|1:2,0:0:0:0:
511,344,74377,6,0,P|439:316|355:315,1,140,14|2,3:2|3:2,0:0:0:0:
321,375,74827,2,0,P|303:343|299:309,1,70,2|2,1:2|2:2,0:0:0:0:
340,236,75127,1,2,3:2:0:0:
172,235,75427,1,2,1:2:0:0:
133,309,75577,2,0,P|63:314|-2:341,1,140,14|2,3:2|3:2,0:0:0:0:
5,256,76027,2,0,P|20:207|21:164,1,70,10|2,1:2|2:2,0:0:0:0:
100,143,76327,1,10,1:2:0:0:
93,233,76477,1,2,3:3:0:0:
255,50,76777,5,6,3:2:0:0:
0,42,85177,5,2,3:0:0:0:
148,0,85477,1,2,3:0:0:0:
242,121,85777,1,2,3:0:0:0:
143,239,86077,1,2,3:0:0:0:
143,239,86227,1,0,1:0:0:0:
143,239,86377,6,0,B|106:237|85:221|85:221|53:215|23:222,1,112,6|0,3:2|3:0,0:0:0:0:
5,286,86827,1,0,1:0:0:0:
139,342,87127,1,0,1:0:0:0:
262,264,87427,1,0,1:0:0:0:
325,310,87577,6,0,B|382:293|382:293|428:317,1,112,4|0,3:2|3:0,0:0:0:0:
379,371,88027,1,0,1:0:0:0:
335,232,88327,1,0,1:0:0:0:
427,119,88627,1,0,1:0:0:0:
480,186,88777,6,0,B|481:204|469:224|469:224|490:252|490:298,1,112,4|0,3:2|3:0,0:0:0:0:
411,281,89227,1,0,1:0:0:0:
288,360,89527,1,0,1:0:0:0:
222,229,89827,1,0,1:0:0:0:
263,169,89977,6,0,B|280:142|280:142|233:52,1,112,4|0,3:2|3:0,0:0:0:0:
179,35,90427,1,0,1:0:0:0:
163,179,90727,1,0,1:0:0:0:
44,263,91027,1,0,1:0:0:0:
111,296,91177,6,0,B|174:308|174:308|218:358,1,112,6|0,3:2|3:0,0:0:0:0:
276,325,91627,1,0,1:0:0:0:
196,202,91927,1,0,1:0:0:0:
300,100,92227,1,0,1:0:0:0:
234,69,92377,6,0,B|201:66|176:46|176:46|190:-5,1,112,6|0,3:2|3:0,0:0:0:0:
262,2,92827,1,0,1:0:0:0:
403,34,93127,1,0,1:0:0:0:
346,168,93427,1,0,1:0:0:0:
273,165,93577,6,0,P|212:165|152:176,1,112,6|0,3:2|3:0,0:0:0:0:
101,214,94027,1,0,1:0:0:0:
121,358,94327,1,0,1:0:0:0:
274,361,94627,1,0,1:0:0:0:
346,353,94777,6,0,B|426:344|426:344|466:369,1,112,6|0,3:2|3:0,0:0:0:0:
502,307,95227,2,0,L|431:265,1,56,0|0,1:0|3:0,0:0:0:0:
434,267,95452,1,0,3:0:0:0:
429,245,95527,2,0,L|434:182,2,56,0|4|4,1:0|3:3|3:3,0:0:0:0:
367,293,95977,6,0,B|301:209|197:255,1,168,6|2,3:2|1:2,0:0:0:0:
157,295,96577,1,2,2:2:0:0:
157,295,96727,2,0,P|145:342|149:367,2,56,2|2|2,2:2|2:2|2:2,2:0:0:0:
217,246,97177,2,0,B|240:197|230:143|230:143|168:188,1,168,2|2,3:2|1:2,0:0:0:0:
133,118,97777,1,2,2:2:0:0:
133,118,97927,2,0,L|196:70,2,56,2|0|0,3:2|3:0|1:0,0:0:0:0:
152,203,98377,6,0,P|103:200|42:104,1,168,2|2,3:2|1:2,0:0:0:0:
61,37,98977,1,2,2:2:0:0:
61,37,99127,2,0,P|90:18|118:11,2,56,2|2|2,3:2|3:2|1:2,0:0:0:0:
139,83,99577,2,0,B|167:72|182:48|182:48|205:65|239:64,1,112,2|2,3:2|3:2,0:0:0:0:
281,124,100027,1,2,1:2:0:0:
379,18,100327,2,0,P|399:74|385:142,1,112,2|0,3:2|1:0,0:0:0:0:
384,226,100777,6,0,B|436:186|495:191|495:191|459:234,1,168,4|2,3:2|1:2,0:0:0:0:
317,320,101527,2,0,P|315:291|322:250,1,56,2|2,3:2|3:2,0:0:0:0:
277,202,101827,1,0,1:0:0:0:
218,248,101977,2,0,P|166:233|106:260,1,112,2|2,3:2|3:2,0:0:0:0:
62,317,102427,2,0,P|114:332|174:305,2,112,2|2|0,1:2|3:2|1:0,0:0:0:0:
0,249,103177,6,0,B|8:216|51:200|51:200|137:185,1,140,4|0,3:2|0:0,0:0:0:0:
155,207,103627,2,0,L|207:200,3,28,2|0|0|0,1:2|1:0|1:0|1:0,0:0:0:0:
214,182,103927,2,0,L|266:189,3,28,2|0|0|0,1:2|1:0|1:0|1:0,0:0:0:0:
273,211,104227,2,0,P|314:203|345:199,1,56,2|0,1:2|1:0,0:0:0:0:
390,141,104527,6,0,L|397:89,3,28,2|0|0|0,1:2|1:0|1:0|1:0,0:0:0:0:
355,80,104827,2,0,L|351:52,3,28,2|0|0|0,1:2|1:0|1:0|1:0,0:0:0:0:
378,21,105127,6,0,P|353:10|327:0,1,56,2|2,1:2|3:3,0:0:0:0:
20,36,105577,6,0,P|-1:85|8:189,1,140,6|2,3:2|3:2,0:0:0:0:
39,245,106027,1,2,1:2:0:0:
119,270,106177,1,2,2:2:0:0:
196,236,106327,2,0,P|271:242|303:324,1,140,2|2,3:2|1:2,0:0:0:0:
385,268,106777,2,0,P|392:200|450:165,1,140,2|2,3:2|3:2,0:0:0:0:
495,255,107227,2,0,P|508:298|514:340,1,70,2|2,1:2|2:2,0:0:0:0:
444,373,107527,2,0,B|348:362|382:396|281:381,1,140,2|0,3:2|1:2,0:0:0:0:
191,347,107977,6,0,P|173:302|192:197,1,140,6|2,3:2|3:2,0:0:0:0:
269,189,108427,1,2,1:2:0:0:
251,106,108577,1,2,2:2:0:0:
168,128,108727,2,0,P|109:130|24:104,1,140,2|2,3:2|1:2,0:0:0:0:
44,24,109177,2,0,P|103:22|188:48,1,140,2|2,3:2|3:2,0:0:0:0:
249,92,109627,2,0,L|345:76,1,70,2|2,1:2|2:2,0:0:0:0:
362,9,109927,2,0,P|400:54|382:134,1,140,2|0,3:2|1:2,0:0:0:0:
379,236,110377,6,0,B|447:208|447:208|529:244,1,140,14|2,3:2|3:2,0:0:0:0:
448,293,110827,1,2,1:2:0:0:
391,355,110977,1,2,2:2:0:0:
312,381,111127,2,0,B|303:333|303:333|302:241,1,140,2|0,3:2|1:2,0:0:0:0:
209,241,111577,2,0,B|209:333|209:333|200:381,1,140,14|2,3:2|3:2,0:0:0:0:
121,355,112027,1,2,1:2:0:0:
64,293,112177,1,2,2:2:0:0:
133,236,112327,2,0,B|65:208|65:208|4:234,1,140,2|0,3:2|1:2,0:0:0:0:
0,129,112777,6,0,P|74:122|153:144,1,140,14|2,3:2|3:2,0:0:0:0:
214,169,113227,1,2,1:2:0:0:
288,131,113377,1,2,2:2:0:0:
294,47,113527,1,2,3:2:0:0:
126,57,113827,1,2,1:2:0:0:
137,136,113977,6,0,L|151:306,1,140,14|0,3:2|3:0,0:0:0:0:
231,257,114427,1,10,1:2:0:0:
305,314,114577,1,2,3:2:0:0:
305,314,114652,1,0,3:0:0:0:
305,314,114727,2,0,P|355:308|394:310,1,70,10|2,3:2|3:2,0:0:0:0:
458,299,115027,1,10,1:2:0:0:
428,379,115177,6,0,P|375:315|392:244,1,140,6|2,3:2|3:2,0:0:0:0:
358,164,115627,2,0,P|401:184|447:184,1,70,2|2,1:2|2:2,0:0:0:0:
505,183,115927,2,0,P|506:251|457:299,1,140,2|2,3:2|1:2,0:0:0:0:
380,262,116377,2,0,L|287:254,2,70,2|0|2,3:2|0:0|3:2,0:0:0:0:
303,335,116827,2,0,L|210:343,1,70,2|2,1:2|2:2,0:0:0:0:
145,362,117127,2,0,B|139:314|163:284|163:284|117:218,1,140,2|0,3:2|1:0,0:0:0:0:
17,214,117577,6,0,P|56:158|150:146,1,140,6|2,3:2|3:2,0:0:0:0:
201,175,118027,2,0,P|202:119|186:83,1,70,2|2,1:2|2:2,0:0:0:0:
119,57,118327,1,2,3:2:0:0:
199,13,118477,2,0,P|255:14|291:-2,1,70,2|2,3:2|1:2,0:0:0:0:
281,103,118777,2,0,P|318:72|434:51,1,140,2|2,3:2|3:2,0:0:0:0:
487,61,119227,1,2,1:2:0:0:
441,131,119377,1,2,2:2:0:0:
360,155,119527,2,0,P|358:203|296:303,1,140,2|0,3:2|1:2,0:0:0:0:
373,374,119977,6,0,L|512:360,1,140,14|2,3:2|3:2,0:0:0:0:
510,276,120427,1,2,1:2:0:0:
437,234,120577,1,2,2:2:0:0:
353,244,120727,2,0,B|297:280|297:280|300:353,1,140,2|0,3:2|1:2,0:0:0:0:
211,353,121177,2,0,B|215:280|215:280|159:244,1,140,14|2,3:2|3:2,0:0:0:0:
75,234,121627,1,2,1:2:0:0:
2,276,121777,1,2,2:2:0:0:
76,317,121927,2,0,L|146:346,2,70,2|0|0,3:2|3:0|1:2,0:0:0:0:
1,195,122377,6,0,B|-2:119|-2:119|54:47,1,140,14|2,3:2|3:2,0:0:0:0:
109,24,122827,1,2,1:2:0:0:
159,91,122977,1,2,2:2:0:0:
92,140,123127,2,0,P|160:173|225:141,1,140,2|2,3:2|1:2,0:0:0:0:
254,53,123577,6,0,P|305:97|310:165,1,140,14|2,3:2|3:2,0:0:0:0:
330,247,124027,2,0,L|430:233,1,70,10|2,1:2|2:2,0:0:0:0:
472,185,124327,1,4,3:3:0:0:
472,185,124477,1,10,3:3:0:0:
509,111,124627,1,0,3:2:0:0:
509,111,124777,1,6,3:2:0:0:
256,192,128377,12,2,129427,2:3:0:0:
176,300,129727,6,0,L|170:390,2,70,0|0|0,3:0|3:0|3:0,0:0:0:0:
164,216,130177,1,0,3:0:0:0:
164,216,130327,2,0,L|115:139,2,70,0|0|0,1:0|3:0|3:0,0:0:0:0:
223,277,130777,1,0,3:0:0:0:
223,277,130927,2,0,L|306:310,2,70,0|0|0,3:0|3:0|3:0,0:0:0:0:
140,263,131377,1,0,3:0:0:0:
140,263,131527,2,0,L|52:285,1,70,0|0,1:0|3:0,0:0:0:0:
211,226,131827,2,0,L|341:256,1,105,2|0,3:2|0:0,0:0:0:0:
333,221,132127,6,0,L|419:205,1,70,0|0,3:0|3:0,0:0:0:0:
483,231,132427,1,0,3:0:0:0:
483,231,132577,1,0,0:0:0:0:
379,293,132877,6,0,L|367:357,2,35,0|0|0,3:0|3:0|3:0,0:0:0:0:
401,208,133177,1,0,3:0:0:0:
379,126,133327,5,2,3:2:0:0:
459,148,133477,1,2,3:2:0:0:
459,148,133627,2,0,B|452:117|463:89|463:89|452:72|452:72|474:36|457:-3,1,140,2|2,3:2|1:2,0:0:0:0:
379,27,134077,1,2,3:2:0:0:
379,27,134227,2,0,B|348:34|320:23|320:23|303:34|303:34|267:12|228:29,1,140,2|0,3:2|3:0,0:0:0:0:
225,29,134602,1,0,3:0:0:0:
205,37,134677,6,0,L|114:40,2,70,0|0|0,3:0|3:0|3:0,0:0:0:0:
5,100,135277,2,0,L|74:97,2,70,0|0|0,3:0|3:0|3:0,0:0:0:0:
29,180,135727,1,0,3:0:0:0:
29,180,135877,2,0,L|116:212,2,70,0|0|0,3:0|3:0|3:0,0:0:0:0:
33,263,136327,2,0,P|60:293|73:330,1,70,0|0,1:0|3:0,0:0:0:0:
132,377,136627,2,0,P|181:361|263:358,1,105,2|0,3:2|0:0,0:0:0:0:
254,359,136927,6,0,L|246:282,1,70,0|0,3:0|3:0,0:0:0:0:
238,205,137227,1,0,3:0:0:0:
238,205,137377,1,0,3:0:0:0:
390,274,137677,1,0,3:0:0:0:
390,274,137752,1,0,3:0:0:0:
390,274,137827,2,0,L|481:262,1,70,0|0,3:0|3:0,0:0:0:0:
495,189,138127,6,0,P|494:122|457:44,1,140,2|2,3:2|3:3,0:0:0:0:
300,88,138727,2,0,P|301:155|338:233,1,140,2|2,1:2|3:2,0:0:0:0:
377,59,139327,6,0,P|337:17|303:5,1,70,0|0,3:0|3:0,0:0:0:0:
242,5,139627,2,0,P|185:18|158:42,1,70,0|0,3:0|3:0,0:0:0:0:
115,83,139927,2,0,L|37:62,2,70,0|0|0,1:0|3:0|3:0,0:0:0:0:
189,121,140377,1,0,3:0:0:0:
189,121,140527,2,0,L|258:116,1,70,0|0,3:0|3:0,0:0:0:0:
115,160,140827,2,0,L|45:164,1,70,0|0,3:0|3:0,0:0:0:0:
188,195,141127,2,0,L|193:265,1,70,0|0,1:0|3:0,0:0:0:0:
129,323,141427,1,2,3:2:0:0:
285,383,141727,6,0,P|350:361|442:358,1,140,0|0,3:0|3:0,0:0:0:0:
502,337,142177,1,0,3:0:0:0:
446,273,142327,2,0,P|441:203|418:137,1,140,0|0,1:0|3:0,0:0:0:0:
255,162,142927,6,0,L|165:177,2,70,2|2|2,3:2|3:2|3:2,0:0:0:0:
11,57,143527,6,0,L|101:72,2,70,2|2|2,1:2|3:2|3:2,0:0:0:0:
362,54,144127,6,0,P|315:89|289:121,1,70,0|0,3:0|3:0,0:0:0:0:
255,162,144427,2,0,P|233:216|226:257,1,70,0|0,3:0|3:0,0:0:0:0:
313,217,144727,2,0,L|400:206,2,70,0|0|0,1:0|3:0|3:0,0:0:0:0:
250,271,145177,1,0,3:0:0:0:
250,271,145327,2,0,L|180:259,1,70,0|0,3:0|3:0,0:0:0:0:
328,299,145627,2,0,L|397:287,1,70,0|0,3:0|3:0,0:0:0:0:
262,351,145927,2,0,L|192:362,1,70,0|0,1:0|3:0,0:0:0:0:
115,331,146227,1,2,3:2:0:0:
15,8,146527,6,0,P|21:80|15:153,1,140,0|0,3:0|3:0,0:0:0:0:
42,227,146977,1,0,3:0:0:0:
111,179,147127,2,0,P|156:126|210:81,1,140,0|0,1:0|3:0,0:0:0:0:
421,0,147727,6,0,P|470:148|361:118,1,336,2|2,3:2|3:2,0:0:0:0:
260,27,148927,6,0,P|184:27|127:36,1,112,6|2,3:2|3:2,0:0:0:0:
221,116,149527,2,0,P|145:116|88:125,1,112,2|2,1:2|3:2,0:0:0:0:
263,196,150127,2,0,P|339:196|396:205,1,112,2|2,3:2|3:2,0:0:0:0:
302,285,150727,2,0,P|378:285|435:294,1,112,2|2,1:2|3:2,0:0:0:0:
512,365,151327,6,0,P|401:365|270:351,1,224,2|2,3:2|1:2,0:0:0:0:
0,53,152527,2,0,P|111:41|223:41,1,224,0|0,3:2|1:2,0:0:0:0:
306,116,153427,1,2,3:2:0:0:
421,196,153727,6,0,P|421:120|412:63,1,112,6|2,3:2|3:2,0:0:0:0:
310,147,154327,2,0,P|310:223|319:280,1,112,2|2,1:2|3:2,0:0:0:0:
204,210,154927,2,0,P|210:266|208:322,1,112,2|2,3:2|3:2,0:0:0:0:
102,384,155527,2,0,P|96:328|98:273,1,112,2|2,1:2|3:2,0:0:0:0:
5,192,156127,6,0,P|5:91|106:93,1,224,2|2,3:2|1:2,0:0:0:0:
507,191,157327,2,0,P|507:91|406:92,1,224,0|2,3:2|1:1,0:0:0:0:
294,99,158227,1,2,3:2:0:0:
204,166,158527,6,0,P|156:191|97:228,1,112,6|2,3:2|3:2,0:0:0:0:
313,182,159127,2,0,P|337:134|363:69,1,112,2|2,1:2|3:2,0:0:0:0:
215,233,159727,2,0,P|224:286|241:354,1,112,2|2,3:2|3:2,0:0:0:0:
264,134,160327,2,0,P|226:96|172:51,1,112,2|2,1:2|3:2,0:0:0:0:
289,242,160927,6,0,P|368:308|452:240,1,224,2|2,3:2|1:2,0:0:0:0:
161,366,162127,2,0,P|82:300|-2:368,1,224,0|0,3:2|1:2,0:0:0:0:
0,251,163027,1,2,3:2:0:0:
2,139,163327,6,0,L|0:22,1,112,6|2,3:2|3:2,0:0:0:0:
91,91,163927,2,0,L|93:208,1,112,0|2,1:2|3:2,0:0:0:0:
202,314,164527,2,0,L|204:203,1,112,2|2,3:2|3:2,0:0:0:0:
294,139,165127,2,0,L|293:251,1,112,0|2,1:2|3:2,0:0:0:0:
409,338,165727,6,0,L|464:332,3,56,6|2|2|2,3:2|0:2|0:2|0:2,0:0:0:0:
342,308,166327,2,0,L|287:318,1,56,0|0,3:2|3:2,0:0:0:0:
228,274,166627,2,0,L|196:320,1,56,0|0,3:2|3:2,0:0:0:0:
120,374,166927,2,0,L|101:317,3,56,0|0|0|0,3:2|3:2|3:2|3:2,0:0:0:0:
41,280,167527,1,0,3:2:0:0:
8,215,167677,1,0,3:2:0:0:
31,146,167827,1,0,3:2:0:0:
101,126,167977,1,0,3:2:0:0:
166,158,168127,6,0,L|220:166,4,28,2|0|0|0|0,1:2|0:0|3:2|3:2|3:2,0:0:0:0:
235,93,168577,2,0,L|267:136,4,28,2|0|0|0|0,1:2|0:0|3:2|0:0|3:2,0:0:0:0:
324,76,169027,2,0,L|331:151,1,56,2|0,1:2|3:2,0:0:0:0:
420,167,169327,1,2,3:2:0:0:
420,167,169402,1,0,3:2:0:0:
420,167,169477,1,0,3:2:0:0:
479,102,169627,2,0,L|469:55,2,28,2|0|0,3:2|3:2|3:2,0:0:0:0:
490,233,169927,6,0,P|466:243|437:253,1,56,2|2,1:2|3:3,0:0:0:0:
203,165,170377,6,0,B|216:191|197:246|197:246|240:264|240:264|262:188|331:151|331:151|323:100|332:57|332:57|249:27|249:27|226:64|196:93,1,545.999983337403,6|0,3:2|3:3,0:0:0:0:
122,139,172477,2,0,L|79:145,3,28,0|0|0|0,1:2|1:2|1:2|1:2,0:0:0:0:
73,146,172777,6,0,P|47:196|50:310,1,140,6|2,3:2|3:2,0:0:0:0:
90,350,173227,1,2,1:2:0:0:
175,322,173377,1,2,2:2:0:0:
245,367,173527,2,0,P|271:317|268:203,1,140,2|0,3:2|1:2,0:0:0:0:
361,220,173977,2,0,P|377:273|460:352,1,140,2|2,3:2|3:2,0:0:0:0:
462,251,174427,2,0,P|441:213|435:175,1,70,2|2,1:2|2:2,0:0:0:0:
434,102,174727,2,0,P|434:58|448:22,2,70,2|0|0,3:2|3:0|1:0,0:0:0:0:
354,2,175177,6,0,P|354:69|327:159,1,140,14|2,3:2|3:2,0:0:0:0:
314,231,175627,1,2,1:2:0:0:
395,202,175777,1,2,2:2:0:0:
448,272,175927,2,0,B|384:281|384:281|314:328,1,140,2|0,3:2|1:2,0:0:0:0:
187,319,176377,2,0,B|125:277|125:277|61:268,1,140,10|2,3:2|3:2,0:0:0:0:
113,198,176827,1,2,1:2:0:0:
194,227,176977,1,2,2:2:0:0:
176,139,177128,2,0,P|158:71|158:2,1,140,2|0,3:2|1:2,0:0:0:0:
0,25,177577,6,0,B|43:17|56:62|56:62|80:151,1,140,14|2,3:2|3:2,0:0:0:0:
119,193,178027,1,2,1:2:0:0:
77,267,178177,1,2,2:2:0:0:
0,234,178327,2,0,P|-3:288|46:362,1,140,2|2,3:2|1:2,0:0:0:0:
157,318,178777,2,0,P|157:249|118:192,1,140,2|2,3:2|1:2,3:0:0:0:
178,131,179227,2,0,P|213:168|232:208,1,70,2|2,1:2|2:2,0:0:0:0:
232,203,179452,1,0,3:2:0:0:
237,223,179527,2,0,P|244:257|246:292,1,70,2|2,3:2|3:2,0:0:0:0:
282,383,179827,1,2,1:2:0:0:
349,312,179977,6,0,L|494:329,1,140,6|2,3:2|3:2,0:0:0:0:
486,240,180427,2,0,L|393:230,1,70,2|2,1:2|2:2,0:0:0:0:
287,165,180727,2,0,L|357:173,1,70,2|2,3:2|3:2,0:0:0:0:
439,155,181027,1,2,1:2:0:0:
510,107,181177,2,0,P|447:68|381:88,1,140,6|2,3:2|3:2,0:0:0:0:
354,5,181627,2,0,P|313:49|323:136,1,140,2|2,1:2|1:2,0:0:0:0:
368,191,182077,1,2,3:2:0:0:
361,274,182227,1,2,1:3:0:0:
284,309,182377,6,0,P|229:285|117:277,1,140,6|2,3:2|3:2,0:0:0:0:
73,307,182827,2,0,P|77:262|69:213,1,70,2|2,1:2|2:2,0:0:0:0:
145,124,183127,1,2,3:2:0:0:
145,124,183277,2,0,P|142:159|147:194,1,70,2|2,3:2|1:2,0:0:0:0:
69,162,183577,2,0,P|63:109|206:56,1,210,2|2,3:2|1:2,0:0:0:0:
244,99,184177,1,2,2:2:0:0:
327,101,184327,2,0,L|429:93,2,70,2|0|0,3:2|3:0|1:0,0:0:0:0:
199,168,184777,6,0,P|211:207|149:308,1,140,14|2,3:2|3:2,0:0:0:0:
90,278,185227,1,2,1:2:0:0:
12,309,185377,1,2,2:2:0:0:
51,383,185527,2,0,L|214:382,1,140,2|0,3:2|1:2,0:0:0:0:
321,382,185977,2,0,L|461:383,1,140,14|2,3:2|3:2,0:0:0:0:
500,309,186427,1,2,1:2:0:0:
422,278,186577,1,2,2:2:0:0:
338,294,186727,2,0,P|302:235|313:168,1,140,2|0,3:2|1:2,0:0:0:0:
369,79,187177,6,0,L|213:101,1,140,14|2,3:2|3:2,0:0:0:0:
148,78,187627,1,2,1:2:0:0:
64,88,187777,1,2,2:2:0:0:
0,33,187927,1,2,3:2:0:0:
208,15,188227,1,2,1:2:0:0:
230,98,188377,2,0,P|235:169|217:250,1,140,14|2,3:2|3:2,0:0:0:0:
170,302,188827,1,2,1:2:0:0:
86,297,188977,1,2,1:2:0:0:
86,297,189052,1,0,1:2:0:0:
86,297,189127,2,0,L|6:284,2,70,2|0|2,1:2|3:0|1:2,0:0:0:0:
178,380,189577,6,0,P|232:371|350:364,1,168,6|0,3:2|3:2,0:0:0:0:
490,375,190327,1,0,1:2:0:0:
379,287,190627,1,0,3:2:0:0:
379,287,190777,2,0,P|374:249|382:169,1,112,2|2,3:2|1:2,0:0:0:0:
442,138,191227,2,0,L|442:80,1,56,2|2,3:2|3:2,0:0:0:0:
504,180,191527,2,0,P|510:235|505:291,1,112,2|2,1:2|1:2,0:0:0:0:
433,351,191977,6,0,P|396:333|306:322,1,112,6|0,3:2|1:2,0:0:0:0:
254,327,192427,1,6,3:2:0:0:
181,333,192577,1,0,1:2:0:0:
181,333,192652,1,0,1:2:0:0:
181,333,192727,2,0,L|105:336,2,56,0|0|0,1:2|1:2|1:2,0:0:0:0:
257,252,193177,5,6,3:2:0:0:
257,252,193477,2,0,L|260:176,2,56,0|0|4,3:2|1:2|3:3,0:0:0:0:
177,250,193927,1,4,3:3:0:0:
177,250,194077,1,4,3:3:0:0:
114,205,194227,1,4,3:3:0:0:
114,205,194377,6,0,P|49:173|20:72,1,168,6|0,3:2|3:2,0:0:0:0:
121,0,195127,2,0,P|137:70|123:127,1,112,0|2,1:2|3:0,0:0:0:0:
189,160,195577,1,0,3:2:0:0:
189,160,195877,2,0,L|244:158,2,56,0|6|0,1:2|3:2|0:0,0:0:0:0:
315,118,196327,1,0,1:2:0:0:
500,317,196777,6,0,P|430:324|352:357,1,140,6|2,3:2|3:2,0:0:0:0:
281,336,197227,1,0,1:0:0:0:
208,378,197377,2,0,L|116:383,1,70,2|2,2:2|3:2,0:0:0:0:
167,303,197677,2,0,L|75:308,1,70,2|0,3:2|1:0,0:0:0:0:
25,350,197977,6,0,P|25:279|1:186,1,140,2|2,3:2|3:2,0:0:0:0:
93,227,198427,2,0,L|186:222,1,70,0|2,1:0|2:2,0:0:0:0:
233,178,198727,1,2,3:2:0:0:
233,178,198877,2,0,L|326:183,1,70,2|0,3:2|1:0,0:0:0:0:
393,119,199177,6,0,P|390:175|390:265,1,140,2|2,3:2|3:2,0:0:0:0:
466,155,199627,2,0,P|465:190|466:225,1,70,2|2,1:3|2:2,0:0:0:0:
469,309,199927,1,2,3:3:0:0:
469,309,200077,2,0,P|469:274|468:239,1,70,2|2,3:2|1:3,0:0:0:0:
398,348,200377,6,0,P|349:333|243:339,1,140,2|2,3:2|3:2,0:0:0:0:
179,354,200827,2,0,P|128:368|89:385,1,70,2|2,1:3|2:2,0:0:0:0:
30,345,201127,1,2,3:3:0:0:
30,345,201277,1,2,3:0:0:0:
195,198,201577,6,0,P|205:125|196:45,1,140,6|2,3:2|3:2,0:0:0:0:
126,103,202027,2,0,L|39:120,1,70,0|2,1:0|2:2,0:0:0:0:
25,38,202327,1,2,3:2:0:0:
25,38,202477,2,0,L|93:24,1,70,2|0,3:2|1:0,0:0:0:0:
177,34,202777,6,0,B|236:39|236:39|254:51|254:51|322:61,1,140,2|2,3:2|3:2,0:0:0:0:
341,138,203227,2,0,L|250:126,1,70,0|2,1:0|2:2,0:0:0:0:
365,217,203527,1,2,3:2:0:0:
365,217,203677,2,0,L|296:208,1,70,2|0,3:2|1:0,0:0:0:0:
203,221,203977,6,0,P|217:260|309:300,1,140,2|2,3:2|3:2,0:0:0:0:
382,322,204427,2,0,P|416:322|476:345,1,70,0|2,1:0|2:2,0:0:0:0:
493,258,204727,2,0,L|490:178,2,70,2|2|0,3:2|3:2|1:0,0:0:0:0:
450,331,205177,5,6,3:2:0:0:
289,381,205477,1,2,3:3:0:0:
187,247,205777,1,2,3:3:0:0:
288,113,206077,1,2,3:3:0:0:
448,161,206377,1,6,3:2:0:0:
256,192,206452,12,2,209227,0:3:0:0:
256,192,209377,12,2,211927,0:0:0:0:
