osu file format v14

[General]
AudioFilename: audio.mp3
AudioLeadIn: 0
PreviewTime: 8015
Countdown: 0
SampleSet: None
StackLeniency: 0.7
Mode: 1
LetterboxInBreaks: 0
WidescreenStoryboard: 0

[Editor]
DistanceSpacing: 2.2
BeatDivisor: 4
GridSize: 16
TimelineZoom: 1

[Metadata]
Title:TRAUMATIC
TitleUnicode:TRAUMATIC
Artist:Utsu-P
ArtistUnicode:鬱P
Creator:Sanyi
Version:Kantan
Source:
Tags:Post-Traumatic Stress Disorder P.T.S.D. PxTxSxD Reissue metalcore hatsune miku 初音ミク rock vocaloid UtsuP
BeatmapID:1939455
BeatmapSetID:928538

[Difficulty]
HPDrainRate:7
CircleSize:5
OverallDifficulty:2
ApproachRate:5
SliderMultiplier:1.4
SliderTickRate:1

[Events]
//Background and Video events
0,0,"bg.jpg",0,0
//Break Periods
//Storyboard Layer 0 (Background)
//Storyboard Layer 1 (Fail)
//Storyboard Layer 2 (Pass)
//Storyboard Layer 3 (Foreground)
//Storyboard Sound Samples

[TimingPoints]
1015,250,4,2,0,100,1,0

[Colours]
Combo1 : 0,0,255
Combo2 : 255,0,0

[HitObjects]
256,192,1015,12,0,3765,0:0:0:0:
224,192,4015,5,0,0:0:0:0:
224,192,6015,1,0,0:0:0:0:
288,192,8015,5,2,0:0:0:0:
288,192,9015,5,2,0:0:0:0:
288,192,9265,1,2,0:0:0:0:
224,192,9515,1,0,0:0:0:0:
288,192,10015,5,2,0:0:0:0:
288,192,11015,5,2,0:0:0:0:
288,192,11265,1,2,0:0:0:0:
224,192,11515,1,0,0:0:0:0:
224,192,12015,5,0,0:0:0:0:
288,192,12515,1,2,0:0:0:0:
224,192,13015,5,0,0:0:0:0:
288,192,13515,1,2,0:0:0:0:
224,192,14015,5,0,0:0:0:0:
224,192,14765,1,0,0:0:0:0:
288,192,15015,5,2,0:0:0:0:
288,192,15515,1,2,0:0:0:0:
224,80,16015,5,4,0:0:0:0:
224,80,17015,5,4,0:0:0:0:
288,80,18015,5,6,0:0:0:0:
224,80,19015,5,4,0:0:0:0:
224,192,19265,1,0,0:0:0:0:
224,192,19515,1,0,0:0:0:0:
288,192,20015,5,2,0:0:0:0:
288,192,21015,5,2,0:0:0:0:
288,192,21265,1,2,0:0:0:0:
224,192,21515,1,0,0:0:0:0:
288,192,22015,5,2,0:0:0:0:
288,192,23015,5,2,0:0:0:0:
288,192,23265,1,2,0:0:0:0:
224,192,23515,1,0,0:0:0:0:
288,192,24015,5,0,0:0:0:0:
288,192,24515,1,2,0:0:0:0:
288,192,25015,5,0,0:0:0:0:
288,192,25515,1,2,0:0:0:0:
288,192,26015,5,2,0:0:0:0:
288,192,26515,1,2,0:0:0:0:
288,192,26765,1,2,0:0:0:0:
224,192,27015,5,0,0:0:0:0:
224,192,27515,1,0,0:0:0:0:
224,80,28015,5,4,0:0:0:0:
288,80,29015,5,6,0:0:0:0:
224,80,30015,5,4,0:0:0:0:
224,80,31015,5,6,0:0:0:0:
288,192,32015,5,2,0:0:0:0:
224,192,32515,1,0,0:0:0:0:
288,192,33015,5,2,0:0:0:0:
224,192,33515,1,0,0:0:0:0:
